<?xml version="1.0" encoding="UTF-8"?>
<svg xmlns="http://www.w3.org/2000/svg" xmlns:xlink="http://www.w3.org/1999/xlink" version="1.2" >
<font id="A1 Sans Bold">
<font-face  font-family="A1 Sans" units-per-em="2048" ascent="1536" descent="-512" font-style="normal" font-weight="700" font-stretch="normal" cap-height="1475" x-height="1103" underline-position="-317" underline-thickness="210" />
<missing-glyph  horiz-adv-x="451" d="M45 0 L45 1475 L406 1475 L406 0 L45 0 Z M361 45 L361 1430 L90 1430 L90 45 L361 45 Z " />
<glyph glyph-name="space" unicode="&#x20;" horiz-adv-x="451" d="" />
<glyph glyph-name="exclam" unicode="&#x21;" horiz-adv-x="773" d="M277 442 L245 1475 L529 1475 L497 442 L277 442 Z M390 289 Q456 289 503 242 Q550 195 550 130 Q550 59 496 12 Q449 -29 387 -29 Q319 -29 271.5 17.5 Q224 64 224 131 Q224 197 272.5 243 Q321 289 390 289 Z " />
<glyph glyph-name="quotedbl" unicode="&#x22;" horiz-adv-x="707" d="M98 896 L98 1475 L277 1475 L277 896 L98 896 Z M429 896 L429 1475 L608 1475 L608 896 L429 896 Z " />
<glyph glyph-name="numbersign" unicode="&#x23;" horiz-adv-x="1303" d="M278 434 L107 434 L133 617 L303 617 L336 833 L165 833 L191 1016 L361 1016 L428 1469 L637 1469 L570 1016 L817 1016 L883 1469 L1092 1469 L1026 1016 L1196 1016 L1171 833 L1000 833 L968 617 L1138 617 L1113 434 L942 434 L878 0 L669 0 L733 434 L487 434 L422 0 L213 0 L278 434 Z M512 617 L759 617 L791 833 L544 833 L512 617 Z " />
<glyph glyph-name="dollar" unicode="&#x24;" horiz-adv-x="1303" d="M87 449 L326 449 Q329 234 577 192 L577 676 Q371 733 303 771 Q128 870 128 1084 Q128 1216 198 1313 Q258 1397 347 1437 Q436 1477 577 1484 L577 1643 L733 1643 L733 1477 Q830 1463 885.5 1443 Q941 1423 990 1385 Q1137 1269 1137 1041 L915 1041 Q908 1232 733 1282 L733 876 Q919 827 1002 784 Q1223 670 1223 427 Q1223 277 1140 169 Q1024 19 733 -7 L733 -180 L577 -180 L577 -6 Q287 19 162 187 Q84 296 87 449 Z M733 630 L733 189 Q838 205 877 228 Q928 257 958.5 306 Q989 355 989 408 Q989 515 882 574 Q842 597 733 630 Z M577 919 L577 1298 Q484 1284 449 1262 Q361 1208 361 1110 Q361 1009 461 960 Q488 947 577 919 Z " />
<glyph glyph-name="percent" unicode="&#x25;" horiz-adv-x="1832" d="M464 1506 Q659 1506 759 1387 Q853 1276 853 1098 Q853 921 759 809 Q660 690 454 690 Q255 690 156 809 Q62 921 62 1097 Q62 1276 156 1387 Q256 1506 464 1506 Z M455 1322 Q281 1322 281 1098 Q281 874 458 874 Q634 874 634 1097 Q634 1212 590 1267 Q546 1322 455 1322 Z M1421 787 Q1616 787 1716 668 Q1810 557 1810 379 Q1810 202 1716 90 Q1617 -29 1414 -29 Q1212 -29 1113 90 Q1019 202 1019 378 Q1019 557 1113 668 Q1213 787 1421 787 Z M1411 603 Q1238 603 1238 379 Q1238 155 1414 155 Q1591 155 1591 378 Q1591 493 1547 548 Q1503 603 1411 603 Z M378 0 L1273 1475 L1490 1475 L595 0 L378 0 Z " />
<glyph glyph-name="ampersand" unicode="&#x26;" horiz-adv-x="1541" d="M467 808 Q356 927 312 1005.5 Q268 1084 268 1165 Q268 1309 381 1406 Q496 1506 687 1506 Q888 1506 1005 1400 Q1110 1305 1110 1173 Q1110 1098 1075 1040.5 Q1040 983 951 912 Q869 847 776 785 L1090 441 Q1146 565 1187 784 L1411 784 Q1346 449 1235 275 L1483 0 L1187 0 L1085 109 Q1018 55 984 36 Q861 -33 663 -33 Q434 -33 287 69 Q212 120 169.5 202 Q127 284 127 377 Q127 546 292 684 Q330 716 467 808 Z M647 934 Q680 957 697 969 Q808 1046 845 1087 Q882 1128 882 1175 Q882 1240 828.5 1279 Q775 1318 687 1318 Q601 1318 548.5 1278.5 Q496 1239 496 1175 Q496 1129 524 1084.5 Q552 1040 647 934 Z M598 657 Q578 644 568 637 Q474 576 438 542 Q373 480 373 400 Q373 292 458 229 Q549 161 697 161 Q819 161 890 210 L956 260 L598 657 Z " />
<glyph glyph-name="quotesingle" unicode="&#x27;" horiz-adv-x="375" d="M98 896 L98 1475 L277 1475 L277 896 L98 896 Z " />
<glyph glyph-name="parenleft" unicode="&#x28;" horiz-adv-x="873" d="M796 -356 L594 -356 Q208 84 208 610 Q208 1136 594 1572 L796 1572 Q611 1306 534.5 1087.5 Q458 869 458 610 Q458 296 581 14 Q652 -148 796 -356 Z " />
<glyph glyph-name="parenright" unicode="&#x29;" horiz-adv-x="873" d="M77 1572 L279 1572 Q665 1132 665 606 Q665 80 279 -356 L77 -356 Q261 -92 338 127.5 Q415 347 415 606 Q415 919 292 1202 Q220 1366 77 1572 Z " />
<glyph glyph-name="asterisk" unicode="&#x2a;" horiz-adv-x="1182" d="M141 1119 L209 1325 L489 1230 L485 1507 L694 1507 L691 1229 L970 1322 L1040 1117 L752 1043 L948 810 L769 681 L589 925 L409 683 L229 808 L428 1043 L141 1119 Z " />
<glyph glyph-name="plus" unicode="&#x2b;" horiz-adv-x="1303" d="M159 634 L159 838 L543 838 L543 1190 L761 1190 L761 838 L1144 838 L1144 634 L761 634 L761 281 L543 281 L543 634 L159 634 Z " />
<glyph glyph-name="comma" unicode="&#x2c;" horiz-adv-x="648" d="M101 -289 L264 282 L554 282 L303 -289 L101 -289 Z " />
<glyph glyph-name="hyphen" unicode="&#x2d;" horiz-adv-x="813" d="M123 510 L123 720 L690 720 L690 510 L123 510 Z " />
<glyph glyph-name="period" unicode="&#x2e;" horiz-adv-x="643" d="M325 289 Q391 289 438 242 Q485 195 485 130 Q485 59 431 12 Q384 -29 322 -29 Q254 -29 206.5 17.5 Q159 64 159 131 Q159 197 207.5 243 Q256 289 325 289 Z " />
<glyph glyph-name="slash" unicode="&#x2f;" horiz-adv-x="912" d="M31 -184 L614 1475 L840 1475 L257 -184 L31 -184 Z " />
<glyph glyph-name="zero" unicode="0" horiz-adv-x="1303" d="M660 1504 Q853 1504 987 1392 Q1127 1275 1181 1042 Q1214 895 1214 738 Q1214 587 1184 449 Q1154 311 1102 221 Q956 -29 652 -29 Q321 -29 179 262 Q138 347 113.5 476.5 Q89 606 89 739 Q89 888 119.5 1027 Q150 1166 201 1254 Q348 1504 660 1504 Z M647 1290 Q497 1290 416.5 1147 Q336 1004 336 738 Q336 493 400 359 Q484 185 652 185 Q805 185 886 327.5 Q967 470 967 738 Q967 983 903 1116 Q819 1290 647 1290 Z " />
<glyph glyph-name="one" unicode="1" horiz-adv-x="1303" d="M565 0 L565 1234 L190 1103 L190 1307 L644 1475 L808 1475 L808 0 L565 0 Z " />
<glyph glyph-name="two" unicode="2" horiz-adv-x="1303" d="M66 0 Q78 112 145 220 Q198 306 253.5 363.5 Q309 421 583 672 Q774 848 817 902 Q882 985 882 1082 Q882 1184 806 1240 Q733 1294 618 1294 Q441 1294 357 1167 Q321 1112 304 1006 L72 1006 Q103 1220 200 1334 Q345 1504 624 1504 Q856 1504 992 1398 Q1133 1287 1133 1089 Q1133 979 1088.5 891.5 Q1044 804 937 701 Q857 625 623 441 Q527 366 481.5 319 Q436 272 399 210 L1169 210 L1169 0 L66 0 Z " />
<glyph glyph-name="three" unicode="3" horiz-adv-x="1303" d="M456 672 L456 856 L515 856 Q679 856 747 888 Q874 947 874 1090 Q874 1185 809 1240 Q741 1296 626 1296 Q397 1296 351 1095 L123 1095 Q176 1504 629 1504 Q886 1504 1013 1373 Q1118 1266 1118 1101 Q1118 985 1077.5 909 Q1037 833 944 776 Q1181 692 1181 424 Q1181 201 1023 81 Q880 -29 641 -29 Q317 -29 183 148 Q107 248 94 424 L329 424 Q371 182 634 182 Q757 182 839 241 Q932 309 932 423 Q932 552 824 617 Q765 653 701.5 662.5 Q638 672 456 672 Z " />
<glyph glyph-name="four" unicode="4" horiz-adv-x="1303" d="M812 0 L812 304 L91 304 L91 491 L533 1475 L790 1475 L349 515 L812 515 L812 1028 L1043 1028 L1043 515 L1262 515 L1262 304 L1043 304 L1043 0 L812 0 Z " />
<glyph glyph-name="five" unicode="5" horiz-adv-x="1303" d="M173 727 L231 1475 L1092 1475 L1092 1264 L451 1264 L416 898 Q488 935 545.5 949 Q603 963 686 963 Q886 963 1009 862 Q1175 726 1175 467 Q1175 229 1028 100 Q883 -29 631 -29 Q384 -29 255 82.5 Q126 194 107 424 L342 424 Q382 182 630 182 Q768 182 849 262 Q926 339 926 461 Q926 592 849.5 672 Q773 752 647 752 Q565 752 509.5 728 Q454 704 342 621 L173 727 Z " />
<glyph glyph-name="six" unicode="6" horiz-adv-x="1303" d="M380 857 Q508 963 701 963 Q921 963 1057 836 Q1199 704 1199 484 Q1199 260 1058 121 Q907 -29 666 -29 Q529 -29 416 24.5 Q303 78 236 174 Q126 334 126 632 Q126 1504 701 1504 Q902 1504 1020 1403 Q1138 1302 1158 1113 L923 1113 Q907 1190 872 1227 Q810 1293 700 1293 Q420 1293 380 857 Z M661 752 Q527 752 448 669 Q374 591 374 468 Q374 349 449 266 Q525 182 664 182 Q803 182 878 265 Q952 347 952 466 Q952 596 872.5 674 Q793 752 661 752 Z " />
<glyph glyph-name="seven" unicode="7" horiz-adv-x="1303" d="M876 1264 L121 1264 L121 1475 L1122 1475 L1122 1292 L549 0 L279 0 L876 1264 Z " />
<glyph glyph-name="eight" unicode="8" horiz-adv-x="1303" d="M336 784 Q251 827 211 878 Q141 969 141 1094 Q141 1278 285 1393 Q423 1504 651 1504 Q899 1504 1040 1374 Q1161 1262 1161 1095 Q1161 985 1114 910 Q1067 835 966 784 Q1058 754 1130 674 Q1224 571 1224 420 Q1224 218 1061 93 Q902 -29 644 -29 Q372 -29 216 110 Q78 232 78 420 Q78 580 183 687 Q253 758 336 784 Z M648 1299 Q500 1299 430 1231 Q371 1174 371 1084 Q371 984 443.5 930 Q516 876 651 876 Q786 876 858.5 930 Q931 984 931 1084 Q931 1188 857.5 1243.5 Q784 1299 648 1299 Z M647 671 Q500 671 412 605 Q324 539 324 428 Q324 314 411 249 Q498 184 651 184 Q808 184 898 255 Q978 317 978 429 Q978 541 889 606 Q800 671 647 671 Z " />
<glyph glyph-name="nine" unicode="9" horiz-adv-x="1303" d="M907 647 Q778 541 590 541 Q381 541 251 664 Q117 791 117 1005 Q117 1223 251 1358 Q395 1504 627 1504 Q761 1504 872.5 1452 Q984 1400 1050 1307 Q1161 1152 1161 851 Q1161 436 1034 210 Q899 -29 602 -29 Q396 -29 271.5 78.5 Q147 186 125 383 L360 383 Q378 297 418 255 Q488 182 608 182 Q789 182 857 371 Q896 477 907 647 Z M624 1293 Q499 1293 431 1214 Q364 1135 364 1021 Q364 904 428 832 Q499 752 628 752 Q762 752 839 831 Q912 905 912 1021 Q912 1136 838 1214 Q762 1293 624 1293 Z " />
<glyph glyph-name="colon" unicode="&#x3a;" horiz-adv-x="643" d="M366 289 Q432 289 479 242 Q526 195 526 130 Q526 59 472 12 Q425 -29 363 -29 Q295 -29 247.5 17.5 Q200 64 200 131 Q200 197 248.5 243 Q297 289 366 289 Z M366 960 Q432 960 479 913 Q526 866 526 801 Q526 730 472 683 Q426 642 363 642 Q295 642 247.5 688.5 Q200 735 200 802 Q200 868 248 914 Q296 960 366 960 Z " />
<glyph glyph-name="semicolon" unicode="&#x3b;" horiz-adv-x="649" d="M130 -289 L293 282 L583 282 L332 -289 L130 -289 Z M437 960 Q503 960 550 913 Q597 866 597 801 Q597 730 543 683 Q497 642 434 642 Q366 642 318.5 688.5 Q271 735 271 802 Q271 869 319 914.5 Q367 960 437 960 Z " />
<glyph glyph-name="less" unicode="&#x3c;" horiz-adv-x="1303" d="M444 736 L1098 403 L1098 170 L198 658 L198 814 L1098 1302 L1098 1069 L444 736 Z " />
<glyph glyph-name="equal" unicode="&#x3d;" horiz-adv-x="1303" d="M159 460 L159 664 L1144 664 L1144 460 L159 460 Z M159 808 L159 1012 L1144 1012 L1144 808 L159 808 Z " />
<glyph glyph-name="greater" unicode="&#x3e;" horiz-adv-x="1303" d="M858 736 L204 1069 L204 1302 L1104 814 L1104 658 L204 170 L204 403 L858 736 Z " />
<glyph glyph-name="question" unicode="&#x3f;" horiz-adv-x="1090" d="M397 444 L397 494 Q397 641 448 718 Q473 757 507 783.5 Q541 810 640 867 Q730 919 765 969 Q800 1019 800 1095 Q800 1189 738 1240 Q672 1295 565 1295 Q420 1295 353 1193 Q320 1142 307 1037 L80 1037 Q93 1211 164 1316 Q292 1509 572 1509 Q789 1509 919 1394 Q1047 1279 1047 1089 Q1047 918 946 821 Q893 769 746 682 Q672 639 649 602.5 Q626 566 626 495 L626 444 L397 444 Z M514 289 Q583 289 632 237 Q674 191 674 130 Q674 59 620 12 Q573 -29 511 -29 Q443 -29 395.5 17.5 Q348 64 348 131 Q348 197 396.5 243 Q445 289 514 289 Z " />
<glyph glyph-name="at" unicode="&#x40;" horiz-adv-x="2287" d="M1404 323 Q1282 192 1092 192 Q909 192 795 307 Q679 424 679 618 Q679 814 795 930 Q906 1041 1088 1041 Q1264 1041 1376 927 L1387 1036 L1578 1036 L1578 530 Q1578 440 1604 406.5 Q1630 373 1701 373 Q1815 373 1871 471 Q1923 563 1923 709 Q1923 1004 1715 1161 Q1503 1322 1170 1322 Q761 1322 541 1073 Q365 873 365 581 Q365 282 541 130 Q675 14 852 -28 Q1029 -69 1229 -69 Q1586 -69 1929 48 L2000 -136 Q1793 -209 1618 -238.5 Q1443 -268 1224 -268 Q875 -268 646 -175 Q123 37 123 580 Q123 960 374 1219 Q667 1521 1169 1521 Q1556 1521 1825 1344 Q2009 1223 2099 1030 Q2165 886 2165 720 Q2165 479 2042 339 Q1979 267 1883 227.5 Q1787 188 1676 188 Q1567 188 1502.5 220 Q1438 252 1404 323 Z M1123 856 Q1026 856 968.5 791 Q911 726 911 617 Q911 507 969 443 Q1028 377 1127 377 Q1231 377 1294.5 442.5 Q1358 508 1358 616 Q1358 724 1299 786 Q1232 856 1123 856 Z " />
<glyph glyph-name="A" unicode="A" horiz-adv-x="1382" d="M987 379 L395 379 L258 0 L1 0 L580 1475 L803 1475 L1381 0 L1125 0 L987 379 Z M915 583 L691 1200 L467 583 L915 583 Z " />
<glyph glyph-name="B" unicode="B" horiz-adv-x="1367" d="M169 0 L169 1475 L712 1475 Q1200 1475 1200 1107 Q1200 894 1013 796 Q1121 763 1185 688 Q1271 589 1271 437 Q1271 226 1121 113 Q971 0 691 0 L169 0 Z M413 887 L674 887 Q809 887 873 926 Q952 974 952 1075 Q952 1169 885 1219.5 Q818 1270 695 1270 L413 1270 L413 887 Z M413 205 L637 205 Q821 205 904 251 Q1014 312 1014 446 Q1014 562 930.5 624 Q847 686 691 686 L413 686 L413 205 Z " />
<glyph glyph-name="C" unicode="C" horiz-adv-x="1410" d="M1172 384 L1324 210 Q1230 101 1126 48 Q973 -29 770 -29 Q432 -29 261 187 Q102 387 102 726 Q102 1089 276 1300 Q444 1504 759 1504 Q1081 1504 1221 1303 Q1295 1195 1297 1026 L1052 1026 Q1046 1130 996 1191 Q918 1287 761 1287 Q560 1287 458 1132 Q359 982 359 729 Q359 481 472 330 Q576 191 777 191 Q928 191 1047 269 Q1096 301 1172 384 Z " />
<glyph glyph-name="D" unicode="D" horiz-adv-x="1485" d="M169 0 L169 1475 L583 1475 Q812 1475 963 1416 Q1180 1331 1290 1136 Q1383 970 1383 738 Q1383 373 1156 176 Q1024 61 838 23 Q727 0 582 0 L169 0 Z M422 210 L572 210 Q815 210 959 329 Q1126 467 1126 738 Q1126 1007 960 1146 Q816 1265 572 1265 L422 1265 L422 210 Z " />
<glyph glyph-name="E" unicode="E" horiz-adv-x="1227" d="M169 0 L169 1475 L1133 1475 L1133 1265 L422 1265 L422 875 L1001 875 L1001 665 L422 665 L422 210 L1150 210 L1150 0 L169 0 Z " />
<glyph glyph-name="F" unicode="F" horiz-adv-x="1181" d="M169 0 L169 1475 L1132 1475 L1132 1265 L422 1265 L422 854 L1001 854 L1001 644 L422 644 L422 0 L169 0 Z " />
<glyph glyph-name="G" unicode="G" horiz-adv-x="1523" d="M850 558 L850 756 L1382 756 L1382 62 Q1121 -29 799 -29 Q575 -29 442 39 Q259 133 168 349 Q102 506 102 725 Q102 1084 287 1298 Q465 1504 790 1504 Q1132 1504 1277 1303 Q1321 1243 1338.5 1180.5 Q1356 1118 1356 1026 L1111 1026 Q1105 1130 1051 1191 Q965 1287 791 1287 Q575 1287 467 1132 Q359 978 359 730 Q359 478 476 327 Q533 255 614 221.5 Q695 188 816 188 Q976 188 1140 242 L1140 558 L850 558 Z " />
<glyph glyph-name="H" unicode="H" horiz-adv-x="1457" d="M169 0 L169 1475 L422 1475 L422 879 L1035 879 L1035 1475 L1288 1475 L1288 0 L1035 0 L1035 669 L422 669 L422 0 L169 0 Z " />
<glyph glyph-name="I" unicode="I" horiz-adv-x="591" d="M169 0 L169 1475 L422 1475 L422 0 L169 0 Z " />
<glyph glyph-name="J" unicode="J" horiz-adv-x="629" d="M208 1475 L461 1475 L461 177 Q461 9 438 -81.5 Q415 -172 357 -234 Q305 -288 228 -312 Q151 -336 16 -341 L16 -131 Q78 -128 107 -118.5 Q136 -109 157 -85 Q208 -29 208 140 L208 1475 Z " />
<glyph glyph-name="K" unicode="K" horiz-adv-x="1270" d="M169 0 L169 1475 L422 1475 L422 804 L978 1475 L1264 1475 L685 792 L1330 0 L1025 0 L422 758 L422 0 L169 0 Z " />
<glyph glyph-name="L" unicode="L" horiz-adv-x="1109" d="M169 0 L169 1475 L422 1475 L422 210 L1068 210 L1068 0 L169 0 Z " />
<glyph glyph-name="M" unicode="M" horiz-adv-x="1807" d="M77 0 L248 1475 L494 1475 L904 424 L1314 1475 L1559 1475 L1730 0 L1487 0 L1376 1036 L973 0 L834 0 L432 1036 L320 0 L77 0 Z " />
<glyph glyph-name="N" unicode="N" horiz-adv-x="1457" d="M169 0 L169 1475 L415 1475 L1042 521 L1042 1475 L1288 1475 L1288 -18 L1103 -18 L416 1047 L416 0 L169 0 Z " />
<glyph glyph-name="O" unicode="O" horiz-adv-x="1571" d="M798 1504 Q1165 1504 1342 1237 Q1470 1044 1470 737 Q1470 432 1342 237 Q1166 -29 786 -29 Q406 -29 230 237 Q102 432 102 735 Q102 1044 230 1237 Q407 1504 798 1504 Z M779 1284 Q571 1284 469 1149 Q359 1005 359 737 Q359 191 786 191 Q1002 191 1103 326 Q1213 472 1213 735 Q1213 1006 1103 1149 Q1000 1284 779 1284 Z " />
<glyph glyph-name="P" unicode="P" horiz-adv-x="1300" d="M169 0 L169 1475 L617 1475 Q785 1475 880 1455 Q975 1435 1049 1384 Q1230 1259 1230 1006 Q1230 545 619 545 L422 545 L422 0 L169 0 Z M422 749 L608 749 Q973 749 973 1011 Q973 1265 619 1265 L422 1265 L422 749 Z " />
<glyph glyph-name="Q" unicode="Q" horiz-adv-x="1574" d="M1420 -138 L1473 -347 Q1344 -404 1238 -404 Q1138 -404 970 -333 Q848 -281 804.5 -268 Q761 -255 709 -255 Q586 -255 417 -357 L352 -148 Q492 -85 563.5 -65 Q635 -45 721 -45 Q793 -45 851 -59.5 Q909 -74 1052 -129 Q1197 -184 1254 -184 Q1320 -184 1420 -138 Z M798 1504 Q1165 1504 1342 1237 Q1470 1044 1470 737 Q1470 432 1342 237 Q1166 -29 786 -29 Q406 -29 230 237 Q102 432 102 735 Q102 1044 230 1237 Q407 1504 798 1504 Z M779 1284 Q571 1284 469 1149 Q359 1005 359 737 Q359 191 786 191 Q1002 191 1103 326 Q1213 472 1213 735 Q1213 1006 1103 1149 Q1000 1284 779 1284 Z " />
<glyph glyph-name="R" unicode="R" horiz-adv-x="1346" d="M164 0 L164 1475 L692 1475 Q841 1475 919 1460 Q997 1445 1058 1404 Q1150 1344 1194 1229 Q1227 1146 1227 1046 Q1227 868 1120 764 Q1084 728 982 672 Q1039 641 1071 592.5 Q1103 544 1133 444 L1265 0 L988 0 L920 271 Q893 378 876 421 Q859 464 826 508 Q795 550 740.5 567.5 Q686 585 586 585 L417 585 L417 0 L164 0 Z M417 789 L639 789 Q811 789 881 837 Q970 898 970 1032 Q970 1155 897.5 1210 Q825 1265 664 1265 L417 1265 L417 789 Z " />
<glyph glyph-name="S" unicode="S" horiz-adv-x="1265" d="M82 449 L327 449 Q333 336 384 276 Q461 185 636 185 Q778 185 854 247 Q931 309 931 409 Q931 515 837 572 Q793 598 745.5 615.5 Q698 633 552 674 Q423 711 357.5 738 Q292 765 242 801 Q121 892 121 1084 Q121 1259 226 1372 Q290 1441 377 1472.5 Q464 1504 591 1504 Q1096 1504 1097 1041 L852 1041 Q846 1147 805 1203 Q740 1290 593 1290 Q491 1290 431 1243 Q368 1193 368 1109 Q368 1013 448 966 Q513 928 699 881 Q886 833 963 792 Q1179 675 1179 426 Q1179 220 1049 102 Q905 -29 635 -29 Q291 -29 157 164 Q86 267 82 449 Z " />
<glyph glyph-name="T" unicode="T" horiz-adv-x="1135" d="M441 0 L441 1265 L41 1265 L41 1475 L1094 1475 L1094 1265 L694 1265 L694 0 L441 0 Z " />
<glyph glyph-name="U" unicode="U" horiz-adv-x="1417" d="M160 1475 L413 1475 L413 577 Q413 383 463 302 Q531 190 708 190 Q887 190 954 302 Q982 349 992.5 408.5 Q1003 468 1003 577 L1003 1475 L1256 1475 L1256 622 Q1256 413 1231 309 Q1192 144 1061 59 Q925 -30 708 -30 Q380 -30 247 165 Q197 240 178.5 335.5 Q160 431 160 622 L160 1475 Z " />
<glyph glyph-name="V" unicode="V" horiz-adv-x="1267" d="M541 -31 L23 1475 L283 1475 L633 411 L983 1475 L1243 1475 L725 -31 L541 -31 Z " />
<glyph glyph-name="W" unicode="W" horiz-adv-x="1957" d="M452 -31 L88 1475 L347 1475 L574 443 L910 1478 L1048 1478 L1384 443 L1611 1475 L1870 1475 L1505 -31 L1311 -31 L979 994 L647 -31 L452 -31 Z " />
<glyph glyph-name="X" unicode="X" horiz-adv-x="1266" d="M485 760 L43 1475 L335 1475 L658 957 L936 1475 L1218 1475 L778 759 L1248 0 L956 0 L604 564 L290 0 L7 0 L485 760 Z " />
<glyph glyph-name="Y" unicode="Y" horiz-adv-x="1223" d="M485 0 L485 565 L-23 1475 L252 1475 L611 800 L970 1475 L1245 1475 L738 565 L738 0 L485 0 Z " />
<glyph glyph-name="Z" unicode="Z" horiz-adv-x="1131" d="M27 0 L27 192 L739 1265 L89 1265 L89 1475 L1046 1475 L1046 1311 L320 210 L1090 210 L1090 0 L27 0 Z " />
<glyph glyph-name="bracketleft" unicode="&#x5b;" horiz-adv-x="873" d="M290 -356 L290 1572 L760 1572 L760 1389 L529 1389 L529 -163 L760 -163 L760 -356 L290 -356 Z " />
<glyph glyph-name="backslash" unicode="&#x5c;" horiz-adv-x="912" d="M881 -184 L655 -184 L72 1475 L298 1475 L881 -184 Z " />
<glyph glyph-name="bracketright" unicode="&#x5d;" horiz-adv-x="873" d="M583 1572 L583 -356 L114 -356 L114 -173 L344 -173 L344 1379 L114 1379 L114 1572 L583 1572 Z " />
<glyph glyph-name="asciicircum" unicode="&#x5e;" horiz-adv-x="1303" d="M651 1286 L338 893 L77 893 L567 1475 L735 1475 L1225 893 L963 893 L651 1286 Z " />
<glyph glyph-name="underscore" unicode="&#x5f;" horiz-adv-x="1066" d="M-11 -422 L-11 -212 L1076 -212 L1076 -422 L-11 -422 Z " />
<glyph glyph-name="grave" unicode="&#x60;" horiz-adv-x="1024" d="M500 1225 L216 1566 L468 1566 L664 1225 L500 1225 Z " />
<glyph glyph-name="a" unicode="a" horiz-adv-x="1188" d="M825 118 Q701 -33 463 -33 Q82 -33 82 318 Q82 492 176 576 Q279 667 520 667 Q588 667 759 656 L806 653 L806 721 Q806 842 757 890 Q703 941 578 941 Q485 941 443 907.5 Q401 874 390 791 L161 791 Q177 896 204.5 954 Q232 1012 286 1054 Q388 1134 589 1134 Q796 1134 907 1057 Q1041 964 1041 721 L1041 0 L825 0 L825 118 Z M812 484 Q687 497 561 497 Q431 497 381 460.5 Q331 424 331 329 Q331 243 374 207 Q417 171 518 171 Q701 171 773 266 Q812 318 812 425 L812 484 Z " />
<glyph glyph-name="b" unicode="b" horiz-adv-x="1277" d="M158 0 L158 1516 L401 1516 L401 995 Q517 1136 711 1136 Q926 1136 1053 978 Q1184 816 1184 552 Q1184 288 1053 126 Q926 -32 710 -32 Q506 -32 377 130 L374 0 L158 0 Z M671 926 Q547 926 471 815 Q401 713 401 552 Q401 391 471 289 Q547 178 675 178 Q797 178 868 282 Q937 383 937 550 Q937 723 868 822 Q795 926 671 926 Z " />
<glyph glyph-name="c" unicode="c" horiz-adv-x="1111" d="M937 316 L1057 146 Q999 89 950 57 Q810 -32 607 -32 Q367 -32 237 105 Q93 257 93 536 Q93 800 215 967 Q338 1136 591 1136 Q863 1136 972 952 Q1028 855 1029 721 L807 721 Q802 797 770 845 Q716 926 601 926 Q472 926 405 819 Q340 717 340 548 Q340 372 418 272 Q492 178 624 178 Q717 178 789 210 Q861 242 937 316 Z " />
<glyph glyph-name="d" unicode="d" horiz-adv-x="1277" d="M898 0 L898 128 Q767 -32 566 -32 Q352 -32 224 126 Q93 289 93 552 Q93 815 224 978 Q352 1136 565 1136 Q757 1136 876 995 L876 1516 L1119 1516 L1119 0 L898 0 Z M599 926 Q481 926 410.5 824.5 Q340 723 340 552 Q340 383 409 282 Q481 178 602 178 Q731 178 806 289 Q876 392 876 551 Q876 714 806 815 Q729 926 599 926 Z " />
<glyph glyph-name="e" unicode="e" horiz-adv-x="1213" d="M1125 475 L341 475 Q346 449 348 436 Q360 370 372.5 338.5 Q385 307 413 273 Q491 178 630 178 Q726 178 804.5 206 Q883 234 989 305 L1096 121 Q972 39 864 3.5 Q756 -32 629 -32 Q372 -32 229 128 Q93 280 93 538 Q93 818 239 979 Q380 1135 615 1135 Q827 1135 960 1003 Q1045 918 1083.5 795.5 Q1122 673 1125 475 Z M884 655 Q864 770 827 824 Q751 936 615 936 Q399 936 343 655 L884 655 Z " />
<glyph glyph-name="f" unicode="f" horiz-adv-x="804" d="M230 0 L230 893 L74 893 L74 1103 L230 1103 L230 1138 Q230 1333 314 1429 Q405 1533 611 1533 Q704 1533 798 1516 L784 1316 Q696 1331 636 1331 Q547 1331 510 1285.5 Q473 1240 473 1131 L473 1103 L755 1103 L755 893 L473 893 L473 0 L230 0 Z " />
<glyph glyph-name="g" unicode="g" horiz-adv-x="1277" d="M876 126 Q759 -11 566 -11 Q352 -11 224 142 Q93 298 93 553 Q93 807 219 969 Q348 1135 570 1135 Q676 1135 753 1097.5 Q830 1060 898 975 L898 1103 L1119 1103 L1119 174 Q1119 -20 1094 -125 Q1015 -468 610 -468 Q337 -468 135 -334 L242 -149 Q342 -215 422 -241.5 Q502 -268 599 -268 Q694 -268 750.5 -238 Q807 -208 838 -141 Q876 -60 876 103 L876 126 Z M599 925 Q481 925 410.5 823.5 Q340 722 340 554 Q340 392 409 297 Q480 199 603 199 Q731 199 806 304 Q876 400 876 552 Q876 713 806 813 Q729 925 599 925 Z " />
<glyph glyph-name="h" unicode="h" horiz-adv-x="1261" d="M158 0 L158 1516 L401 1516 L401 965 Q514 1063 593 1099.5 Q672 1136 772 1136 Q976 1136 1054 990 Q1111 883 1111 638 L1111 0 L868 0 L868 652 Q868 768 846 826 Q811 917 706 917 Q616 917 515 841 Q482 816 401 733 L401 0 L158 0 Z " />
<glyph glyph-name="i" unicode="i" horiz-adv-x="568" d="M163 0 L163 1103 L406 1103 L406 0 L163 0 Z M287 1522 Q347 1522 390 1480.5 Q433 1439 433 1380 Q433 1321 389.5 1279.5 Q346 1238 285 1238 Q223 1238 179.5 1280 Q136 1322 136 1381 Q136 1440 180 1481 Q224 1522 287 1522 Z " />
<glyph glyph-name="j" unicode="j" horiz-adv-x="585" d="M179 1103 L422 1103 L422 51 Q422 -108 400 -193 Q378 -278 323 -335 Q274 -385 202.5 -408.5 Q131 -432 10 -438 L10 -229 Q66 -224 91.5 -214 Q117 -204 137 -180 Q161 -149 170 -105 Q179 -61 179 25 L179 1103 Z M303 1522 Q363 1522 406 1480.5 Q449 1439 449 1380 Q449 1321 405.5 1279.5 Q362 1238 301 1238 Q239 1238 195.5 1280 Q152 1322 152 1381 Q152 1440 196 1481 Q240 1522 303 1522 Z " />
<glyph glyph-name="k" unicode="k" horiz-adv-x="1124" d="M158 0 L158 1516 L401 1516 L401 659 L807 1103 L1087 1103 L653 633 L1155 0 L869 0 L401 609 L401 0 L158 0 Z " />
<glyph glyph-name="l" unicode="l" horiz-adv-x="559" d="M158 0 L158 1516 L401 1516 L401 0 L158 0 Z " />
<glyph glyph-name="m" unicode="m" horiz-adv-x="1847" d="M158 0 L158 1103 L395 1103 L395 960 Q507 1064 577.5 1099.5 Q648 1135 739 1135 Q883 1135 957 1049 Q986 1015 1015 936 Q1137 1053 1214 1094 Q1291 1135 1389 1135 Q1576 1135 1645 990 Q1697 880 1697 638 L1697 0 L1454 0 L1454 652 Q1454 767 1436 824 Q1408 916 1323 916 Q1244 916 1156 843 Q1133 824 1049 732 L1049 0 L806 0 L806 652 Q806 767 788 824 Q760 916 675 916 Q611 916 552 876.5 Q493 837 401 732 L401 0 L158 0 Z " />
<glyph glyph-name="n" unicode="n" horiz-adv-x="1261" d="M158 0 L158 1103 L401 1103 L401 960 Q516 1060 596 1097.5 Q676 1135 775 1135 Q977 1135 1054 989 Q1111 883 1111 638 L1111 0 L868 0 L868 652 Q868 767 846 825 Q811 916 707 916 Q635 916 568 875.5 Q501 835 401 732 L401 0 L158 0 Z " />
<glyph glyph-name="o" unicode="o" horiz-adv-x="1268" d="M641 1135 Q874 1135 1024 976 Q1175 817 1175 551 Q1175 287 1024 127 Q875 -32 634 -32 Q393 -32 244 127 Q93 287 93 550 Q93 816 244 976 Q393 1135 641 1135 Z M630 925 Q492 925 411 814 Q340 716 340 551 Q340 387 411 289 Q491 178 634 178 Q777 178 857 289 Q928 388 928 550 Q928 717 857 814 Q776 925 630 925 Z " />
<glyph glyph-name="p" unicode="p" horiz-adv-x="1277" d="M158 -439 L158 1103 L378 1103 L378 974 Q503 1135 710 1135 Q926 1135 1053 977 Q1184 815 1184 551 Q1184 288 1053 126 Q926 -32 711 -32 Q519 -32 401 108 L401 -439 L158 -439 Z M671 925 Q547 925 471 814 Q401 712 401 551 Q401 391 471 289 Q547 178 675 178 Q797 178 868 282 Q937 383 937 550 Q937 722 868 821 Q795 925 671 925 Z " />
<glyph glyph-name="q" unicode="q" horiz-adv-x="1277" d="M876 -439 L876 108 Q834 61 801 38 Q704 -32 566 -32 Q352 -32 224 126 Q93 288 93 551 Q93 815 224 977 Q352 1135 566 1135 Q769 1135 898 975 L898 1103 L1119 1103 L1119 -439 L876 -439 Z M599 925 Q481 925 410.5 823.5 Q340 722 340 551 Q340 383 409 282 Q481 178 602 178 Q731 178 806 289 Q876 392 876 550 Q876 713 806 814 Q729 925 599 925 Z " />
<glyph glyph-name="r" unicode="r" horiz-adv-x="820" d="M158 0 L158 1103 L391 1103 L391 953 Q489 1047 563.5 1082 Q638 1117 741 1117 L778 1117 L778 882 L733 882 Q663 882 622 871.5 Q581 861 533 830 Q500 808 481.5 791 Q463 774 401 705 L401 0 L158 0 Z " />
<glyph glyph-name="s" unicode="s" horiz-adv-x="1077" d="M63 354 L285 354 Q293 274 329 234 Q394 162 543 162 Q771 162 771 307 Q771 381 708 411 Q681 424 656 430 Q631 436 507 460 Q324 495 229 552 Q106 625 106 789 Q106 958 228 1054 Q332 1135 514 1135 Q784 1135 890 974 Q943 892 944 777 L722 777 Q715 845 686 880 Q633 941 512 941 Q344 941 344 813 Q344 747 400 719 Q443 698 595 666 Q715 641 775 620 Q835 599 885 566 Q1002 489 1002 320 Q1002 158 886 64 Q767 -32 541 -32 Q67 -32 63 354 Z " />
<glyph glyph-name="t" unicode="t" horiz-adv-x="814" d="M221 893 L65 893 L65 1103 L225 1103 L241 1419 L464 1419 L464 1103 L748 1103 L748 893 L464 893 L464 410 Q464 294 490 252 Q516 210 588 210 L776 210 L776 0 L585 0 Q418 0 329 71 Q221 158 221 362 L221 893 Z " />
<glyph glyph-name="u" unicode="u" horiz-adv-x="1217" d="M153 1103 L396 1103 L396 451 Q396 340 411 288 Q436 200 527 200 Q595 200 657 236.5 Q719 273 817 371 L817 1103 L1059 1103 L1059 0 L817 0 L817 143 Q715 62 677 40 Q573 -19 459 -19 Q273 -19 204 123 Q153 229 153 465 L153 1103 Z " />
<glyph glyph-name="v" unicode="v" horiz-adv-x="1064" d="M431 -22 L14 1103 L274 1103 L531 312 L789 1103 L1049 1103 L632 -22 L431 -22 Z " />
<glyph glyph-name="w" unicode="w" horiz-adv-x="1641" d="M352 -22 L39 1103 L285 1103 L480 351 L749 1103 L893 1103 L1162 351 L1356 1103 L1603 1103 L1290 -22 L1089 -22 L821 721 L553 -22 L352 -22 Z " />
<glyph glyph-name="x" unicode="x" horiz-adv-x="1063" d="M387 581 L28 1103 L300 1103 L554 737 L775 1103 L1029 1103 L662 579 L1062 0 L789 0 L498 419 L254 0 L-1 0 L387 581 Z " />
<glyph glyph-name="y" unicode="y" horiz-adv-x="1064" d="M412 27 L14 1103 L274 1103 L531 312 L789 1103 L1049 1103 L644 14 Q580 -160 541.5 -231.5 Q503 -303 447 -355 Q397 -401 331.5 -419 Q266 -437 140 -438 L140 -229 Q240 -228 277 -205 Q333 -170 378 -57 L412 27 Z " />
<glyph glyph-name="z" unicode="z" horiz-adv-x="970" d="M36 0 L36 195 L595 893 L86 893 L86 1103 L886 1103 L886 921 L321 210 L904 210 L904 0 L36 0 Z " />
<glyph glyph-name="braceleft" unicode="&#x7b;" horiz-adv-x="873" d="M372 644 Q468 604 499 540 Q533 471 533 300 L533 39 Q533 -99 576 -138 Q617 -175 722 -175 L785 -175 L785 -356 L692 -356 Q563 -356 500 -344.5 Q437 -333 389 -301 Q335 -264 313.5 -196 Q292 -128 292 9 L292 284 Q292 446 241 502 Q218 528 187 538.5 Q156 549 93 552 L93 736 Q208 740 252 799 Q292 854 292 1005 L292 1206 Q292 1342 311.5 1408 Q331 1474 381 1511 Q428 1546 493.5 1558.5 Q559 1571 692 1571 L785 1571 L785 1390 L721 1390 Q607 1390 570 1348 Q533 1306 533 1177 L533 971 Q533 815 500 748.5 Q467 682 372 644 Z " />
<glyph glyph-name="bar" unicode="&#x7c;" horiz-adv-x="692" d="M221 -438 L221 1568 L469 1568 L469 -438 L221 -438 Z " />
<glyph glyph-name="braceright" unicode="&#x7d;" horiz-adv-x="873" d="M503 644 Q408 682 375 748 Q342 815 342 971 L342 1177 Q342 1306 305 1348 Q268 1390 153 1390 L89 1390 L89 1571 L183 1571 Q324 1571 393 1556 Q462 1541 507 1500 Q550 1462 566.5 1397.5 Q583 1333 583 1206 L583 1005 Q583 854 623 799 Q667 740 781 736 L781 552 Q718 549 687.5 538.5 Q657 528 634 502 Q583 446 583 284 L583 9 Q583 -134 559 -203.5 Q535 -273 472 -309 Q425 -337 365 -346.5 Q305 -356 183 -356 L89 -356 L89 -175 L152 -175 Q266 -175 304 -132.5 Q342 -90 342 39 L342 300 Q342 469 373.5 536.5 Q405 604 503 644 Z " />
<glyph glyph-name="asciitilde" unicode="&#x7e;" horiz-adv-x="1303" d="M257 563 L113 703 Q220 827 292 872 Q364 917 454 917 Q558 917 667 856 Q764 801 786.5 792 Q809 783 846 783 Q935 783 1047 911 L1191 773 Q1095 656 1017 606 Q939 556 853 556 Q788 556 737.5 574 Q687 592 545 665 Q502 687 456 687 Q411 687 367 659.5 Q323 632 257 563 Z " />
<glyph glyph-name="Adieresis" unicode="&#xc4;" horiz-adv-x="1382" d="M987 379 L395 379 L258 0 L1 0 L580 1475 L803 1475 L1381 0 L1125 0 L987 379 Z M915 583 L691 1200 L467 583 L915 583 Z M487 1879 Q543 1879 583 1840 Q623 1801 623 1747 Q623 1692 582.5 1653 Q542 1614 484 1614 Q426 1614 385.5 1653 Q345 1692 345 1748 Q345 1803 386 1841 Q427 1879 487 1879 Z M901 1879 Q957 1879 997 1840 Q1037 1801 1037 1747 Q1037 1692 996.5 1653 Q956 1614 898 1614 Q840 1614 799.5 1653 Q759 1692 759 1748 Q759 1803 800 1841 Q841 1879 901 1879 Z " />
<glyph glyph-name="Aring" unicode="&#xc5;" horiz-adv-x="1382" d="M987 379 L395 379 L258 0 L1 0 L580 1475 L803 1475 L1381 0 L1125 0 L987 379 Z M915 583 L691 1200 L467 583 L915 583 Z M696 2051 Q809 2051 876.5 1985 Q944 1919 944 1808 Q944 1696 876 1630.5 Q808 1565 692 1565 Q569 1565 500 1639 Q440 1705 440 1807 Q440 1921 508 1986 Q576 2051 696 2051 Z M690 1924 Q640 1924 611.5 1893.5 Q583 1863 583 1808 Q583 1692 692 1692 Q801 1692 801 1808 Q801 1924 690 1924 Z " />
<glyph glyph-name="Ccedilla" unicode="&#xc7;" horiz-adv-x="1410" d="M1172 384 L1324 210 Q1139 -16 808 -27 L776 -86 Q855 -94 895 -116 Q986 -164 986 -277 Q986 -396 896 -452 Q827 -495 711 -495 Q572 -495 447 -455 L496 -302 Q619 -339 699 -339 Q796 -339 796 -277 Q796 -219 695 -219 Q669 -219 609 -224 L582 -108 L633 -18 Q454 4 327 116 Q218 212 160 369 Q102 526 102 726 Q102 1089 276 1300 Q444 1504 758 1504 Q1081 1504 1221 1303 Q1295 1195 1297 1026 L1052 1026 Q1046 1130 996 1191 Q918 1287 761 1287 Q560 1287 458 1132 Q359 982 359 729 Q359 481 472 330 Q576 191 777 191 Q898 191 985.5 233.5 Q1073 276 1172 384 Z " />
<glyph glyph-name="Eacute" unicode="&#xc9;" horiz-adv-x="1227" d="M169 0 L169 1475 L1133 1475 L1133 1265 L422 1265 L422 875 L1001 875 L1001 665 L422 665 L422 210 L1150 210 L1150 0 L169 0 Z M528 1603 L724 1945 L976 1945 L692 1603 L528 1603 Z " />
<glyph glyph-name="Ntilde" unicode="&#xd1;" horiz-adv-x="1457" d="M169 0 L169 1475 L415 1475 L1042 521 L1042 1475 L1288 1475 L1288 -18 L1103 -18 L416 1047 L416 0 L169 0 Z M558 1648 L418 1648 Q455 1885 629 1885 Q666 1885 693.5 1875.5 Q721 1866 800 1826 Q837 1807 859 1807 Q904 1807 928 1884 L1070 1884 Q1044 1756 992 1699 Q940 1642 849 1642 Q812 1642 784.5 1651.5 Q757 1661 679 1701 Q645 1719 627 1719 Q583 1719 558 1648 Z " />
<glyph glyph-name="Odieresis" unicode="&#xd6;" horiz-adv-x="1571" d="M798 1504 Q1165 1504 1342 1237 Q1470 1044 1470 737 Q1470 432 1342 237 Q1166 -29 786 -29 Q406 -29 230 237 Q102 432 102 735 Q102 1044 230 1237 Q407 1504 798 1504 Z M779 1284 Q571 1284 469 1149 Q359 1005 359 737 Q359 191 786 191 Q1002 191 1103 326 Q1213 472 1213 735 Q1213 1006 1103 1149 Q1000 1284 779 1284 Z M582 1879 Q638 1879 678 1840 Q718 1801 718 1747 Q718 1692 677.5 1653 Q637 1614 579 1614 Q521 1614 480.5 1653 Q440 1692 440 1748 Q440 1803 481 1841 Q522 1879 582 1879 Z M996 1879 Q1052 1879 1092 1840 Q1132 1801 1132 1747 Q1132 1692 1091.5 1653 Q1051 1614 993 1614 Q935 1614 894.5 1653 Q854 1692 854 1748 Q854 1803 895 1841 Q936 1879 996 1879 Z " />
<glyph glyph-name="Udieresis" unicode="&#xdc;" horiz-adv-x="1417" d="M160 1475 L413 1475 L413 577 Q413 383 463 302 Q531 190 708 190 Q887 190 954 302 Q982 349 992.5 408.5 Q1003 468 1003 577 L1003 1475 L1256 1475 L1256 622 Q1256 413 1231 309 Q1192 144 1061 59 Q925 -30 708 -30 Q380 -30 247 165 Q197 240 178.5 335.5 Q160 431 160 622 L160 1475 Z M504 1879 Q560 1879 600 1840 Q640 1801 640 1747 Q640 1692 599.5 1653 Q559 1614 501 1614 Q443 1614 402.5 1653 Q362 1692 362 1748 Q362 1803 403 1841 Q444 1879 504 1879 Z M918 1879 Q974 1879 1014 1840 Q1054 1801 1054 1747 Q1054 1692 1013.5 1653 Q973 1614 915 1614 Q857 1614 816.5 1653 Q776 1692 776 1748 Q776 1803 817 1841 Q858 1879 918 1879 Z " />
<glyph glyph-name="aacute" unicode="&#xe1;" horiz-adv-x="1188" d="M825 118 Q701 -33 463 -33 Q82 -33 82 318 Q82 492 176 576 Q279 667 520 667 Q588 667 759 656 L806 653 L806 721 Q806 842 757 890 Q703 941 578 941 Q485 941 443 907.5 Q401 874 390 791 L161 791 Q177 896 204.5 954 Q232 1012 286 1054 Q388 1134 589 1134 Q796 1134 907 1057 Q1041 964 1041 721 L1041 0 L825 0 L825 118 Z M812 484 Q687 497 561 497 Q431 497 381 460.5 Q331 424 331 329 Q331 243 374 207 Q417 171 518 171 Q701 171 773 266 Q812 318 812 425 L812 484 Z M478 1225 L674 1566 L926 1566 L642 1225 L478 1225 Z " />
<glyph glyph-name="agrave" unicode="&#xe0;" horiz-adv-x="1188" d="M825 118 Q701 -33 463 -33 Q82 -33 82 318 Q82 492 176 576 Q279 667 520 667 Q588 667 759 656 L806 653 L806 721 Q806 842 757 890 Q703 941 578 941 Q485 941 443 907.5 Q401 874 390 791 L161 791 Q177 896 204.5 954 Q232 1012 286 1054 Q388 1134 589 1134 Q796 1134 907 1057 Q1041 964 1041 721 L1041 0 L825 0 L825 118 Z M812 484 Q687 497 561 497 Q431 497 381 460.5 Q331 424 331 329 Q331 243 374 207 Q417 171 518 171 Q701 171 773 266 Q812 318 812 425 L812 484 Z M575 1225 L291 1566 L543 1566 L739 1225 L575 1225 Z " />
<glyph glyph-name="acircumflex" unicode="&#xe2;" horiz-adv-x="1188" d="M825 118 Q701 -33 463 -33 Q82 -33 82 318 Q82 492 176 576 Q279 667 520 667 Q588 667 759 656 L806 653 L806 721 Q806 842 757 890 Q703 941 578 941 Q485 941 443 907.5 Q401 874 390 791 L161 791 Q177 896 204.5 954 Q232 1012 286 1054 Q388 1134 589 1134 Q796 1134 907 1057 Q1041 964 1041 721 L1041 0 L825 0 L825 118 Z M812 484 Q687 497 561 497 Q431 497 381 460.5 Q331 424 331 329 Q331 243 374 207 Q417 171 518 171 Q701 171 773 266 Q812 318 812 425 L812 484 Z M597 1416 L441 1225 L214 1225 L522 1566 L672 1566 L980 1225 L753 1225 L597 1416 Z " />
<glyph glyph-name="adieresis" unicode="&#xe4;" horiz-adv-x="1188" d="M825 118 Q701 -33 463 -33 Q82 -33 82 318 Q82 492 176 576 Q279 667 520 667 Q588 667 759 656 L806 653 L806 721 Q806 842 757 890 Q703 941 578 941 Q485 941 443 907.5 Q401 874 390 791 L161 791 Q177 896 204.5 954 Q232 1012 286 1054 Q388 1134 589 1134 Q796 1134 907 1057 Q1041 964 1041 721 L1041 0 L825 0 L825 118 Z M812 484 Q687 497 561 497 Q431 497 381 460.5 Q331 424 331 329 Q331 243 374 207 Q417 171 518 171 Q701 171 773 266 Q812 318 812 425 L812 484 Z M404 1513 Q460 1513 500 1474 Q540 1435 540 1381 Q540 1326 499.5 1287 Q459 1248 401 1248 Q343 1248 302.5 1287 Q262 1326 262 1382 Q262 1437 303 1475 Q344 1513 404 1513 Z M791 1513 Q847 1513 887 1474 Q927 1435 927 1381 Q927 1326 886.5 1287 Q846 1248 788 1248 Q730 1248 689.5 1287 Q649 1326 649 1382 Q649 1436 690 1474.5 Q731 1513 791 1513 Z " />
<glyph glyph-name="atilde" unicode="&#xe3;" horiz-adv-x="1188" d="M825 118 Q701 -33 463 -33 Q82 -33 82 318 Q82 492 176 576 Q279 667 520 667 Q588 667 759 656 L806 653 L806 721 Q806 842 757 890 Q703 941 578 941 Q485 941 443 907.5 Q401 874 390 791 L161 791 Q177 896 204.5 954 Q232 1012 286 1054 Q388 1134 589 1134 Q796 1134 907 1057 Q1041 964 1041 721 L1041 0 L825 0 L825 118 Z M812 484 Q687 497 561 497 Q431 497 381 460.5 Q331 424 331 329 Q331 243 374 207 Q417 171 518 171 Q701 171 773 266 Q812 318 812 425 L812 484 Z M406 1270 L266 1270 Q303 1507 477 1507 Q514 1507 543 1497 Q572 1487 648 1448 Q685 1429 707 1429 Q751 1429 776 1506 L918 1506 Q896 1400 859 1345 Q804 1264 697 1264 Q660 1264 632.5 1273.5 Q605 1283 527 1323 Q493 1341 475 1341 Q432 1341 406 1270 Z " />
<glyph glyph-name="aring" unicode="&#xe5;" horiz-adv-x="1188" d="M825 118 Q701 -33 463 -33 Q82 -33 82 318 Q82 492 176 576 Q279 667 520 667 Q588 667 759 656 L806 653 L806 721 Q806 842 757 890 Q703 941 578 941 Q485 941 443 907.5 Q401 874 390 791 L161 791 Q177 896 204.5 954 Q232 1012 286 1054 Q388 1134 589 1134 Q796 1134 907 1057 Q1041 964 1041 721 L1041 0 L825 0 L825 118 Z M812 484 Q687 497 561 497 Q431 497 381 460.5 Q331 424 331 329 Q331 243 374 207 Q417 171 518 171 Q701 171 773 266 Q812 318 812 425 L812 484 Z M597 1688 Q710 1688 777.5 1622 Q845 1556 845 1445 Q845 1333 777 1267.5 Q709 1202 593 1202 Q470 1202 401 1276 Q341 1342 341 1444 Q341 1558 409 1623 Q477 1688 597 1688 Z M591 1561 Q541 1561 512.5 1530.5 Q484 1500 484 1445 Q484 1329 593 1329 Q702 1329 702 1445 Q702 1561 591 1561 Z " />
<glyph glyph-name="ccedilla" unicode="&#xe7;" horiz-adv-x="1111" d="M657 -31 L627 -86 Q705 -94 745 -116 Q836 -164 836 -277 Q836 -382 764.5 -438.5 Q693 -495 562 -495 Q423 -495 297 -455 L346 -302 Q470 -339 549 -339 Q646 -339 646 -277 Q646 -219 545 -219 Q519 -219 459 -224 L432 -108 L482 -21 Q380 -3 304 48 Q93 189 93 535 Q93 800 215 967 Q339 1136 591 1136 Q863 1136 972 952 Q1028 855 1029 721 L807 721 Q802 797 770 845 Q716 926 601 926 Q472 926 405 819 Q340 717 340 547 Q340 371 418 271 Q492 177 623 177 Q717 177 789.5 209 Q862 241 937 316 L1057 146 Q971 60 881.5 20.5 Q792 -19 657 -31 Z " />
<glyph glyph-name="eacute" unicode="&#xe9;" horiz-adv-x="1213" d="M1125 475 L341 475 Q346 449 348 436 Q360 370 372.5 338.5 Q385 307 413 273 Q491 178 630 178 Q726 178 804.5 206 Q883 234 989 305 L1096 121 Q972 39 864 3.5 Q756 -32 629 -32 Q372 -32 229 128 Q93 280 93 538 Q93 818 239 979 Q380 1135 615 1135 Q827 1135 960 1003 Q1045 918 1083.5 795.5 Q1122 673 1125 475 Z M884 655 Q864 770 827 824 Q751 936 615 936 Q399 936 343 655 L884 655 Z M461 1225 L657 1566 L909 1566 L625 1225 L461 1225 Z " />
<glyph glyph-name="egrave" unicode="&#xe8;" horiz-adv-x="1213" d="M1125 475 L341 475 Q346 449 348 436 Q360 370 372.5 338.5 Q385 307 413 273 Q491 178 630 178 Q726 178 804.5 206 Q883 234 989 305 L1096 121 Q972 39 864 3.5 Q756 -32 629 -32 Q372 -32 229 128 Q93 280 93 538 Q93 818 239 979 Q380 1135 615 1135 Q827 1135 960 1003 Q1045 918 1083.5 795.5 Q1122 673 1125 475 Z M884 655 Q864 770 827 824 Q751 936 615 936 Q399 936 343 655 L884 655 Z M601 1225 L317 1566 L569 1566 L765 1225 L601 1225 Z " />
<glyph glyph-name="ecircumflex" unicode="&#xea;" horiz-adv-x="1213" d="M1125 475 L341 475 Q346 449 348 436 Q360 370 372.5 338.5 Q385 307 413 273 Q491 178 630 178 Q726 178 804.5 206 Q883 234 989 305 L1096 121 Q972 39 864 3.5 Q756 -32 629 -32 Q372 -32 229 128 Q93 280 93 538 Q93 818 239 979 Q380 1135 615 1135 Q827 1135 960 1003 Q1045 918 1083.5 795.5 Q1122 673 1125 475 Z M884 655 Q864 770 827 824 Q751 936 615 936 Q399 936 343 655 L884 655 Z M610 1416 L454 1225 L227 1225 L535 1566 L685 1566 L993 1225 L766 1225 L610 1416 Z " />
<glyph glyph-name="edieresis" unicode="&#xeb;" horiz-adv-x="1213" d="M1125 475 L341 475 Q346 449 348 436 Q360 370 372.5 338.5 Q385 307 413 273 Q491 178 630 178 Q726 178 804.5 206 Q883 234 989 305 L1096 121 Q972 39 864 3.5 Q756 -32 629 -32 Q372 -32 229 128 Q93 280 93 538 Q93 818 239 979 Q380 1135 615 1135 Q827 1135 960 1003 Q1045 918 1083.5 795.5 Q1122 673 1125 475 Z M884 655 Q864 770 827 824 Q751 936 615 936 Q399 936 343 655 L884 655 Z M422 1513 Q478 1513 518 1474 Q558 1435 558 1381 Q558 1326 517.5 1287 Q477 1248 419 1248 Q361 1248 320.5 1287 Q280 1326 280 1382 Q280 1437 321 1475 Q362 1513 422 1513 Z M809 1513 Q865 1513 905 1474 Q945 1435 945 1381 Q945 1326 904.5 1287 Q864 1248 806 1248 Q748 1248 707.5 1287 Q667 1326 667 1382 Q667 1436 708 1474.5 Q749 1513 809 1513 Z " />
<glyph glyph-name="iacute" unicode="&#xed;" horiz-adv-x="566" d="M162 0 L162 1103 L405 1103 L405 0 L162 0 Z M141 1225 L337 1566 L589 1566 L305 1225 L141 1225 Z " />
<glyph glyph-name="igrave" unicode="&#xec;" horiz-adv-x="566" d="M162 0 L162 1103 L405 1103 L405 0 L162 0 Z M256 1225 L-28 1566 L224 1566 L420 1225 L256 1225 Z " />
<glyph glyph-name="icircumflex" unicode="&#xee;" horiz-adv-x="566" d="M161 0 L161 1103 L404 1103 L404 0 L161 0 Z M280 1416 L124 1225 L-103 1225 L205 1566 L355 1566 L663 1225 L436 1225 L280 1416 Z " />
<glyph glyph-name="idieresis" unicode="&#xef;" horiz-adv-x="566" d="M162 0 L162 1103 L405 1103 L405 0 L162 0 Z M93 1513 Q149 1513 189 1474 Q229 1435 229 1381 Q229 1326 188.5 1287 Q148 1248 90 1248 Q32 1248 -8.5 1287 Q-49 1326 -49 1382 Q-49 1437 -8 1475 Q33 1513 93 1513 Z M480 1513 Q536 1513 576 1474 Q616 1435 616 1381 Q616 1326 575.5 1287 Q535 1248 477 1248 Q419 1248 378.5 1287 Q338 1326 338 1382 Q338 1436 379 1474.5 Q420 1513 480 1513 Z " />
<glyph glyph-name="ntilde" unicode="&#xf1;" horiz-adv-x="1261" d="M158 0 L158 1103 L401 1103 L401 960 Q516 1060 596 1097.5 Q676 1135 775 1135 Q977 1135 1054 989 Q1111 883 1111 638 L1111 0 L868 0 L868 652 Q868 767 846 825 Q811 916 707 916 Q635 916 568 875.5 Q501 835 401 732 L401 0 L158 0 Z M444 1270 L304 1270 Q341 1507 515 1507 Q552 1507 581 1497 Q610 1487 686 1448 Q723 1429 745 1429 Q789 1429 814 1506 L956 1506 Q934 1400 897 1345 Q842 1264 735 1264 Q698 1264 670.5 1273.5 Q643 1283 565 1323 Q531 1341 513 1341 Q470 1341 444 1270 Z " />
<glyph glyph-name="oacute" unicode="&#xf3;" horiz-adv-x="1268" d="M641 1135 Q874 1135 1024 976 Q1175 817 1175 551 Q1175 287 1024 127 Q875 -32 634 -32 Q393 -32 244 127 Q93 287 93 550 Q93 816 244 976 Q393 1135 641 1135 Z M630 925 Q492 925 411 814 Q340 716 340 551 Q340 387 411 289 Q491 178 634 178 Q777 178 857 289 Q928 388 928 550 Q928 717 857 814 Q776 925 630 925 Z M482 1225 L678 1566 L930 1566 L646 1225 L482 1225 Z " />
<glyph glyph-name="ograve" unicode="&#xf2;" horiz-adv-x="1268" d="M641 1135 Q874 1135 1024 976 Q1175 817 1175 551 Q1175 287 1024 127 Q875 -32 634 -32 Q393 -32 244 127 Q93 287 93 550 Q93 816 244 976 Q393 1135 641 1135 Z M630 925 Q492 925 411 814 Q340 716 340 551 Q340 387 411 289 Q491 178 634 178 Q777 178 857 289 Q928 388 928 550 Q928 717 857 814 Q776 925 630 925 Z M622 1225 L338 1566 L590 1566 L786 1225 L622 1225 Z " />
<glyph glyph-name="ocircumflex" unicode="&#xf4;" horiz-adv-x="1268" d="M641 1135 Q874 1135 1024 976 Q1175 817 1175 551 Q1175 287 1024 127 Q875 -32 634 -32 Q393 -32 244 127 Q93 287 93 550 Q93 816 244 976 Q393 1135 641 1135 Z M630 925 Q492 925 411 814 Q340 716 340 551 Q340 387 411 289 Q491 178 634 178 Q777 178 857 289 Q928 388 928 550 Q928 717 857 814 Q776 925 630 925 Z M632 1416 L476 1225 L249 1225 L557 1566 L707 1566 L1015 1225 L788 1225 L632 1416 Z " />
<glyph glyph-name="odieresis" unicode="&#xf6;" horiz-adv-x="1268" d="M641 1135 Q874 1135 1024 976 Q1175 817 1175 551 Q1175 287 1024 127 Q875 -32 634 -32 Q393 -32 244 127 Q93 287 93 550 Q93 816 244 976 Q393 1135 641 1135 Z M630 925 Q492 925 411 814 Q340 716 340 551 Q340 387 411 289 Q491 178 634 178 Q777 178 857 289 Q928 388 928 550 Q928 717 857 814 Q776 925 630 925 Z M444 1513 Q500 1513 540 1474 Q580 1435 580 1381 Q580 1326 539.5 1287 Q499 1248 441 1248 Q383 1248 342.5 1287 Q302 1326 302 1382 Q302 1437 343 1475 Q384 1513 444 1513 Z M831 1513 Q887 1513 927 1474 Q967 1435 967 1381 Q967 1326 926.5 1287 Q886 1248 828 1248 Q770 1248 729.5 1287 Q689 1326 689 1382 Q689 1436 730 1474.5 Q771 1513 831 1513 Z " />
<glyph glyph-name="otilde" unicode="&#xf5;" horiz-adv-x="1268" d="M641 1135 Q874 1135 1024 976 Q1175 817 1175 551 Q1175 287 1024 127 Q875 -32 634 -32 Q393 -32 244 127 Q93 287 93 550 Q93 816 244 976 Q393 1135 641 1135 Z M630 925 Q492 925 411 814 Q340 716 340 551 Q340 387 411 289 Q491 178 634 178 Q777 178 857 289 Q928 388 928 550 Q928 717 857 814 Q776 925 630 925 Z M448 1270 L308 1270 Q345 1507 519 1507 Q556 1507 585 1497 Q614 1487 690 1448 Q727 1429 749 1429 Q793 1429 818 1506 L960 1506 Q938 1400 901 1345 Q846 1264 739 1264 Q702 1264 674.5 1273.5 Q647 1283 569 1323 Q535 1341 517 1341 Q474 1341 448 1270 Z " />
<glyph glyph-name="uacute" unicode="&#xfa;" horiz-adv-x="1217" d="M153 1103 L396 1103 L396 451 Q396 340 411 288 Q436 200 527 200 Q595 200 657 236.5 Q719 273 817 371 L817 1103 L1059 1103 L1059 0 L817 0 L817 143 Q715 62 677 40 Q573 -19 459 -19 Q273 -19 204 123 Q153 229 153 465 L153 1103 Z M491 1225 L687 1566 L939 1566 L655 1225 L491 1225 Z " />
<glyph glyph-name="ugrave" unicode="&#xf9;" horiz-adv-x="1217" d="M153 1103 L396 1103 L396 451 Q396 340 411 288 Q436 200 527 200 Q595 200 657 236.5 Q719 273 817 371 L817 1103 L1059 1103 L1059 0 L817 0 L817 143 Q715 62 677 40 Q573 -19 459 -19 Q273 -19 204 123 Q153 229 153 465 L153 1103 Z M596 1225 L312 1566 L564 1566 L760 1225 L596 1225 Z " />
<glyph glyph-name="ucircumflex" unicode="&#xfb;" horiz-adv-x="1217" d="M153 1103 L396 1103 L396 451 Q396 340 411 288 Q436 200 527 200 Q595 200 657 236.5 Q719 273 817 371 L817 1103 L1059 1103 L1059 0 L817 0 L817 143 Q715 62 677 40 Q573 -19 459 -19 Q273 -19 204 123 Q153 229 153 465 L153 1103 Z M606 1416 L450 1225 L223 1225 L531 1566 L681 1566 L989 1225 L762 1225 L606 1416 Z " />
<glyph glyph-name="udieresis" unicode="&#xfc;" horiz-adv-x="1217" d="M153 1103 L396 1103 L396 451 Q396 340 411 288 Q436 200 527 200 Q595 200 657 236.5 Q719 273 817 371 L817 1103 L1059 1103 L1059 0 L817 0 L817 143 Q715 62 677 40 Q573 -19 459 -19 Q273 -19 204 123 Q153 229 153 465 L153 1103 Z M418 1513 Q474 1513 514 1474 Q554 1435 554 1381 Q554 1326 513.5 1287 Q473 1248 415 1248 Q357 1248 316.5 1287 Q276 1326 276 1382 Q276 1437 317 1475 Q358 1513 418 1513 Z M805 1513 Q861 1513 901 1474 Q941 1435 941 1381 Q941 1326 900.5 1287 Q860 1248 802 1248 Q744 1248 703.5 1287 Q663 1326 663 1382 Q663 1436 704 1474.5 Q745 1513 805 1513 Z " />
<glyph glyph-name="dagger" unicode="&#x2020;" horiz-adv-x="1181" d="M482 919 L150 919 L150 1112 L482 1112 L482 1516 L698 1516 L698 1112 L1031 1112 L1031 919 L698 919 L698 -201 L482 -201 L482 919 Z " />
<glyph glyph-name="degree" unicode="&#xb0;" horiz-adv-x="789" d="M399 1542 Q561 1542 657 1441 Q741 1352 741 1215 Q741 1078 657 989 Q562 888 394 888 Q226 888 131 989 Q47 1078 47 1214 Q47 1354 131 1441 Q229 1542 399 1542 Z M391 1401 Q301 1401 252 1352.5 Q203 1304 203 1215 Q203 1125 252.5 1077 Q302 1029 394 1029 Q493 1029 542 1085 Q585 1134 585 1214 Q585 1306 535.5 1353.5 Q486 1401 391 1401 Z " />
<glyph glyph-name="cent" unicode="&#xa2;" horiz-adv-x="1303" d="M623 -29 L623 296 Q483 309 380 370 Q168 496 168 805 Q168 996 250 1128 Q350 1287 527 1327 Q567 1336 623 1340 L623 1617 L779 1617 L779 1339 Q942 1322 1033 1244 Q1154 1140 1154 956 L932 956 Q923 1094 779 1133 L779 505 Q866 515 923 540.5 Q980 566 1044 623 L1170 459 Q1020 312 779 294 L779 -29 L623 -29 Z M623 520 L623 1128 Q536 1098 502 1065 Q415 979 415 820 Q415 650 526 566 Q553 544 623 520 Z " />
<glyph glyph-name="sterling" unicode="&#xa3;" horiz-adv-x="1303" d="M65 637 L65 820 L265 820 Q211 983 211 1088 Q211 1293 354 1401 Q491 1504 709 1504 Q946 1504 1077 1378.5 Q1208 1253 1209 1026 L976 1026 Q971 1131 925 1194 Q854 1291 709 1291 Q605 1291 535 1246 Q457 1194 457 1087 Q457 987 510 820 L832 820 L832 637 L544 637 Q546 623 547 616 Q564 524 564 477 Q564 417 557 389.5 Q550 362 511 271 Q670 196 828 196 Q939 196 1003 250 Q1067 304 1079 407 L1313 407 Q1293 244 1207 133 Q1082 -28 833 -28 Q724 -28 610.5 4 Q497 36 406 91 Q330 27 256.5 2 Q183 -23 65 -26 L65 215 Q139 226 177.5 242 Q216 258 246 292 Q317 368 317 509 Q317 551 297 637 L65 637 Z " />
<glyph glyph-name="section" unicode="&#xa7;" horiz-adv-x="1183" d="M295 933 Q198 1016 198 1153 Q198 1315 309 1412 Q412 1503 597 1503 Q794 1503 899 1412.5 Q1004 1322 1005 1153 L785 1153 Q779 1219 750 1251 Q699 1307 592 1307 Q520 1307 479 1272.5 Q438 1238 438 1178 Q438 1114 487 1082 Q530 1053 679 1017 Q798 988 858.5 963 Q919 938 961 900 Q1000 865 1023 809.5 Q1046 754 1046 696 Q1046 549 917 448 Q1011 366 1011 216 Q1011 34 889 -66 Q779 -157 576 -157 Q120 -157 119 218 L337 218 Q345 140 378 103 Q435 39 570 39 Q663 39 715 77 Q772 119 772 194 Q772 264 724 302 Q695 324 659.5 337 Q624 350 501 381 Q300 433 224 501 Q188 534 166.5 586.5 Q145 639 145 695 Q145 841 295 933 Z M451 856 Q442 850 437 847 Q398 821 383.5 797 Q369 773 369 736 Q369 672 416 639 Q450 614 593 573 L760 526 Q822 574 822 650 Q822 718 771 754 Q750 769 726.5 777 Q703 785 586 818 L451 856 Z " />
<glyph glyph-name="bullet" unicode="&#x2022;" horiz-adv-x="1171" d="M591 1040 Q729 1040 823 940 Q904 853 904 730 Q904 589 800 498 Q710 420 585 420 Q440 420 347 520 Q266 608 266 733 Q266 869 371 962 Q459 1040 591 1040 Z " />
<glyph glyph-name="paragraph" unicode="&#xb6;" horiz-adv-x="1378" d="M685 1268 L685 -422 L471 -422 L471 623 Q307 638 211 710 Q53 825 53 1048 Q53 1249 180 1365 Q247 1426 334.5 1452 Q422 1478 562 1478 L1109 1478 L1109 -422 L895 -422 L895 1268 L685 1268 Z " />
<glyph glyph-name="germandbls" unicode="&#xdf;" horiz-adv-x="1336" d="M158 0 L158 1058 Q158 1211 203 1306 Q319 1548 648 1548 Q864 1548 994 1442 Q1109 1350 1109 1190 Q1109 1088 1059.5 1018 Q1010 948 898 895 Q1027 860 1102 786 Q1231 660 1231 444 Q1231 223 1119 97 Q1004 -32 768 -32 Q689 -32 603 -17 L630 195 Q692 179 748 179 Q877 179 936 269 Q984 342 984 462 Q984 653 853 729 Q811 754 759.5 763 Q708 772 600 773 L600 967 Q702 969 765 999 Q817 1022 845.5 1066 Q874 1110 874 1164 Q874 1252 814 1301.5 Q754 1351 646 1351 Q522 1351 461.5 1278 Q401 1205 401 1056 L401 0 L158 0 Z " />
<glyph glyph-name="registered" unicode="&#xae;" horiz-adv-x="1442" d="M519 927 L519 1475 L730 1475 Q838 1475 888 1448 Q967 1406 967 1309 Q967 1223 889 1181 Q911 1158 927 1112 L992 927 L839 927 L805 1030 Q787 1097 767.5 1115 Q748 1133 693 1133 L659 1133 L659 927 L519 927 Z M659 1237 L709 1237 Q772 1237 798 1252.5 Q824 1268 824 1305 Q824 1337 800.5 1350 Q777 1363 719 1363 L659 1363 L659 1237 Z M729 1783 Q982 1783 1162 1610 Q1339 1440 1339 1196 Q1339 953 1162 783 Q982 609 721 609 Q459 609 279 783 Q102 953 102 1195 Q102 1444 279 1610 Q463 1783 729 1783 Z M714 1643 Q517 1643 380 1509 Q252 1385 252 1195 Q252 1008 380 883 Q517 749 720 749 Q925 749 1062 883 Q1189 1008 1189 1195 Q1189 1387 1062 1509 Q921 1643 714 1643 Z " />
<glyph glyph-name="copyright" unicode="&#xa9;" horiz-adv-x="1923" d="M1301 849 L1141 849 Q1130 975 980 975 Q873 975 820 904 Q769 834 769 730 Q769 621 828 556 Q887 491 987 491 Q1114 491 1225 572 L1315 459 Q1234 396 1158.5 369.5 Q1083 343 988 343 Q802 343 694 454 Q592 559 592 729 Q592 906 700 1017 Q801 1121 974 1121 Q1130 1121 1212.5 1052.5 Q1295 984 1301 849 Z M973 1535 Q1205 1535 1406 1417 Q1615 1294 1720 1087 Q1801 925 1801 737 Q1801 406 1562 175 Q1318 -61 962 -61 Q607 -61 362 175 Q123 406 123 735 Q123 960 237 1145 Q357 1341 575 1448 Q753 1535 973 1535 Z M954 1351 Q773 1351 617 1259 Q452 1161 376 997 Q323 883 323 737 Q323 479 497 307 Q684 123 962 123 Q1241 123 1427 307 Q1601 479 1601 736 Q1601 1000 1427 1167 Q1236 1351 954 1351 Z " />
<glyph glyph-name="trademark" unicode="&#x2122;" horiz-adv-x="1644" d="M437 1341 L437 769 L271 769 L271 1341 L45 1341 L45 1475 L663 1475 L663 1341 L437 1341 Z M904 1234 L869 769 L705 769 L768 1475 L968 1475 L1117 1045 L1266 1475 L1465 1475 L1527 769 L1364 769 L1329 1234 L1171 769 L1062 769 L904 1234 Z " />
<glyph glyph-name="acute" unicode="&#xb4;" horiz-adv-x="1024" d="M360 1225 L556 1566 L808 1566 L524 1225 L360 1225 Z " />
<glyph glyph-name="dieresis" unicode="&#xa8;" horiz-adv-x="1024" d="M322 1513 Q378 1513 418 1474 Q458 1435 458 1381 Q458 1326 417.5 1287 Q377 1248 319 1248 Q261 1248 220.5 1287 Q180 1326 180 1382 Q180 1437 221 1475 Q262 1513 322 1513 Z M709 1513 Q765 1513 805 1474 Q845 1435 845 1381 Q845 1326 804.5 1287 Q764 1248 706 1248 Q648 1248 607.5 1287 Q567 1326 567 1382 Q567 1436 608 1474.5 Q649 1513 709 1513 Z " />
<glyph glyph-name="notequal" unicode="&#x2260;" horiz-adv-x="1303" d="M159 460 L159 664 L501 664 L573 808 L159 808 L159 1012 L669 1012 L794 1269 L978 1175 L897 1012 L1144 1012 L1144 808 L801 808 L729 664 L1144 664 L1144 460 L633 460 L509 204 L325 297 L405 460 L159 460 Z " />
<glyph glyph-name="AE" unicode="&#xc6;" horiz-adv-x="2021" d="M967 452 L437 452 L156 0 L-127 0 L824 1475 L1912 1475 L1912 1265 L1220 1265 L1220 875 L1780 875 L1780 665 L1220 665 L1220 210 L1928 210 L1928 0 L967 0 L967 452 Z M967 653 L967 1305 L559 653 L967 653 Z " />
<glyph glyph-name="Oslash" unicode="&#xd8;" horiz-adv-x="1581" d="M273 185 Q107 386 107 735 Q107 1043 235 1237 Q411 1503 792 1503 Q1023 1503 1178 1405 L1256 1510 L1486 1510 L1315 1281 Q1474 1082 1474 740 Q1474 432 1346 238 Q1170 -29 791 -29 Q565 -29 413 64 L325 -55 L95 -55 L273 185 Z M429 396 L1038 1217 Q942 1283 791 1283 Q364 1283 364 739 Q364 523 429 396 Z M1157 1067 L552 252 Q642 191 793 191 Q1006 191 1107 326 Q1217 471 1217 738 Q1217 937 1157 1067 Z " />
<glyph glyph-name="infinity" unicode="&#x221e;" horiz-adv-x="1664" d="M832 578 Q678 377 464 377 Q296 377 200 477 Q113 569 113 714 Q113 861 201 952 Q296 1052 466 1052 Q677 1052 832 851 Q892 928 945 968 Q1058 1052 1198 1052 Q1367 1052 1463 952 Q1551 861 1551 714 Q1551 569 1464 477 Q1368 377 1200 377 Q987 377 832 578 Z M743 714 L727 734 Q601 887 480 887 Q400 887 349 839 Q298 791 298 715 Q298 637 349 590 Q400 542 480 542 Q546 542 598 574 Q650 606 726 694 L743 714 Z M920 714 L938 694 Q996 626 1036 596 Q1108 542 1184 542 Q1265 542 1316 590 Q1367 638 1367 714 Q1367 791 1317 839 Q1265 887 1184 887 Q1063 887 937 734 L920 714 Z " />
<glyph glyph-name="plusminus" unicode="&#xb1;" horiz-adv-x="1303" d="M159 666 L159 870 L543 870 L543 1223 L761 1223 L761 870 L1144 870 L1144 666 L761 666 L761 314 L543 314 L543 666 L159 666 Z M166 0 L166 204 L1137 204 L1137 0 L166 0 Z " />
<glyph glyph-name="lessequal" unicode="&#x2264;" horiz-adv-x="1303" d="M444 827 L1098 523 L1098 291 L198 749 L198 904 L1098 1363 L1098 1130 L444 827 Z M204 0 L204 213 L1098 213 L1098 0 L204 0 Z " />
<glyph glyph-name="greaterequal" unicode="&#x2265;" horiz-adv-x="1303" d="M858 827 L204 1130 L204 1363 L1104 904 L1104 749 L204 291 L204 523 L858 827 Z M204 0 L204 213 L1098 213 L1098 0 L204 0 Z " />
<glyph glyph-name="yen" unicode="&#xa5;" horiz-adv-x="1303" d="M525 0 L525 305 L160 305 L160 460 L525 460 L525 581 L160 581 L160 736 L437 736 L-2 1475 L273 1475 L652 813 L1029 1475 L1304 1475 L866 736 L1142 736 L1142 581 L778 581 L778 460 L1142 460 L1142 305 L778 305 L778 0 L525 0 Z " />
<glyph glyph-name="mu" unicode="&#xb5;" horiz-adv-x="1303" d="M198 1103 L441 1103 L441 450 Q441 326 458 277 Q484 201 583 201 Q650 201 713 236.5 Q776 272 862 356 L862 1103 L1104 1103 L1104 0 L862 0 L862 132 Q764 45 698 14 Q632 -17 546 -17 Q493 -17 441 3 L441 -439 L198 -439 L198 1103 Z " />
<glyph glyph-name="partialdiff" unicode="&#x2202;" horiz-adv-x="1303" d="M765 1038 Q636 1213 376 1422 L507 1553 Q744 1384 905 1199 Q1054 1029 1122.5 868.5 Q1191 708 1191 529 Q1191 266 1041 117 Q893 -31 652 -31 Q410 -31 263 117 Q112 267 112 515 Q112 763 262 918 Q404 1063 618 1063 Q691 1063 765 1038 Z M648 862 Q511 862 430 761 Q359 674 359 520 Q359 368 430 280 Q511 179 652 179 Q793 179 874 280 Q945 368 945 519 Q945 673 874 761 Q794 862 648 862 Z " />
<glyph glyph-name="summation" unicode="&#x2211;" horiz-adv-x="1307" d="M1222 1572 L1222 1374 L390 1374 L872 646 L353 -158 L1244 -158 L1244 -356 L72 -356 L72 -160 L588 644 L103 1380 L103 1572 L1222 1572 Z " />
<glyph glyph-name="product" unicode="&#x220f;" horiz-adv-x="1476" d="M1053 1374 L422 1374 L422 -356 L181 -356 L181 1572 L1294 1572 L1294 -356 L1053 -356 L1053 1374 Z " />
<glyph glyph-name="integral" unicode="&#x222b;" horiz-adv-x="858" d="M61 -335 L105 -140 Q154 -163 194 -163 Q274 -163 298 -102 Q312 -68 312 105 L312 1053 Q312 1213 317 1278 Q322 1343 339 1397 Q396 1577 617 1577 Q691 1577 795 1550 L751 1356 Q702 1380 660 1380 Q581 1380 557 1318 Q544 1284 544 1136 L544 164 Q544 -13 536 -83.5 Q528 -154 502 -210 Q468 -282 395 -321 Q322 -360 221 -360 Q143 -360 61 -335 Z " />
<glyph glyph-name="ordfeminine" unicode="&#xaa;" horiz-adv-x="818" d="M523 824 L523 888 Q437 807 297 807 Q54 807 54 1014 Q54 1123 121.5 1172 Q189 1221 339 1221 Q350 1221 491 1217 L491 1248 Q491 1304 459 1326.5 Q427 1349 347 1349 Q256 1349 160 1315 L108 1468 Q236 1506 360 1506 Q540 1506 614 1438.5 Q688 1371 688 1208 L688 824 L523 824 Z M491 1085 Q411 1090 371 1090 Q304 1090 277.5 1074 Q251 1058 251 1018 Q251 948 345 948 Q412 948 451.5 974.5 Q491 1001 491 1046 L491 1085 Z " />
<glyph glyph-name="ordmasculine" unicode="&#xba;" horiz-adv-x="823" d="M417 1506 Q583 1506 683 1416 Q788 1320 788 1158 Q788 995 683 899 Q583 809 412 809 Q240 809 141 899 Q36 995 36 1157 Q36 1321 141 1416 Q242 1506 417 1506 Z M409 1345 Q329 1345 282 1294.5 Q235 1244 235 1157 Q235 1071 282.5 1020.5 Q330 970 412 970 Q494 970 541.5 1020 Q589 1070 589 1157 Q589 1246 541.5 1295.5 Q494 1345 409 1345 Z " />
<glyph glyph-name="Omega" unicode="&#x2126;" horiz-adv-x="1612" d="M88 0 L88 177 L365 177 Q255 258 203 328 Q84 489 84 750 Q84 1041 225 1239 Q413 1504 802 1504 Q1190 1504 1379 1239 Q1520 1041 1520 750 Q1520 550 1453 413 Q1386 276 1239 177 L1516 177 L1516 0 L894 0 L894 209 Q1040 243 1132 336 Q1263 468 1263 749 Q1263 1007 1143 1151 Q1032 1284 802 1284 Q572 1284 461 1151 Q341 1007 341 746 Q341 467 485 331 Q584 238 710 209 L710 0 L88 0 Z " />
<glyph glyph-name="ae" unicode="&#xe6;" horiz-adv-x="1918" d="M798 659 L798 721 Q798 836 767 877 Q721 937 576 937 Q490 937 453.5 908 Q417 879 392 791 L168 791 Q186 930 246 1008 Q344 1134 581 1134 Q736 1134 823 1096.5 Q910 1059 956 971 Q1087 1135 1325 1135 Q1535 1135 1669 1000 Q1754 914 1791.5 793 Q1829 672 1832 475 L1040 475 Q1057 362 1089 308 Q1168 178 1335 178 Q1433 178 1511.5 205.5 Q1590 233 1699 305 L1806 121 Q1580 -32 1343 -32 Q1084 -32 935 156 Q863 69 738 18 Q613 -33 471 -33 Q290 -33 190 47 Q80 135 80 315 Q80 519 217 609 Q311 671 526 671 Q597 671 798 659 Z M804 478 Q681 491 552 491 Q419 491 374 456 Q323 416 323 328 Q323 243 367 207 Q411 171 514 171 Q689 171 763 255 Q787 282 795.5 311 Q804 340 804 396 L804 478 Z M1586 657 Q1566 771 1529 824 Q1453 935 1315 935 Q1097 935 1043 657 L1586 657 Z " />
<glyph glyph-name="oslash" unicode="&#xf8;" horiz-adv-x="1269" d="M225 147 Q94 311 94 551 Q94 816 245 977 Q394 1135 638 1135 Q723 1135 786 1117.5 Q849 1100 925 1056 L991 1140 L1188 1140 L1045 954 Q1176 800 1176 551 Q1176 287 1025 126 Q876 -32 633 -32 Q476 -32 345 46 L279 -39 L81 -39 L225 147 Z M380 350 L790 879 Q717 926 637 926 Q491 926 412 815 Q341 715 341 543 Q341 479 347.5 447 Q354 415 380 350 Z M891 752 L480 223 Q554 177 632 177 Q777 177 858 288 Q929 387 929 551 Q929 616 923.5 649.5 Q918 683 901 726 Q893 745 891 752 Z " />
<glyph glyph-name="questiondown" unicode="&#xbf;" horiz-adv-x="1090" d="M678 958 L678 908 Q678 760 627 683 Q602 645 568 618.5 Q534 592 436 535 Q345 482 310.5 432.5 Q276 383 276 306 Q276 212 338 162 Q404 107 511 107 Q655 107 722 209 Q755 258 768 364 L996 364 Q988 265 969.5 204.5 Q951 144 912 85 Q783 -107 503 -107 Q287 -107 157 8 Q29 123 29 313 Q29 483 129 581 Q183 633 330 720 Q403 763 426 799.5 Q449 836 449 908 L449 958 L678 958 Z M567 1441 Q633 1441 680.5 1394 Q728 1347 728 1282 Q728 1211 674 1163 Q628 1123 565 1123 Q492 1123 444 1175 Q402 1221 402 1283 Q402 1349 450 1395 Q498 1441 567 1441 Z " />
<glyph glyph-name="exclamdown" unicode="&#xa1;" horiz-adv-x="773" d="M497 958 L529 -74 L245 -74 L277 958 L497 958 Z M390 1441 Q455 1441 502.5 1394 Q550 1347 550 1282 Q550 1211 496 1163 Q450 1123 387 1123 Q314 1123 266 1175 Q224 1220 224 1283 Q224 1349 272 1395 Q320 1441 390 1441 Z " />
<glyph glyph-name="logicalnot" unicode="&#xac;" horiz-adv-x="1303" d="M205 638 L205 842 L1043 842 L1043 281 L829 281 L829 638 L205 638 Z " />
<glyph glyph-name="radical" unicode="&#x221a;" horiz-adv-x="1303" d="M436 0 L238 582 L89 582 L89 779 L421 779 L571 273 L1018 1825 L1599 1825 L1599 1626 L1201 1626 L712 0 L436 0 Z " />
<glyph glyph-name="florin" unicode="&#x192;" horiz-adv-x="1303" d="M295 701 L295 894 L539 894 L582 1108 Q609 1248 628 1295 Q678 1421 764 1468 Q832 1506 929 1506 Q1025 1506 1145 1456 L1100 1268 Q1002 1307 960 1307 Q902 1307 872.5 1265.5 Q843 1224 820 1108 L777 894 L971 894 L971 701 L745 701 L644 135 Q606 -77 554 -169 Q464 -327 277 -327 Q183 -327 66 -284 L109 -82 Q186 -116 240 -116 Q311 -116 349.5 -50.5 Q388 15 418 187 L508 701 L295 701 Z " />
<glyph glyph-name="approxequal" unicode="&#x2248;" horiz-adv-x="1303" d="M275 758 L131 886 Q239 1010 311 1055 Q383 1100 472 1100 Q541 1100 592.5 1080.5 Q644 1061 781 984 Q815 965 864 965 Q954 965 1065 1094 L1209 968 Q1115 852 1036 801 Q957 750 872 750 Q806 750 756.5 767.5 Q707 785 563 860 Q520 882 473 882 Q429 882 385.5 854.5 Q342 827 275 758 Z M275 381 L131 509 Q239 634 310.5 679 Q382 724 472 724 Q576 724 685 662 Q782 607 804.5 598 Q827 589 864 589 Q954 589 1065 718 L1209 592 Q1112 474 1034.5 424 Q957 374 871 374 Q806 374 756 392 Q706 410 563 484 Q520 506 473 506 Q393 506 275 381 Z " />
<glyph glyph-name="increment" unicode="&#x2206;" horiz-adv-x="1303" d="M1363 0 L-61 0 L541 1475 L762 1475 L1363 0 Z M1034 204 L651 1200 L269 204 L1034 204 Z " />
<glyph glyph-name="guillemotleft" unicode="&#xab;" horiz-adv-x="978" d="M714 575 L954 190 L746 190 L483 575 L746 959 L954 959 L714 575 Z M300 575 L540 190 L332 190 L69 575 L332 959 L540 959 L300 575 Z " />
<glyph glyph-name="guillemotright" unicode="&#xbb;" horiz-adv-x="978" d="M264 575 L24 959 L232 959 L495 575 L232 190 L24 190 L264 575 Z M678 575 L438 959 L646 959 L909 575 L646 190 L438 190 L678 575 Z " />
<glyph glyph-name="ellipsis" unicode="&#x2026;" horiz-adv-x="1955" d="M325 289 Q391 289 438 242 Q485 195 485 130 Q485 59 431 12 Q384 -29 322 -29 Q254 -29 206.5 17.5 Q159 64 159 131 Q159 197 207.5 243 Q256 289 325 289 Z M981 289 Q1047 289 1094 242 Q1141 195 1141 130 Q1141 59 1087 12 Q1041 -29 978 -29 Q910 -29 862.5 17.5 Q815 64 815 131 Q815 197 863 243 Q911 289 981 289 Z M1637 289 Q1702 289 1749.5 242 Q1797 195 1797 130 Q1797 59 1743 12 Q1696 -29 1634 -29 Q1566 -29 1518.5 17.5 Q1471 64 1471 131 Q1471 197 1519.5 243 Q1568 289 1637 289 Z " />
<glyph glyph-name="Agrave" unicode="&#xc0;" horiz-adv-x="1382" d="M987 379 L395 379 L258 0 L1 0 L580 1475 L803 1475 L1381 0 L1125 0 L987 379 Z M915 583 L691 1200 L467 583 L915 583 Z M669 1603 L385 1945 L637 1945 L833 1603 L669 1603 Z " />
<glyph glyph-name="Atilde" unicode="&#xc3;" horiz-adv-x="1382" d="M987 379 L395 379 L258 0 L1 0 L580 1475 L803 1475 L1381 0 L1125 0 L987 379 Z M915 583 L691 1200 L467 583 L915 583 Z M505 1648 L365 1648 Q402 1885 576 1885 Q613 1885 640.5 1875.5 Q668 1866 747 1826 Q784 1807 806 1807 Q851 1807 875 1884 L1017 1884 Q991 1756 939 1699 Q887 1642 796 1642 Q759 1642 731.5 1651.5 Q704 1661 626 1701 Q592 1719 574 1719 Q530 1719 505 1648 Z " />
<glyph glyph-name="Otilde" unicode="&#xd5;" horiz-adv-x="1571" d="M798 1504 Q1165 1504 1342 1237 Q1470 1044 1470 737 Q1470 432 1342 237 Q1166 -29 786 -29 Q406 -29 230 237 Q102 432 102 735 Q102 1044 230 1237 Q407 1504 798 1504 Z M779 1284 Q571 1284 469 1149 Q359 1005 359 737 Q359 191 786 191 Q1002 191 1103 326 Q1213 472 1213 735 Q1213 1006 1103 1149 Q1000 1284 779 1284 Z M600 1648 L460 1648 Q497 1885 671 1885 Q708 1885 735.5 1875.5 Q763 1866 842 1826 Q879 1807 901 1807 Q946 1807 970 1884 L1112 1884 Q1086 1756 1034 1699 Q982 1642 891 1642 Q854 1642 826.5 1651.5 Q799 1661 721 1701 Q687 1719 669 1719 Q625 1719 600 1648 Z " />
<glyph glyph-name="OE" unicode="&#x152;" horiz-adv-x="2114" d="M1313 210 L2022 210 L2022 0 L1300 0 Q1237 0 1115 -8 Q950 -18 874 -18 Q629 -18 469 64 Q280 160 184 349 Q97 519 97 738 Q97 1095 315 1302 Q423 1405 565 1451 Q695 1493 873 1493 Q953 1493 1115 1483 Q1238 1475 1303 1475 L2005 1475 L2005 1265 L1313 1265 L1313 875 L1873 875 L1873 665 L1313 665 L1313 210 Z M1060 210 L1060 1265 Q972 1280 866 1280 Q626 1280 488 1131 Q354 988 354 738 Q354 465 510 322 Q648 195 878 195 Q970 195 1060 210 Z " />
<glyph glyph-name="oe" unicode="&#x153;" horiz-adv-x="2075" d="M1052 194 Q1004 125 960 86 Q829 -32 629 -32 Q388 -32 239 127 Q88 288 88 551 Q88 816 239 976 Q389 1135 628 1135 Q902 1135 1054 906 Q1095 971 1132 1010 Q1254 1135 1465 1135 Q1674 1135 1808 1002 Q1894 916 1932.5 792.5 Q1971 669 1974 475 L1182 475 Q1199 360 1231 308 Q1310 178 1477 178 Q1574 178 1653 205.5 Q1732 233 1841 305 L1948 121 Q1872 70 1817 44 Q1659 -32 1480 -32 Q1333 -32 1230.5 22 Q1128 76 1052 194 Z M630 925 Q490 925 408 814 Q335 716 335 551 Q335 388 408 289 Q490 178 634 178 Q779 178 861 289 Q934 387 934 550 Q934 717 861 814 Q778 925 630 925 Z M1728 657 Q1708 771 1671 824 Q1595 936 1457 936 Q1346 936 1280 869 Q1214 802 1184 657 L1728 657 Z " />
<glyph glyph-name="endash" unicode="&#x2013;" horiz-adv-x="990" d="M69 510 L69 720 L922 720 L922 510 L69 510 Z " />
<glyph glyph-name="emdash" unicode="&#x2014;" horiz-adv-x="1303" d="M-90 510 L-90 720 L1392 720 L1392 510 L-90 510 Z " />
<glyph glyph-name="quotedblleft" unicode="&#x201c;" horiz-adv-x="956" d="M57 964 L291 1475 L481 1475 L336 964 L57 964 Z M451 964 L685 1475 L876 1475 L730 964 L451 964 Z " />
<glyph glyph-name="quotedblright" unicode="&#x201d;" horiz-adv-x="956" d="M84 964 L230 1475 L508 1475 L275 964 L84 964 Z M478 964 L624 1475 L903 1475 L669 964 L478 964 Z " />
<glyph glyph-name="quoteleft" unicode="&#x2018;" horiz-adv-x="561" d="M57 964 L291 1475 L481 1475 L336 964 L57 964 Z " />
<glyph glyph-name="quoteright" unicode="&#x2019;" horiz-adv-x="561" d="M84 964 L230 1475 L508 1475 L275 964 L84 964 Z " />
<glyph glyph-name="divide" unicode="&#xf7;" horiz-adv-x="1303" d="M159 634 L159 838 L1144 838 L1144 634 L159 634 Z M655 1273 Q717 1273 762 1229.5 Q807 1186 807 1125 Q807 1063 761.5 1019.5 Q716 976 652 976 Q587 976 542 1019.5 Q497 1063 497 1126 Q497 1187 543 1230 Q589 1273 655 1273 Z M655 496 Q717 496 762 452 Q807 408 807 348 Q807 281 756 237 Q711 199 652 199 Q587 199 542 242.5 Q497 286 497 349 Q497 410 543 453 Q589 496 655 496 Z " />
<glyph glyph-name="lozenge" unicode="&#x25ca;" horiz-adv-x="1192" d="M10 704 L596 1454 L1183 704 L596 -46 L10 704 Z M291 704 L596 315 L901 704 L596 1093 L291 704 Z " />
<glyph glyph-name="ydieresis" unicode="&#xff;" horiz-adv-x="1064" d="M412 27 L14 1103 L274 1103 L531 312 L789 1103 L1049 1103 L644 14 Q580 -160 541.5 -231.5 Q503 -303 447 -355 Q397 -401 331.5 -419 Q266 -437 140 -438 L140 -229 Q240 -228 277 -205 Q333 -170 378 -57 L412 27 Z M341 1513 Q397 1513 437 1474 Q477 1435 477 1381 Q477 1326 436.5 1287 Q396 1248 338 1248 Q280 1248 239.5 1287 Q199 1326 199 1382 Q199 1437 240 1475 Q281 1513 341 1513 Z M728 1513 Q784 1513 824 1474 Q864 1435 864 1381 Q864 1326 823.5 1287 Q783 1248 725 1248 Q667 1248 626.5 1287 Q586 1326 586 1382 Q586 1436 627 1474.5 Q668 1513 728 1513 Z " />
<glyph glyph-name="Ydieresis" unicode="&#x178;" horiz-adv-x="1223" d="M485 0 L485 565 L-23 1475 L252 1475 L611 800 L970 1475 L1245 1475 L738 565 L738 0 L485 0 Z M407 1879 Q463 1879 503 1840 Q543 1801 543 1747 Q543 1692 502.5 1653 Q462 1614 404 1614 Q346 1614 305.5 1653 Q265 1692 265 1748 Q265 1803 306 1841 Q347 1879 407 1879 Z M821 1879 Q877 1879 917 1840 Q957 1801 957 1747 Q957 1692 916.5 1653 Q876 1614 818 1614 Q760 1614 719.5 1653 Q679 1692 679 1748 Q679 1803 720 1841 Q761 1879 821 1879 Z " />
<glyph glyph-name="fraction" unicode="&#x2044;" horiz-adv-x="324" d="M-323 0 L449 1475 L646 1475 L-126 0 L-323 0 Z " />
<glyph glyph-name="Euro" unicode="&#x20ac;" horiz-adv-x="1303" d="M-38 495 L17 650 L141 650 Q139 713 139 731 Q139 745 140 770 L-38 770 L17 925 L154 925 Q186 1119 274 1253 Q439 1506 781 1506 Q1032 1506 1172.5 1382.5 Q1313 1259 1314 1038 L1078 1038 Q1071 1139 1020 1198 Q940 1290 783 1290 Q486 1290 413 925 L1045 925 L990 770 L397 770 Q396 740 396 728 Q396 714 399 650 L942 650 L887 495 L426 495 Q458 389 511 322 Q613 191 803 191 Q919 191 1008 236 Q1097 281 1189 385 L1341 210 Q1247 102 1146 48 Q996 -31 792 -31 Q479 -31 312 165 Q201 294 160 495 L-38 495 Z " />
<glyph glyph-name="guilsinglleft" unicode="&#x2039;" horiz-adv-x="564" d="M300 575 L540 190 L332 190 L69 575 L332 959 L540 959 L300 575 Z " />
<glyph glyph-name="guilsinglright" unicode="&#x203a;" horiz-adv-x="564" d="M264 575 L24 959 L232 959 L495 575 L232 190 L24 190 L264 575 Z " />
<glyph glyph-name="fi" unicode="&#xfb01;" horiz-adv-x="1334" d="M230 0 L230 893 L74 893 L74 1103 L230 1103 L230 1138 Q230 1333 314 1429 Q405 1533 611 1533 Q704 1533 798 1516 L784 1316 Q696 1331 636 1331 Q547 1331 510 1285.5 Q473 1240 473 1131 L473 1103 L755 1103 L755 893 L473 893 L473 0 L230 0 Z M928 0 L928 1103 L1171 1103 L1171 0 L928 0 Z M1052 1522 Q1112 1522 1155 1480.5 Q1198 1439 1198 1380 Q1198 1321 1154.5 1279.5 Q1111 1238 1050 1238 Q988 1238 944.5 1280 Q901 1322 901 1381 Q901 1440 945 1481 Q989 1522 1052 1522 Z " />
<glyph glyph-name="fl" unicode="&#xfb02;" horiz-adv-x="1325" d="M230 0 L230 893 L74 893 L74 1103 L230 1103 L230 1138 Q230 1333 314 1429 Q405 1533 611 1533 Q704 1533 798 1516 L784 1316 Q696 1331 636 1331 Q547 1331 510 1285.5 Q473 1240 473 1131 L473 1103 L755 1103 L755 893 L473 893 L473 0 L230 0 Z M924 0 L924 1516 L1167 1516 L1167 0 L924 0 Z " />
<glyph glyph-name="daggerdbl" unicode="&#x2021;" horiz-adv-x="1181" d="M482 921 L150 921 L150 1114 L482 1114 L482 1516 L698 1516 L698 1113 L1031 1113 L1031 920 L698 920 L698 425 L1031 425 L1031 224 L698 224 L698 -171 L482 -171 L482 225 L150 225 L150 426 L482 426 L482 921 Z " />
<glyph glyph-name="periodcentered" unicode="&#xb7;" horiz-adv-x="643" d="M325 774 Q391 774 438 727 Q485 680 485 615 Q485 544 431 497 Q384 456 322 456 Q254 456 206.5 502.5 Q159 549 159 616 Q159 682 207.5 728 Q256 774 325 774 Z " />
<glyph glyph-name="quotesinglbase" unicode="&#x201a;" horiz-adv-x="561" d="M60 -231 L206 280 L484 280 L251 -231 L60 -231 Z " />
<glyph glyph-name="quotedblbase" unicode="&#x201e;" horiz-adv-x="956" d="M58 -229 L204 282 L482 282 L249 -229 L58 -229 Z M452 -229 L598 282 L877 282 L643 -229 L452 -229 Z " />
<glyph glyph-name="perthousand" unicode="&#x2030;" horiz-adv-x="2750" d="M464 1506 Q659 1506 759 1387 Q853 1276 853 1098 Q853 921 759 809 Q660 690 454 690 Q255 690 156 809 Q62 921 62 1097 Q62 1276 156 1387 Q256 1506 464 1506 Z M455 1322 Q281 1322 281 1098 Q281 874 458 874 Q634 874 634 1097 Q634 1212 590 1267 Q546 1322 455 1322 Z M1421 787 Q1616 787 1716 668 Q1810 557 1810 379 Q1810 202 1716 90 Q1617 -29 1414 -29 Q1212 -29 1113 90 Q1019 202 1019 378 Q1019 557 1113 668 Q1213 787 1421 787 Z M1411 603 Q1238 603 1238 379 Q1238 155 1414 155 Q1591 155 1591 378 Q1591 493 1547 548 Q1503 603 1411 603 Z M2298 787 Q2492 787 2593 668 Q2687 557 2687 379 Q2687 202 2593 90 Q2493 -29 2288 -29 Q2089 -29 1990 90 Q1896 202 1896 378 Q1896 557 1990 668 Q2090 787 2298 787 Z M2288 603 Q2115 603 2115 379 Q2115 155 2292 155 Q2468 155 2468 378 Q2468 493 2424 548 Q2380 603 2288 603 Z M378 0 L1273 1475 L1490 1475 L595 0 L378 0 Z " />
<glyph glyph-name="Acircumflex" unicode="&#xc2;" horiz-adv-x="1382" d="M987 379 L395 379 L258 0 L1 0 L580 1475 L803 1475 L1381 0 L1125 0 L987 379 Z M915 583 L691 1200 L467 583 L915 583 Z M688 1794 L532 1603 L305 1603 L613 1945 L763 1945 L1071 1603 L844 1603 L688 1794 Z " />
<glyph glyph-name="Ecircumflex" unicode="&#xca;" horiz-adv-x="1227" d="M169 0 L169 1475 L1133 1475 L1133 1265 L422 1265 L422 875 L1001 875 L1001 665 L422 665 L422 210 L1150 210 L1150 0 L169 0 Z M650 1794 L494 1603 L267 1603 L575 1945 L725 1945 L1033 1603 L806 1603 L650 1794 Z " />
<glyph glyph-name="Aacute" unicode="&#xc1;" horiz-adv-x="1382" d="M987 379 L395 379 L258 0 L1 0 L580 1475 L803 1475 L1381 0 L1125 0 L987 379 Z M915 583 L691 1200 L467 583 L915 583 Z M545 1603 L741 1945 L993 1945 L709 1603 L545 1603 Z " />
<glyph glyph-name="Edieresis" unicode="&#xcb;" horiz-adv-x="1227" d="M169 0 L169 1475 L1133 1475 L1133 1265 L422 1265 L422 875 L1001 875 L1001 665 L422 665 L422 210 L1150 210 L1150 0 L169 0 Z M449 1879 Q505 1879 545 1840 Q585 1801 585 1747 Q585 1692 544.5 1653 Q504 1614 446 1614 Q388 1614 347.5 1653 Q307 1692 307 1748 Q307 1803 348 1841 Q389 1879 449 1879 Z M863 1879 Q919 1879 959 1840 Q999 1801 999 1747 Q999 1692 958.5 1653 Q918 1614 860 1614 Q802 1614 761.5 1653 Q721 1692 721 1748 Q721 1803 762 1841 Q803 1879 863 1879 Z " />
<glyph glyph-name="Egrave" unicode="&#xc8;" horiz-adv-x="1227" d="M169 0 L169 1475 L1133 1475 L1133 1265 L422 1265 L422 875 L1001 875 L1001 665 L422 665 L422 210 L1150 210 L1150 0 L169 0 Z M666 1603 L382 1945 L634 1945 L830 1603 L666 1603 Z " />
<glyph glyph-name="Iacute" unicode="&#xcd;" horiz-adv-x="591" d="M156 0 L156 1475 L409 1475 L409 0 L156 0 Z M150 1603 L346 1945 L598 1945 L314 1603 L150 1603 Z " />
<glyph glyph-name="Icircumflex" unicode="&#xce;" horiz-adv-x="591" d="M169 0 L169 1475 L422 1475 L422 0 L169 0 Z M293 1794 L137 1603 L-90 1603 L218 1945 L368 1945 L676 1603 L449 1603 L293 1794 Z " />
<glyph glyph-name="Idieresis" unicode="&#xcf;" horiz-adv-x="591" d="M169 0 L169 1475 L422 1475 L422 0 L169 0 Z M91 1879 Q147 1879 187 1840 Q227 1801 227 1747 Q227 1692 186.5 1653 Q146 1614 88 1614 Q30 1614 -10.5 1653 Q-51 1692 -51 1748 Q-51 1803 -10 1841 Q31 1879 91 1879 Z M505 1879 Q561 1879 601 1840 Q641 1801 641 1747 Q641 1692 600.5 1653 Q560 1614 502 1614 Q444 1614 403.5 1653 Q363 1692 363 1748 Q363 1803 404 1841 Q445 1879 505 1879 Z " />
<glyph glyph-name="Igrave" unicode="&#xcc;" horiz-adv-x="591" d="M169 0 L169 1475 L422 1475 L422 0 L169 0 Z M273 1603 L-11 1945 L241 1945 L437 1603 L273 1603 Z " />
<glyph glyph-name="Oacute" unicode="&#xd3;" horiz-adv-x="1571" d="M798 1504 Q1165 1504 1342 1237 Q1470 1044 1470 737 Q1470 432 1342 237 Q1166 -29 786 -29 Q406 -29 230 237 Q102 432 102 735 Q102 1044 230 1237 Q407 1504 798 1504 Z M779 1284 Q571 1284 469 1149 Q359 1005 359 737 Q359 191 786 191 Q1002 191 1103 326 Q1213 472 1213 735 Q1213 1006 1103 1149 Q1000 1284 779 1284 Z M634 1603 L830 1945 L1082 1945 L798 1603 L634 1603 Z " />
<glyph glyph-name="Ocircumflex" unicode="&#xd4;" horiz-adv-x="1571" d="M798 1504 Q1165 1504 1342 1237 Q1470 1044 1470 737 Q1470 432 1342 237 Q1166 -29 786 -29 Q406 -29 230 237 Q102 432 102 735 Q102 1044 230 1237 Q407 1504 798 1504 Z M779 1284 Q571 1284 469 1149 Q359 1005 359 737 Q359 191 786 191 Q1002 191 1103 326 Q1213 472 1213 735 Q1213 1006 1103 1149 Q1000 1284 779 1284 Z M783 1794 L627 1603 L400 1603 L708 1945 L858 1945 L1166 1603 L939 1603 L783 1794 Z " />
<glyph glyph-name="Ograve" unicode="&#xd2;" horiz-adv-x="1571" d="M798 1504 Q1165 1504 1342 1237 Q1470 1044 1470 737 Q1470 432 1342 237 Q1166 -29 786 -29 Q406 -29 230 237 Q102 432 102 735 Q102 1044 230 1237 Q407 1504 798 1504 Z M779 1284 Q571 1284 469 1149 Q359 1005 359 737 Q359 191 786 191 Q1002 191 1103 326 Q1213 472 1213 735 Q1213 1006 1103 1149 Q1000 1284 779 1284 Z M774 1603 L490 1945 L742 1945 L938 1603 L774 1603 Z " />
<glyph glyph-name="Uacute" unicode="&#xda;" horiz-adv-x="1417" d="M160 1475 L413 1475 L413 577 Q413 383 463 302 Q531 190 708 190 Q887 190 954 302 Q982 349 992.5 408.5 Q1003 468 1003 577 L1003 1475 L1256 1475 L1256 622 Q1256 413 1231 309 Q1192 144 1061 59 Q925 -30 708 -30 Q380 -30 247 165 Q197 240 178.5 335.5 Q160 431 160 622 L160 1475 Z M570 1603 L766 1945 L1018 1945 L734 1603 L570 1603 Z " />
<glyph glyph-name="Ucircumflex" unicode="&#xdb;" horiz-adv-x="1417" d="M160 1475 L413 1475 L413 577 Q413 383 463 302 Q531 190 708 190 Q887 190 954 302 Q982 349 992.5 408.5 Q1003 468 1003 577 L1003 1475 L1256 1475 L1256 622 Q1256 413 1231 309 Q1192 144 1061 59 Q925 -30 708 -30 Q380 -30 247 165 Q197 240 178.5 335.5 Q160 431 160 622 L160 1475 Z M706 1794 L550 1603 L323 1603 L631 1945 L781 1945 L1089 1603 L862 1603 L706 1794 Z " />
<glyph glyph-name="Ugrave" unicode="&#xd9;" horiz-adv-x="1417" d="M160 1475 L413 1475 L413 577 Q413 383 463 302 Q531 190 708 190 Q887 190 954 302 Q982 349 992.5 408.5 Q1003 468 1003 577 L1003 1475 L1256 1475 L1256 622 Q1256 413 1231 309 Q1192 144 1061 59 Q925 -30 708 -30 Q380 -30 247 165 Q197 240 178.5 335.5 Q160 431 160 622 L160 1475 Z M696 1603 L412 1945 L664 1945 L860 1603 L696 1603 Z " />
<glyph glyph-name="dotlessi" unicode="&#x131;" horiz-adv-x="566" d="M162 0 L162 1103 L405 1103 L405 0 L162 0 Z " />
<glyph glyph-name="circumflex" unicode="&#x2c6;" horiz-adv-x="1024" d="M510 1416 L354 1225 L127 1225 L435 1566 L585 1566 L893 1225 L666 1225 L510 1416 Z " />
<glyph glyph-name="tilde" unicode="&#x2dc;" horiz-adv-x="1024" d="M326 1270 L186 1270 Q223 1507 397 1507 Q434 1507 463 1497 Q492 1487 568 1448 Q605 1429 627 1429 Q671 1429 696 1506 L838 1506 Q816 1400 779 1345 Q724 1264 617 1264 Q580 1264 552.5 1273.5 Q525 1283 447 1323 Q413 1341 395 1341 Q352 1341 326 1270 Z " />
<glyph glyph-name="overscore" unicode="&#xaf;" horiz-adv-x="1024" d="M229 1303 L229 1472 L794 1472 L794 1303 L229 1303 Z " />
<glyph glyph-name="breve" unicode="&#x2d8;" horiz-adv-x="1024" d="M205 1548 L345 1548 Q351 1480 376 1452 Q418 1405 510 1405 Q593 1405 630.5 1437.5 Q668 1470 675 1548 L815 1548 Q803 1412 759 1344 Q689 1238 508 1238 Q315 1238 249 1365 Q214 1431 205 1548 Z " />
<glyph glyph-name="dotaccent" unicode="&#x2d9;" horiz-adv-x="1024" d="M515 1522 Q575 1522 618 1480.5 Q661 1439 661 1380 Q661 1321 617.5 1279.5 Q574 1238 513 1238 Q451 1238 407.5 1280 Q364 1322 364 1381 Q364 1440 408 1481 Q452 1522 515 1522 Z " />
<glyph glyph-name="ring" unicode="&#x2da;" horiz-adv-x="1024" d="M517 1688 Q630 1688 697.5 1622 Q765 1556 765 1445 Q765 1333 697 1267.5 Q629 1202 513 1202 Q390 1202 321 1276 Q261 1342 261 1444 Q261 1558 329 1623 Q397 1688 517 1688 Z M511 1561 Q461 1561 432.5 1530.5 Q404 1500 404 1445 Q404 1329 513 1329 Q622 1329 622 1445 Q622 1561 511 1561 Z " />
<glyph glyph-name="cedilla" unicode="&#xb8;" horiz-adv-x="1024" d="M450 0 L630 0 L584 -86 Q662 -94 702 -116 Q793 -164 793 -277 Q793 -396 703 -452 Q634 -495 518 -495 Q380 -495 254 -455 L303 -302 Q427 -339 506 -339 Q603 -339 603 -277 Q603 -218 501 -218 Q476 -218 416 -223 L389 -108 L450 0 Z " />
<glyph glyph-name="hungarumlaut" unicode="&#x2dd;" horiz-adv-x="1024" d="M280 1225 L419 1566 L639 1566 L416 1225 L280 1225 Z M576 1225 L738 1566 L967 1566 L714 1225 L576 1225 Z " />
<glyph glyph-name="ogonek" unicode="&#x2db;" horiz-adv-x="1024" d="M545 0 L705 0 Q604 -80 567.5 -127 Q531 -174 531 -225 Q531 -299 613 -299 L727 -299 L727 -455 L603 -455 Q468 -455 404.5 -410.5 Q341 -366 341 -271 Q341 -197 385.5 -138 Q430 -79 545 0 Z " />
<glyph glyph-name="caron" unicode="&#x2c7;" horiz-adv-x="1024" d="M514 1375 L670 1566 L897 1566 L589 1225 L439 1225 L131 1566 L358 1566 L514 1375 Z " />
<glyph glyph-name="nbspace" unicode="&#xa0;" horiz-adv-x="451" d="" />
<glyph glyph-name="currency" unicode="&#xa4;" horiz-adv-x="1303" d="M221 277 L100 402 L294 585 Q222 682 222 810 Q222 932 293 1032 L100 1214 L221 1339 L415 1154 Q523 1222 651 1222 Q780 1222 888 1154 L1080 1338 L1204 1214 L1011 1032 Q1081 927 1081 810 Q1081 687 1010 585 L1204 402 L1080 278 L887 463 Q776 396 652 396 Q528 396 416 464 L221 277 Z M649 1037 Q549 1037 477 967 Q408 901 408 809 Q408 717 477 650 Q548 581 652 581 Q755 581 826 650 Q895 717 895 809 Q895 902 826 967 Q754 1037 649 1037 Z " />
<glyph glyph-name="brokenbar" unicode="&#xa6;" horiz-adv-x="691" d="M233 855 L233 1475 L457 1475 L457 855 L233 855 Z M233 0 L233 620 L457 620 L457 0 L233 0 Z " />
<glyph glyph-name="uni00AD" unicode="&#xad;" horiz-adv-x="813" d="M123 510 L123 720 L690 720 L690 510 L123 510 Z " />
<glyph glyph-name="twosuperior" unicode="&#xb2;" horiz-adv-x="835" d="M36 819 Q41 880 50.5 909.5 Q60 939 87 979 Q123 1031 156.5 1063 Q190 1095 354 1233 Q470 1331 500 1366 Q530 1401 530 1440 Q530 1484 495.5 1509.5 Q461 1535 402 1535 Q254 1535 230 1376 L38 1376 Q61 1530 121 1595 Q212 1695 401 1695 Q553 1695 641 1634 Q732 1571 732 1443 Q732 1375 704.5 1322 Q677 1269 611 1210 Q574 1176 428 1071 Q376 1034 322 980 L754 980 L754 819 L36 819 Z " />
<glyph glyph-name="threesuperior" unicode="&#xb3;" horiz-adv-x="835" d="M270 1191 L270 1337 Q312 1337 333 1337 Q447 1337 490 1360 Q533 1383 533 1443 Q533 1535 404 1535 Q281 1535 253 1436 L65 1436 Q79 1551 138 1612 Q220 1695 401 1695 Q575 1695 660 1620 Q730 1558 730 1449 Q730 1391 712 1352 Q694 1313 650 1277 Q768 1212 768 1080 Q768 804 406 804 Q188 804 102 901 Q53 957 42 1087 L234 1087 Q246 1023 288.5 994 Q331 965 412 965 Q568 965 568 1072 Q568 1174 454 1186 Q407 1191 270 1191 Z " />
<glyph glyph-name="onesuperior" unicode="&#xb9;" horiz-adv-x="576" d="M239 819 L239 1489 L13 1417 L13 1582 L299 1679 L436 1679 L436 819 L239 819 Z " />
<glyph glyph-name="onequarter" unicode="&#xbc;" horiz-adv-x="1972" d="M375 614 L375 1285 L149 1213 L149 1378 L435 1475 L572 1475 L572 614 L375 614 Z M1501 0 L1501 168 L1066 168 L1066 306 L1337 860 L1555 860 L1289 330 L1501 330 L1501 614 L1690 614 L1690 330 L1822 330 L1822 168 L1690 168 L1690 0 L1501 0 Z M402 0 L1175 1475 L1372 1475 L599 0 L402 0 Z " />
<glyph glyph-name="onehalf" unicode="&#xbd;" horiz-adv-x="1970" d="M365 614 L365 1285 L139 1213 L139 1378 L425 1475 L562 1475 L562 614 L365 614 Z M1094 0 Q1099 61 1109 90.5 Q1119 120 1146 160 Q1181 212 1214 243.5 Q1247 275 1412 414 Q1529 513 1558.5 547.5 Q1588 582 1588 621 Q1588 665 1553.5 690.5 Q1519 716 1460 716 Q1314 716 1288 557 L1096 557 Q1119 710 1179 776 Q1270 876 1459 876 Q1611 876 1699 815 Q1790 752 1790 625 Q1790 533 1741 467 Q1692 401 1547 296 Q1434 215 1380 161 L1812 161 L1812 0 L1094 0 Z M384 0 L1157 1475 L1354 1475 L581 0 L384 0 Z " />
<glyph glyph-name="threequarters" unicode="&#xbe;" horiz-adv-x="1975" d="M283 986 L283 1133 L342 1133 Q460 1133 503 1155.5 Q546 1178 546 1240 Q546 1331 417 1331 Q293 1331 266 1232 L78 1232 Q92 1347 151 1408 Q233 1491 414 1491 Q588 1491 673 1416 Q743 1354 743 1245 Q743 1138 663 1072 Q781 1008 781 875 Q781 728 676 661 Q581 599 419 599 Q202 599 115 696 Q66 752 55 882 L247 882 Q259 818 301.5 789 Q344 760 425 760 Q581 760 581 867 Q581 939 534 963 Q487 987 348 987 Q327 987 283 986 Z M1560 0 L1560 168 L1124 168 L1124 306 L1396 860 L1614 860 L1347 330 L1560 330 L1560 614 L1749 614 L1749 330 L1880 330 L1880 168 L1749 168 L1749 0 L1560 0 Z M512 0 L1284 1475 L1481 1475 L709 0 L512 0 Z " />
<glyph glyph-name="Eth" unicode="&#xd0;" horiz-adv-x="1488" d="M172 874 L172 1475 L586 1475 Q815 1475 966 1416 Q1182 1331 1292 1136 Q1386 971 1386 738 Q1386 373 1158 176 Q1026 61 841 23 Q730 0 585 0 L172 0 L172 691 L2 691 L2 874 L172 874 Z M425 874 L819 874 L819 691 L425 691 L425 210 L575 210 Q818 210 962 329 Q1129 467 1129 738 Q1129 1008 962 1146 Q819 1265 574 1265 L425 1265 L425 874 Z " />
<glyph glyph-name="multiply" unicode="&#xd7;" horiz-adv-x="1303" d="M501 736 L220 1002 L370 1153 L651 886 L932 1153 L1082 1002 L801 736 L1082 469 L932 319 L651 585 L370 319 L220 469 L501 736 Z " />
<glyph glyph-name="Yacute" unicode="&#xdd;" horiz-adv-x="1223" d="M485 0 L485 565 L-23 1475 L252 1475 L611 800 L970 1475 L1245 1475 L738 565 L738 0 L485 0 Z M491 1603 L687 1945 L939 1945 L655 1603 L491 1603 Z " />
<glyph glyph-name="Thorn" unicode="&#xde;" horiz-adv-x="1300" d="M169 0 L169 1475 L422 1475 L422 1205 L617 1205 Q785 1205 880 1185 Q975 1165 1049 1114 Q1230 990 1230 736 Q1230 276 619 276 L422 276 L422 0 L169 0 Z M422 480 L608 480 Q973 480 973 742 Q973 995 619 995 L422 995 L422 480 Z " />
<glyph glyph-name="eth" unicode="&#xf0;" horiz-adv-x="1265" d="M746 1076 Q663 1191 582 1274 L380 1134 L300 1243 L484 1370 Q410 1437 357 1482 L488 1614 Q585 1540 652 1483 L832 1606 L913 1498 L754 1388 Q891 1253 991 1105 Q1086 965 1129 833 Q1172 701 1172 551 Q1172 278 1022 123 Q873 -32 633 -32 Q392 -32 244 122 Q93 279 93 535 Q93 793 244 953 Q387 1105 596 1105 Q666 1105 746 1076 Z M629 904 Q491 904 411 796 Q340 701 340 541 Q340 382 411 286 Q490 178 633 178 Q776 178 855 286 Q926 382 926 539 Q926 701 855 796 Q775 904 629 904 Z " />
<glyph glyph-name="yacute" unicode="&#xfd;" horiz-adv-x="1064" d="M412 27 L14 1103 L274 1103 L531 312 L789 1103 L1049 1103 L644 14 Q580 -160 541.5 -231.5 Q503 -303 447 -355 Q397 -401 331.5 -419 Q266 -437 140 -438 L140 -229 Q240 -228 277 -205 Q333 -170 378 -57 L412 27 Z M422 1225 L618 1566 L870 1566 L586 1225 L422 1225 Z " />
<glyph glyph-name="thorn" unicode="&#xfe;" horiz-adv-x="1297" d="M158 -465 L158 1516 L401 1516 L401 996 Q516 1136 719 1136 Q940 1136 1070 978 Q1204 815 1204 552 Q1204 288 1070 126 Q940 -32 720 -32 Q524 -32 401 108 L401 -465 L158 -465 Z M680 926 Q552 926 473 815 Q401 713 401 552 Q401 391 473 289 Q552 178 685 178 Q811 178 885 282 Q957 383 957 550 Q957 723 885 822 Q809 926 680 926 Z " />
<glyph glyph-name="Amacron" unicode="&#x100;" horiz-adv-x="1382" d="M987 379 L395 379 L258 0 L1 0 L580 1475 L803 1475 L1381 0 L1125 0 L987 379 Z M915 583 L691 1200 L467 583 L915 583 Z M408 1681 L408 1850 L973 1850 L973 1681 L408 1681 Z " />
<glyph glyph-name="amacron" unicode="&#x101;" horiz-adv-x="1188" d="M825 118 Q701 -33 463 -33 Q82 -33 82 318 Q82 492 176 576 Q279 667 520 667 Q588 667 759 656 L806 653 L806 721 Q806 842 757 890 Q703 941 578 941 Q485 941 443 907.5 Q401 874 390 791 L161 791 Q177 896 204.5 954 Q232 1012 286 1054 Q388 1134 589 1134 Q796 1134 907 1057 Q1041 964 1041 721 L1041 0 L825 0 L825 118 Z M812 484 Q687 497 561 497 Q431 497 381 460.5 Q331 424 331 329 Q331 243 374 207 Q417 171 518 171 Q701 171 773 266 Q812 318 812 425 L812 484 Z M307 1303 L307 1472 L872 1472 L872 1303 L307 1303 Z " />
<glyph glyph-name="Abreve" unicode="&#x102;" horiz-adv-x="1382" d="M987 379 L395 379 L258 0 L1 0 L580 1475 L803 1475 L1381 0 L1125 0 L987 379 Z M915 583 L691 1200 L467 583 L915 583 Z M384 1927 L524 1927 Q530 1859 555 1831 Q597 1784 689 1784 Q772 1784 809.5 1816.5 Q847 1849 854 1927 L994 1927 Q982 1791 938 1723 Q868 1617 687 1617 Q495 1617 428 1744 Q393 1810 384 1927 Z " />
<glyph glyph-name="abreve" unicode="&#x103;" horiz-adv-x="1188" d="M825 118 Q701 -33 463 -33 Q82 -33 82 318 Q82 492 176 576 Q279 667 520 667 Q588 667 759 656 L806 653 L806 721 Q806 842 757 890 Q703 941 578 941 Q485 941 443 907.5 Q401 874 390 791 L161 791 Q177 896 204.5 954 Q232 1012 286 1054 Q388 1134 589 1134 Q796 1134 907 1057 Q1041 964 1041 721 L1041 0 L825 0 L825 118 Z M812 484 Q687 497 561 497 Q431 497 381 460.5 Q331 424 331 329 Q331 243 374 207 Q417 171 518 171 Q701 171 773 266 Q812 318 812 425 L812 484 Z M286 1548 L426 1548 Q432 1480 457 1452 Q499 1405 591 1405 Q674 1405 711.5 1437.5 Q749 1470 756 1548 L896 1548 Q884 1412 840 1344 Q770 1238 589 1238 Q396 1238 330 1365 Q295 1431 286 1548 Z " />
<glyph glyph-name="Aogonek" unicode="&#x104;" horiz-adv-x="1382" d="M987 379 L395 379 L258 0 L1 0 L579 1475 L802 1475 L1381 0 Q1281 -79 1244 -126.5 Q1207 -174 1207 -225 Q1207 -299 1289 -299 L1403 -299 L1403 -455 L1279 -455 Q1144 -455 1080.5 -410.5 Q1017 -366 1017 -271 Q1017 -197 1060.5 -139 Q1104 -81 1221 0 L1124 0 L987 379 Z M915 583 L691 1200 L467 583 L915 583 Z " />
<glyph glyph-name="aogonek" unicode="&#x105;" horiz-adv-x="1210" d="M1041 0 Q947 -72 907 -123.5 Q867 -175 867 -225 Q867 -299 949 -299 L1063 -299 L1063 -455 L939 -455 Q804 -455 740.5 -410.5 Q677 -366 677 -271 Q677 -198 719.5 -140.5 Q762 -83 875 -4 L881 0 L825 0 L825 118 Q701 -33 463 -33 Q82 -33 82 318 Q82 492 176 576 Q279 667 520 667 Q588 667 759 656 L806 653 L806 721 Q806 842 757 890 Q703 941 578 941 Q485 941 443 907.5 Q401 874 390 791 L161 791 Q177 896 204.5 954 Q232 1012 286 1054 Q388 1134 589 1134 Q796 1134 907 1057 Q1041 964 1041 721 L1041 0 Z M812 484 Q687 497 561 497 Q431 497 381 460.5 Q331 424 331 329 Q331 243 374 207 Q417 171 518 171 Q701 171 773 266 Q812 318 812 425 L812 484 Z " />
<glyph glyph-name="Cacute" unicode="&#x106;" horiz-adv-x="1410" d="M1172 384 L1324 210 Q1230 101 1126 48 Q973 -29 770 -29 Q432 -29 261 187 Q102 387 102 726 Q102 1089 276 1300 Q444 1504 759 1504 Q1081 1504 1221 1303 Q1295 1195 1297 1026 L1052 1026 Q1046 1130 996 1191 Q918 1287 761 1287 Q560 1287 458 1132 Q359 982 359 729 Q359 481 472 330 Q576 191 777 191 Q928 191 1047 269 Q1096 301 1172 384 Z M598 1603 L794 1945 L1046 1945 L762 1603 L598 1603 Z " />
<glyph glyph-name="cacute" unicode="&#x107;" horiz-adv-x="1111" d="M937 316 L1057 146 Q999 89 950 57 Q810 -32 607 -32 Q367 -32 237 105 Q93 257 93 536 Q93 800 215 967 Q338 1136 591 1136 Q863 1136 972 952 Q1028 855 1029 721 L807 721 Q802 797 770 845 Q716 926 601 926 Q472 926 405 819 Q340 717 340 548 Q340 372 418 272 Q492 178 624 178 Q717 178 789 210 Q861 242 937 316 Z M450 1225 L646 1566 L898 1566 L614 1225 L450 1225 Z " />
<glyph glyph-name="Ccircumflex" unicode="&#x108;" horiz-adv-x="1410" d="M1172 384 L1324 210 Q1230 101 1126 48 Q973 -29 770 -29 Q432 -29 261 187 Q102 387 102 726 Q102 1089 276 1300 Q444 1504 759 1504 Q1081 1504 1221 1303 Q1295 1195 1297 1026 L1052 1026 Q1046 1130 996 1191 Q918 1287 761 1287 Q560 1287 458 1132 Q359 982 359 729 Q359 481 472 330 Q576 191 777 191 Q928 191 1047 269 Q1096 301 1172 384 Z M763 1794 L607 1603 L380 1603 L688 1945 L838 1945 L1146 1603 L919 1603 L763 1794 Z " />
<glyph glyph-name="ccircumflex" unicode="&#x109;" horiz-adv-x="1111" d="M937 316 L1057 146 Q999 89 950 57 Q810 -32 607 -32 Q367 -32 237 105 Q93 257 93 536 Q93 800 215 967 Q338 1136 591 1136 Q863 1136 972 952 Q1028 855 1029 721 L807 721 Q802 797 770 845 Q716 926 601 926 Q472 926 405 819 Q340 717 340 548 Q340 372 418 272 Q492 178 624 178 Q717 178 789 210 Q861 242 937 316 Z M595 1416 L439 1225 L212 1225 L520 1566 L670 1566 L978 1225 L751 1225 L595 1416 Z " />
<glyph glyph-name="Cdotaccent" unicode="&#x10a;" horiz-adv-x="1410" d="M1172 384 L1324 210 Q1230 101 1126 48 Q973 -29 770 -29 Q432 -29 261 187 Q102 387 102 726 Q102 1089 276 1300 Q444 1504 759 1504 Q1081 1504 1221 1303 Q1295 1195 1297 1026 L1052 1026 Q1046 1130 996 1191 Q918 1287 761 1287 Q560 1287 458 1132 Q359 982 359 729 Q359 481 472 330 Q576 191 777 191 Q928 191 1047 269 Q1096 301 1172 384 Z M763 1889 Q823 1889 866 1847 Q909 1805 909 1747 Q909 1688 865.5 1646.5 Q822 1605 761 1605 Q699 1605 655.5 1647 Q612 1689 612 1748 Q612 1807 656 1848 Q700 1889 763 1889 Z " />
<glyph glyph-name="cdotaccent" unicode="&#x10b;" horiz-adv-x="1111" d="M937 316 L1057 146 Q999 89 950 57 Q810 -32 607 -32 Q367 -32 237 105 Q93 257 93 536 Q93 800 215 967 Q338 1136 591 1136 Q863 1136 972 952 Q1028 855 1029 721 L807 721 Q802 797 770 845 Q716 926 601 926 Q472 926 405 819 Q340 717 340 548 Q340 372 418 272 Q492 178 624 178 Q717 178 789 210 Q861 242 937 316 Z M590 1522 Q650 1522 693 1480.5 Q736 1439 736 1380 Q736 1321 692.5 1279.5 Q649 1238 588 1238 Q526 1238 482.5 1280 Q439 1322 439 1381 Q439 1440 483 1481 Q527 1522 590 1522 Z " />
<glyph glyph-name="Ccaron" unicode="&#x10c;" horiz-adv-x="1410" d="M1172 384 L1324 210 Q1230 101 1126 48 Q973 -29 770 -29 Q432 -29 261 187 Q102 387 102 726 Q102 1089 276 1300 Q444 1504 759 1504 Q1081 1504 1221 1303 Q1295 1195 1297 1026 L1052 1026 Q1046 1130 996 1191 Q918 1287 761 1287 Q560 1287 458 1132 Q359 982 359 729 Q359 481 472 330 Q576 191 777 191 Q928 191 1047 269 Q1096 301 1172 384 Z M752 1753 L908 1945 L1135 1945 L827 1603 L677 1603 L369 1945 L596 1945 L752 1753 Z " />
<glyph glyph-name="ccaron" unicode="&#x10d;" horiz-adv-x="1111" d="M937 316 L1057 146 Q999 89 950 57 Q810 -32 607 -32 Q367 -32 237 105 Q93 257 93 536 Q93 800 215 967 Q338 1136 591 1136 Q863 1136 972 952 Q1028 855 1029 721 L807 721 Q802 797 770 845 Q716 926 601 926 Q472 926 405 819 Q340 717 340 548 Q340 372 418 272 Q492 178 624 178 Q717 178 789 210 Q861 242 937 316 Z M587 1375 L743 1566 L970 1566 L662 1225 L512 1225 L204 1566 L431 1566 L587 1375 Z " />
<glyph glyph-name="Dcaron" unicode="&#x10e;" horiz-adv-x="1485" d="M169 0 L169 1475 L583 1475 Q812 1475 963 1416 Q1180 1331 1290 1136 Q1383 970 1383 738 Q1383 373 1156 176 Q1024 61 838 23 Q727 0 582 0 L169 0 Z M422 210 L572 210 Q815 210 959 329 Q1126 467 1126 738 Q1126 1007 960 1146 Q816 1265 572 1265 L422 1265 L422 210 Z M629 1753 L785 1945 L1012 1945 L704 1603 L554 1603 L246 1945 L473 1945 L629 1753 Z " />
<glyph glyph-name="dcaron" unicode="&#x10f;" horiz-adv-x="1582" d="M898 0 L898 128 Q767 -32 566 -32 Q352 -32 224 126 Q93 289 93 552 Q93 815 224 978 Q352 1136 565 1136 Q757 1136 876 995 L876 1516 L1119 1516 L1119 0 L898 0 Z M599 926 Q481 926 410.5 824.5 Q340 723 340 552 Q340 383 409 282 Q481 178 602 178 Q731 178 806 289 Q876 392 876 551 Q876 714 806 815 Q729 926 599 926 Z M1236 1043 L1360 1546 L1623 1546 L1418 1043 L1236 1043 Z " />
<glyph glyph-name="Dcroat" unicode="&#x110;" horiz-adv-x="1488" d="M172 874 L172 1475 L586 1475 Q815 1475 966 1416 Q1182 1331 1292 1136 Q1386 971 1386 738 Q1386 373 1158 176 Q1026 61 841 23 Q730 0 585 0 L172 0 L172 691 L2 691 L2 874 L172 874 Z M425 874 L819 874 L819 691 L425 691 L425 210 L575 210 Q818 210 962 329 Q1129 467 1129 738 Q1129 1008 962 1146 Q819 1265 574 1265 L425 1265 L425 874 Z " />
<glyph glyph-name="dcroat" unicode="&#x111;" horiz-adv-x="1297" d="M912 0 L912 128 Q837 42 759 5 Q681 -32 574 -32 Q356 -32 226 126 Q93 288 93 552 Q93 815 226 977 Q356 1135 573 1135 Q769 1135 890 995 L890 1237 L553 1237 L553 1378 L890 1378 L890 1516 L1133 1516 L1133 1378 L1297 1378 L1297 1237 L1133 1237 L1133 0 L912 0 Z M606 925 Q484 925 412 823.5 Q340 722 340 552 Q340 383 411 282 Q485 178 609 178 Q741 178 819 289 Q890 391 890 550 Q890 714 819 814 Q739 925 606 925 Z " />
<glyph glyph-name="Emacron" unicode="&#x112;" horiz-adv-x="1227" d="M169 0 L169 1475 L1133 1475 L1133 1265 L422 1265 L422 875 L1001 875 L1001 665 L422 665 L422 210 L1150 210 L1150 0 L169 0 Z M370 1681 L370 1850 L935 1850 L935 1681 L370 1681 Z " />
<glyph glyph-name="emacron" unicode="&#x113;" horiz-adv-x="1213" d="M1125 475 L341 475 Q346 449 348 436 Q360 370 372.5 338.5 Q385 307 413 273 Q491 178 630 178 Q726 178 804.5 206 Q883 234 989 305 L1096 121 Q972 39 864 3.5 Q756 -32 629 -32 Q372 -32 229 128 Q93 280 93 538 Q93 818 239 979 Q380 1135 615 1135 Q827 1135 960 1003 Q1045 918 1083.5 795.5 Q1122 673 1125 475 Z M884 655 Q864 770 827 824 Q751 936 615 936 Q399 936 343 655 L884 655 Z M324 1303 L324 1472 L889 1472 L889 1303 L324 1303 Z " />
<glyph glyph-name="Ebreve" unicode="&#x114;" horiz-adv-x="1227" d="M169 0 L169 1475 L1133 1475 L1133 1265 L422 1265 L422 875 L1001 875 L1001 665 L422 665 L422 210 L1150 210 L1150 0 L169 0 Z M346 1927 L486 1927 Q492 1859 517 1831 Q559 1784 651 1784 Q734 1784 771.5 1816.5 Q809 1849 816 1927 L956 1927 Q944 1791 900 1723 Q830 1617 649 1617 Q457 1617 390 1744 Q355 1810 346 1927 Z " />
<glyph glyph-name="ebreve" unicode="&#x115;" horiz-adv-x="1213" d="M1125 475 L341 475 Q346 449 348 436 Q360 370 372.5 338.5 Q385 307 413 273 Q491 178 630 178 Q726 178 804.5 206 Q883 234 989 305 L1096 121 Q972 39 864 3.5 Q756 -32 629 -32 Q372 -32 229 128 Q93 280 93 538 Q93 818 239 979 Q380 1135 615 1135 Q827 1135 960 1003 Q1045 918 1083.5 795.5 Q1122 673 1125 475 Z M884 655 Q864 770 827 824 Q751 936 615 936 Q399 936 343 655 L884 655 Z M310 1548 L450 1548 Q456 1480 481 1452 Q523 1405 615 1405 Q698 1405 735.5 1437.5 Q773 1470 780 1548 L920 1548 Q908 1412 864 1344 Q794 1238 613 1238 Q420 1238 354 1365 Q319 1431 310 1548 Z " />
<glyph glyph-name="Edotaccent" unicode="&#x116;" horiz-adv-x="1227" d="M169 0 L169 1475 L1133 1475 L1133 1265 L422 1265 L422 875 L1001 875 L1001 665 L422 665 L422 210 L1150 210 L1150 0 L169 0 Z M655 1889 Q715 1889 758 1847 Q801 1805 801 1747 Q801 1688 757.5 1646.5 Q714 1605 653 1605 Q591 1605 547.5 1647 Q504 1689 504 1748 Q504 1807 548 1848 Q592 1889 655 1889 Z " />
<glyph glyph-name="edotaccent" unicode="&#x117;" horiz-adv-x="1213" d="M1125 475 L341 475 Q346 449 348 436 Q360 370 372.5 338.5 Q385 307 413 273 Q491 178 630 178 Q726 178 804.5 206 Q883 234 989 305 L1096 121 Q972 39 864 3.5 Q756 -32 629 -32 Q372 -32 229 128 Q93 280 93 538 Q93 818 239 979 Q380 1135 615 1135 Q827 1135 960 1003 Q1045 918 1083.5 795.5 Q1122 673 1125 475 Z M884 655 Q864 770 827 824 Q751 936 615 936 Q399 936 343 655 L884 655 Z M615 1522 Q675 1522 718 1480.5 Q761 1439 761 1380 Q761 1321 717.5 1279.5 Q674 1238 613 1238 Q551 1238 507.5 1280 Q464 1322 464 1381 Q464 1440 508 1481 Q552 1522 615 1522 Z " />
<glyph glyph-name="Eogonek" unicode="&#x118;" horiz-adv-x="1227" d="M1150 0 Q976 -130 976 -225 Q976 -299 1057 -299 L1172 -299 L1172 -455 L1048 -455 Q913 -455 849.5 -410.5 Q786 -366 786 -271 Q786 -199 832.5 -137 Q879 -75 989 0 L169 0 L169 1475 L1133 1475 L1133 1265 L422 1265 L422 875 L1001 875 L1001 665 L422 665 L422 210 L1150 210 L1150 0 Z " />
<glyph glyph-name="eogonek" unicode="&#x119;" horiz-adv-x="1213" d="M1125 475 L341 475 Q346 449 348 436 Q360 370 372.5 338.5 Q385 307 413 273 Q491 178 630 178 Q726 178 804.5 206 Q883 234 989 305 L1096 121 Q799 -71 799 -226 Q799 -299 881 -299 L995 -299 L995 -455 L871 -455 Q735 -455 672 -410.5 Q609 -366 609 -269 Q609 -144 736 -24 Q669 -32 619 -32 Q374 -32 229 128 Q93 277 93 538 Q93 818 239 979 Q380 1135 615 1135 Q827 1135 960 1003 Q1045 918 1083.5 795.5 Q1122 673 1125 475 Z M884 655 Q864 770 827 824 Q751 936 615 936 Q399 936 343 655 L884 655 Z " />
<glyph glyph-name="Ecaron" unicode="&#x11a;" horiz-adv-x="1227" d="M169 0 L169 1475 L1133 1475 L1133 1265 L422 1265 L422 875 L1001 875 L1001 665 L422 665 L422 210 L1150 210 L1150 0 L169 0 Z M655 1753 L811 1945 L1038 1945 L730 1603 L580 1603 L272 1945 L499 1945 L655 1753 Z " />
<glyph glyph-name="ecaron" unicode="&#x11b;" horiz-adv-x="1213" d="M1125 475 L341 475 Q346 449 348 436 Q360 370 372.5 338.5 Q385 307 413 273 Q491 178 630 178 Q726 178 804.5 206 Q883 234 989 305 L1096 121 Q972 39 864 3.5 Q756 -32 629 -32 Q372 -32 229 128 Q93 280 93 538 Q93 818 239 979 Q380 1135 615 1135 Q827 1135 960 1003 Q1045 918 1083.5 795.5 Q1122 673 1125 475 Z M884 655 Q864 770 827 824 Q751 936 615 936 Q399 936 343 655 L884 655 Z M615 1375 L771 1566 L998 1566 L690 1225 L540 1225 L232 1566 L459 1566 L615 1375 Z " />
<glyph glyph-name="Gcircumflex" unicode="&#x11c;" horiz-adv-x="1523" d="M850 558 L850 756 L1382 756 L1382 62 Q1121 -29 799 -29 Q575 -29 442 39 Q259 133 168 349 Q102 506 102 725 Q102 1084 287 1298 Q465 1504 790 1504 Q1132 1504 1277 1303 Q1321 1243 1338.5 1180.5 Q1356 1118 1356 1026 L1111 1026 Q1105 1130 1051 1191 Q965 1287 791 1287 Q575 1287 467 1132 Q359 978 359 730 Q359 478 476 327 Q533 255 614 221.5 Q695 188 816 188 Q976 188 1140 242 L1140 558 L850 558 Z M786 1794 L630 1603 L403 1603 L711 1945 L861 1945 L1169 1603 L942 1603 L786 1794 Z " />
<glyph glyph-name="gcircumflex" unicode="&#x11d;" horiz-adv-x="1277" d="M876 126 Q759 -11 566 -11 Q352 -11 224 142 Q93 298 93 553 Q93 807 219 969 Q348 1135 570 1135 Q676 1135 753 1097.5 Q830 1060 898 975 L898 1103 L1119 1103 L1119 174 Q1119 -20 1094 -125 Q1015 -468 610 -468 Q337 -468 135 -334 L242 -149 Q342 -215 422 -241.5 Q502 -268 599 -268 Q694 -268 750.5 -238 Q807 -208 838 -141 Q876 -60 876 103 L876 126 Z M599 925 Q481 925 410.5 823.5 Q340 722 340 554 Q340 392 409 297 Q480 199 603 199 Q731 199 806 304 Q876 400 876 552 Q876 713 806 813 Q729 925 599 925 Z M646 1416 L490 1225 L263 1225 L571 1566 L721 1566 L1029 1225 L802 1225 L646 1416 Z " />
<glyph glyph-name="Gbreve" unicode="&#x11e;" horiz-adv-x="1523" d="M850 558 L850 756 L1382 756 L1382 62 Q1121 -29 799 -29 Q575 -29 442 39 Q259 133 168 349 Q102 506 102 725 Q102 1084 287 1298 Q465 1504 790 1504 Q1132 1504 1277 1303 Q1321 1243 1338.5 1180.5 Q1356 1118 1356 1026 L1111 1026 Q1105 1130 1051 1191 Q965 1287 791 1287 Q575 1287 467 1132 Q359 978 359 730 Q359 478 476 327 Q533 255 614 221.5 Q695 188 816 188 Q976 188 1140 242 L1140 558 L850 558 Z M475 1927 L615 1927 Q621 1859 646 1831 Q688 1784 780 1784 Q863 1784 900.5 1816.5 Q938 1849 945 1927 L1085 1927 Q1073 1791 1029 1723 Q959 1617 778 1617 Q586 1617 519 1744 Q484 1810 475 1927 Z " />
<glyph glyph-name="gbreve" unicode="&#x11f;" horiz-adv-x="1277" d="M876 126 Q759 -11 566 -11 Q352 -11 224 142 Q93 298 93 553 Q93 807 219 969 Q348 1135 570 1135 Q676 1135 753 1097.5 Q830 1060 898 975 L898 1103 L1119 1103 L1119 174 Q1119 -20 1094 -125 Q1015 -468 610 -468 Q337 -468 135 -334 L242 -149 Q342 -215 422 -241.5 Q502 -268 599 -268 Q694 -268 750.5 -238 Q807 -208 838 -141 Q876 -60 876 103 L876 126 Z M599 925 Q481 925 410.5 823.5 Q340 722 340 554 Q340 392 409 297 Q480 199 603 199 Q731 199 806 304 Q876 400 876 552 Q876 713 806 813 Q729 925 599 925 Z M332 1548 L472 1548 Q478 1480 503 1452 Q545 1405 637 1405 Q720 1405 757.5 1437.5 Q795 1470 802 1548 L942 1548 Q930 1412 886 1344 Q816 1238 635 1238 Q442 1238 376 1365 Q341 1431 332 1548 Z " />
<glyph glyph-name="Gdotaccent" unicode="&#x120;" horiz-adv-x="1523" d="M850 558 L850 756 L1382 756 L1382 62 Q1121 -29 799 -29 Q575 -29 442 39 Q259 133 168 349 Q102 506 102 725 Q102 1084 287 1298 Q465 1504 790 1504 Q1132 1504 1277 1303 Q1321 1243 1338.5 1180.5 Q1356 1118 1356 1026 L1111 1026 Q1105 1130 1051 1191 Q965 1287 791 1287 Q575 1287 467 1132 Q359 978 359 730 Q359 478 476 327 Q533 255 614 221.5 Q695 188 816 188 Q976 188 1140 242 L1140 558 L850 558 Z M784 1889 Q844 1889 887 1847 Q930 1805 930 1747 Q930 1688 886.5 1646.5 Q843 1605 782 1605 Q720 1605 676.5 1647 Q633 1689 633 1748 Q633 1807 677 1848 Q721 1889 784 1889 Z " />
<glyph glyph-name="gdotaccent" unicode="&#x121;" horiz-adv-x="1277" d="M876 126 Q759 -11 566 -11 Q352 -11 224 142 Q93 298 93 553 Q93 807 219 969 Q348 1135 570 1135 Q676 1135 753 1097.5 Q830 1060 898 975 L898 1103 L1119 1103 L1119 174 Q1119 -20 1094 -125 Q1015 -468 610 -468 Q337 -468 135 -334 L242 -149 Q342 -215 422 -241.5 Q502 -268 599 -268 Q694 -268 750.5 -238 Q807 -208 838 -141 Q876 -60 876 103 L876 126 Z M599 925 Q481 925 410.5 823.5 Q340 722 340 554 Q340 392 409 297 Q480 199 603 199 Q731 199 806 304 Q876 400 876 552 Q876 713 806 813 Q729 925 599 925 Z M626 1522 Q686 1522 729 1480.5 Q772 1439 772 1380 Q772 1321 728.5 1279.5 Q685 1238 624 1238 Q562 1238 518.5 1280 Q475 1322 475 1381 Q475 1440 519 1481 Q563 1522 626 1522 Z " />
<glyph glyph-name="Gcommaaccent" unicode="&#x122;" horiz-adv-x="1523" d="M850 558 L850 756 L1382 756 L1382 62 Q1121 -29 799 -29 Q575 -29 442 39 Q259 133 168 349 Q102 506 102 725 Q102 1084 287 1298 Q465 1504 790 1504 Q1132 1504 1277 1303 Q1321 1243 1338.5 1180.5 Q1356 1118 1356 1026 L1111 1026 Q1105 1130 1051 1191 Q965 1287 791 1287 Q575 1287 467 1132 Q359 978 359 730 Q359 478 476 327 Q533 255 614 221.5 Q695 188 816 188 Q976 188 1140 242 L1140 558 L850 558 Z M548 -490 L689 -149 L937 -149 L711 -490 L548 -490 Z " />
<glyph glyph-name="gcommaaccent" unicode="&#x123;" horiz-adv-x="1277" d="M876 126 Q759 -11 566 -11 Q352 -11 224 142 Q93 298 93 553 Q93 807 219 969 Q348 1135 570 1135 Q676 1135 753 1097.5 Q830 1060 898 975 L898 1103 L1119 1103 L1119 174 Q1119 -20 1094 -125 Q1015 -468 610 -468 Q337 -468 135 -334 L242 -149 Q342 -215 422 -241.5 Q502 -268 599 -268 Q694 -268 750.5 -238 Q807 -208 838 -141 Q876 -60 876 103 L876 126 Z M599 925 Q481 925 410.5 823.5 Q340 722 340 554 Q340 392 409 297 Q480 199 603 199 Q731 199 806 304 Q876 400 876 552 Q876 713 806 813 Q729 925 599 925 Z M937 1566 L741 1225 L489 1225 L773 1566 L937 1566 Z " />
<glyph glyph-name="Hcircumflex" unicode="&#x124;" horiz-adv-x="1457" d="M169 0 L169 1475 L422 1475 L422 879 L1035 879 L1035 1475 L1288 1475 L1288 0 L1035 0 L1035 669 L422 669 L422 0 L169 0 Z M726 1794 L570 1603 L343 1603 L651 1945 L801 1945 L1109 1603 L882 1603 L726 1794 Z " />
<glyph glyph-name="hcircumflex" unicode="&#x125;" horiz-adv-x="1261" d="M158 0 L158 1516 L401 1516 L401 965 Q514 1063 593 1099.5 Q672 1136 772 1136 Q976 1136 1054 990 Q1111 883 1111 638 L1111 0 L868 0 L868 652 Q868 768 846 826 Q811 917 706 917 Q616 917 515 841 Q482 816 401 733 L401 0 L158 0 Z M360 1794 L204 1603 L-23 1603 L285 1945 L435 1945 L743 1603 L516 1603 L360 1794 Z " />
<glyph glyph-name="Hbar" unicode="&#x126;" horiz-adv-x="1457" d="M169 0 L169 1051 L7 1051 L7 1183 L169 1183 L169 1475 L422 1475 L422 1183 L1035 1183 L1035 1475 L1288 1475 L1288 1183 L1450 1183 L1450 1051 L1288 1051 L1288 0 L1035 0 L1035 669 L422 669 L422 0 L169 0 Z M422 879 L1035 879 L1035 1051 L422 1051 L422 879 Z " />
<glyph glyph-name="hbar" unicode="&#x127;" horiz-adv-x="1267" d="M164 0 L164 1237 L6 1237 L6 1378 L164 1378 L164 1516 L407 1516 L407 1378 L750 1378 L750 1237 L407 1237 L407 965 Q494 1039 544 1069 Q653 1135 778 1135 Q982 1135 1060 989 Q1117 883 1117 638 L1117 0 L874 0 L874 652 Q874 768 852 825 Q817 916 712 916 Q622 916 521 840 Q504 828 407 733 L407 0 L164 0 Z " />
<glyph glyph-name="Itilde" unicode="&#x128;" horiz-adv-x="591" d="M169 0 L169 1475 L422 1475 L422 0 L169 0 Z M109 1648 L-31 1648 Q6 1885 180 1885 Q217 1885 244.5 1875.5 Q272 1866 351 1826 Q388 1807 410 1807 Q455 1807 479 1884 L621 1884 Q595 1756 543 1699 Q491 1642 400 1642 Q363 1642 335.5 1651.5 Q308 1661 230 1701 Q196 1719 178 1719 Q134 1719 109 1648 Z " />
<glyph glyph-name="itilde" unicode="&#x129;" horiz-adv-x="566" d="M162 0 L162 1103 L405 1103 L405 0 L162 0 Z M97 1270 L-43 1270 Q-6 1507 168 1507 Q205 1507 234 1497 Q263 1487 339 1448 Q376 1429 398 1429 Q442 1429 467 1506 L609 1506 Q587 1400 550 1345 Q495 1264 388 1264 Q351 1264 323.5 1273.5 Q296 1283 218 1323 Q184 1341 166 1341 Q123 1341 97 1270 Z " />
<glyph glyph-name="Imacron" unicode="&#x12a;" horiz-adv-x="591" d="M169 0 L169 1475 L422 1475 L422 0 L169 0 Z M13 1681 L13 1850 L578 1850 L578 1681 L13 1681 Z " />
<glyph glyph-name="imacron" unicode="&#x12b;" horiz-adv-x="566" d="M161 0 L161 1103 L404 1103 L404 0 L161 0 Z M0 1303 L0 1472 L565 1472 L565 1303 L0 1303 Z " />
<glyph glyph-name="Ibreve" unicode="&#x12c;" horiz-adv-x="591" d="M169 0 L169 1475 L422 1475 L422 0 L169 0 Z M-11 1927 L129 1927 Q135 1859 160 1831 Q202 1784 294 1784 Q377 1784 414.5 1816.5 Q452 1849 459 1927 L599 1927 Q587 1791 543 1723 Q473 1617 292 1617 Q100 1617 33 1744 Q-2 1810 -11 1927 Z " />
<glyph glyph-name="ibreve" unicode="&#x12d;" horiz-adv-x="566" d="M161 0 L161 1103 L404 1103 L404 0 L161 0 Z M-24 1548 L116 1548 Q122 1480 147 1452 Q189 1405 281 1405 Q364 1405 401.5 1437.5 Q439 1470 446 1548 L586 1548 Q574 1412 530 1344 Q460 1238 279 1238 Q86 1238 20 1365 Q-15 1431 -24 1548 Z " />
<glyph glyph-name="Iogonek" unicode="&#x12e;" horiz-adv-x="591" d="M422 0 Q325 -75 286.5 -125 Q248 -175 248 -225 Q248 -299 330 -299 L444 -299 L444 -455 L320 -455 Q185 -455 121.5 -410.5 Q58 -366 58 -271 Q58 -199 104 -137.5 Q150 -76 262 0 L169 0 L169 1475 L422 1475 L422 0 Z " />
<glyph glyph-name="iogonek" unicode="&#x12f;" horiz-adv-x="568" d="M162 0 L162 1103 L406 1103 L406 0 Q309 -75 270.5 -125 Q232 -175 232 -225 Q232 -299 314 -299 L428 -299 L428 -455 L304 -455 Q169 -455 105.5 -410.5 Q42 -366 42 -271 Q42 -196 85 -138.5 Q128 -81 245 0 L162 0 Z M287 1522 Q347 1522 390 1480.5 Q433 1439 433 1380 Q433 1321 389.5 1279.5 Q346 1238 285 1238 Q223 1238 179.5 1280 Q136 1322 136 1381 Q136 1440 180 1481 Q224 1522 287 1522 Z " />
<glyph glyph-name="Idot" unicode="&#x130;" horiz-adv-x="591" d="M169 0 L169 1475 L422 1475 L422 0 L169 0 Z M298 1889 Q358 1889 401 1847 Q444 1805 444 1747 Q444 1688 400.5 1646.5 Q357 1605 296 1605 Q234 1605 190.5 1647 Q147 1689 147 1748 Q147 1807 191 1848 Q235 1889 298 1889 Z " />
<glyph glyph-name="IJ" unicode="&#x132;" horiz-adv-x="1220" d="M169 0 L169 1475 L422 1475 L422 0 L169 0 Z M799 1475 L1052 1475 L1052 177 Q1052 9 1029 -81.5 Q1006 -172 948 -234 Q896 -288 819 -312 Q742 -336 607 -341 L607 -131 Q669 -128 698 -118.5 Q727 -109 748 -85 Q799 -29 799 140 L799 1475 Z " />
<glyph glyph-name="ij" unicode="&#x133;" horiz-adv-x="1153" d="M163 0 L163 1103 L406 1103 L406 0 L163 0 Z M287 1522 Q347 1522 390 1480.5 Q433 1439 433 1380 Q433 1321 389.5 1279.5 Q346 1238 285 1238 Q223 1238 179.5 1280 Q136 1322 136 1381 Q136 1440 180 1481 Q224 1522 287 1522 Z M748 1103 L991 1103 L991 51 Q991 -108 969 -193 Q947 -278 892 -335 Q843 -385 771.5 -408.5 Q700 -432 579 -438 L579 -229 Q635 -224 660.5 -214 Q686 -204 706 -180 Q730 -149 739 -105 Q748 -61 748 25 L748 1103 Z M872 1522 Q932 1522 975 1480.5 Q1018 1439 1018 1380 Q1018 1321 974.5 1279.5 Q931 1238 870 1238 Q808 1238 764.5 1280 Q721 1322 721 1381 Q721 1440 765 1481 Q809 1522 872 1522 Z " />
<glyph glyph-name="Jcircumflex" unicode="&#x134;" horiz-adv-x="629" d="M208 1475 L461 1475 L461 177 Q461 9 438 -81.5 Q415 -172 357 -234 Q305 -288 228 -312 Q151 -336 16 -341 L16 -131 Q78 -128 107 -118.5 Q136 -109 157 -85 Q208 -29 208 140 L208 1475 Z M327 1794 L171 1603 L-56 1603 L252 1945 L402 1945 L710 1603 L483 1603 L327 1794 Z " />
<glyph glyph-name="jcircumflex" unicode="&#x135;" horiz-adv-x="584" d="M179 1103 L422 1103 L422 51 Q422 -108 400 -193 Q378 -278 323 -335 Q274 -385 202.5 -408.5 Q131 -432 10 -438 L10 -229 Q66 -224 91.5 -214 Q117 -204 137 -180 Q161 -149 170 -105 Q179 -61 179 25 L179 1103 Z M290 1416 L134 1225 L-93 1225 L215 1566 L365 1566 L673 1225 L446 1225 L290 1416 Z " />
<glyph glyph-name="Kcommaaccent" unicode="&#x136;" horiz-adv-x="1270" d="M169 0 L169 1475 L422 1475 L422 804 L978 1475 L1264 1475 L685 792 L1330 0 L1025 0 L422 758 L422 0 L169 0 Z M445 -490 L586 -149 L834 -149 L608 -490 L445 -490 Z " />
<glyph glyph-name="kcommaaccent" unicode="&#x137;" horiz-adv-x="1124" d="M158 0 L158 1516 L401 1516 L401 659 L807 1103 L1087 1103 L653 633 L1155 0 L869 0 L401 609 L401 0 L158 0 Z M351 -490 L492 -149 L740 -149 L514 -490 L351 -490 Z " />
<glyph glyph-name="kgreenlandic" unicode="&#x138;" horiz-adv-x="1097" d="M145 0 L145 1103 L388 1103 L388 653 L794 1103 L1074 1103 L640 627 L1142 0 L856 0 L388 603 L388 0 L145 0 Z " />
<glyph glyph-name="Lacute" unicode="&#x139;" horiz-adv-x="1109" d="M169 0 L169 1475 L422 1475 L422 210 L1068 210 L1068 0 L169 0 Z M227 1603 L423 1945 L675 1945 L391 1603 L227 1603 Z " />
<glyph glyph-name="lacute" unicode="&#x13a;" horiz-adv-x="559" d="M150 0 L150 1516 L393 1516 L393 0 L150 0 Z M165 1648 L361 1989 L613 1989 L329 1648 L165 1648 Z " />
<glyph glyph-name="Lcommaaccent" unicode="&#x13b;" horiz-adv-x="1109" d="M169 0 L169 1475 L422 1475 L422 210 L1068 210 L1068 0 L169 0 Z M344 -490 L485 -149 L733 -149 L507 -490 L344 -490 Z " />
<glyph glyph-name="lcommaaccent" unicode="&#x13c;" horiz-adv-x="559" d="M159 0 L159 1516 L402 1516 L402 0 L159 0 Z M18 -490 L159 -149 L407 -149 L181 -490 L18 -490 Z " />
<glyph glyph-name="Lcaron" unicode="&#x13d;" horiz-adv-x="1109" d="M169 0 L169 1475 L422 1475 L422 210 L1068 210 L1068 0 L169 0 Z M571 972 L694 1475 L958 1475 L753 972 L571 972 Z " />
<glyph glyph-name="lcaron" unicode="&#x13e;" horiz-adv-x="865" d="M158 0 L158 1516 L401 1516 L401 0 L158 0 Z M518 1043 L642 1546 L905 1546 L700 1043 L518 1043 Z " />
<glyph glyph-name="Ldot" unicode="&#x13f;" horiz-adv-x="1111" d="M155 0 L155 1475 L408 1475 L408 210 L1054 210 L1054 0 L155 0 Z M838 947 Q904 947 951 900 Q998 853 998 788 Q998 717 944 670 Q897 629 835 629 Q767 629 719.5 675.5 Q672 722 672 789 Q672 855 720.5 901 Q769 947 838 947 Z " />
<glyph glyph-name="ldot" unicode="&#x140;" horiz-adv-x="796" d="M144 0 L144 1516 L387 1516 L387 0 L144 0 Z M669 874 Q735 874 782 827 Q829 780 829 715 Q829 644 775 597 Q728 556 666 556 Q598 556 550.5 602.5 Q503 649 503 716 Q503 782 551.5 828 Q600 874 669 874 Z " />
<glyph glyph-name="Lslash" unicode="&#x141;" horiz-adv-x="1140" d="M200 0 L200 531 L5 408 L5 632 L200 755 L200 1475 L453 1475 L453 915 L727 1089 L727 865 L453 691 L453 210 L1099 210 L1099 0 L200 0 Z " />
<glyph glyph-name="lslash" unicode="&#x142;" horiz-adv-x="632" d="M194 0 L194 621 L-14 478 L-14 667 L194 810 L194 1516 L437 1516 L437 974 L646 1117 L646 928 L437 785 L437 0 L194 0 Z " />
<glyph glyph-name="Nacute" unicode="&#x143;" horiz-adv-x="1457" d="M169 0 L169 1475 L415 1475 L1042 521 L1042 1475 L1288 1475 L1288 -18 L1103 -18 L416 1047 L416 0 L169 0 Z M631 1603 L827 1945 L1079 1945 L795 1603 L631 1603 Z " />
<glyph glyph-name="nacute" unicode="&#x144;" horiz-adv-x="1261" d="M158 0 L158 1103 L401 1103 L401 960 Q516 1060 596 1097.5 Q676 1135 775 1135 Q977 1135 1054 989 Q1111 883 1111 638 L1111 0 L868 0 L868 652 Q868 767 846 825 Q811 916 707 916 Q635 916 568 875.5 Q501 835 401 732 L401 0 L158 0 Z M505 1225 L701 1566 L953 1566 L669 1225 L505 1225 Z " />
<glyph glyph-name="Ncommaaccent" unicode="&#x145;" horiz-adv-x="1457" d="M169 0 L169 1475 L415 1475 L1042 521 L1042 1475 L1288 1475 L1288 -18 L1103 -18 L416 1047 L416 0 L169 0 Z M509 -490 L650 -149 L898 -149 L672 -490 L509 -490 Z " />
<glyph glyph-name="ncommaaccent" unicode="&#x146;" horiz-adv-x="1261" d="M158 0 L158 1103 L401 1103 L401 960 Q516 1060 596 1097.5 Q676 1135 775 1135 Q977 1135 1054 989 Q1111 883 1111 638 L1111 0 L868 0 L868 652 Q868 767 846 825 Q811 916 707 916 Q635 916 568 875.5 Q501 835 401 732 L401 0 L158 0 Z M399 -490 L540 -149 L788 -149 L562 -490 L399 -490 Z " />
<glyph glyph-name="Ncaron" unicode="&#x147;" horiz-adv-x="1457" d="M169 0 L169 1475 L415 1475 L1042 521 L1042 1475 L1288 1475 L1288 -18 L1103 -18 L416 1047 L416 0 L169 0 Z M751 1753 L907 1945 L1134 1945 L826 1603 L676 1603 L368 1945 L595 1945 L751 1753 Z " />
<glyph glyph-name="ncaron" unicode="&#x148;" horiz-adv-x="1261" d="M158 0 L158 1103 L401 1103 L401 960 Q516 1060 596 1097.5 Q676 1135 775 1135 Q977 1135 1054 989 Q1111 883 1111 638 L1111 0 L868 0 L868 652 Q868 767 846 825 Q811 916 707 916 Q635 916 568 875.5 Q501 835 401 732 L401 0 L158 0 Z M623 1375 L779 1566 L1006 1566 L698 1225 L548 1225 L240 1566 L467 1566 L623 1375 Z " />
<glyph glyph-name="napostrophe" unicode="&#x149;" horiz-adv-x="1346" d="M257 0 L257 1103 L500 1103 L500 960 Q596 1041 645 1071 Q753 1135 875 1135 Q1077 1135 1153 989 Q1210 881 1210 638 L1210 0 L967 0 L967 652 Q967 767 945 825 Q911 916 806 916 Q734 916 666.5 875.5 Q599 835 500 732 L500 0 L257 0 Z M-52 1037 L73 1579 L331 1579 L127 1037 L-52 1037 Z " />
<glyph glyph-name="Eng" unicode="&#x14a;" horiz-adv-x="1467" d="M155 0 L155 1475 L401 1475 L1064 520 L1064 1475 L1311 1475 L1311 22 Q1311 -122 1289 -199.5 Q1267 -277 1212 -330 Q1115 -416 899 -422 L899 -212 Q992 -207 1025 -173 Q1068 -130 1068 -4 L1068 72 L402 1049 L402 0 L155 0 Z " />
<glyph glyph-name="eng" unicode="&#x14b;" horiz-adv-x="1233" d="M145 0 L145 1103 L388 1103 L388 960 Q511 1064 586.5 1099.5 Q662 1135 762 1135 Q964 1135 1041 989 Q1098 883 1098 638 L1098 24 Q1098 -134 1076 -219.5 Q1054 -305 999 -361 Q900 -457 686 -465 L686 -255 Q741 -251 767.5 -241 Q794 -231 813 -206 Q855 -152 855 -2 L855 652 Q855 767 833 825 Q798 916 694 916 Q622 916 555.5 876 Q489 836 388 732 L388 0 L145 0 Z " />
<glyph glyph-name="Omacron" unicode="&#x14c;" horiz-adv-x="1571" d="M798 1504 Q1165 1504 1342 1237 Q1470 1044 1470 737 Q1470 432 1342 237 Q1166 -29 786 -29 Q406 -29 230 237 Q102 432 102 735 Q102 1044 230 1237 Q407 1504 798 1504 Z M779 1284 Q571 1284 469 1149 Q359 1005 359 737 Q359 191 786 191 Q1002 191 1103 326 Q1213 472 1213 735 Q1213 1006 1103 1149 Q1000 1284 779 1284 Z M503 1681 L503 1850 L1068 1850 L1068 1681 L503 1681 Z " />
<glyph glyph-name="omacron" unicode="&#x14d;" horiz-adv-x="1268" d="M641 1135 Q874 1135 1024 976 Q1175 817 1175 551 Q1175 287 1024 127 Q875 -32 634 -32 Q393 -32 244 127 Q93 287 93 550 Q93 816 244 976 Q393 1135 641 1135 Z M630 925 Q492 925 411 814 Q340 716 340 551 Q340 387 411 289 Q491 178 634 178 Q777 178 857 289 Q928 388 928 550 Q928 717 857 814 Q776 925 630 925 Z M351 1303 L351 1472 L916 1472 L916 1303 L351 1303 Z " />
<glyph glyph-name="Obreve" unicode="&#x14e;" horiz-adv-x="1571" d="M798 1504 Q1165 1504 1342 1237 Q1470 1044 1470 737 Q1470 432 1342 237 Q1166 -29 786 -29 Q406 -29 230 237 Q102 432 102 735 Q102 1044 230 1237 Q407 1504 798 1504 Z M779 1284 Q571 1284 469 1149 Q359 1005 359 737 Q359 191 786 191 Q1002 191 1103 326 Q1213 472 1213 735 Q1213 1006 1103 1149 Q1000 1284 779 1284 Z M479 1927 L619 1927 Q625 1859 650 1831 Q692 1784 784 1784 Q867 1784 904.5 1816.5 Q942 1849 949 1927 L1089 1927 Q1077 1791 1033 1723 Q963 1617 782 1617 Q590 1617 523 1744 Q488 1810 479 1927 Z " />
<glyph glyph-name="obreve" unicode="&#x14f;" horiz-adv-x="1268" d="M641 1135 Q874 1135 1024 976 Q1175 817 1175 551 Q1175 287 1024 127 Q875 -32 634 -32 Q393 -32 244 127 Q93 287 93 550 Q93 816 244 976 Q393 1135 641 1135 Z M630 925 Q492 925 411 814 Q340 716 340 551 Q340 387 411 289 Q491 178 634 178 Q777 178 857 289 Q928 388 928 550 Q928 717 857 814 Q776 925 630 925 Z M328 1548 L468 1548 Q474 1480 499 1452 Q541 1405 633 1405 Q716 1405 753.5 1437.5 Q791 1470 798 1548 L938 1548 Q926 1412 882 1344 Q812 1238 631 1238 Q438 1238 372 1365 Q337 1431 328 1548 Z " />
<glyph glyph-name="Ohungarumlaut" unicode="&#x150;" horiz-adv-x="1571" d="M798 1504 Q1165 1504 1342 1237 Q1470 1044 1470 737 Q1470 432 1342 237 Q1166 -29 786 -29 Q406 -29 230 237 Q102 432 102 735 Q102 1044 230 1237 Q407 1504 798 1504 Z M779 1284 Q571 1284 469 1149 Q359 1005 359 737 Q359 191 786 191 Q1002 191 1103 326 Q1213 472 1213 735 Q1213 1006 1103 1149 Q1000 1284 779 1284 Z M554 1603 L693 1945 L913 1945 L690 1603 L554 1603 Z M850 1603 L1012 1945 L1241 1945 L988 1603 L850 1603 Z " />
<glyph glyph-name="ohungarumlaut" unicode="&#x151;" horiz-adv-x="1268" d="M641 1135 Q874 1135 1024 976 Q1175 817 1175 551 Q1175 287 1024 127 Q875 -32 634 -32 Q393 -32 244 127 Q93 287 93 550 Q93 816 244 976 Q393 1135 641 1135 Z M630 925 Q492 925 411 814 Q340 716 340 551 Q340 387 411 289 Q491 178 634 178 Q777 178 857 289 Q928 388 928 550 Q928 717 857 814 Q776 925 630 925 Z M403 1225 L542 1566 L762 1566 L539 1225 L403 1225 Z M699 1225 L861 1566 L1090 1566 L837 1225 L699 1225 Z " />
<glyph glyph-name="Racute" unicode="&#x154;" horiz-adv-x="1346" d="M164 0 L164 1475 L692 1475 Q841 1475 919 1460 Q997 1445 1058 1404 Q1150 1344 1194 1229 Q1227 1146 1227 1046 Q1227 868 1120 764 Q1084 728 982 672 Q1039 641 1071 592.5 Q1103 544 1133 444 L1265 0 L988 0 L920 271 Q893 378 876 421 Q859 464 826 508 Q795 550 740.5 567.5 Q686 585 586 585 L417 585 L417 0 L164 0 Z M417 789 L639 789 Q811 789 881 837 Q970 898 970 1032 Q970 1155 897.5 1210 Q825 1265 664 1265 L417 1265 L417 789 Z M514 1603 L710 1945 L962 1945 L678 1603 L514 1603 Z " />
<glyph glyph-name="racute" unicode="&#x155;" horiz-adv-x="820" d="M158 0 L158 1103 L391 1103 L391 953 Q489 1047 563.5 1082 Q638 1117 741 1117 L778 1117 L778 882 L733 882 Q663 882 622 871.5 Q581 861 533 830 Q500 808 481.5 791 Q463 774 401 705 L401 0 L158 0 Z M343 1225 L539 1566 L791 1566 L507 1225 L343 1225 Z " />
<glyph glyph-name="Rcommaaccent" unicode="&#x156;" horiz-adv-x="1346" d="M164 0 L164 1475 L692 1475 Q841 1475 919 1460 Q997 1445 1058 1404 Q1150 1344 1194 1229 Q1227 1146 1227 1046 Q1227 868 1120 764 Q1084 728 982 672 Q1039 641 1071 592.5 Q1103 544 1133 444 L1265 0 L988 0 L920 271 Q893 378 876 421 Q859 464 826 508 Q795 550 740.5 567.5 Q686 585 586 585 L417 585 L417 0 L164 0 Z M417 789 L639 789 Q811 789 881 837 Q970 898 970 1032 Q970 1155 897.5 1210 Q825 1265 664 1265 L417 1265 L417 789 Z M448 -490 L589 -149 L837 -149 L611 -490 L448 -490 Z " />
<glyph glyph-name="rcommaaccent" unicode="&#x157;" horiz-adv-x="820" d="M159 0 L159 1103 L392 1103 L392 953 Q490 1047 564.5 1082 Q639 1117 742 1117 L779 1117 L779 882 L734 882 Q664 882 623 871.5 Q582 861 534 830 Q501 808 482.5 791 Q464 774 402 705 L402 0 L159 0 Z M18 -490 L159 -149 L407 -149 L181 -490 L18 -490 Z " />
<glyph glyph-name="Rcaron" unicode="&#x158;" horiz-adv-x="1346" d="M164 0 L164 1475 L692 1475 Q841 1475 919 1460 Q997 1445 1058 1404 Q1150 1344 1194 1229 Q1227 1146 1227 1046 Q1227 868 1120 764 Q1084 728 982 672 Q1039 641 1071 592.5 Q1103 544 1133 444 L1265 0 L988 0 L920 271 Q893 378 876 421 Q859 464 826 508 Q795 550 740.5 567.5 Q686 585 586 585 L417 585 L417 0 L164 0 Z M417 789 L639 789 Q811 789 881 837 Q970 898 970 1032 Q970 1155 897.5 1210 Q825 1265 664 1265 L417 1265 L417 789 Z M643 1753 L799 1945 L1026 1945 L718 1603 L568 1603 L260 1945 L487 1945 L643 1753 Z " />
<glyph glyph-name="rcaron" unicode="&#x159;" horiz-adv-x="820" d="M158 0 L158 1103 L391 1103 L391 953 Q489 1047 563.5 1082 Q638 1117 741 1117 L778 1117 L778 882 L733 882 Q663 882 622 871.5 Q581 861 533 830 Q500 808 481.5 791 Q463 774 401 705 L401 0 L158 0 Z M461 1375 L617 1566 L844 1566 L536 1225 L386 1225 L78 1566 L305 1566 L461 1375 Z " />
<glyph glyph-name="Sacute" unicode="&#x15a;" horiz-adv-x="1265" d="M82 449 L327 449 Q333 336 384 276 Q461 185 636 185 Q778 185 854 247 Q931 309 931 409 Q931 515 837 572 Q793 598 745.5 615.5 Q698 633 552 674 Q423 711 357.5 738 Q292 765 242 801 Q121 892 121 1084 Q121 1259 226 1372 Q290 1441 377 1472.5 Q464 1504 591 1504 Q1096 1504 1097 1041 L852 1041 Q846 1147 805 1203 Q740 1290 593 1290 Q491 1290 431 1243 Q368 1193 368 1109 Q368 1013 448 966 Q513 928 699 881 Q886 833 963 792 Q1179 675 1179 426 Q1179 220 1049 102 Q905 -29 635 -29 Q291 -29 157 164 Q86 267 82 449 Z M482 1603 L678 1945 L930 1945 L646 1603 L482 1603 Z " />
<glyph glyph-name="sacute" unicode="&#x15b;" horiz-adv-x="1077" d="M63 354 L285 354 Q293 274 329 234 Q394 162 543 162 Q771 162 771 307 Q771 381 708 411 Q681 424 656 430 Q631 436 507 460 Q324 495 229 552 Q106 625 106 789 Q106 958 228 1054 Q332 1135 514 1135 Q784 1135 890 974 Q943 892 944 777 L722 777 Q715 845 686 880 Q633 941 512 941 Q344 941 344 813 Q344 747 400 719 Q443 698 595 666 Q715 641 775 620 Q835 599 885 566 Q1002 489 1002 320 Q1002 158 886 64 Q767 -32 541 -32 Q67 -32 63 354 Z M387 1225 L583 1566 L835 1566 L551 1225 L387 1225 Z " />
<glyph glyph-name="Scircumflex" unicode="&#x15c;" horiz-adv-x="1265" d="M82 449 L327 449 Q333 336 384 276 Q461 185 636 185 Q778 185 854 247 Q931 309 931 409 Q931 515 837 572 Q793 598 745.5 615.5 Q698 633 552 674 Q423 711 357.5 738 Q292 765 242 801 Q121 892 121 1084 Q121 1259 226 1372 Q290 1441 377 1472.5 Q464 1504 591 1504 Q1096 1504 1097 1041 L852 1041 Q846 1147 805 1203 Q740 1290 593 1290 Q491 1290 431 1243 Q368 1193 368 1109 Q368 1013 448 966 Q513 928 699 881 Q886 833 963 792 Q1179 675 1179 426 Q1179 220 1049 102 Q905 -29 635 -29 Q291 -29 157 164 Q86 267 82 449 Z M630 1794 L474 1603 L247 1603 L555 1945 L705 1945 L1013 1603 L786 1603 L630 1794 Z " />
<glyph glyph-name="scircumflex" unicode="&#x15d;" horiz-adv-x="1077" d="M63 354 L285 354 Q293 274 329 234 Q394 162 543 162 Q771 162 771 307 Q771 381 708 411 Q681 424 656 430 Q631 436 507 460 Q324 495 229 552 Q106 625 106 789 Q106 958 228 1054 Q332 1135 514 1135 Q784 1135 890 974 Q943 892 944 777 L722 777 Q715 845 686 880 Q633 941 512 941 Q344 941 344 813 Q344 747 400 719 Q443 698 595 666 Q715 641 775 620 Q835 599 885 566 Q1002 489 1002 320 Q1002 158 886 64 Q767 -32 541 -32 Q67 -32 63 354 Z M511 1416 L355 1225 L128 1225 L436 1566 L586 1566 L894 1225 L667 1225 L511 1416 Z " />
<glyph glyph-name="Scedilla" unicode="&#x15e;" horiz-adv-x="1265" d="M713 -25 L680 -86 Q759 -95 799 -116 Q890 -164 890 -278 Q890 -382 818.5 -438.5 Q747 -495 616 -495 Q477 -495 350 -455 L400 -302 Q524 -339 602 -339 Q700 -339 700 -277 Q700 -219 596 -219 Q571 -219 512 -224 L485 -108 L534 -23 Q357 -3 249 72 Q82 193 82 449 L327 449 Q333 336 384 276 Q461 185 636 185 Q778 185 854 247 Q931 309 931 409 Q931 515 837 572 Q794 598 745 615.5 Q696 633 552 674 Q421 712 356 738.5 Q291 765 242 801 Q121 892 121 1084 Q121 1259 226 1372 Q290 1441 377 1472.5 Q464 1504 591 1504 Q1096 1504 1097 1041 L852 1041 Q846 1147 805 1203 Q740 1290 593 1290 Q491 1290 431 1243 Q368 1193 368 1109 Q368 1014 448 967 Q488 943 535.5 927 Q583 911 699 881 Q885 834 963 792 Q1179 675 1179 426 Q1179 226 1061 112 Q943 -2 713 -25 Z " />
<glyph glyph-name="scedilla" unicode="&#x15f;" horiz-adv-x="1077" d="M622 -29 L591 -86 Q670 -95 710 -116 Q801 -164 801 -277 Q801 -382 729.5 -438.5 Q658 -495 526 -495 Q388 -495 261 -455 L311 -302 Q434 -339 514 -339 Q611 -339 611 -277 Q611 -219 510 -219 Q484 -219 423 -224 L397 -108 L443 -27 Q67 12 63 354 L285 354 Q293 273 329 233 Q394 161 542 161 Q771 161 771 307 Q771 381 708 410 Q681 423 656 429 Q631 435 507 459 Q324 495 229 551 Q106 625 106 788 Q106 958 228 1054 Q332 1135 514 1135 Q784 1135 890 974 Q943 892 944 777 L722 777 Q715 845 686 880 Q633 941 512 941 Q344 941 344 813 Q344 747 400 719 Q442 698 595 666 Q715 641 775 620 Q835 599 885 566 Q1002 488 1002 320 Q1002 167 904 77.5 Q806 -12 622 -29 Z " />
<glyph glyph-name="Scaron" unicode="&#x160;" horiz-adv-x="1265" d="M82 449 L327 449 Q333 336 384 276 Q461 185 636 185 Q778 185 854 247 Q931 309 931 409 Q931 515 837 572 Q793 598 745.5 615.5 Q698 633 552 674 Q423 711 357.5 738 Q292 765 242 801 Q121 892 121 1084 Q121 1259 226 1372 Q290 1441 377 1472.5 Q464 1504 591 1504 Q1096 1504 1097 1041 L852 1041 Q846 1147 805 1203 Q740 1290 593 1290 Q491 1290 431 1243 Q368 1193 368 1109 Q368 1013 448 966 Q513 928 699 881 Q886 833 963 792 Q1179 675 1179 426 Q1179 220 1049 102 Q905 -29 635 -29 Q291 -29 157 164 Q86 267 82 449 Z M598 1753 L754 1945 L981 1945 L673 1603 L523 1603 L215 1945 L442 1945 L598 1753 Z " />
<glyph glyph-name="scaron" unicode="&#x161;" horiz-adv-x="1077" d="M63 354 L285 354 Q293 274 329 234 Q394 162 543 162 Q771 162 771 307 Q771 381 708 411 Q681 424 656 430 Q631 436 507 460 Q324 495 229 552 Q106 625 106 789 Q106 958 228 1054 Q332 1135 514 1135 Q784 1135 890 974 Q943 892 944 777 L722 777 Q715 845 686 880 Q633 941 512 941 Q344 941 344 813 Q344 747 400 719 Q443 698 595 666 Q715 641 775 620 Q835 599 885 566 Q1002 489 1002 320 Q1002 158 886 64 Q767 -32 541 -32 Q67 -32 63 354 Z M527 1375 L683 1566 L910 1566 L602 1225 L452 1225 L144 1566 L371 1566 L527 1375 Z " />
<glyph glyph-name="Tcommaaccent" unicode="&#x162;" horiz-adv-x="1135" d="M441 0 L441 1265 L41 1265 L41 1475 L1094 1475 L1094 1265 L694 1265 L694 0 L441 0 Z M300 -490 L441 -149 L689 -149 L463 -490 L300 -490 Z " />
<glyph glyph-name="tcommaaccent" unicode="&#x163;" horiz-adv-x="814" d="M221 893 L65 893 L65 1103 L225 1103 L241 1419 L464 1419 L464 1103 L748 1103 L748 893 L464 893 L464 410 Q464 294 490 252 Q516 210 588 210 L776 210 L776 0 L585 0 Q418 0 329 71 Q221 158 221 362 L221 893 Z M193 -490 L334 -149 L582 -149 L356 -490 L193 -490 Z " />
<glyph glyph-name="Tcaron" unicode="&#x164;" horiz-adv-x="1135" d="M441 0 L441 1265 L41 1265 L41 1475 L1094 1475 L1094 1265 L694 1265 L694 0 L441 0 Z M570 1753 L726 1945 L953 1945 L645 1603 L495 1603 L187 1945 L414 1945 L570 1753 Z " />
<glyph glyph-name="tcaron" unicode="&#x165;" horiz-adv-x="1001" d="M221 893 L65 893 L65 1103 L225 1103 L241 1419 L464 1419 L464 1103 L748 1103 L748 893 L464 893 L464 410 Q464 294 490 252 Q516 210 588 210 L776 210 L776 0 L585 0 Q418 0 329 71 Q221 158 221 362 L221 893 Z M665 1212 L779 1695 L1043 1695 L847 1212 L665 1212 Z " />
<glyph glyph-name="Tbar" unicode="&#x166;" horiz-adv-x="1144" d="M445 0 L445 691 L182 691 L182 874 L445 874 L445 1265 L27 1265 L27 1475 L1117 1475 L1117 1265 L698 1265 L698 874 L962 874 L962 691 L698 691 L698 0 L445 0 Z " />
<glyph glyph-name="tbar" unicode="&#x167;" horiz-adv-x="799" d="M208 893 L52 893 L52 1103 L212 1103 L228 1419 L451 1419 L451 1103 L735 1103 L735 893 L451 893 L451 707 L735 707 L735 565 L451 565 L451 410 Q451 294 477 252 Q503 210 575 210 L763 210 L763 0 L572 0 Q405 0 316 71 Q208 158 208 361 L208 565 L52 565 L52 707 L208 707 L208 893 Z " />
<glyph glyph-name="Utilde" unicode="&#x168;" horiz-adv-x="1417" d="M160 1475 L413 1475 L413 577 Q413 383 463 302 Q531 190 708 190 Q887 190 954 302 Q982 349 992.5 408.5 Q1003 468 1003 577 L1003 1475 L1256 1475 L1256 622 Q1256 413 1231 309 Q1192 144 1061 59 Q925 -30 708 -30 Q380 -30 247 165 Q197 240 178.5 335.5 Q160 431 160 622 L160 1475 Z M522 1648 L382 1648 Q419 1885 593 1885 Q630 1885 657.5 1875.5 Q685 1866 764 1826 Q801 1807 823 1807 Q868 1807 892 1884 L1034 1884 Q1008 1756 956 1699 Q904 1642 813 1642 Q776 1642 748.5 1651.5 Q721 1661 643 1701 Q609 1719 591 1719 Q547 1719 522 1648 Z " />
<glyph glyph-name="utilde" unicode="&#x169;" horiz-adv-x="1217" d="M153 1103 L396 1103 L396 451 Q396 340 411 288 Q436 200 527 200 Q595 200 657 236.5 Q719 273 817 371 L817 1103 L1059 1103 L1059 0 L817 0 L817 143 Q715 62 677 40 Q573 -19 459 -19 Q273 -19 204 123 Q153 229 153 465 L153 1103 Z M422 1270 L282 1270 Q319 1507 493 1507 Q530 1507 559 1497 Q588 1487 664 1448 Q701 1429 723 1429 Q767 1429 792 1506 L934 1506 Q912 1400 875 1345 Q820 1264 713 1264 Q676 1264 648.5 1273.5 Q621 1283 543 1323 Q509 1341 491 1341 Q448 1341 422 1270 Z " />
<glyph glyph-name="Umacron" unicode="&#x16a;" horiz-adv-x="1417" d="M160 1475 L413 1475 L413 577 Q413 383 463 302 Q531 190 708 190 Q887 190 954 302 Q982 349 992.5 408.5 Q1003 468 1003 577 L1003 1475 L1256 1475 L1256 622 Q1256 413 1231 309 Q1192 144 1061 59 Q925 -30 708 -30 Q380 -30 247 165 Q197 240 178.5 335.5 Q160 431 160 622 L160 1475 Z M426 1681 L426 1850 L991 1850 L991 1681 L426 1681 Z " />
<glyph glyph-name="umacron" unicode="&#x16b;" horiz-adv-x="1217" d="M153 1103 L396 1103 L396 451 Q396 340 411 288 Q436 200 527 200 Q595 200 657 236.5 Q719 273 817 371 L817 1103 L1059 1103 L1059 0 L817 0 L817 143 Q715 62 677 40 Q573 -19 459 -19 Q273 -19 204 123 Q153 229 153 465 L153 1103 Z M326 1303 L326 1472 L891 1472 L891 1303 L326 1303 Z " />
<glyph glyph-name="Ubreve" unicode="&#x16c;" horiz-adv-x="1417" d="M160 1475 L413 1475 L413 577 Q413 383 463 302 Q531 190 708 190 Q887 190 954 302 Q982 349 992.5 408.5 Q1003 468 1003 577 L1003 1475 L1256 1475 L1256 622 Q1256 413 1231 309 Q1192 144 1061 59 Q925 -30 708 -30 Q380 -30 247 165 Q197 240 178.5 335.5 Q160 431 160 622 L160 1475 Z M402 1927 L542 1927 Q548 1859 573 1831 Q615 1784 707 1784 Q790 1784 827.5 1816.5 Q865 1849 872 1927 L1012 1927 Q1000 1791 956 1723 Q886 1617 705 1617 Q513 1617 446 1744 Q411 1810 402 1927 Z " />
<glyph glyph-name="ubreve" unicode="&#x16d;" horiz-adv-x="1217" d="M153 1103 L396 1103 L396 451 Q396 340 411 288 Q436 200 527 200 Q595 200 657 236.5 Q719 273 817 371 L817 1103 L1059 1103 L1059 0 L817 0 L817 143 Q715 62 677 40 Q573 -19 459 -19 Q273 -19 204 123 Q153 229 153 465 L153 1103 Z M302 1548 L442 1548 Q448 1480 473 1452 Q515 1405 607 1405 Q690 1405 727.5 1437.5 Q765 1470 772 1548 L912 1548 Q900 1412 856 1344 Q786 1238 605 1238 Q412 1238 346 1365 Q311 1431 302 1548 Z " />
<glyph glyph-name="Uring" unicode="&#x16e;" horiz-adv-x="1417" d="M160 1475 L413 1475 L413 577 Q413 383 463 302 Q531 190 708 190 Q887 190 954 302 Q982 349 992.5 408.5 Q1003 468 1003 577 L1003 1475 L1256 1475 L1256 622 Q1256 413 1231 309 Q1192 144 1061 59 Q925 -30 708 -30 Q380 -30 247 165 Q197 240 178.5 335.5 Q160 431 160 622 L160 1475 Z M713 2051 Q826 2051 893.5 1985 Q961 1919 961 1808 Q961 1696 893 1630.5 Q825 1565 709 1565 Q586 1565 517 1639 Q457 1705 457 1807 Q457 1921 525 1986 Q593 2051 713 2051 Z M707 1924 Q657 1924 628.5 1893.5 Q600 1863 600 1808 Q600 1692 709 1692 Q818 1692 818 1808 Q818 1924 707 1924 Z " />
<glyph glyph-name="uring" unicode="&#x16f;" horiz-adv-x="1217" d="M153 1103 L396 1103 L396 451 Q396 340 411 288 Q436 200 527 200 Q595 200 657 236.5 Q719 273 817 371 L817 1103 L1059 1103 L1059 0 L817 0 L817 143 Q715 62 677 40 Q573 -19 459 -19 Q273 -19 204 123 Q153 229 153 465 L153 1103 Z M613 1688 Q726 1688 793.5 1622 Q861 1556 861 1445 Q861 1333 793 1267.5 Q725 1202 609 1202 Q486 1202 417 1276 Q357 1342 357 1444 Q357 1558 425 1623 Q493 1688 613 1688 Z M607 1561 Q557 1561 528.5 1530.5 Q500 1500 500 1445 Q500 1329 609 1329 Q718 1329 718 1445 Q718 1561 607 1561 Z " />
<glyph glyph-name="Uhungarumlaut" unicode="&#x170;" horiz-adv-x="1417" d="M160 1475 L413 1475 L413 577 Q413 383 463 302 Q531 190 708 190 Q887 190 954 302 Q982 349 992.5 408.5 Q1003 468 1003 577 L1003 1475 L1256 1475 L1256 622 Q1256 413 1231 309 Q1192 144 1061 59 Q925 -30 708 -30 Q380 -30 247 165 Q197 240 178.5 335.5 Q160 431 160 622 L160 1475 Z M477 1603 L616 1945 L836 1945 L613 1603 L477 1603 Z M773 1603 L935 1945 L1164 1945 L911 1603 L773 1603 Z " />
<glyph glyph-name="uhungarumlaut" unicode="&#x171;" horiz-adv-x="1217" d="M153 1103 L396 1103 L396 451 Q396 340 411 288 Q436 200 527 200 Q595 200 657 236.5 Q719 273 817 371 L817 1103 L1059 1103 L1059 0 L817 0 L817 143 Q715 62 677 40 Q573 -19 459 -19 Q273 -19 204 123 Q153 229 153 465 L153 1103 Z M377 1225 L516 1566 L736 1566 L513 1225 L377 1225 Z M673 1225 L835 1566 L1064 1566 L811 1225 L673 1225 Z " />
<glyph glyph-name="Uogonek" unicode="&#x172;" horiz-adv-x="1417" d="M160 1475 L413 1475 L413 577 Q413 383 463 302 Q531 190 708 190 Q888 190 954 302 Q982 349 992.5 408.5 Q1003 468 1003 577 L1003 1475 L1256 1475 L1256 622 Q1256 432 1238 336.5 Q1220 241 1169 165 Q1079 30 885 -12 Q794 -86 761 -131 Q728 -176 728 -225 Q728 -299 809 -299 L923 -299 L923 -455 L799 -455 Q664 -455 601 -410.5 Q538 -366 538 -271 Q538 -143 698 -30 Q541 -24 452 10 Q286 71 223 203.5 Q160 336 160 622 L160 1475 Z " />
<glyph glyph-name="uogonek" unicode="&#x173;" horiz-adv-x="1217" d="M1059 0 Q962 -75 923.5 -125 Q885 -175 885 -226 Q885 -299 967 -299 L1081 -299 L1081 -455 L957 -455 Q822 -455 758.5 -410.5 Q695 -366 695 -271 Q695 -191 756 -119 Q781 -90 796 -77 Q811 -64 879 -14 Q890 -6 899 0 L817 0 L817 143 Q715 62 677 40 Q573 -19 459 -19 Q273 -19 204 123 Q153 229 153 465 L153 1103 L396 1103 L396 451 Q396 340 411 288 Q436 200 527 200 Q595 200 657 236.5 Q719 273 817 371 L817 1103 L1059 1103 L1059 0 Z " />
<glyph glyph-name="Wcircumflex" unicode="&#x174;" horiz-adv-x="1957" d="M452 -31 L88 1475 L347 1475 L574 443 L910 1478 L1048 1478 L1384 443 L1611 1475 L1870 1475 L1505 -31 L1311 -31 L979 994 L647 -31 L452 -31 Z M976 1794 L820 1603 L593 1603 L901 1945 L1051 1945 L1359 1603 L1132 1603 L976 1794 Z " />
<glyph glyph-name="wcircumflex" unicode="&#x175;" horiz-adv-x="1641" d="M352 -22 L39 1103 L285 1103 L480 351 L749 1103 L893 1103 L1162 351 L1356 1103 L1603 1103 L1290 -22 L1089 -22 L821 721 L553 -22 L352 -22 Z M818 1416 L662 1225 L435 1225 L743 1566 L893 1566 L1201 1225 L974 1225 L818 1416 Z " />
<glyph glyph-name="Ycircumflex" unicode="&#x176;" horiz-adv-x="1223" d="M485 0 L485 565 L-23 1475 L252 1475 L611 800 L970 1475 L1245 1475 L738 565 L738 0 L485 0 Z M608 1794 L452 1603 L225 1603 L533 1945 L683 1945 L991 1603 L764 1603 L608 1794 Z " />
<glyph glyph-name="ycircumflex" unicode="&#x177;" horiz-adv-x="1064" d="M412 27 L14 1103 L274 1103 L531 312 L789 1103 L1049 1103 L644 14 Q580 -160 541.5 -231.5 Q503 -303 447 -355 Q397 -401 331.5 -419 Q266 -437 140 -438 L140 -229 Q240 -228 277 -205 Q333 -170 378 -57 L412 27 Z M534 1416 L378 1225 L151 1225 L459 1566 L609 1566 L917 1225 L690 1225 L534 1416 Z " />
<glyph glyph-name="Zacute" unicode="&#x179;" horiz-adv-x="1131" d="M27 0 L27 192 L739 1265 L89 1265 L89 1475 L1046 1475 L1046 1311 L320 210 L1090 210 L1090 0 L27 0 Z M457 1603 L653 1945 L905 1945 L621 1603 L457 1603 Z " />
<glyph glyph-name="zacute" unicode="&#x17a;" horiz-adv-x="970" d="M36 0 L36 195 L595 893 L86 893 L86 1103 L886 1103 L886 921 L321 210 L904 210 L904 0 L36 0 Z M382 1225 L578 1566 L830 1566 L546 1225 L382 1225 Z " />
<glyph glyph-name="Zdotaccent" unicode="&#x17b;" horiz-adv-x="1131" d="M27 0 L27 192 L739 1265 L89 1265 L89 1475 L1046 1475 L1046 1311 L320 210 L1090 210 L1090 0 L27 0 Z M593 1889 Q653 1889 696 1847 Q739 1805 739 1747 Q739 1688 695.5 1646.5 Q652 1605 591 1605 Q529 1605 485.5 1647 Q442 1689 442 1748 Q442 1807 486 1848 Q530 1889 593 1889 Z " />
<glyph glyph-name="zdotaccent" unicode="&#x17c;" horiz-adv-x="970" d="M36 0 L36 195 L595 893 L86 893 L86 1103 L886 1103 L886 921 L321 210 L904 210 L904 0 L36 0 Z M521 1522 Q581 1522 624 1480.5 Q667 1439 667 1380 Q667 1321 623.5 1279.5 Q580 1238 519 1238 Q457 1238 413.5 1280 Q370 1322 370 1381 Q370 1440 414 1481 Q458 1522 521 1522 Z " />
<glyph glyph-name="Zcaron" unicode="&#x17d;" horiz-adv-x="1131" d="M27 0 L27 192 L739 1265 L89 1265 L89 1475 L1046 1475 L1046 1311 L320 210 L1090 210 L1090 0 L27 0 Z M598 1753 L754 1945 L981 1945 L673 1603 L523 1603 L215 1945 L442 1945 L598 1753 Z " />
<glyph glyph-name="zcaron" unicode="&#x17e;" horiz-adv-x="970" d="M36 0 L36 195 L595 893 L86 893 L86 1103 L886 1103 L886 921 L321 210 L904 210 L904 0 L36 0 Z M521 1375 L677 1566 L904 1566 L596 1225 L446 1225 L138 1566 L365 1566 L521 1375 Z " />
<glyph glyph-name="uni018F" unicode="&#x18f;" horiz-adv-x="1579" d="M101 862 L1213 862 Q1202 984 1155 1077 Q1051 1284 792 1284 Q663 1284 580.5 1242 Q498 1200 433 1101 L222 1223 Q293 1327 365 1381 Q528 1504 794 1504 Q1172 1504 1348 1237 Q1478 1042 1478 737 Q1478 433 1348 237 Q1172 -29 790 -29 Q495 -29 323 131 Q147 294 113 585 Q102 680 101 862 Z M364 663 Q373 555 384 504.5 Q395 454 421 402 Q528 191 793 191 Q1078 191 1175 444 Q1212 538 1217 663 L364 663 Z " />
<glyph glyph-name="uni01CD" unicode="&#x1cd;" horiz-adv-x="1382" d="M987 379 L395 379 L258 0 L1 0 L580 1475 L803 1475 L1381 0 L1125 0 L987 379 Z M915 583 L691 1200 L467 583 L915 583 Z M693 1753 L849 1945 L1076 1945 L768 1603 L618 1603 L310 1945 L537 1945 L693 1753 Z " />
<glyph glyph-name="uni01CE" unicode="&#x1ce;" horiz-adv-x="1188" d="M825 118 Q701 -33 463 -33 Q82 -33 82 318 Q82 492 176 576 Q279 667 520 667 Q588 667 759 656 L806 653 L806 721 Q806 842 757 890 Q703 941 578 941 Q485 941 443 907.5 Q401 874 390 791 L161 791 Q177 896 204.5 954 Q232 1012 286 1054 Q388 1134 589 1134 Q796 1134 907 1057 Q1041 964 1041 721 L1041 0 L825 0 L825 118 Z M812 484 Q687 497 561 497 Q431 497 381 460.5 Q331 424 331 329 Q331 243 374 207 Q417 171 518 171 Q701 171 773 266 Q812 318 812 425 L812 484 Z M590 1375 L746 1566 L973 1566 L665 1225 L515 1225 L207 1566 L434 1566 L590 1375 Z " />
<glyph glyph-name="uni01D3" unicode="&#x1d3;" horiz-adv-x="1417" d="M160 1475 L413 1475 L413 577 Q413 383 463 302 Q531 190 708 190 Q887 190 954 302 Q982 349 992.5 408.5 Q1003 468 1003 577 L1003 1475 L1256 1475 L1256 622 Q1256 413 1231 309 Q1192 144 1061 59 Q925 -30 708 -30 Q380 -30 247 165 Q197 240 178.5 335.5 Q160 431 160 622 L160 1475 Z M711 1753 L867 1945 L1094 1945 L786 1603 L636 1603 L328 1945 L555 1945 L711 1753 Z " />
<glyph glyph-name="uni01D4" unicode="&#x1d4;" horiz-adv-x="1217" d="M153 1103 L396 1103 L396 451 Q396 340 411 288 Q436 200 527 200 Q595 200 657 236.5 Q719 273 817 371 L817 1103 L1059 1103 L1059 0 L817 0 L817 143 Q715 62 677 40 Q573 -19 459 -19 Q273 -19 204 123 Q153 229 153 465 L153 1103 Z M611 1375 L767 1566 L994 1566 L686 1225 L536 1225 L228 1566 L455 1566 L611 1375 Z " />
<glyph glyph-name="uni01DD" unicode="&#x1dd;" horiz-adv-x="1262" d="M96 647 L914 647 Q893 752 856 806 Q773 925 618 925 Q521 925 435.5 897 Q350 869 243 802 L127 981 Q255 1063 369 1099 Q483 1135 616 1135 Q870 1135 1017 976 Q1169 813 1169 551 Q1169 288 1017 127 Q869 -32 631 -32 Q393 -32 244 127 Q92 288 92 542 Q92 581 96 647 Z M345 481 Q365 360 402 305 Q487 178 630 178 Q796 178 875 331 Q902 381 917 481 L345 481 Z " />
<glyph glyph-name="Gcaron" unicode="&#x1e6;" horiz-adv-x="1523" d="M850 558 L850 756 L1382 756 L1382 62 Q1121 -29 799 -29 Q575 -29 442 39 Q259 133 168 349 Q102 506 102 725 Q102 1084 287 1298 Q465 1504 790 1504 Q1132 1504 1277 1303 Q1321 1243 1338.5 1180.5 Q1356 1118 1356 1026 L1111 1026 Q1105 1130 1051 1191 Q965 1287 791 1287 Q575 1287 467 1132 Q359 978 359 730 Q359 478 476 327 Q533 255 614 221.5 Q695 188 816 188 Q976 188 1140 242 L1140 558 L850 558 Z M779 1753 L935 1945 L1162 1945 L854 1603 L704 1603 L396 1945 L623 1945 L779 1753 Z " />
<glyph glyph-name="gcaron" unicode="&#x1e7;" horiz-adv-x="1277" d="M876 126 Q759 -11 566 -11 Q352 -11 224 142 Q93 298 93 553 Q93 807 219 969 Q348 1135 570 1135 Q676 1135 753 1097.5 Q830 1060 898 975 L898 1103 L1119 1103 L1119 174 Q1119 -20 1094 -125 Q1015 -468 610 -468 Q337 -468 135 -334 L242 -149 Q342 -215 422 -241.5 Q502 -268 599 -268 Q694 -268 750.5 -238 Q807 -208 838 -141 Q876 -60 876 103 L876 126 Z M599 925 Q481 925 410.5 823.5 Q340 722 340 554 Q340 392 409 297 Q480 199 603 199 Q731 199 806 304 Q876 400 876 552 Q876 713 806 813 Q729 925 599 925 Z M626 1375 L782 1566 L1009 1566 L701 1225 L551 1225 L243 1566 L470 1566 L626 1375 Z " />
<glyph glyph-name="uni01F4" unicode="&#x1f4;" horiz-adv-x="1523" d="M850 558 L850 756 L1382 756 L1382 62 Q1121 -29 799 -29 Q575 -29 442 39 Q259 133 168 349 Q102 506 102 725 Q102 1084 287 1298 Q465 1504 790 1504 Q1132 1504 1277 1303 Q1321 1243 1338.5 1180.5 Q1356 1118 1356 1026 L1111 1026 Q1105 1130 1051 1191 Q965 1287 791 1287 Q575 1287 467 1132 Q359 978 359 730 Q359 478 476 327 Q533 255 614 221.5 Q695 188 816 188 Q976 188 1140 242 L1140 558 L850 558 Z M640 1603 L836 1945 L1088 1945 L804 1603 L640 1603 Z " />
<glyph glyph-name="uni01F5" unicode="&#x1f5;" horiz-adv-x="1277" d="M876 126 Q759 -11 566 -11 Q352 -11 224 142 Q93 298 93 553 Q93 807 219 969 Q348 1135 570 1135 Q676 1135 753 1097.5 Q830 1060 898 975 L898 1103 L1119 1103 L1119 174 Q1119 -20 1094 -125 Q1015 -468 610 -468 Q337 -468 135 -334 L242 -149 Q342 -215 422 -241.5 Q502 -268 599 -268 Q694 -268 750.5 -238 Q807 -208 838 -141 Q876 -60 876 103 L876 126 Z M599 925 Q481 925 410.5 823.5 Q340 722 340 554 Q340 392 409 297 Q480 199 603 199 Q731 199 806 304 Q876 400 876 552 Q876 713 806 813 Q729 925 599 925 Z M500 1225 L696 1566 L948 1566 L664 1225 L500 1225 Z " />
<glyph glyph-name="Scommaaccent" unicode="&#x218;" horiz-adv-x="1265" d="M82 449 L327 449 Q333 336 384 276 Q461 185 636 185 Q778 185 854 247 Q931 309 931 409 Q931 515 837 572 Q793 598 745.5 615.5 Q698 633 552 674 Q423 711 357.5 738 Q292 765 242 801 Q121 892 121 1084 Q121 1259 226 1372 Q290 1441 377 1472.5 Q464 1504 591 1504 Q1096 1504 1097 1041 L852 1041 Q846 1147 805 1203 Q740 1290 593 1290 Q491 1290 431 1243 Q368 1193 368 1109 Q368 1013 448 966 Q513 928 699 881 Q886 833 963 792 Q1179 675 1179 426 Q1179 220 1049 102 Q905 -29 635 -29 Q291 -29 157 164 Q86 267 82 449 Z M390 -490 L531 -149 L779 -149 L553 -490 L390 -490 Z " />
<glyph glyph-name="scommaaccent" unicode="&#x219;" horiz-adv-x="1077" d="M63 354 L285 354 Q293 274 329 234 Q394 162 543 162 Q771 162 771 307 Q771 381 708 411 Q681 424 656 430 Q631 436 507 460 Q324 495 229 552 Q106 625 106 789 Q106 958 228 1054 Q332 1135 514 1135 Q784 1135 890 974 Q943 892 944 777 L722 777 Q715 845 686 880 Q633 941 512 941 Q344 941 344 813 Q344 747 400 719 Q443 698 595 666 Q715 641 775 620 Q835 599 885 566 Q1002 489 1002 320 Q1002 158 886 64 Q767 -32 541 -32 Q67 -32 63 354 Z M302 -490 L443 -149 L691 -149 L465 -490 L302 -490 Z " />
<glyph glyph-name="uni021A" unicode="&#x21a;" horiz-adv-x="1135" d="M441 0 L441 1265 L41 1265 L41 1475 L1094 1475 L1094 1265 L694 1265 L694 0 L441 0 Z M300 -490 L441 -149 L689 -149 L463 -490 L300 -490 Z " />
<glyph glyph-name="uni021B" unicode="&#x21b;" horiz-adv-x="814" d="M221 893 L65 893 L65 1103 L225 1103 L241 1419 L464 1419 L464 1103 L748 1103 L748 893 L464 893 L464 410 Q464 294 490 252 Q516 210 588 210 L776 210 L776 0 L585 0 Q418 0 329 71 Q221 158 221 362 L221 893 Z M193 -490 L334 -149 L582 -149 L356 -490 L193 -490 Z " />
<glyph glyph-name="uni0226" unicode="&#x226;" horiz-adv-x="1382" d="M987 379 L395 379 L258 0 L1 0 L580 1475 L803 1475 L1381 0 L1125 0 L987 379 Z M915 583 L691 1200 L467 583 L915 583 Z M693 1889 Q753 1889 796 1847 Q839 1805 839 1747 Q839 1688 795.5 1646.5 Q752 1605 691 1605 Q629 1605 585.5 1647 Q542 1689 542 1748 Q542 1807 586 1848 Q630 1889 693 1889 Z " />
<glyph glyph-name="uni0227" unicode="&#x227;" horiz-adv-x="1188" d="M825 118 Q701 -33 463 -33 Q82 -33 82 318 Q82 492 176 576 Q279 667 520 667 Q588 667 759 656 L806 653 L806 721 Q806 842 757 890 Q703 941 578 941 Q485 941 443 907.5 Q401 874 390 791 L161 791 Q177 896 204.5 954 Q232 1012 286 1054 Q388 1134 589 1134 Q796 1134 907 1057 Q1041 964 1041 721 L1041 0 L825 0 L825 118 Z M812 484 Q687 497 561 497 Q431 497 381 460.5 Q331 424 331 329 Q331 243 374 207 Q417 171 518 171 Q701 171 773 266 Q812 318 812 425 L812 484 Z M602 1522 Q662 1522 705 1480.5 Q748 1439 748 1380 Q748 1321 704.5 1279.5 Q661 1238 600 1238 Q538 1238 494.5 1280 Q451 1322 451 1381 Q451 1440 495 1481 Q539 1522 602 1522 Z " />
<glyph glyph-name="uni0237" unicode="&#x237;" horiz-adv-x="585" d="M179 1103 L422 1103 L422 51 Q422 -108 400 -193 Q378 -278 323 -335 Q274 -385 202.5 -408.5 Q131 -432 10 -438 L10 -229 Q66 -224 91.5 -214 Q117 -204 137 -180 Q161 -149 170 -105 Q179 -61 179 25 L179 1103 Z " />
<glyph glyph-name="uni0259" unicode="&#x259;" horiz-adv-x="1262" d="M96 647 L914 647 Q893 752 856 806 Q773 925 618 925 Q521 925 435.5 897 Q350 869 243 802 L127 981 Q255 1063 369 1099 Q483 1135 616 1135 Q870 1135 1017 976 Q1169 813 1169 551 Q1169 288 1017 127 Q869 -32 631 -32 Q393 -32 244 127 Q92 288 92 542 Q92 581 96 647 Z M345 481 Q365 360 402 305 Q487 178 630 178 Q796 178 875 331 Q902 381 917 481 L345 481 Z " />
<glyph glyph-name="uni02C9" unicode="&#x2c9;" horiz-adv-x="1024" d="M229 1303 L229 1472 L794 1472 L794 1303 L229 1303 Z " />
<glyph glyph-name="uni0312" unicode="&#x312;" horiz-adv-x="1024" d="M791 1566 L595 1225 L343 1225 L627 1566 L791 1566 Z " />
<glyph glyph-name="uni0313" unicode="&#x313;" horiz-adv-x="305" d="M-41 1043 L83 1546 L346 1546 L141 1043 L-41 1043 Z " />
<glyph glyph-name="uni031B" unicode="&#x31b;" horiz-adv-x="305" d="M-41 1043 L83 1546 L346 1546 L141 1043 L-41 1043 Z " />
<glyph glyph-name="commaaccent" unicode="&#x326;" horiz-adv-x="1024" d="M298 -490 L439 -149 L687 -149 L461 -490 L298 -490 Z " />
<glyph glyph-name="uni037E" unicode="&#x37e;" horiz-adv-x="649" d="M130 -289 L293 282 L583 282 L332 -289 L130 -289 Z M437 960 Q503 960 550 913 Q597 866 597 801 Q597 730 543 683 Q497 642 434 642 Q366 642 318.5 688.5 Q271 735 271 802 Q271 869 319 914.5 Q367 960 437 960 Z " />
<glyph glyph-name="uni0387" unicode="&#x387;" horiz-adv-x="643" d="M325 774 Q391 774 438 727 Q485 680 485 615 Q485 544 431 497 Q384 456 322 456 Q254 456 206.5 502.5 Q159 549 159 616 Q159 682 207.5 728 Q256 774 325 774 Z " />
<glyph glyph-name="uni0400" unicode="&#x400;" horiz-adv-x="1227" d="M169 0 L169 1475 L1133 1475 L1133 1265 L422 1265 L422 875 L1001 875 L1001 665 L422 665 L422 210 L1150 210 L1150 0 L169 0 Z M663 1603 L379 1945 L631 1945 L827 1603 L663 1603 Z " />
<glyph glyph-name="afii10023" unicode="&#x401;" horiz-adv-x="1227" d="M169 0 L169 1475 L1133 1475 L1133 1265 L422 1265 L422 875 L1001 875 L1001 665 L422 665 L422 210 L1150 210 L1150 0 L169 0 Z M447 1879 Q503 1879 543 1840 Q583 1801 583 1747 Q583 1692 542.5 1653 Q502 1614 444 1614 Q386 1614 345.5 1653 Q305 1692 305 1748 Q305 1803 346 1841 Q387 1879 447 1879 Z M861 1879 Q917 1879 957 1840 Q997 1801 997 1747 Q997 1692 956.5 1653 Q916 1614 858 1614 Q800 1614 759.5 1653 Q719 1692 719 1748 Q719 1803 760 1841 Q801 1879 861 1879 Z " />
<glyph glyph-name="afii10051" unicode="&#x402;" horiz-adv-x="1541" d="M416 0 L416 1265 L30 1265 L30 1475 L1157 1475 L1157 1265 L669 1265 L669 866 Q785 946 859 973.5 Q933 1001 1030 1001 Q1230 1001 1308 869 Q1365 773 1365 553 L1365 -11 Q1365 -151 1343.5 -227 Q1322 -303 1268 -353 Q1220 -397 1151.5 -417 Q1083 -437 961 -443 L961 -233 Q1049 -228 1081 -197 Q1122 -157 1122 -37 L1122 565 Q1122 662 1102 709 Q1070 783 963 783 Q896 783 834.5 753 Q773 723 669 638 L669 0 L416 0 Z " />
<glyph glyph-name="afii10052" unicode="&#x403;" horiz-adv-x="1132" d="M169 0 L169 1475 L1083 1475 L1083 1265 L422 1265 L422 0 L169 0 Z M534 1603 L730 1945 L982 1945 L698 1603 L534 1603 Z " />
<glyph glyph-name="afii10053" unicode="&#x404;" horiz-adv-x="1391" d="M935 674 L361 674 Q369 494 416 384 Q461 278 534.5 229 Q608 180 722 180 Q1039 180 1055 449 L1299 449 Q1297 357 1283 300 Q1236 116 1049 32 Q911 -29 724 -29 Q359 -29 211 237 Q102 434 102 736 Q102 1038 219 1237 Q375 1504 737 1504 Q1059 1504 1193 1321 Q1269 1218 1270 1058 L1025 1058 Q1010 1294 738 1294 Q579 1294 495 1211 Q390 1107 366 873 L935 873 L935 674 Z " />
<glyph glyph-name="afii10054" unicode="&#x405;" horiz-adv-x="1265" d="M82 449 L327 449 Q333 336 384 276 Q461 185 636 185 Q778 185 854 247 Q931 309 931 409 Q931 515 837 572 Q793 598 745.5 615.5 Q698 633 552 674 Q423 711 357.5 738 Q292 765 242 801 Q121 892 121 1084 Q121 1259 226 1372 Q290 1441 377 1472.5 Q464 1504 591 1504 Q1096 1504 1097 1041 L852 1041 Q846 1147 805 1203 Q740 1290 593 1290 Q491 1290 431 1243 Q368 1193 368 1109 Q368 1013 448 966 Q513 928 699 881 Q886 833 963 792 Q1179 675 1179 426 Q1179 220 1049 102 Q905 -29 635 -29 Q291 -29 157 164 Q86 267 82 449 Z " />
<glyph glyph-name="afii10055" unicode="&#x406;" horiz-adv-x="591" d="M169 0 L169 1475 L422 1475 L422 0 L169 0 Z " />
<glyph glyph-name="afii10056" unicode="&#x407;" horiz-adv-x="596" d="M171 0 L171 1475 L424 1475 L424 0 L171 0 Z M92 1879 Q149 1879 189 1840 Q229 1801 229 1747 Q229 1691 188.5 1652.5 Q148 1614 90 1614 Q32 1614 -9 1653 Q-50 1692 -50 1748 Q-50 1803 -8.5 1841 Q33 1879 92 1879 Z M509 1879 Q565 1879 605.5 1840 Q646 1801 646 1747 Q646 1692 605.5 1653 Q565 1614 507 1614 Q449 1614 408 1653 Q367 1692 367 1748 Q367 1803 408.5 1841 Q450 1879 509 1879 Z " />
<glyph glyph-name="afii10057" unicode="&#x408;" horiz-adv-x="629" d="M208 1475 L461 1475 L461 177 Q461 9 438 -81.5 Q415 -172 357 -234 Q305 -288 228 -312 Q151 -336 16 -341 L16 -131 Q78 -128 107 -118.5 Q136 -109 157 -85 Q208 -29 208 140 L208 1475 Z " />
<glyph glyph-name="afii10058" unicode="&#x409;" horiz-adv-x="2147" d="M1014 0 L1014 1265 L604 1265 Q597 1193 583 1040 Q522 428 399 201 Q344 89 258.5 44.5 Q173 0 12 0 L-18 0 L-18 210 L8 210 Q69 210 103.5 230.5 Q138 251 172 309 Q245 432 293.5 721.5 Q342 1011 366 1475 L1267 1475 L1267 894 L1530 894 Q1761 894 1891 808 Q2068 693 2068 447 Q2068 228 1930.5 114 Q1793 0 1530 0 L1014 0 Z M1267 210 L1475 210 Q1640 210 1713 256 Q1811 317 1811 452 Q1811 598 1697 656 Q1625 693 1475 693 L1267 693 L1267 210 Z " />
<glyph glyph-name="afii10059" unicode="&#x40a;" horiz-adv-x="2140" d="M169 0 L169 1475 L422 1475 L422 879 L1009 879 L1009 1475 L1253 1475 L1253 882 L1521 882 Q1753 882 1883 798 Q2060 684 2060 441 Q2060 225 1923 112.5 Q1786 0 1521 0 L1009 0 L1009 669 L422 669 L422 0 L169 0 Z M1253 210 L1466 210 Q1632 210 1705 255 Q1803 314 1803 446 Q1803 588 1689 645 Q1617 681 1466 681 L1253 681 L1253 210 Z " />
<glyph glyph-name="afii10060" unicode="&#x40b;" horiz-adv-x="1570" d="M416 0 L416 1265 L30 1265 L30 1475 L1157 1475 L1157 1265 L669 1265 L669 866 Q785 946 859 973.5 Q933 1001 1030 1001 Q1230 1001 1308 869 Q1365 773 1365 553 L1365 0 L1122 0 L1122 565 Q1122 662 1102 709 Q1070 783 963 783 Q895 783 834 753 Q773 723 669 638 L669 0 L416 0 Z " />
<glyph glyph-name="afii10061" unicode="&#x40c;" horiz-adv-x="1330" d="M169 0 L169 1475 L422 1475 L422 866 L625 866 L1024 1475 L1292 1475 L836 787 Q894 747 929 700.5 Q964 654 1020 543 L1293 0 L986 0 L809 407 Q741 562 683.5 614.5 Q626 667 524 667 L422 667 L422 0 L169 0 Z M585 1603 L781 1945 L1033 1945 L749 1603 L585 1603 Z " />
<glyph glyph-name="uni040D" unicode="&#x40d;" horiz-adv-x="1456" d="M169 0 L169 1475 L405 1475 L405 432 L1044 1475 L1272 1475 L1272 0 L1036 0 L1036 1041 L396 0 L169 0 Z M706 1603 L422 1945 L674 1945 L870 1603 L706 1603 Z " />
<glyph glyph-name="afii10062" unicode="&#x40e;" horiz-adv-x="1190" d="M483 464 L-12 1475 L261 1475 L607 732 L950 1475 L1214 1475 L533 0 L269 0 L483 464 Z M415 1939 Q425 1853 467 1818 Q512 1781 604 1781 Q697 1781 739.5 1817 Q782 1853 792 1939 L975 1939 Q970 1836 951 1785 Q916 1692 832 1648.5 Q748 1605 603 1605 Q395 1605 308 1699 Q269 1740 252.5 1792.5 Q236 1845 232 1939 L415 1939 Z " />
<glyph glyph-name="afii10145" unicode="&#x40f;" horiz-adv-x="1412" d="M169 0 L169 1475 L422 1475 L422 210 L990 210 L990 1475 L1243 1475 L1243 0 L833 0 L800 -360 L612 -360 L579 0 L169 0 Z " />
<glyph glyph-name="afii10017" unicode="&#x410;" horiz-adv-x="1382" d="M987 379 L395 379 L258 0 L1 0 L580 1475 L803 1475 L1381 0 L1125 0 L987 379 Z M915 583 L691 1200 L467 583 L915 583 Z " />
<glyph glyph-name="afii10018" unicode="&#x411;" horiz-adv-x="1310" d="M169 0 L169 1475 L1112 1475 L1112 1265 L413 1265 L413 894 L675 894 Q906 894 1037 808 Q1214 693 1214 447 Q1214 228 1076.5 114 Q939 0 675 0 L169 0 Z M413 210 L620 210 Q785 210 859 256 Q957 317 957 452 Q957 598 843 656 Q771 693 620 693 L413 693 L413 210 Z " />
<glyph glyph-name="afii10019" unicode="&#x412;" horiz-adv-x="1367" d="M169 0 L169 1475 L712 1475 Q1200 1475 1200 1107 Q1200 894 1013 796 Q1121 763 1185 688 Q1271 589 1271 437 Q1271 226 1121 113 Q971 0 691 0 L169 0 Z M413 887 L674 887 Q809 887 873 926 Q952 974 952 1075 Q952 1169 885 1219.5 Q818 1270 695 1270 L413 1270 L413 887 Z M413 205 L637 205 Q821 205 904 251 Q1014 312 1014 446 Q1014 562 930.5 624 Q847 686 691 686 L413 686 L413 205 Z " />
<glyph glyph-name="afii10020" unicode="&#x413;" horiz-adv-x="1132" d="M169 0 L169 1475 L1083 1475 L1083 1265 L422 1265 L422 0 L169 0 Z " />
<glyph glyph-name="afii10021" unicode="&#x414;" horiz-adv-x="1431" d="M1160 0 L207 0 L163 -360 L-29 -360 L-33 210 L92 210 Q213 410 271 691.5 Q329 973 354 1475 L1256 1475 L1256 210 L1396 210 L1396 -360 L1204 -360 L1160 0 Z M1003 210 L1003 1265 L593 1265 Q558 884 528 724 Q476 444 361 210 L1003 210 Z " />
<glyph glyph-name="afii10022" unicode="&#x415;" horiz-adv-x="1227" d="M169 0 L169 1475 L1133 1475 L1133 1265 L422 1265 L422 875 L1001 875 L1001 665 L422 665 L422 210 L1150 210 L1150 0 L169 0 Z " />
<glyph glyph-name="afii10024" unicode="&#x416;" horiz-adv-x="1944" d="M847 0 L847 667 L796 667 Q694 667 637 615 Q580 563 512 407 L334 0 L28 0 L301 543 Q357 654 392.5 701 Q428 748 485 787 L28 1475 L297 1475 L695 866 L847 866 L847 1475 L1086 1475 L1086 866 L1238 866 L1636 1475 L1905 1475 L1448 787 Q1505 748 1541 700.5 Q1577 653 1632 543 L1905 0 L1599 0 L1421 407 Q1354 562 1296.5 614.5 Q1239 667 1137 667 L1086 667 L1086 0 L847 0 Z " />
<glyph glyph-name="afii10025" unicode="&#x417;" horiz-adv-x="1329" d="M416 672 L416 871 L592 871 Q751 871 828 917 Q922 974 922 1097 Q922 1193 853.5 1243.5 Q785 1294 655 1294 Q514 1294 443.5 1236.5 Q373 1179 365 1058 L120 1058 Q124 1504 669 1504 Q914 1504 1047 1407 Q1177 1312 1177 1120 Q1177 1010 1139.5 937 Q1102 864 1016 807 Q1233 718 1233 439 Q1233 194 1072 73 Q936 -29 689 -29 Q306 -29 169 162 Q95 266 91 449 L336 449 Q342 334 398 272 Q480 180 669 180 Q823 180 902 247 Q978 313 978 434 Q978 561 897 616.5 Q816 672 629 672 L416 672 Z " />
<glyph glyph-name="afii10026" unicode="&#x418;" horiz-adv-x="1456" d="M169 0 L169 1475 L405 1475 L405 432 L1044 1475 L1272 1475 L1272 0 L1036 0 L1036 1041 L396 0 L169 0 Z " />
<glyph glyph-name="afii10027" unicode="&#x419;" horiz-adv-x="1456" d="M169 0 L169 1475 L405 1475 L405 432 L1044 1475 L1272 1475 L1272 0 L1036 0 L1036 1041 L396 0 L169 0 Z M534 1939 Q544 1853 587 1818 Q632 1781 724 1781 Q817 1781 859.5 1817 Q902 1853 912 1939 L1095 1939 Q1090 1836 1071 1785 Q1036 1692 952 1648.5 Q868 1605 723 1605 Q515 1605 427 1699 Q389 1740 372.5 1792.5 Q356 1845 351 1939 L534 1939 Z " />
<glyph glyph-name="afii10028" unicode="&#x41a;" horiz-adv-x="1330" d="M169 0 L169 1475 L422 1475 L422 866 L625 866 L1024 1475 L1292 1475 L836 787 Q894 747 929 700.5 Q964 654 1020 543 L1293 0 L986 0 L809 407 Q741 562 683.5 614.5 Q626 667 524 667 L422 667 L422 0 L169 0 Z " />
<glyph glyph-name="afii10029" unicode="&#x41b;" horiz-adv-x="1454" d="M1013 0 L1013 1265 L603 1265 Q596 1193 582 1040 Q521 426 399 200 Q344 89 258 44.5 Q172 0 12 0 L-18 0 L-18 210 L8 210 Q69 210 103 230.5 Q137 251 172 309 Q245 432 293 722 Q341 1012 366 1475 L1266 1475 L1266 0 L1013 0 Z " />
<glyph glyph-name="afii10030" unicode="&#x41c;" horiz-adv-x="1754" d="M106 0 L237 1475 L482 1475 L877 424 L1272 1475 L1518 1475 L1648 0 L1405 0 L1323 1012 L946 0 L808 0 L431 1012 L349 0 L106 0 Z " />
<glyph glyph-name="afii10031" unicode="&#x41d;" horiz-adv-x="1457" d="M169 0 L169 1475 L422 1475 L422 879 L1035 879 L1035 1475 L1288 1475 L1288 0 L1035 0 L1035 669 L422 669 L422 0 L169 0 Z " />
<glyph glyph-name="afii10032" unicode="&#x41e;" horiz-adv-x="1571" d="M798 1504 Q1165 1504 1342 1237 Q1470 1044 1470 737 Q1470 432 1342 237 Q1166 -29 786 -29 Q406 -29 230 237 Q102 432 102 735 Q102 1044 230 1237 Q407 1504 798 1504 Z M779 1284 Q571 1284 469 1149 Q359 1005 359 737 Q359 191 786 191 Q1002 191 1103 326 Q1213 472 1213 735 Q1213 1006 1103 1149 Q1000 1284 779 1284 Z " />
<glyph glyph-name="afii10033" unicode="&#x41f;" horiz-adv-x="1445" d="M169 0 L169 1475 L1275 1475 L1275 0 L1023 0 L1023 1265 L422 1265 L422 0 L169 0 Z " />
<glyph glyph-name="afii10034" unicode="&#x420;" horiz-adv-x="1300" d="M169 0 L169 1475 L617 1475 Q785 1475 880 1455 Q975 1435 1049 1384 Q1230 1259 1230 1006 Q1230 545 619 545 L422 545 L422 0 L169 0 Z M422 749 L608 749 Q973 749 973 1011 Q973 1265 619 1265 L422 1265 L422 749 Z " />
<glyph glyph-name="afii10035" unicode="&#x421;" horiz-adv-x="1410" d="M1172 384 L1324 210 Q1230 101 1126 48 Q973 -29 770 -29 Q432 -29 261 187 Q102 387 102 726 Q102 1089 276 1300 Q444 1504 759 1504 Q1081 1504 1221 1303 Q1295 1195 1297 1026 L1052 1026 Q1046 1130 996 1191 Q918 1287 761 1287 Q560 1287 458 1132 Q359 982 359 729 Q359 481 472 330 Q576 191 777 191 Q928 191 1047 269 Q1096 301 1172 384 Z " />
<glyph glyph-name="afii10036" unicode="&#x422;" horiz-adv-x="1135" d="M441 0 L441 1265 L41 1265 L41 1475 L1094 1475 L1094 1265 L694 1265 L694 0 L441 0 Z " />
<glyph glyph-name="afii10037" unicode="&#x423;" horiz-adv-x="1190" d="M483 464 L-12 1475 L261 1475 L607 732 L950 1475 L1214 1475 L533 0 L269 0 L483 464 Z " />
<glyph glyph-name="afii10038" unicode="&#x424;" horiz-adv-x="1843" d="M803 -41 L803 167 Q542 185 392 259 Q93 405 93 737 Q93 1098 439 1238 Q571 1291 803 1309 L803 1516 L1032 1516 L1032 1309 Q1298 1291 1452 1216 Q1751 1071 1751 738 Q1751 377 1405 238 Q1271 184 1032 167 L1032 -41 L803 -41 Z M803 366 L803 1109 Q350 1085 350 738 Q350 394 803 366 Z M1032 365 Q1217 376 1316 428 Q1494 522 1494 738 Q1494 914 1380.5 1005.5 Q1267 1097 1032 1110 L1032 365 Z " />
<glyph glyph-name="afii10039" unicode="&#x425;" horiz-adv-x="1266" d="M485 760 L43 1475 L335 1475 L658 957 L936 1475 L1218 1475 L778 759 L1248 0 L956 0 L604 564 L290 0 L7 0 L485 760 Z " />
<glyph glyph-name="afii10040" unicode="&#x426;" horiz-adv-x="1437" d="M169 0 L169 1475 L422 1475 L422 210 L1005 210 L1005 1475 L1258 1475 L1258 210 L1398 210 L1398 -360 L1207 -360 L1162 0 L169 0 Z " />
<glyph glyph-name="afii10041" unicode="&#x427;" horiz-adv-x="1368" d="M947 0 L947 641 Q920 626 907 619 Q812 565 756 546 Q656 514 539 514 Q276 514 186 674 Q130 773 130 974 L130 1475 L383 1475 L383 1010 Q383 864 417 810 Q466 731 613 731 Q738 731 849 798 Q894 826 947 868 L947 1475 L1200 1475 L1200 0 L947 0 Z " />
<glyph glyph-name="afii10042" unicode="&#x428;" horiz-adv-x="2023" d="M169 0 L169 1475 L422 1475 L422 210 L885 210 L885 1475 L1138 1475 L1138 210 L1601 210 L1601 1475 L1854 1475 L1854 0 L169 0 Z " />
<glyph glyph-name="afii10043" unicode="&#x429;" horiz-adv-x="2029" d="M169 0 L169 1475 L422 1475 L422 210 L885 210 L885 1475 L1138 1475 L1138 210 L1601 210 L1601 1475 L1854 1475 L1854 210 L1993 210 L1993 -360 L1803 -360 L1758 0 L169 0 Z " />
<glyph glyph-name="afii10044" unicode="&#x42a;" horiz-adv-x="1602" d="M478 0 L478 1265 L14 1265 L14 1475 L722 1475 L722 894 L985 894 Q1216 894 1346 808 Q1523 693 1523 447 Q1523 228 1385.5 114 Q1248 0 985 0 L478 0 Z M722 210 L930 210 Q1095 210 1169 256 Q1266 317 1266 452 Q1266 597 1152 656 Q1081 693 930 693 L722 693 L722 210 Z " />
<glyph glyph-name="afii10045" unicode="&#x42b;" horiz-adv-x="1816" d="M169 0 L169 1475 L413 1475 L413 894 L676 894 Q906 894 1037 808 Q1214 693 1214 447 Q1214 228 1076.5 114 Q939 0 676 0 L169 0 Z M413 210 L620 210 Q785 210 859 256 Q957 317 957 452 Q957 598 843 656 Q771 693 620 693 L413 693 L413 210 Z M1394 0 L1394 1475 L1647 1475 L1647 0 L1394 0 Z " />
<glyph glyph-name="afii10046" unicode="&#x42c;" horiz-adv-x="1294" d="M169 0 L169 1475 L413 1475 L413 894 L676 894 Q906 894 1037 808 Q1214 693 1214 447 Q1214 228 1076.5 114 Q939 0 676 0 L169 0 Z M413 210 L620 210 Q785 210 859 256 Q957 317 957 452 Q957 598 843 656 Q771 693 620 693 L413 693 L413 210 Z " />
<glyph glyph-name="afii10047" unicode="&#x42d;" horiz-adv-x="1391" d="M455 674 L455 873 L1024 873 Q1010 1013 970 1102 Q924 1203 850.5 1248.5 Q777 1294 658 1294 Q381 1294 365 1058 L120 1058 Q121 1142 135 1194 Q184 1367 357 1447 Q481 1504 659 1504 Q1018 1504 1173 1237 Q1288 1039 1288 738 Q1288 435 1170 237 Q1013 -29 658 -29 Q474 -29 338 32 Q210 90 152 188 Q94 286 91 449 L335 449 Q351 180 663 180 Q809 180 894 263 Q1016 381 1029 674 L455 674 Z " />
<glyph glyph-name="afii10048" unicode="&#x42e;" horiz-adv-x="2201" d="M169 0 L169 1475 L422 1475 L422 879 L732 879 Q755 1056 815 1174 Q984 1504 1412 1504 Q1792 1504 1970 1238 Q2099 1043 2099 737 Q2099 432 1970 238 Q1792 -29 1411 -29 Q1116 -29 944 131 Q843 225 790.5 354 Q738 483 726 669 L422 669 L422 0 L169 0 Z M1404 1284 Q1195 1284 1091 1149 Q980 1005 980 737 Q980 191 1410 191 Q1628 191 1731 326 Q1842 471 1842 735 Q1842 1006 1731 1149 Q1626 1284 1404 1284 Z " />
<glyph glyph-name="afii10049" unicode="&#x42f;" horiz-adv-x="1306" d="M884 597 L770 597 Q669 597 613 579 Q557 561 526 520 Q496 478 479.5 436 Q463 394 438 288 L365 0 L86 0 L224 456 Q254 558 286 605.5 Q318 653 375 684 Q270 726 220 779 Q130 875 130 1037 Q130 1299 303 1403 Q369 1442 458.5 1458.5 Q548 1475 693 1475 L1137 1475 L1137 0 L884 0 L884 597 Z M884 801 L884 1265 L694 1265 Q528 1265 464 1216 Q387 1158 387 1039 Q387 912 464 856.5 Q541 801 719 801 L884 801 Z " />
<glyph glyph-name="afii10065" unicode="&#x430;" horiz-adv-x="1188" d="M825 118 Q701 -33 463 -33 Q82 -33 82 318 Q82 492 176 576 Q279 667 524 667 Q588 667 759 656 L806 653 L806 721 Q806 842 757 890 Q703 941 578 941 Q485 941 443 907.5 Q401 874 390 791 L161 791 Q177 896 204.5 954 Q232 1012 286 1054 Q388 1134 589 1134 Q796 1134 907 1057 Q1041 964 1041 721 L1041 0 L825 0 L825 118 Z M812 484 Q687 497 561 497 Q431 497 381 460.5 Q331 424 331 329 Q331 243 374 207 Q417 171 518 171 Q716 171 785 285 Q812 330 812 425 L812 484 Z " />
<glyph glyph-name="afii10066" unicode="&#x431;" horiz-adv-x="1257" d="M347 841 Q461 993 675 993 Q887 993 1015 865 Q1149 731 1149 501 Q1149 259 1004 113 Q863 -29 633 -29 Q282 -29 168 282 Q113 433 113 673 Q113 919 165.5 1071.5 Q218 1224 331 1303 Q382 1340 447 1363 Q512 1386 658 1419 Q803 1450 811 1516 L1037 1516 Q1035 1377 1007 1322.5 Q979 1268 895 1240 Q839 1224 750 1205 Q621 1178 556.5 1154.5 Q492 1131 447 1093 Q359 1018 347 841 Z M632 775 Q518 775 449 697 Q378 618 378 480 Q378 350 446.5 272.5 Q515 195 630 195 Q747 195 816 272 Q885 351 885 489 Q885 639 801 715 Q736 775 632 775 Z " />
<glyph glyph-name="afii10067" unicode="&#x432;" horiz-adv-x="1236" d="M158 0 L158 1103 L693 1103 Q913 1103 1004 1046 Q1112 979 1112 825 Q1112 737 1077.5 682.5 Q1043 628 956 581 Q1045 548 1082 511 Q1148 445 1148 321 Q1148 130 1006 53 Q909 0 693 0 L158 0 Z M401 654 L605 654 Q745 654 793 675 Q865 706 865 793 Q865 863 818.5 889 Q772 915 646 915 L401 915 L401 654 Z M401 191 L629 191 Q768 191 827 217 Q898 249 898 335 Q898 430 814 461 Q758 482 591 482 L401 482 L401 191 Z " />
<glyph glyph-name="afii10068" unicode="&#x433;" horiz-adv-x="971" d="M158 0 L158 1103 L935 1103 L935 893 L401 893 L401 0 L158 0 Z " />
<glyph glyph-name="afii10069" unicode="&#x434;" horiz-adv-x="1250" d="M988 0 L204 0 L155 -364 L-23 -364 L-23 210 L83 210 Q275 542 324 1103 L1081 1103 L1081 210 L1215 210 L1215 -364 L1036 -364 L988 0 Z M838 210 L838 893 L539 893 Q483 481 341 210 L838 210 Z " />
<glyph glyph-name="afii10070" unicode="&#x435;" horiz-adv-x="1213" d="M1125 475 L341 475 Q346 449 348 436 Q360 370 372.5 338.5 Q385 307 413 273 Q491 178 630 178 Q726 178 804.5 206 Q883 234 989 305 L1096 121 Q972 39 864 3.5 Q756 -32 629 -32 Q372 -32 229 128 Q93 280 93 538 Q93 818 239 979 Q380 1135 615 1135 Q827 1135 960 1003 Q1045 918 1083.5 795.5 Q1122 673 1125 475 Z M884 655 Q864 770 827 824 Q751 936 615 936 Q399 936 343 655 L884 655 Z " />
<glyph glyph-name="afii10072" unicode="&#x436;" horiz-adv-x="1789" d="M780 0 L780 476 L748 476 Q665 476 622 440.5 Q579 405 510 281 L347 0 L57 0 L355 447 Q414 542 472 586 L81 1103 L349 1103 L667 659 L780 659 L780 1103 L1009 1103 L1009 659 L1122 659 L1440 1103 L1708 1103 L1317 586 Q1376 541 1435 447 L1732 0 L1442 0 L1279 281 Q1212 402 1176 432 Q1126 476 1041 476 L1009 476 L1009 0 L780 0 Z " />
<glyph glyph-name="afii10073" unicode="&#x437;" horiz-adv-x="1108" d="M355 468 L355 647 L544 647 Q729 647 729 789 Q729 938 526 938 Q327 938 310 785 L87 785 Q92 925 166 1009 Q275 1135 549 1135 Q976 1135 976 824 Q976 742 945.5 688 Q915 634 847 595 Q919 566 952 532 Q1023 461 1023 321 Q1023 139 909.5 53.5 Q796 -32 555 -32 Q185 -32 101 177 Q77 236 77 323 L299 323 Q308 251 344 218 Q405 162 550 162 Q666 162 721 201 Q776 240 776 323 Q776 409 730.5 438.5 Q685 468 552 468 L355 468 Z " />
<glyph glyph-name="afii10074" unicode="&#x438;" horiz-adv-x="1266" d="M158 0 L158 1103 L394 1103 L394 350 L872 1103 L1108 1103 L1108 0 L872 0 L872 757 L394 0 L158 0 Z " />
<glyph glyph-name="afii10075" unicode="&#x439;" horiz-adv-x="1266" d="M158 0 L158 1103 L394 1103 L394 350 L872 1103 L1108 1103 L1108 0 L872 0 L872 757 L394 0 L158 0 Z M443 1582 Q453 1496 496 1461 Q541 1424 633 1424 Q726 1424 768.5 1459.5 Q811 1495 821 1582 L1004 1582 Q999 1479 980 1428 Q945 1335 861 1291.5 Q777 1248 632 1248 Q424 1248 336 1342 Q298 1383 281.5 1435.5 Q265 1488 260 1582 L443 1582 Z " />
<glyph glyph-name="afii10076" unicode="&#x43a;" horiz-adv-x="1225" d="M158 0 L158 1103 L401 1103 L401 659 L558 659 L876 1103 L1144 1103 L753 586 Q813 539 871 447 L1168 0 L867 0 L704 281 Q636 403 601 432 Q550 476 466 476 L401 476 L401 0 L158 0 Z " />
<glyph glyph-name="afii10077" unicode="&#x43b;" horiz-adv-x="1258" d="M856 0 L856 893 L552 893 Q502 506 422 283 Q369 132 286 66 Q203 0 67 0 L10 0 L10 210 L38 210 Q84 210 109.5 222.5 Q135 235 160 271 Q216 351 266 586.5 Q316 822 337 1103 L1099 1103 L1099 0 L856 0 Z " />
<glyph glyph-name="afii10078" unicode="&#x43c;" horiz-adv-x="1522" d="M85 0 L210 1103 L446 1103 L762 378 L1077 1103 L1313 1103 L1438 0 L1201 0 L1125 724 L819 0 L704 0 L398 723 L322 0 L85 0 Z " />
<glyph glyph-name="afii10079" unicode="&#x43d;" horiz-adv-x="1266" d="M158 0 L158 1103 L401 1103 L401 671 L865 671 L865 1103 L1108 1103 L1108 0 L865 0 L865 467 L401 467 L401 0 L158 0 Z " />
<glyph glyph-name="afii10080" unicode="&#x43e;" horiz-adv-x="1268" d="M641 1135 Q874 1135 1024 976 Q1175 817 1175 551 Q1175 287 1024 127 Q875 -32 634 -32 Q393 -32 244 127 Q93 287 93 550 Q93 816 244 976 Q393 1135 641 1135 Z M630 925 Q492 925 411 814 Q340 716 340 551 Q340 387 411 289 Q491 178 634 178 Q777 178 857 289 Q928 388 928 550 Q928 717 857 814 Q776 925 630 925 Z " />
<glyph glyph-name="afii10081" unicode="&#x43f;" horiz-adv-x="1242" d="M158 0 L158 1103 L1084 1103 L1084 0 L841 0 L841 893 L401 893 L401 0 L158 0 Z " />
<glyph glyph-name="afii10082" unicode="&#x440;" horiz-adv-x="1277" d="M158 -439 L158 1103 L378 1103 L378 974 Q503 1135 710 1135 Q926 1135 1053 977 Q1184 815 1184 551 Q1184 288 1053 126 Q926 -32 711 -32 Q519 -32 401 108 L401 -439 L158 -439 Z M671 925 Q547 925 471 814 Q401 712 401 551 Q401 391 471 289 Q547 178 675 178 Q797 178 868 282 Q937 383 937 550 Q937 722 868 821 Q795 925 671 925 Z " />
<glyph glyph-name="afii10083" unicode="&#x441;" horiz-adv-x="1111" d="M937 316 L1057 146 Q999 89 950 57 Q810 -32 607 -32 Q367 -32 237 105 Q93 257 93 536 Q93 800 215 967 Q338 1136 591 1136 Q863 1136 972 952 Q1028 855 1029 721 L807 721 Q802 797 770 845 Q716 926 601 926 Q472 926 405 819 Q340 717 340 548 Q340 372 418 272 Q492 178 624 178 Q717 178 789 210 Q861 242 937 316 Z " />
<glyph glyph-name="afii10084" unicode="&#x442;" horiz-adv-x="1076" d="M416 0 L416 900 L41 900 L41 1103 L1035 1103 L1035 900 L659 900 L659 0 L416 0 Z " />
<glyph glyph-name="afii10085" unicode="&#x443;" horiz-adv-x="1064" d="M412 27 L14 1103 L274 1103 L531 312 L789 1103 L1049 1103 L644 14 Q580 -160 541.5 -231.5 Q503 -303 447 -355 Q397 -401 331.5 -419 Q266 -437 140 -438 L140 -229 Q240 -228 277 -205 Q333 -170 378 -57 L412 27 Z " />
<glyph glyph-name="afii10086" unicode="&#x444;" horiz-adv-x="1620" d="M706 -439 L706 88 Q651 23 598 -4.5 Q545 -32 472 -32 Q285 -32 188 123 Q93 275 93 548 Q93 817 185 973 Q281 1136 473 1136 Q545 1136 598.5 1108.5 Q652 1081 706 1015 L706 1516 L915 1516 L915 1014 Q1009 1136 1149 1136 Q1340 1136 1435 973 Q1527 816 1527 548 Q1527 276 1432 123 Q1336 -32 1148 -32 Q1076 -32 1022.5 -4.5 Q969 23 915 88 L915 -439 L706 -439 Z M706 492 L706 606 Q706 752 665 834 Q609 944 517 944 Q423 944 373.5 843.5 Q324 743 324 552 Q324 376 370 268 Q416 160 517 160 Q604 160 655 249.5 Q706 339 706 492 Z M916 606 L916 492 Q916 354 957 271 Q1011 160 1104 160 Q1197 160 1246.5 261 Q1296 362 1296 552 Q1296 727 1250 836 Q1204 944 1104 944 Q1005 944 949 818 Q916 742 916 606 Z " />
<glyph glyph-name="afii10087" unicode="&#x445;" horiz-adv-x="1063" d="M387 581 L28 1103 L300 1103 L554 737 L775 1103 L1029 1103 L662 579 L1062 0 L789 0 L498 419 L254 0 L-1 0 L387 581 Z " />
<glyph glyph-name="afii10088" unicode="&#x446;" horiz-adv-x="1259" d="M158 0 L158 1103 L401 1103 L401 210 L847 210 L847 1103 L1090 1103 L1090 210 L1224 210 L1224 -364 L1045 -364 L997 0 L158 0 Z " />
<glyph glyph-name="afii10089" unicode="&#x447;" horiz-adv-x="1188" d="M787 0 L787 431 Q660 356 479 356 Q217 356 138 526 Q100 609 100 816 L100 1103 L343 1103 L343 772 Q343 666 380 621 Q425 566 544 566 Q685 566 787 647 L787 1103 L1030 1103 L1030 0 L787 0 Z " />
<glyph glyph-name="afii10090" unicode="&#x448;" horiz-adv-x="1821" d="M158 0 L158 1103 L401 1103 L401 210 L789 210 L789 1103 L1032 1103 L1032 210 L1419 210 L1419 1103 L1662 1103 L1662 0 L158 0 Z " />
<glyph glyph-name="afii10091" unicode="&#x449;" horiz-adv-x="1842" d="M158 0 L158 1103 L401 1103 L401 210 L789 210 L789 1103 L1032 1103 L1032 210 L1419 210 L1419 1103 L1662 1103 L1662 210 L1807 210 L1807 -364 L1628 -364 L1580 0 L158 0 Z " />
<glyph glyph-name="afii10092" unicode="&#x44a;" horiz-adv-x="1389" d="M371 0 L371 893 L14 893 L14 1103 L614 1103 L614 716 L872 716 Q1115 716 1212 644 Q1333 554 1333 360 Q1333 144 1190 59 Q1092 0 872 0 L371 0 Z M614 194 L850 194 Q972 194 1025 224 Q1086 258 1086 362 Q1086 458 1035 494.5 Q984 531 850 531 L614 531 L614 194 Z " />
<glyph glyph-name="afii10093" unicode="&#x44b;" horiz-adv-x="1708" d="M158 0 L158 1103 L401 1103 L401 716 L659 716 Q901 716 999 644 Q1120 555 1120 359 Q1120 144 977 59 Q879 0 659 0 L158 0 Z M401 194 L638 194 Q759 194 812 224 Q873 258 873 362 Q873 458 822 494.5 Q771 531 638 531 L401 531 L401 194 Z M1307 0 L1307 1103 L1550 1103 L1550 0 L1307 0 Z " />
<glyph glyph-name="afii10094" unicode="&#x44c;" horiz-adv-x="1176" d="M158 0 L158 1103 L401 1103 L401 716 L659 716 Q901 716 999 644 Q1120 555 1120 359 Q1120 144 977 59 Q879 0 659 0 L158 0 Z M401 194 L638 194 Q759 194 812 224 Q873 258 873 362 Q873 458 822 494.5 Q771 531 638 531 L401 531 L401 194 Z " />
<glyph glyph-name="afii10095" unicode="&#x44d;" horiz-adv-x="1120" d="M351 468 L351 647 L775 647 Q757 751 733 800 Q665 938 516 938 Q426 938 372 898.5 Q318 859 309 785 L87 785 Q94 924 170 1011 Q278 1136 519 1136 Q755 1136 886 983 Q1027 818 1027 548 Q1027 276 885 112 Q760 -32 526 -32 Q80 -32 76 323 L298 323 Q307 252 345 218 Q405 165 524 165 Q671 165 737 304 Q757 347 775 468 L351 468 Z " />
<glyph glyph-name="afii10096" unicode="&#x44e;" horiz-adv-x="1752" d="M158 0 L158 1103 L401 1103 L401 663 L585 663 Q609 813 682 919 Q754 1025 871 1082 Q981 1135 1118 1135 Q1359 1135 1508 976 Q1659 816 1659 551 Q1659 287 1508 126 Q1359 -32 1118 -32 Q930 -32 795 67 Q612 200 582 475 L401 475 L401 0 L158 0 Z M1113 925 Q975 925 894 814 Q823 716 823 551 Q823 386 894 288 Q975 177 1118 177 Q1261 177 1341 288 Q1412 386 1412 549 Q1412 717 1341 814 Q1259 925 1113 925 Z " />
<glyph glyph-name="afii10097" unicode="&#x44f;" horiz-adv-x="1233" d="M833 416 L686 416 Q599 415 560 366 Q526 324 460 194 L360 0 L61 0 L283 338 Q330 410 371 449 Q253 481 200 531 Q107 619 107 761 Q107 958 240 1043 Q333 1103 539 1103 L1076 1103 L1076 0 L833 0 L833 416 Z M833 594 L833 912 L572 912 Q446 912 402 875 Q354 835 354 755 Q354 671 404 632.5 Q454 594 562 594 L833 594 Z " />
<glyph glyph-name="uni0450" unicode="&#x450;" horiz-adv-x="1213" d="M1125 475 L341 475 Q346 449 348 436 Q360 370 372.5 338.5 Q385 307 413 273 Q491 178 630 178 Q726 178 804.5 206 Q883 234 989 305 L1096 121 Q972 39 864 3.5 Q756 -32 629 -32 Q372 -32 229 128 Q93 280 93 538 Q93 818 239 979 Q380 1135 615 1135 Q827 1135 960 1003 Q1045 918 1083.5 795.5 Q1122 673 1125 475 Z M884 655 Q864 770 827 824 Q751 936 615 936 Q399 936 343 655 L884 655 Z M599 1224 L315 1565 L567 1565 L763 1224 L599 1224 Z " />
<glyph glyph-name="afii10071" unicode="&#x451;" horiz-adv-x="1213" d="M1125 475 L341 475 Q346 449 348 436 Q360 370 372.5 338.5 Q385 307 413 273 Q491 178 630 178 Q726 178 804.5 206 Q883 234 989 305 L1096 121 Q972 39 864 3.5 Q756 -32 629 -32 Q372 -32 229 128 Q93 280 93 538 Q93 818 239 979 Q380 1135 615 1135 Q827 1135 960 1003 Q1045 918 1083.5 795.5 Q1122 673 1125 475 Z M884 655 Q864 770 827 824 Q751 936 615 936 Q399 936 343 655 L884 655 Z M420 1513 Q476 1513 516 1474 Q556 1435 556 1381 Q556 1326 515.5 1287 Q475 1248 417 1248 Q359 1248 318.5 1287 Q278 1326 278 1382 Q278 1437 319 1475 Q360 1513 420 1513 Z M807 1513 Q863 1513 903 1474 Q943 1435 943 1381 Q943 1326 902.5 1287 Q862 1248 804 1248 Q746 1248 705.5 1287 Q665 1326 665 1382 Q665 1436 706 1474.5 Q747 1513 807 1513 Z " />
<glyph glyph-name="afii10099" unicode="&#x452;" horiz-adv-x="1267" d="M164 0 L164 1237 L6 1237 L6 1378 L164 1378 L164 1516 L407 1516 L407 1378 L750 1378 L750 1237 L407 1237 L407 965 Q495 1040 544 1069 Q654 1135 778 1135 Q982 1135 1060 989 Q1117 883 1117 638 L1117 53 Q1117 -106 1095 -191.5 Q1073 -277 1018 -334 Q969 -385 898 -408.5 Q827 -432 705 -439 L705 -229 Q797 -223 832 -179 Q874 -124 874 28 L874 652 Q874 768 852 825 Q817 916 712 916 Q622 916 521 840 Q504 828 407 733 L407 0 L164 0 Z " />
<glyph glyph-name="afii10100" unicode="&#x453;" horiz-adv-x="971" d="M158 0 L158 1103 L935 1103 L935 893 L401 893 L401 0 L158 0 Z M431 1251 L635 1604 L889 1604 L596 1251 L431 1251 Z " />
<glyph glyph-name="afii10101" unicode="&#x454;" horiz-adv-x="1120" d="M769 468 L344 468 Q365 334 394 283 Q462 165 595 165 Q803 165 821 323 L1044 323 Q1042 -32 594 -32 Q359 -32 235 112 Q93 277 93 548 Q93 818 234 983 Q365 1136 601 1136 Q803 1136 913.5 1046 Q1024 956 1033 785 L811 785 Q791 938 604 938 Q444 938 379 783 Q362 742 345 647 L769 647 L769 468 Z " />
<glyph glyph-name="afii10102" unicode="&#x455;" horiz-adv-x="1077" d="M63 354 L285 354 Q293 274 329 234 Q394 162 543 162 Q771 162 771 307 Q771 381 708 411 Q681 424 656 430 Q631 436 507 460 Q324 495 229 552 Q106 625 106 789 Q106 958 228 1054 Q332 1135 514 1135 Q784 1135 890 974 Q943 892 944 777 L722 777 Q715 845 686 880 Q633 941 512 941 Q344 941 344 813 Q344 747 400 719 Q443 698 595 666 Q715 641 775 620 Q835 599 885 566 Q1002 489 1002 320 Q1002 158 886 64 Q767 -32 541 -32 Q67 -32 63 354 Z " />
<glyph glyph-name="afii10103" unicode="&#x456;" horiz-adv-x="568" d="M163 0 L163 1103 L406 1103 L406 0 L163 0 Z M287 1555 Q347 1555 390.5 1513 Q434 1471 434 1412 Q434 1347 384 1305 Q341 1268 284 1268 Q222 1268 178 1310.5 Q134 1353 134 1413 Q134 1472 178.5 1513.5 Q223 1555 287 1555 Z " />
<glyph glyph-name="afii10104" unicode="&#x457;" horiz-adv-x="583" d="M170 0 L170 1103 L413 1103 L413 0 L170 0 Z M95 1546 Q152 1546 192.5 1506.5 Q233 1467 233 1412 Q233 1356 192 1317 Q151 1278 93 1278 Q34 1278 -7 1317.5 Q-48 1357 -48 1413 Q-48 1469 -6.5 1507.5 Q35 1546 95 1546 Z M493 1546 Q550 1546 590.5 1506.5 Q631 1467 631 1412 Q631 1356 590 1317 Q549 1278 491 1278 Q432 1278 391 1317.5 Q350 1357 350 1413 Q350 1469 391.5 1507.5 Q433 1546 493 1546 Z " />
<glyph glyph-name="afii10105" unicode="&#x458;" horiz-adv-x="585" d="M179 1103 L422 1103 L422 51 Q422 -108 400 -193 Q378 -278 323 -335 Q274 -385 202.5 -408.5 Q131 -432 10 -438 L10 -229 Q66 -224 91.5 -214 Q117 -204 137 -180 Q161 -149 170 -105 Q179 -61 179 25 L179 1103 Z M304 1555 Q365 1555 408 1513 Q451 1471 451 1412 Q451 1347 401 1305 Q358 1268 301 1268 Q239 1268 195 1310.5 Q151 1353 151 1413 Q151 1472 195.5 1513.5 Q240 1555 304 1555 Z " />
<glyph glyph-name="afii10106" unicode="&#x459;" horiz-adv-x="1873" d="M855 0 L855 893 L551 893 Q501 505 422 283 Q368 132 285.5 66 Q203 0 67 0 L10 0 L10 210 L38 210 Q84 210 109.5 222.5 Q135 235 160 271 Q216 351 266 586 Q316 821 336 1103 L1098 1103 L1098 716 L1355 716 Q1598 716 1696 644 Q1816 554 1816 360 Q1816 144 1674 59 Q1576 0 1355 0 L855 0 Z M1098 194 L1334 194 Q1467 194 1518 230.5 Q1569 267 1569 362 Q1569 458 1518.5 494.5 Q1468 531 1334 531 L1098 531 L1098 194 Z " />
<glyph glyph-name="afii10107" unicode="&#x45a;" horiz-adv-x="1878" d="M158 0 L158 1103 L401 1103 L401 672 L861 672 L861 1103 L1104 1103 L1104 689 L1362 689 Q1604 689 1701 621 Q1822 538 1822 354 Q1822 143 1680 58 Q1582 0 1362 0 L861 0 L861 484 L401 484 L401 0 L158 0 Z M1104 194 L1340 194 Q1472 194 1523.5 229.5 Q1575 265 1575 357 Q1575 443 1525 475 Q1475 507 1340 507 L1104 507 L1104 194 Z " />
<glyph glyph-name="afii10108" unicode="&#x45b;" horiz-adv-x="1267" d="M164 0 L164 1237 L6 1237 L6 1378 L164 1378 L164 1516 L407 1516 L407 1378 L750 1378 L750 1237 L407 1237 L407 965 Q496 1040 544 1069 Q654 1135 778 1135 Q982 1135 1060 989 Q1117 883 1117 638 L1117 0 L874 0 L874 652 Q874 768 852 825 Q817 916 712 916 Q622 916 521 840 Q504 828 407 733 L407 0 L164 0 Z " />
<glyph glyph-name="afii10109" unicode="&#x45c;" horiz-adv-x="1225" d="M158 0 L158 1103 L401 1103 L401 659 L558 659 L876 1103 L1144 1103 L753 586 Q813 539 871 447 L1168 0 L867 0 L704 281 Q636 403 601 432 Q550 476 466 476 L401 476 L401 0 L158 0 Z M512 1251 L716 1604 L970 1604 L676 1251 L512 1251 Z " />
<glyph glyph-name="uni045D" unicode="&#x45d;" horiz-adv-x="1266" d="M620 1251 L327 1604 L581 1604 L785 1251 L620 1251 Z M158 0 L158 1103 L394 1103 L394 350 L872 1103 L1108 1103 L1108 0 L872 0 L872 757 L394 0 L158 0 Z " />
<glyph glyph-name="afii10110" unicode="&#x45e;" horiz-adv-x="1064" d="M412 27 L14 1103 L274 1103 L531 312 L789 1103 L1049 1103 L644 14 Q580 -160 541.5 -231.5 Q503 -303 447 -355 Q397 -401 331.5 -419 Q266 -437 140 -438 L140 -229 Q240 -228 277 -205 Q333 -170 378 -57 L412 27 Z M329 1582 Q339 1496 381 1461 Q426 1424 518 1424 Q611 1424 654 1459.5 Q697 1495 707 1582 L890 1582 Q885 1479 866 1428 Q831 1335 747 1291.5 Q663 1248 518 1248 Q310 1248 222 1342 Q184 1383 167 1435.5 Q150 1488 146 1582 L329 1582 Z " />
<glyph glyph-name="afii10193" unicode="&#x45f;" horiz-adv-x="1249" d="M158 0 L158 1103 L401 1103 L401 210 L847 210 L847 1103 L1090 1103 L1090 0 L747 0 L709 -364 L539 -364 L501 0 L158 0 Z " />
<glyph glyph-name="uni0462" unicode="&#x462;" horiz-adv-x="1456" d="M576 1345 L1062 1345 L1062 1135 L576 1135 L576 894 L838 894 Q1069 894 1199 808 Q1376 693 1376 447 Q1376 228 1238.5 114 Q1101 0 838 0 L323 0 L323 1135 L41 1135 L41 1345 L323 1345 L323 1544 L576 1544 L576 1345 Z M576 210 L783 210 Q948 210 1021 256 Q1119 317 1119 452 Q1119 597 1005 656 Q934 693 783 693 L576 693 L576 210 Z " />
<glyph glyph-name="uni0463" unicode="&#x463;" horiz-adv-x="1360" d="M286 900 L-9 900 L-9 1103 L286 1103 L286 1435 L529 1435 L529 1103 L923 1103 L923 900 L529 900 L529 716 L787 716 Q1031 716 1128 644 Q1249 554 1249 359 Q1249 144 1106 59 Q1008 0 787 0 L286 0 L286 900 Z M529 194 L766 194 Q899 194 950.5 230.5 Q1002 267 1002 362 Q1002 458 951 494.5 Q900 531 766 531 L529 531 L529 194 Z " />
<glyph glyph-name="afii10050" unicode="&#x490;" horiz-adv-x="1132" d="M169 0 L169 1475 L830 1475 L872 1835 L1083 1835 L1083 1265 L422 1265 L422 0 L169 0 Z " />
<glyph glyph-name="afii10098" unicode="&#x491;" horiz-adv-x="971" d="M158 0 L158 1103 L693 1103 L735 1463 L935 1463 L935 894 L401 893 L401 0 L158 0 Z " />
<glyph glyph-name="uni0492" unicode="&#x492;" horiz-adv-x="1198" d="M235 0 L235 691 L24 691 L24 874 L235 874 L235 1475 L1148 1475 L1148 1265 L488 1265 L488 874 L804 874 L804 691 L488 691 L488 0 L235 0 Z " />
<glyph glyph-name="uni0493" unicode="&#x493;" horiz-adv-x="1025" d="M212 0 L212 449 L27 449 L27 599 L212 599 L212 1103 L989 1103 L989 893 L455 893 L455 599 L715 599 L715 449 L455 449 L455 0 L212 0 Z " />
<glyph glyph-name="uni0496" unicode="&#x496;" horiz-adv-x="1943" d="M847 0 L847 667 L796 667 Q694 667 637 615 Q580 563 512 407 L334 0 L28 0 L301 543 Q356 653 392 701 Q428 749 485 787 L28 1475 L297 1475 L695 866 L847 866 L847 1475 L1086 1475 L1086 866 L1238 866 L1637 1475 L1906 1475 L1448 787 Q1505 749 1541 701 Q1577 653 1633 543 L1800 210 L1923 210 L1923 -360 L1732 -360 L1693 0 L1599 0 L1422 407 Q1354 562 1296.5 614.5 Q1239 667 1137 667 L1086 667 L1086 0 L847 0 Z " />
<glyph glyph-name="uni0497" unicode="&#x497;" horiz-adv-x="1790" d="M780 0 L780 476 L748 476 Q665 476 622 440.5 Q579 405 510 281 L347 0 L57 0 L355 447 Q414 542 472 586 L81 1103 L349 1103 L667 659 L780 659 L780 1103 L1009 1103 L1009 659 L1122 659 L1440 1103 L1707 1103 L1317 586 Q1375 541 1434 447 L1605 210 L1768 210 L1768 -364 L1590 -364 L1548 0 L1442 0 L1279 281 Q1211 403 1176 433 Q1126 476 1041 476 L1009 476 L1009 0 L780 0 Z " />
<glyph glyph-name="uni0498" unicode="&#x498;" horiz-adv-x="1329" d="M773 -26 L739 -86 Q822 -95 863 -116 Q958 -165 958 -277 Q958 -382 884.5 -438.5 Q811 -495 675 -495 Q530 -495 402 -455 L452 -302 Q578 -339 664 -339 Q767 -339 767 -277 Q767 -218 657 -218 Q628 -218 570 -224 L544 -108 L593 -24 Q91 6 95 449 L340 449 Q346 335 402 273 Q484 181 672 181 Q827 181 906 248 Q982 314 982 434 Q982 562 901 617 Q820 672 633 672 L420 672 L420 871 L596 871 Q755 871 832 917 Q926 974 926 1097 Q926 1193 857.5 1243.5 Q789 1294 659 1294 Q518 1294 447.5 1236.5 Q377 1179 369 1058 L124 1058 Q128 1504 673 1504 Q918 1504 1051 1407 Q1181 1312 1181 1120 Q1181 1010 1143.5 937 Q1106 864 1020 807 Q1237 718 1237 439 Q1237 228 1118.5 109 Q1000 -10 773 -26 Z " />
<glyph glyph-name="uni0499" unicode="&#x499;" horiz-adv-x="1108" d="M656 -29 L625 -88 Q706 -96 745 -117 Q837 -166 837 -280 Q837 -400 746 -457 Q676 -500 560 -500 Q422 -500 293 -459 L342 -306 Q469 -343 548 -343 Q647 -343 647 -280 Q647 -220 543 -220 Q519 -220 457 -225 L430 -109 L476 -29 Q77 -3 83 323 L305 323 Q314 251 350 218 Q411 162 556 162 Q672 162 727 201 Q782 240 782 323 Q782 409 736.5 438.5 Q691 468 558 468 L361 468 L361 647 L550 647 Q735 647 735 789 Q735 938 532 938 Q333 938 316 785 L93 785 Q98 925 172 1009 Q281 1135 555 1135 Q982 1135 982 824 Q982 742 951.5 688 Q921 634 853 595 Q925 566 958 532 Q1029 461 1029 321 Q1029 159 936.5 72 Q844 -15 656 -29 Z " />
<glyph glyph-name="uni049A" unicode="&#x49a;" horiz-adv-x="1330" d="M169 0 L169 1475 L422 1475 L422 866 L625 866 L1023 1475 L1292 1475 L835 787 Q894 747 929 700 Q964 653 1019 543 L1186 210 L1342 210 L1342 -360 L1151 -360 L1113 0 L977 0 L800 407 Q732 563 675 615 Q618 667 515 667 L422 667 L422 0 L169 0 Z " />
<glyph glyph-name="uni049B" unicode="&#x49b;" horiz-adv-x="1227" d="M158 0 L158 1103 L401 1103 L401 659 L558 659 L877 1103 L1144 1103 L753 586 Q812 540 871 447 L1042 210 L1206 210 L1206 -364 L1028 -364 L979 0 L867 0 L704 281 Q636 403 601 433 Q550 476 466 476 L401 476 L401 0 L158 0 Z " />
<glyph glyph-name="uni049C" unicode="&#x49c;" horiz-adv-x="1330" d="M514 667 L425 667 L425 0 L172 0 L172 1475 L425 1475 L425 866 L514 866 L514 1103 L632 1103 L632 866 L652 866 L1030 1475 L1295 1475 L838 787 Q896 747 931 700.5 Q966 654 1022 543 L1295 0 L989 0 L826 407 Q737 639 632 655 L632 419 L514 409 L514 667 Z " />
<glyph glyph-name="uni049D" unicode="&#x49d;" horiz-adv-x="1225" d="M482 475 Q477 475 466 475 L401 475 L401 0 L158 0 L158 1103 L401 1103 L401 659 L482 659 L482 880 L580 880 L580 662 L876 1103 L1144 1103 L753 585 Q854 549 912 449 L1168 0 L867 0 L737 281 Q664 437 580 463 L580 267 L482 267 L482 475 Z " />
<glyph glyph-name="uni04A2" unicode="&#x4a2;" horiz-adv-x="1463" d="M169 0 L169 1475 L422 1475 L422 879 L1034 879 L1034 1475 L1287 1475 L1287 210 L1419 210 L1419 -360 L1228 -360 L1189 0 L1034 0 L1034 669 L422 669 L422 0 L169 0 Z " />
<glyph glyph-name="uni04A3" unicode="&#x4a3;" horiz-adv-x="1274" d="M158 0 L158 1103 L401 1103 L401 663 L865 663 L865 1103 L1108 1103 L1108 210 L1230 210 L1230 -364 L1051 -364 L1003 0 L865 0 L865 475 L401 475 L401 0 L158 0 Z " />
<glyph glyph-name="uni04AA" unicode="&#x4aa;" horiz-adv-x="1410" d="M1172 384 L1324 210 Q1139 -16 808 -27 L776 -86 Q855 -94 895 -116 Q986 -164 986 -277 Q986 -396 896 -452 Q827 -495 711 -495 Q572 -495 447 -455 L496 -302 Q619 -339 699 -339 Q796 -339 796 -277 Q796 -219 695 -219 Q669 -219 609 -224 L582 -108 L633 -18 Q454 4 327 116 Q218 212 160 369 Q102 526 102 726 Q102 1089 276 1300 Q444 1504 758 1504 Q1081 1504 1221 1303 Q1295 1195 1297 1026 L1052 1026 Q1046 1130 996 1191 Q918 1287 761 1287 Q560 1287 458 1132 Q359 982 359 729 Q359 481 472 330 Q576 191 777 191 Q898 191 985.5 233.5 Q1073 276 1172 384 Z " />
<glyph glyph-name="uni04AB" unicode="&#x4ab;" horiz-adv-x="1111" d="M657 -31 L626 -88 Q708 -96 747 -117 Q839 -166 839 -280 Q839 -400 748 -457 Q678 -500 562 -500 Q423 -500 295 -459 L344 -306 Q470 -343 550 -343 Q649 -343 649 -280 Q649 -220 545 -220 Q521 -220 459 -225 L432 -109 L482 -21 Q382 -4 304 48 Q93 189 93 535 Q93 800 215 967 Q339 1136 591 1136 Q863 1136 972 952 Q1028 855 1029 721 L807 721 Q802 797 770 845 Q716 926 601 926 Q472 926 405 819 Q340 717 340 547 Q340 371 418 271 Q492 177 623 177 Q717 177 789.5 209 Q862 241 937 316 L1057 146 Q964 52 861 12 Q778 -21 657 -31 Z " />
<glyph glyph-name="uni04AE" unicode="&#x4ae;" horiz-adv-x="1223" d="M485 0 L485 565 L-23 1475 L252 1475 L611 800 L970 1475 L1245 1475 L738 565 L738 0 L485 0 Z " />
<glyph glyph-name="uni04AF" unicode="&#x4af;" horiz-adv-x="1064" d="M410 -4 L14 1103 L274 1103 L532 278 L789 1103 L1049 1103 L653 -4 L653 -439 L410 -439 L410 -4 Z " />
<glyph glyph-name="uni04B0" unicode="&#x4b0;" horiz-adv-x="1221" d="M484 0 L484 487 L243 487 L243 673 L424 673 L-23 1475 L252 1475 L611 800 L968 1475 L1243 1475 L797 673 L977 673 L977 487 L737 487 L737 0 L484 0 Z " />
<glyph glyph-name="uni04B1" unicode="&#x4b1;" horiz-adv-x="1064" d="M357 146 L14 1103 L274 1103 L532 278 L789 1103 L1049 1103 L706 146 L905 146 L905 0 L653 0 L653 -439 L410 -439 L410 0 L158 0 L158 146 L357 146 Z " />
<glyph glyph-name="uni04B2" unicode="&#x4b2;" horiz-adv-x="1263" d="M484 761 L43 1475 L335 1475 L657 957 L934 1475 L1217 1475 L778 760 L1118 210 L1288 210 L1288 -360 L1098 -360 L1058 0 L954 0 L604 565 L290 0 L7 0 L484 761 Z " />
<glyph glyph-name="uni04B3" unicode="&#x4b3;" horiz-adv-x="1065" d="M387 581 L28 1103 L300 1103 L554 738 L775 1103 L1029 1103 L662 580 L918 210 L1102 210 L1102 -364 L924 -364 L875 0 L789 0 L498 420 L254 0 L-1 0 L387 581 Z " />
<glyph glyph-name="uni04B6" unicode="&#x4b6;" horiz-adv-x="1375" d="M947 0 L947 641 Q920 627 907 619 Q812 565 756 547 Q655 514 538 514 Q276 514 186 674 Q130 773 130 974 L130 1475 L383 1475 L383 1010 Q383 864 417 810 Q466 731 613 731 Q739 731 849 798 Q894 826 947 868 L947 1475 L1200 1475 L1200 210 L1332 210 L1332 -360 L1142 -360 L1103 0 L947 0 Z " />
<glyph glyph-name="uni04B7" unicode="&#x4b7;" horiz-adv-x="1195" d="M787 0 L787 431 Q661 357 479 357 Q217 357 138 526 Q100 609 100 816 L100 1103 L343 1103 L343 772 Q343 666 380 622 Q425 567 545 567 Q685 567 787 647 L787 1103 L1030 1103 L1030 210 L1152 210 L1152 -364 L973 -364 L925 0 L787 0 Z " />
<glyph glyph-name="uni04B8" unicode="&#x4b8;" horiz-adv-x="1368" d="M738 747 Q832 776 947 868 L947 1475 L1200 1475 L1200 0 L947 0 L947 641 Q920 627 907 619 Q804 560 738 541 L738 328 L591 328 L591 516 Q565 514 540 514 Q319 514 224.5 620 Q130 726 130 974 L130 1475 L383 1475 L383 1010 Q383 911 395.5 861.5 Q408 812 439 782 Q487 737 591 731 L591 966 L738 966 L738 747 Z " />
<glyph glyph-name="uni04B9" unicode="&#x4b9;" horiz-adv-x="1188" d="M787 0 L787 431 Q712 387 627 370 L627 165 L504 165 L504 357 Q480 356 470 356 Q217 356 138 526 Q100 608 100 816 L100 1103 L343 1103 L343 772 Q343 647 397 604 Q428 580 504 569 L504 754 L627 754 L627 573 Q714 589 787 646 L787 1103 L1030 1103 L1030 0 L787 0 Z " />
<glyph glyph-name="uni04BA" unicode="&#x4ba;" horiz-adv-x="1254" d="M162 0 L162 1475 L406 1475 L406 883 Q516 960 601 991 Q686 1022 788 1022 Q1005 1022 1091 890 Q1153 795 1153 573 L1153 0 L910 0 L910 586 Q910 684 884 730 Q842 804 725 804 Q649 804 577 771 Q505 738 406 658 L406 0 L162 0 Z " />
<glyph glyph-name="uni04BB" unicode="&#x4bb;" horiz-adv-x="1261" d="M158 0 L158 1579 L401 1579 L401 965 Q514 1063 593 1099 Q672 1135 773 1135 Q976 1135 1054 989 Q1111 883 1111 638 L1111 0 L868 0 L868 652 Q868 768 846 825 Q811 916 706 916 Q616 916 515 840 Q485 817 401 733 L401 0 L158 0 Z " />
<glyph glyph-name="uni04C0" unicode="&#x4c0;" horiz-adv-x="591" d="M169 0 L169 1475 L422 1475 L422 0 L169 0 Z " />
<glyph glyph-name="uni04C1" unicode="&#x4c1;" horiz-adv-x="1944" d="M847 0 L847 667 L796 667 Q694 667 637 615 Q580 563 512 407 L334 0 L28 0 L301 543 Q357 654 392.5 701 Q428 748 485 787 L28 1475 L297 1475 L695 866 L847 866 L847 1475 L1086 1475 L1086 866 L1238 866 L1636 1475 L1905 1475 L1448 787 Q1505 748 1541 700.5 Q1577 653 1632 543 L1905 0 L1599 0 L1421 407 Q1354 562 1296.5 614.5 Q1239 667 1137 667 L1086 667 L1086 0 L847 0 Z M770 1939 Q780 1853 823 1818 Q867 1781 959 1781 Q1052 1781 1095 1817 Q1138 1853 1148 1939 L1331 1939 Q1326 1836 1307 1785 Q1272 1692 1188 1648.5 Q1104 1605 959 1605 Q751 1605 663 1699 Q625 1740 608 1792.5 Q591 1845 587 1939 L770 1939 Z " />
<glyph glyph-name="uni04C2" unicode="&#x4c2;" horiz-adv-x="1789" d="M780 0 L780 476 L748 476 Q665 476 622 440.5 Q579 405 510 281 L347 0 L57 0 L355 447 Q414 542 472 586 L81 1103 L349 1103 L667 659 L780 659 L780 1103 L1009 1103 L1009 659 L1122 659 L1440 1103 L1708 1103 L1317 586 Q1376 541 1435 447 L1732 0 L1442 0 L1279 281 Q1212 402 1176 432 Q1126 476 1041 476 L1009 476 L1009 0 L780 0 Z M694 1582 Q704 1496 747 1461 Q791 1424 883 1424 Q977 1424 1019.5 1459.5 Q1062 1495 1072 1582 L1255 1582 Q1250 1479 1231 1428 Q1196 1335 1112 1291.5 Q1028 1248 883 1248 Q675 1248 587 1342 Q549 1383 532.5 1435.5 Q516 1488 511 1582 L694 1582 Z " />
<glyph glyph-name="uni04CF" unicode="&#x4cf;" horiz-adv-x="591" d="M169 0 L169 1475 L422 1475 L422 0 L169 0 Z " />
<glyph glyph-name="uni04D4" unicode="&#x4d4;" horiz-adv-x="2021" d="M967 452 L437 452 L156 0 L-127 0 L824 1475 L1912 1475 L1912 1265 L1220 1265 L1220 875 L1780 875 L1780 665 L1220 665 L1220 210 L1928 210 L1928 0 L967 0 L967 452 Z M967 653 L967 1305 L559 653 L967 653 Z " />
<glyph glyph-name="uni04D5" unicode="&#x4d5;" horiz-adv-x="1918" d="M798 659 L798 721 Q798 836 767 877 Q721 937 576 937 Q490 937 453.5 908 Q417 879 392 791 L168 791 Q186 930 246 1008 Q344 1134 581 1134 Q736 1134 823 1096.5 Q910 1059 956 971 Q1087 1135 1325 1135 Q1535 1135 1669 1000 Q1754 914 1791.5 793 Q1829 672 1832 475 L1040 475 Q1057 362 1089 308 Q1168 178 1335 178 Q1433 178 1511.5 205.5 Q1590 233 1699 305 L1806 121 Q1580 -32 1343 -32 Q1084 -32 935 156 Q863 69 738 18 Q613 -33 471 -33 Q290 -33 190 47 Q80 135 80 315 Q80 519 217 609 Q311 671 526 671 Q597 671 798 659 Z M804 478 Q681 491 552 491 Q419 491 374 456 Q323 416 323 328 Q323 243 367 207 Q411 171 514 171 Q689 171 763 255 Q787 282 795.5 311 Q804 340 804 396 L804 478 Z M1586 657 Q1566 771 1529 824 Q1453 935 1315 935 Q1097 935 1043 657 L1586 657 Z " />
<glyph glyph-name="uni04D8" unicode="&#x4d8;" horiz-adv-x="1579" d="M101 862 L1213 862 Q1202 984 1155 1077 Q1051 1284 792 1284 Q663 1284 580.5 1242 Q498 1200 433 1101 L222 1223 Q293 1327 365 1381 Q528 1504 794 1504 Q1172 1504 1348 1237 Q1478 1042 1478 737 Q1478 433 1348 237 Q1172 -29 790 -29 Q495 -29 323 131 Q147 294 113 585 Q102 680 101 862 Z M364 663 Q373 555 384 504.5 Q395 454 421 402 Q528 191 793 191 Q1078 191 1175 444 Q1212 538 1217 663 L364 663 Z " />
<glyph glyph-name="afii10846" unicode="&#x4d9;" horiz-adv-x="1262" d="M96 647 L914 647 Q893 752 856 806 Q773 925 618 925 Q521 925 435.5 897 Q350 869 243 802 L127 981 Q255 1063 369 1099 Q483 1135 616 1135 Q870 1135 1017 976 Q1169 813 1169 551 Q1169 288 1017 127 Q869 -32 631 -32 Q393 -32 244 127 Q92 288 92 542 Q92 581 96 647 Z M345 481 Q365 360 402 305 Q487 178 630 178 Q796 178 875 331 Q902 381 917 481 L345 481 Z " />
<glyph glyph-name="uni04E2" unicode="&#x4e2;" horiz-adv-x="1456" d="M169 0 L169 1475 L405 1475 L405 432 L1044 1475 L1272 1475 L1272 0 L1036 0 L1036 1041 L396 0 L169 0 Z M436 1681 L436 1850 L1001 1850 L1001 1681 L436 1681 Z " />
<glyph glyph-name="uni04E3" unicode="&#x4e3;" horiz-adv-x="1266" d="M158 0 L158 1103 L394 1103 L394 350 L872 1103 L1108 1103 L1108 0 L872 0 L872 757 L394 0 L158 0 Z M342 1333 L342 1502 L907 1502 L907 1333 L342 1333 Z " />
<glyph glyph-name="uni04E8" unicode="&#x4e8;" horiz-adv-x="1579" d="M801 1504 Q1170 1504 1348 1237 Q1477 1043 1477 737 Q1477 432 1348 237 Q1171 -29 790 -29 Q408 -29 232 237 Q102 432 102 735 Q102 1043 232 1237 Q409 1504 801 1504 Z M367 862 L1213 862 Q1164 1284 790 1284 Q411 1284 367 862 Z M1217 663 L362 663 Q371 502 427 393 Q532 191 790 191 Q1072 191 1171 431 Q1205 514 1217 663 Z " />
<glyph glyph-name="uni04E9" unicode="&#x4e9;" horiz-adv-x="1268" d="M641 1135 Q874 1135 1024 976 Q1175 817 1175 551 Q1175 287 1024 127 Q875 -32 634 -32 Q393 -32 244 127 Q93 287 93 550 Q93 816 244 976 Q393 1135 641 1135 Z M924 481 L344 481 Q367 359 397 311 Q479 178 634 178 Q717 178 783 219.5 Q849 261 886 336 Q908 382 924 481 Z M347 647 L922 647 Q901 744 874 790 Q790 925 634 925 Q473 925 392 784 Q364 736 347 647 Z " />
<glyph glyph-name="uni04EE" unicode="&#x4ee;" horiz-adv-x="1190" d="M483 464 L-12 1475 L261 1475 L607 732 L950 1475 L1214 1475 L533 0 L269 0 L483 464 Z M307 1681 L307 1850 L872 1850 L872 1681 L307 1681 Z " />
<glyph glyph-name="uni04EF" unicode="&#x4ef;" horiz-adv-x="1064" d="M412 27 L14 1103 L274 1103 L531 312 L789 1103 L1049 1103 L644 14 Q580 -160 541.5 -231.5 Q503 -303 447 -355 Q397 -401 331.5 -419 Q266 -437 140 -438 L140 -229 Q240 -228 277 -205 Q333 -170 378 -57 L412 27 Z M238 1333 L238 1502 L803 1502 L803 1333 L238 1333 Z " />
<glyph glyph-name="uni1E1E" unicode="&#x1e1e;" horiz-adv-x="1181" d="M169 0 L169 1475 L1132 1475 L1132 1265 L422 1265 L422 854 L1001 854 L1001 644 L422 644 L422 0 L169 0 Z M666 1889 Q726 1889 769 1847 Q812 1805 812 1747 Q812 1688 768.5 1646.5 Q725 1605 664 1605 Q602 1605 558.5 1647 Q515 1689 515 1748 Q515 1807 559 1848 Q603 1889 666 1889 Z " />
<glyph glyph-name="Wdieresis" unicode="&#x1e84;" horiz-adv-x="1957" d="M452 -31 L88 1475 L347 1475 L574 443 L910 1478 L1048 1478 L1384 443 L1611 1475 L1870 1475 L1505 -31 L1311 -31 L979 994 L647 -31 L452 -31 Z M775 1879 Q831 1879 871 1840 Q911 1801 911 1747 Q911 1692 870.5 1653 Q830 1614 772 1614 Q714 1614 673.5 1653 Q633 1692 633 1748 Q633 1803 674 1841 Q715 1879 775 1879 Z M1189 1879 Q1245 1879 1285 1840 Q1325 1801 1325 1747 Q1325 1692 1284.5 1653 Q1244 1614 1186 1614 Q1128 1614 1087.5 1653 Q1047 1692 1047 1748 Q1047 1803 1088 1841 Q1129 1879 1189 1879 Z " />
<glyph glyph-name="wdieresis" unicode="&#x1e85;" horiz-adv-x="1641" d="M352 -22 L39 1103 L285 1103 L480 351 L749 1103 L893 1103 L1162 351 L1356 1103 L1603 1103 L1290 -22 L1089 -22 L821 721 L553 -22 L352 -22 Z M630 1513 Q686 1513 726 1474 Q766 1435 766 1381 Q766 1326 725.5 1287 Q685 1248 627 1248 Q569 1248 528.5 1287 Q488 1326 488 1382 Q488 1437 529 1475 Q570 1513 630 1513 Z M1017 1513 Q1073 1513 1113 1474 Q1153 1435 1153 1381 Q1153 1326 1112.5 1287 Q1072 1248 1014 1248 Q956 1248 915.5 1287 Q875 1326 875 1382 Q875 1437 916 1475 Q957 1513 1017 1513 Z " />
<glyph glyph-name="uni2007" unicode="&#x2007;" horiz-adv-x="1303" d="" />
<glyph glyph-name="uni2011" unicode="&#x2011;" horiz-adv-x="813" d="M123 510 L123 720 L690 720 L690 510 L123 510 Z " />
<glyph glyph-name="figuredash" unicode="&#x2012;" horiz-adv-x="990" d="M69 510 L69 720 L922 720 L922 510 L69 510 Z " />
<glyph glyph-name="afii00208" unicode="&#x2015;" horiz-adv-x="1303" d="M-90 510 L-90 720 L1392 720 L1392 510 L-90 510 Z " />
<glyph glyph-name="zerosuperior" unicode="&#x2070;" horiz-adv-x="835" d="M423 1695 Q633 1695 722 1535 Q782 1427 782 1249 Q782 1051 708 940 Q617 803 418 803 Q53 803 53 1249 Q53 1695 423 1695 Z M415 1532 Q330 1532 291 1464.5 Q252 1397 252 1249 Q252 1101 290.5 1033.5 Q329 966 414 966 Q472 966 506 989 Q540 1012 559 1065 Q583 1128 583 1249 Q583 1400 543.5 1466 Q504 1532 415 1532 Z " />
<glyph glyph-name="foursuperior" unicode="&#x2074;" horiz-adv-x="836" d="M490 819 L490 987 L55 987 L55 1125 L326 1679 L544 1679 L278 1149 L490 1149 L490 1433 L680 1433 L680 1149 L811 1149 L811 987 L680 987 L680 819 L490 819 Z " />
<glyph glyph-name="fivesuperior" unicode="&#x2075;" horiz-adv-x="836" d="M90 1228 L128 1679 L714 1679 L714 1518 L308 1518 L292 1360 Q363 1381 433 1381 Q574 1381 660 1325 Q772 1252 772 1095 Q772 953 677 878.5 Q582 804 402 804 Q177 804 93 910 Q51 964 37 1087 L230 1087 Q242 1022 282.5 993.5 Q323 965 403 965 Q572 965 572 1096 Q572 1232 413 1232 Q320 1232 220 1167 L90 1228 Z " />
<glyph glyph-name="sixsuperior" unicode="&#x2076;" horiz-adv-x="834" d="M269 1316 Q350 1373 456 1373 Q600 1373 682 1302 Q764 1231 764 1107 Q764 972 677 895 Q584 812 426 812 Q253 812 168.5 905.5 Q84 999 84 1190 Q84 1444 173 1565 Q262 1686 448 1686 Q587 1686 657.5 1628 Q728 1570 742 1443 L566 1443 Q554 1500 527 1521.5 Q500 1543 440 1543 Q354 1543 319 1497 Q284 1451 269 1316 Z M422 1238 Q267 1238 267 1097 Q267 956 425 956 Q582 956 582 1096 Q582 1238 422 1238 Z " />
<glyph glyph-name="sevensuperior" unicode="&#x2077;" horiz-adv-x="670" d="M442 1518 L9 1518 L9 1679 L631 1679 L631 1544 L297 819 L71 819 L442 1518 Z " />
<glyph glyph-name="eightsuperior" unicode="&#x2078;" horiz-adv-x="836" d="M168 1278 Q133 1308 121 1321 Q85 1366 85 1447 Q85 1563 173.5 1629 Q262 1695 417 1695 Q574 1695 662 1629 Q750 1563 750 1446 Q750 1387 732.5 1351.5 Q715 1316 667 1278 Q734 1235 761 1190 Q788 1145 788 1075 Q788 947 688.5 875 Q589 803 413 803 Q234 803 135 883 Q47 954 47 1074 Q47 1145 72.5 1188 Q98 1231 168 1278 Z M416 1546 Q345 1546 305 1518.5 Q265 1491 265 1442 Q265 1393 305 1366 Q345 1339 417 1339 Q489 1339 529.5 1366 Q570 1393 570 1442 Q570 1546 416 1546 Z M415 1199 Q237 1199 237 1077 Q237 956 417 956 Q598 956 598 1077 Q598 1199 415 1199 Z " />
<glyph glyph-name="ninesuperior" unicode="&#x2079;" horiz-adv-x="833" d="M556 1189 Q476 1133 375 1133 Q238 1133 160 1203 Q82 1273 82 1395 Q82 1528 166 1604 Q257 1687 410 1687 Q577 1687 659 1593.5 Q741 1500 741 1308 Q741 1050 655 931 Q569 812 383 812 Q241 812 169 872 Q97 932 83 1062 L259 1062 Q270 1010 286 991 Q317 955 391 955 Q497 955 529 1036 Q546 1081 556 1189 Z M409 1543 Q264 1543 264 1405 Q264 1268 407 1268 Q558 1268 558 1405 Q558 1543 409 1543 Z " />
<glyph glyph-name="zeroinferior" unicode="&#x2080;" horiz-adv-x="835" d="M423 671 Q633 671 722 511 Q782 403 782 225 Q782 27 708 -84 Q617 -221 418 -221 Q53 -221 53 225 Q53 671 423 671 Z M415 508 Q330 508 291 440.5 Q252 373 252 225 Q252 77 290.5 9.5 Q329 -58 414 -58 Q472 -58 506 -35 Q540 -12 559 41 Q583 104 583 225 Q583 376 543.5 442 Q504 508 415 508 Z " />
<glyph glyph-name="oneinferior" unicode="&#x2081;" horiz-adv-x="576" d="M239 -205 L239 465 L13 393 L13 558 L299 655 L436 655 L436 -205 L239 -205 Z " />
<glyph glyph-name="twoinferior" unicode="&#x2082;" horiz-adv-x="835" d="M36 -205 Q41 -144 50.5 -114.5 Q60 -85 87 -45 Q123 7 156.5 39 Q190 71 354 209 Q470 307 500 342 Q530 377 530 416 Q530 460 495.5 485.5 Q461 511 402 511 Q254 511 230 352 L38 352 Q61 506 121 571 Q212 671 401 671 Q553 671 641 610 Q732 547 732 419 Q732 351 704.5 298 Q677 245 611 186 Q574 152 428 47 Q376 10 322 -44 L754 -44 L754 -205 L36 -205 Z " />
<glyph glyph-name="threeinferior" unicode="&#x2083;" horiz-adv-x="835" d="M270 167 L270 313 Q312 313 333 313 Q447 313 490 336 Q533 359 533 419 Q533 511 404 511 Q281 511 253 412 L65 412 Q79 527 138 588 Q220 671 401 671 Q575 671 660 596 Q730 534 730 425 Q730 367 712 328 Q694 289 650 253 Q768 188 768 56 Q768 -220 406 -220 Q188 -220 102 -123 Q53 -67 42 63 L234 63 Q246 -1 288.5 -30 Q331 -59 412 -59 Q568 -59 568 48 Q568 150 454 162 Q407 167 270 167 Z " />
<glyph glyph-name="fourinferior" unicode="&#x2084;" horiz-adv-x="836" d="M490 -205 L490 -36 L55 -36 L55 102 L326 655 L544 655 L278 126 L490 126 L490 409 L680 409 L680 126 L811 126 L811 -36 L680 -36 L680 -205 L490 -205 Z " />
<glyph glyph-name="fiveinferior" unicode="&#x2085;" horiz-adv-x="836" d="M90 204 L128 655 L714 655 L714 494 L308 494 L292 336 Q363 357 433 357 Q574 357 660 301 Q772 228 772 71 Q772 -71 677 -145.5 Q582 -220 402 -220 Q177 -220 93 -114 Q51 -60 37 63 L230 63 Q242 -2 282.5 -30.5 Q323 -59 403 -59 Q572 -59 572 72 Q572 208 413 208 Q320 208 220 143 L90 204 Z " />
<glyph glyph-name="sixinferior" unicode="&#x2086;" horiz-adv-x="834" d="M269 292 Q350 349 456 349 Q600 349 682 278 Q764 207 764 83 Q764 -52 677 -129 Q584 -212 426 -212 Q253 -212 168.5 -118.5 Q84 -25 84 166 Q84 420 173 541 Q262 662 448 662 Q587 662 657.5 604 Q728 546 742 419 L566 419 Q554 476 527 497.5 Q500 519 440 519 Q354 519 319 473 Q284 427 269 292 Z M422 214 Q267 214 267 73 Q267 -68 425 -68 Q582 -68 582 72 Q582 214 422 214 Z " />
<glyph glyph-name="seveninferior" unicode="&#x2087;" horiz-adv-x="670" d="M442 494 L9 494 L9 655 L631 655 L631 520 L297 -205 L71 -205 L442 494 Z " />
<glyph glyph-name="eightinferior" unicode="&#x2088;" horiz-adv-x="836" d="M168 254 Q133 284 121 297 Q85 342 85 423 Q85 539 173.5 605 Q262 671 417 671 Q574 671 662 605 Q750 539 750 422 Q750 363 732.5 327.5 Q715 292 667 254 Q734 211 761 166 Q788 121 788 51 Q788 -77 688.5 -149 Q589 -221 413 -221 Q234 -221 135 -141 Q47 -70 47 50 Q47 121 72.5 164 Q98 207 168 254 Z M416 522 Q345 522 305 494.5 Q265 467 265 418 Q265 369 305 342 Q345 315 417 315 Q489 315 529.5 342 Q570 369 570 418 Q570 522 416 522 Z M415 175 Q237 175 237 53 Q237 -68 417 -68 Q598 -68 598 53 Q598 175 415 175 Z " />
<glyph glyph-name="nineinferior" unicode="&#x2089;" horiz-adv-x="833" d="M556 165 Q476 108 375 108 Q238 108 160 178 Q82 248 82 370 Q82 504 166 580 Q257 663 410 663 Q577 663 659 569.5 Q741 476 741 284 Q741 26 655 -93 Q569 -212 383 -212 Q241 -212 169 -152 Q97 -92 83 38 L259 38 Q270 -14 286 -33 Q317 -69 391 -69 Q497 -69 529 12 Q546 57 556 165 Z M409 519 Q264 519 264 381 Q264 243 407 243 Q558 243 558 381 Q558 519 409 519 Z " />
</font>
</svg>
