<?xml version="1.0" encoding="UTF-8"?>
<svg xmlns="http://www.w3.org/2000/svg" xmlns:xlink="http://www.w3.org/1999/xlink" version="1.2" >
<font id="A1 Sans Light">
<font-face  font-family="A1 Sans" units-per-em="2048" ascent="1536" descent="-512" font-style="normal" font-weight="300" font-stretch="normal" cap-height="1475" x-height="1061" underline-position="-375" underline-thickness="94" />
<missing-glyph  horiz-adv-x="451" d="M45 0 L45 1475 L406 1475 L406 0 L45 0 Z M361 45 L361 1430 L90 1430 L90 45 L361 45 Z " />
<glyph glyph-name="space" unicode="&#x20;" horiz-adv-x="451" d="" />
<glyph glyph-name="exclam" unicode="&#x21;" horiz-adv-x="634" d="M269 335 L253 1475 L381 1475 L366 335 L269 335 Z M319 160 Q358 160 386 132 Q414 104 414 66 Q414 26 385.5 -1.5 Q357 -29 317 -29 Q276 -29 248 -1.5 Q220 26 220 66 Q220 106 248.5 133 Q277 160 319 160 Z " />
<glyph glyph-name="quotedbl" unicode="&#x22;" horiz-adv-x="616" d="M124 920 L124 1475 L217 1475 L217 920 L124 920 Z M399 920 L399 1475 L492 1475 L492 920 L399 920 Z " />
<glyph glyph-name="numbersign" unicode="&#x23;" horiz-adv-x="1303" d="M349 494 L121 494 L134 586 L362 586 L403 865 L175 865 L188 957 L416 957 L489 1455 L600 1455 L527 957 L843 957 L916 1455 L1027 1455 L954 957 L1181 957 L1168 865 L941 865 L900 586 L1127 586 L1114 494 L887 494 L814 0 L703 0 L776 494 L459 494 L387 0 L276 0 L349 494 Z M472 586 L789 586 L830 865 L514 865 L472 586 Z " />
<glyph glyph-name="dollar" unicode="&#x24;" horiz-adv-x="1303" d="M104 412 L211 412 Q214 238 341 158 Q443 96 609 90 L609 726 Q461 762 418.5 775 Q376 788 328 813 Q147 909 147 1107 Q147 1280 269.5 1380 Q392 1480 609 1485 L609 1639 L693 1639 L693 1482 Q1101 1451 1097 1061 L989 1061 Q990 1354 693 1383 L693 820 Q843 785 882 773.5 Q921 762 971 738 Q1095 679 1152 579 Q1199 497 1199 399 Q1199 265 1118 159 Q1023 36 812 3 Q762 -5 693 -9 L693 -159 L609 -159 L609 -9 Q353 1 228.5 105 Q104 209 104 412 Z M693 707 L693 90 Q847 99 931 144 Q1004 183 1044 247 Q1084 311 1084 390 Q1084 564 913 642 Q843 674 693 707 Z M609 840 L609 1385 Q472 1380 395 1337 Q258 1260 258 1118 Q258 960 430 890 Q477 871 609 840 Z " />
<glyph glyph-name="percent" unicode="&#x25;" horiz-adv-x="1671" d="M438 1506 Q603 1506 693 1404 Q783 1301 783 1134 Q783 967 693 864 Q603 762 432 762 Q261 762 171 864 Q81 967 81 1133 Q81 1302 171 1404 Q220 1458 282 1482 Q344 1506 438 1506 Z M427 1421 Q296 1421 233 1332 Q181 1259 181 1134 Q181 992 244 919.5 Q307 847 432 847 Q567 847 630 936 Q682 1008 682 1133 Q682 1421 427 1421 Z M1243 715 Q1407 715 1498 613 Q1588 510 1588 343 Q1588 177 1498 73 Q1408 -29 1237 -29 Q1066 -29 976 73 Q886 177 886 342 Q886 511 976 613 Q1025 667 1087 691 Q1149 715 1243 715 Z M1232 630 Q1102 630 1038 541 Q986 469 986 343 Q986 56 1237 56 Q1372 56 1436 145 Q1487 217 1487 342 Q1487 630 1232 630 Z M354 0 L1203 1475 L1315 1475 L466 0 L354 0 Z " />
<glyph glyph-name="ampersand" unicode="&#x26;" horiz-adv-x="1480" d="M535 869 Q399 1019 362.5 1080.5 Q326 1142 326 1223 Q326 1345 417 1424 Q510 1506 670 1506 Q836 1506 930 1424 Q1022 1344 1022 1216 Q1022 1144 989.5 1093 Q957 1042 872 979 Q822 943 680 852 L1085 382 Q1165 547 1244 821 L1350 821 Q1244 468 1155 298 L1410 0 L1278 0 L1101 205 Q943 -31 637 -31 Q435 -31 308 62 Q231 119 188.5 205 Q146 291 146 391 Q146 495 190.5 572.5 Q235 650 344 736 Q395 776 535 869 Z M619 925 L676 963 Q780 1030 822 1061 Q913 1129 913 1219 Q913 1309 850 1359 Q787 1409 673 1409 Q557 1409 495 1357 Q434 1306 434 1223 Q434 1168 458.5 1125 Q483 1082 581 969 L619 925 Z M598 796 Q432 689 387 652 Q317 594 287 536.5 Q257 479 257 400 Q257 238 369 149 Q473 67 638 67 Q770 67 863.5 119 Q957 171 1034 287 L598 796 Z " />
<glyph glyph-name="quotesingle" unicode="&#x27;" horiz-adv-x="341" d="M124 920 L124 1475 L217 1475 L217 920 L124 920 Z " />
<glyph glyph-name="parenleft" unicode="&#x28;" horiz-adv-x="844" d="M711 -356 L605 -356 Q451 -150 373 37 Q256 321 256 615 Q256 873 340.5 1104.5 Q425 1336 605 1572 L711 1572 Q560 1372 482 1188 Q366 914 366 615 Q366 350 448.5 118.5 Q531 -113 711 -356 Z " />
<glyph glyph-name="parenright" unicode="&#x29;" horiz-adv-x="844" d="M132 1572 L238 1572 Q392 1368 470 1179 Q587 895 587 602 Q587 343 502.5 111 Q418 -121 238 -356 L132 -356 Q282 -158 361 27 Q477 301 477 602 Q477 866 394.5 1098.5 Q312 1331 132 1572 Z " />
<glyph glyph-name="asterisk" unicode="&#x2a;" horiz-adv-x="1177" d="M200 1207 L235 1299 L549 1190 L539 1507 L637 1507 L628 1190 L941 1298 L976 1206 L652 1115 L869 855 L788 797 L588 1069 L389 797 L308 855 L524 1115 L200 1207 Z " />
<glyph glyph-name="plus" unicode="&#x2b;" horiz-adv-x="1303" d="M157 690 L157 784 L604 784 L604 1186 L698 1186 L698 784 L1145 784 L1145 690 L698 690 L698 288 L604 288 L604 690 L157 690 Z " />
<glyph glyph-name="comma" unicode="&#x2c;" horiz-adv-x="641" d="M200 -258 L308 162 L460 162 L302 -258 L200 -258 Z " />
<glyph glyph-name="hyphen" unicode="&#x2d;" horiz-adv-x="799" d="M123 568 L123 662 L676 662 L676 568 L123 568 Z " />
<glyph glyph-name="period" unicode="&#x2e;" horiz-adv-x="638" d="M321 160 Q360 160 388 132 Q416 104 416 66 Q416 26 387.5 -1.5 Q359 -29 319 -29 Q278 -29 250 -1.5 Q222 26 222 66 Q222 106 250.5 133 Q279 160 321 160 Z " />
<glyph glyph-name="slash" unicode="&#x2f;" horiz-adv-x="907" d="M103 -184 L680 1475 L779 1475 L202 -184 L103 -184 Z " />
<glyph glyph-name="zero" unicode="0" horiz-adv-x="1303" d="M659 1504 Q851 1504 986 1370 Q1183 1174 1183 738 Q1183 443 1090 254 Q950 -29 651 -29 Q451 -29 317 105 Q193 230 149 450 Q120 593 120 739 Q120 875 145 1004.5 Q170 1134 213 1221 Q353 1504 659 1504 Z M646 1406 Q502 1406 398 1303 Q230 1136 230 737 Q230 462 313 295 Q425 69 652 69 Q852 69 962.5 245 Q1073 421 1073 738 Q1073 1014 990 1180 Q878 1406 646 1406 Z " />
<glyph glyph-name="one" unicode="1" horiz-adv-x="1303" d="M612 0 L612 1362 L219 1222 L219 1322 L645 1475 L720 1475 L720 0 L612 0 Z " />
<glyph glyph-name="two" unicode="2" horiz-adv-x="1303" d="M112 0 Q137 145 224.5 254.5 Q312 364 558 556 Q822 763 898 863 Q983 975 983 1103 Q983 1235 891 1319 Q791 1410 624 1410 Q410 1410 300 1260 Q251 1193 228 1052 L124 1052 Q152 1250 242 1351 Q377 1504 626 1504 Q847 1504 979 1391 Q1103 1286 1103 1107 Q1103 922 968 779 Q907 715 864 678.5 Q821 642 623 489 Q418 329 347.5 255 Q277 181 246 94 L1147 94 L1147 0 L112 0 Z " />
<glyph glyph-name="three" unicode="3" horiz-adv-x="1303" d="M456 733 L456 827 Q519 826 549 826 Q727 826 819 873 Q979 955 979 1135 Q979 1272 876 1341 Q780 1406 628 1406 Q317 1406 253 1141 L146 1141 Q173 1283 263 1373 Q393 1504 625 1504 Q830 1504 959 1410 Q1094 1311 1094 1131 Q1094 868 846 781 Q989 738 1063 643 Q1142 540 1142 395 Q1142 184 983 69 Q848 -29 628 -29 Q143 -29 99 378 L207 378 Q255 69 626 69 Q787 69 886 133 Q1027 224 1027 393 Q1027 607 810 692 Q706 733 514 733 Q495 733 456 733 Z " />
<glyph glyph-name="four" unicode="4" horiz-adv-x="1303" d="M852 0 L852 335 L111 335 L111 405 L589 1475 L702 1475 L232 429 L852 429 L852 1048 L961 1048 L961 429 L1217 429 L1217 335 L961 335 L961 0 L852 0 Z " />
<glyph glyph-name="five" unicode="5" horiz-adv-x="1303" d="M228 708 L274 1475 L1074 1475 L1074 1377 L378 1377 L336 819 Q413 873 485 895 Q557 917 656 917 Q859 917 990 810 Q1069 745 1112 649 Q1155 553 1155 442 Q1155 243 1027 114 Q885 -29 633 -29 Q410 -29 280.5 76 Q151 181 131 378 L238 378 Q259 243 347 164 Q453 69 636 69 Q831 69 944 190 Q1040 292 1040 439 Q1040 522 1008 598.5 Q976 675 921 724 Q815 819 645 819 Q548 819 479 789.5 Q410 760 296 670 L228 708 Z " />
<glyph glyph-name="six" unicode="6" horiz-adv-x="1303" d="M271 745 Q407 916 660 916 Q856 916 983 825 Q1165 694 1165 451 Q1165 212 999 78 Q868 -29 656 -29 Q399 -29 264 130 Q152 262 152 538 Q152 826 198 1052 Q241 1263 366 1387 Q485 1504 693 1504 Q940 1504 1052 1347 Q1112 1263 1123 1139 L1016 1139 Q1003 1236 952 1300 Q866 1406 689 1406 Q552 1406 466 1333 Q380 1260 328 1101 Q282 956 271 745 Z M655 818 Q484 818 381 726 Q266 623 266 447 Q266 272 384 162 Q484 69 660 69 Q836 69 936 162 Q1054 271 1054 445 Q1054 619 947 718.5 Q840 818 655 818 Z " />
<glyph glyph-name="seven" unicode="7" horiz-adv-x="1303" d="M1020 1377 L179 1377 L179 1475 L1128 1475 L1128 1379 L527 0 L406 0 L1020 1377 Z " />
<glyph glyph-name="eight" unicode="8" horiz-adv-x="1303" d="M414 781 Q303 823 248 883 Q166 974 166 1112 Q166 1300 307 1406 Q436 1504 650 1504 Q883 1504 1013 1390 Q1134 1285 1134 1113 Q1134 989 1074.5 909 Q1015 829 887 781 Q1017 740 1089 664 Q1190 558 1190 392 Q1190 191 1031 77 Q884 -29 650 -29 Q398 -29 249 92 Q110 205 110 392 Q110 539 186.5 636.5 Q263 734 414 781 Z M646 1406 Q452 1406 360 1316 Q282 1240 282 1118 Q282 979 380 903 Q477 827 650 827 Q838 827 935 915 Q1018 990 1018 1118 Q1018 1257 922 1331.5 Q826 1406 646 1406 Z M645 729 Q457 729 342 641 Q226 554 226 406 Q226 242 354 152 Q467 73 650 73 Q850 73 965 166 Q1074 255 1074 406 Q1074 566 941 654 Q828 729 645 729 Z " />
<glyph glyph-name="nine" unicode="9" horiz-adv-x="1303" d="M1011 759 Q879 587 632 587 Q447 587 325 676 Q155 800 155 1033 Q155 1270 311 1399 Q437 1504 637 1504 Q884 1504 1018 1345 Q1130 1211 1130 904 Q1130 675 1106.5 509.5 Q1083 344 1035 239 Q914 -29 589 -29 Q341 -29 230 128 Q171 210 159 336 L266 336 Q280 238 330 175 Q415 69 593 69 Q742 69 830.5 144.5 Q919 220 965 388 Q989 475 995.5 530 Q1002 585 1011 759 Z M630 1406 Q469 1406 375 1315 Q266 1211 266 1038 Q266 874 364.5 779.5 Q463 685 633 685 Q803 685 902 774 Q1013 874 1013 1041 Q1013 1213 899 1316 Q799 1406 630 1406 Z " />
<glyph glyph-name="colon" unicode="&#x3a;" horiz-adv-x="638" d="M353 160 Q392 160 420 132 Q448 104 448 66 Q448 26 419.5 -1.5 Q391 -29 351 -29 Q310 -29 282 -1.5 Q254 26 254 66 Q254 106 282.5 133 Q311 160 353 160 Z M353 870 Q392 870 420 842 Q448 814 448 776 Q448 736 419.5 708.5 Q391 681 351 681 Q310 681 282 708.5 Q254 736 254 776 Q254 816 282.5 843 Q311 870 353 870 Z " />
<glyph glyph-name="semicolon" unicode="&#x3b;" horiz-adv-x="642" d="M220 -258 L328 162 L480 162 L322 -258 L220 -258 Z M414 870 Q453 870 481 842 Q509 814 509 776 Q509 736 480.5 708.5 Q452 681 412 681 Q371 681 343 708.5 Q315 736 315 776 Q315 816 343.5 843 Q372 870 414 870 Z " />
<glyph glyph-name="less" unicode="&#x3c;" horiz-adv-x="1303" d="M315 738 L1103 327 L1103 222 L200 705 L200 771 L1103 1255 L1103 1149 L315 738 Z " />
<glyph glyph-name="equal" unicode="&#x3d;" horiz-adv-x="1303" d="M157 544 L157 638 L1145 638 L1145 544 L157 544 Z M157 836 L157 931 L1145 931 L1145 836 L157 836 Z " />
<glyph glyph-name="greater" unicode="&#x3e;" horiz-adv-x="1303" d="M988 738 L200 1149 L200 1255 L1103 771 L1103 705 L200 222 L200 327 L988 738 Z " />
<glyph glyph-name="question" unicode="&#x3f;" horiz-adv-x="1099" d="M447 335 L447 415 Q447 549 486 622 Q513 672 541 694 Q569 716 707 795 Q803 850 842 926 Q886 1011 886 1133 Q886 1262 810 1332 Q727 1410 574 1410 Q391 1410 301 1291 Q246 1219 220 1067 L115 1067 Q129 1174 154 1239.5 Q179 1305 227 1363 Q347 1508 578 1508 Q770 1508 880 1412 Q996 1310 996 1122 Q996 919 882 804 Q846 767 809.5 742.5 Q773 718 675 664 Q599 622 573 576 Q547 530 547 438 L547 335 L447 335 Z M499 160 Q538 160 566 132 Q594 104 594 66 Q594 26 565.5 -1.5 Q537 -29 497 -29 Q456 -29 428 -1.5 Q400 26 400 66 Q400 106 428.5 133 Q457 160 499 160 Z " />
<glyph glyph-name="at" unicode="&#x40;" horiz-adv-x="2130" d="M1379 424 Q1267 237 1029 237 Q843 237 732 356 Q630 465 630 633 Q630 802 732 912 Q842 1029 1026 1029 Q1266 1029 1378 844 L1379 1017 L1472 1017 L1472 468 Q1472 399 1489 368 Q1516 319 1606 319 Q1750 319 1826 435 Q1897 546 1897 724 Q1897 945 1789 1108 Q1671 1287 1436 1367 Q1279 1421 1092 1421 Q658 1421 421 1141 Q233 918 233 588 Q233 258 424 81 Q665 -144 1144 -144 Q1505 -144 1821 -19 L1855 -96 Q1680 -167 1517 -197.5 Q1354 -228 1152 -228 Q669 -228 400 -24 Q123 186 123 593 Q123 961 354 1212 Q624 1505 1090 1505 Q1452 1505 1697 1333 Q1865 1216 1946 1032 Q2007 894 2007 735 Q2007 505 1903 374 Q1793 237 1595 237 Q1485 237 1436.5 279.5 Q1388 322 1379 424 Z M1034 935 Q903 935 822 853 Q739 769 739 633 Q739 498 822 414 Q904 331 1041 331 Q1192 331 1284 429 Q1365 515 1365 632 Q1365 753 1284 837 Q1189 935 1034 935 Z " />
<glyph glyph-name="A" unicode="A" horiz-adv-x="1309" d="M983 444 L327 444 L155 0 L38 0 L620 1475 L691 1475 L1273 0 L1156 0 L983 444 Z M947 538 L655 1291 L364 538 L947 538 Z " />
<glyph glyph-name="B" unicode="B" horiz-adv-x="1322" d="M197 0 L197 1475 L637 1475 Q859 1475 978 1390 Q1113 1293 1113 1110 Q1113 998 1061.5 928.5 Q1010 859 892 811 Q964 798 1009.5 775 Q1055 752 1097 708 Q1203 597 1203 424 Q1203 291 1138 191 Q1072 88 958 44 Q844 0 644 0 L197 0 Z M307 847 L672 847 Q824 847 909 915 Q999 987 999 1111 Q999 1243 907.5 1315 Q816 1387 648 1387 L307 1387 L307 847 Z M307 88 L623 88 Q1088 88 1088 420 Q1088 597 957 686 Q858 753 699 753 L307 753 L307 88 Z " />
<glyph glyph-name="C" unicode="C" horiz-adv-x="1396" d="M1202 306 L1285 242 Q1188 100 1061 35.5 Q934 -29 748 -29 Q540 -29 409 53 Q255 148 178 353 Q118 512 118 728 Q118 1095 291 1305 Q453 1502 750 1502 Q986 1502 1120.5 1386.5 Q1255 1271 1263 1063 L1155 1063 Q1148 1221 1040.5 1312 Q933 1403 753 1403 Q582 1403 474 1329 Q349 1245 285 1065 Q233 921 233 725 Q233 419 370 239 Q436 152 529.5 111 Q623 70 756 70 Q905 70 1006.5 123.5 Q1108 177 1202 306 Z " />
<glyph glyph-name="D" unicode="D" horiz-adv-x="1452" d="M197 0 L197 1475 L568 1475 Q895 1475 1095 1315 Q1334 1123 1334 738 Q1334 352 1095 160 Q896 0 562 0 L197 0 Z M308 94 L555 94 Q854 94 1023 235 Q1219 398 1219 738 Q1219 1076 1023 1240 Q855 1381 552 1381 L308 1381 L308 94 Z " />
<glyph glyph-name="E" unicode="E" horiz-adv-x="1164" d="M197 0 L197 1475 L1062 1475 L1062 1381 L308 1381 L308 811 L949 811 L949 717 L308 717 L308 94 L1077 94 L1077 0 L197 0 Z " />
<glyph glyph-name="F" unicode="F" horiz-adv-x="1115" d="M197 0 L197 1475 L1062 1475 L1062 1381 L308 1381 L308 810 L949 810 L949 716 L308 716 L308 0 L197 0 Z " />
<glyph glyph-name="G" unicode="G" horiz-adv-x="1501" d="M882 636 L882 730 L1320 730 L1320 56 Q1070 -29 779 -29 Q549 -29 413 55 Q118 239 118 724 Q118 1096 297 1306 Q465 1502 771 1502 Q1017 1502 1155.5 1386.5 Q1294 1271 1297 1063 L1189 1063 Q1184 1196 1108 1279 Q996 1403 772 1403 Q492 1403 356 1202 Q233 1022 233 724 Q233 412 376 236 Q447 149 545.5 109.5 Q644 70 792 70 Q996 70 1211 145 L1211 636 L882 636 Z " />
<glyph glyph-name="H" unicode="H" horiz-adv-x="1411" d="M197 0 L197 1475 L308 1475 L308 825 L1102 825 L1102 1475 L1213 1475 L1213 0 L1102 0 L1102 731 L308 731 L308 0 L197 0 Z " />
<glyph glyph-name="I" unicode="I" horiz-adv-x="506" d="M197 0 L197 1475 L308 1475 L308 0 L197 0 Z " />
<glyph glyph-name="J" unicode="J" horiz-adv-x="548" d="M240 1475 L351 1475 L351 94 Q363 -251 59 -259 L59 -165 Q169 -155 204.5 -101 Q240 -47 240 109 L240 1475 Z " />
<glyph glyph-name="K" unicode="K" horiz-adv-x="1126" d="M197 0 L197 1475 L308 1475 L308 771 L971 1475 L1108 1475 L440 771 L1163 0 L1022 0 L308 771 L308 0 L197 0 Z " />
<glyph glyph-name="L" unicode="L" horiz-adv-x="1058" d="M197 0 L197 1475 L308 1475 L308 94 L1000 94 L1000 0 L197 0 Z " />
<glyph glyph-name="M" unicode="M" horiz-adv-x="1730" d="M116 0 L267 1475 L373 1475 L865 193 L1356 1475 L1463 1475 L1614 0 L1509 0 L1373 1236 L897 0 L833 0 L357 1236 L221 0 L116 0 Z " />
<glyph glyph-name="N" unicode="N" horiz-adv-x="1411" d="M197 0 L197 1475 L303 1475 L1103 248 L1103 1475 L1213 1475 L1213 -21 L1153 -21 L307 1285 L307 0 L197 0 Z " />
<glyph glyph-name="O" unicode="O" horiz-adv-x="1519" d="M771 1504 Q1099 1504 1256 1284 Q1401 1079 1401 737 Q1401 397 1256 191 Q1100 -29 759 -29 Q419 -29 263 191 Q118 397 118 735 Q118 1082 263 1284 Q356 1412 493 1462 Q610 1504 771 1504 Z M750 1405 Q474 1405 347 1213 Q274 1103 252 971 Q233 860 233 737 Q233 579 260 465.5 Q287 352 347 262 Q474 70 759 70 Q1046 70 1172 262 Q1286 436 1286 734 Q1286 1043 1172 1213 Q1097 1325 981 1369 Q885 1405 750 1405 Z " />
<glyph glyph-name="P" unicode="P" horiz-adv-x="1243" d="M197 0 L197 1475 L570 1475 Q716 1475 807 1460 Q898 1445 968 1409 Q1060 1361 1110.5 1263.5 Q1161 1166 1161 1036 Q1161 869 1080 759 Q992 640 807 612 Q705 596 571 596 L308 596 L308 0 L197 0 Z M308 690 L595 690 Q718 690 795.5 708 Q873 726 926 767 Q1046 860 1046 1036 Q1046 1211 927 1303 Q860 1356 745 1372 Q682 1381 596 1381 L308 1381 L308 690 Z " />
<glyph glyph-name="Q" unicode="Q" horiz-adv-x="1529" d="M1384 -132 L1435 -221 Q1319 -293 1202 -293 Q1146 -293 1090 -278 Q1034 -263 923 -218 Q796 -167 750.5 -153 Q705 -139 662 -139 Q559 -139 412 -261 L356 -181 Q529 -45 677 -45 Q734 -45 778 -58 Q822 -71 957 -127 Q1119 -194 1199 -194 Q1292 -194 1384 -132 Z M771 1504 Q1099 1504 1256 1284 Q1401 1079 1401 737 Q1401 397 1256 191 Q1100 -29 759 -29 Q419 -29 263 191 Q118 397 118 735 Q118 1082 263 1284 Q356 1412 493 1462 Q610 1504 771 1504 Z M750 1405 Q474 1405 347 1213 Q274 1103 252 971 Q233 860 233 737 Q233 579 260 465.5 Q287 352 347 262 Q474 70 759 70 Q1046 70 1172 262 Q1286 436 1286 734 Q1286 1043 1172 1213 Q1097 1325 981 1369 Q885 1405 750 1405 Z " />
<glyph glyph-name="R" unicode="R" horiz-adv-x="1296" d="M181 0 L181 1475 L575 1475 Q717 1475 806 1460.5 Q895 1446 963 1412 Q1053 1367 1103 1273 Q1153 1179 1153 1054 Q1153 743 864 657 Q917 627 951 577.5 Q985 528 1023 426 L1179 0 L1056 0 L907 407 Q860 537 788.5 584 Q717 631 568 631 L292 631 L292 0 L181 0 Z M292 725 L597 725 Q811 725 904 785 Q1038 872 1038 1050 Q1038 1222 918 1312 Q826 1381 598 1381 L292 1381 L292 725 Z " />
<glyph glyph-name="S" unicode="S" horiz-adv-x="1251" d="M109 412 L216 412 Q221 253 301 174 Q407 70 627 70 Q840 70 947 165 Q1043 250 1043 389 Q1043 524 950 598 Q901 637 836.5 661 Q772 685 628 719 Q476 754 404.5 779.5 Q333 805 275 845 Q150 930 150 1110 Q150 1272 251 1377 Q372 1504 607 1504 Q878 1504 989 1348 Q1059 1249 1061 1063 L954 1063 Q949 1223 885 1299 Q796 1405 612 1405 Q435 1405 342 1315 Q261 1237 261 1120 Q261 984 368 920 Q413 893 466.5 875.5 Q520 858 647 828 Q808 789 886 759.5 Q964 730 1026 683 Q1157 583 1157 400 Q1157 312 1124 231 Q1091 150 1034 95 Q902 -29 633 -29 Q322 -29 194 126 Q111 226 109 412 Z " />
<glyph glyph-name="T" unicode="T" horiz-adv-x="1089" d="M489 0 L489 1381 L49 1381 L49 1475 L1039 1475 L1039 1381 L600 1381 L600 0 L489 0 Z " />
<glyph glyph-name="U" unicode="U" horiz-adv-x="1379" d="M188 1475 L299 1475 L299 534 Q299 333 355 230 Q443 70 689 70 Q937 70 1024 230 Q1080 333 1080 534 L1080 1475 L1191 1475 L1191 603 Q1191 420 1175 325.5 Q1159 231 1116 162 Q998 -29 690 -29 Q380 -29 263 162 Q220 230 204 326 Q188 422 188 603 L188 1475 Z " />
<glyph glyph-name="V" unicode="V" horiz-adv-x="1125" d="M529 -33 L12 1475 L127 1475 L563 199 L998 1475 L1113 1475 L596 -33 L529 -33 Z " />
<glyph glyph-name="W" unicode="W" horiz-adv-x="1829" d="M445 -33 L73 1475 L183 1475 L491 228 L883 1488 L945 1488 L1338 228 L1645 1475 L1756 1475 L1384 -33 L1312 -33 L914 1248 L516 -33 L445 -33 Z " />
<glyph glyph-name="X" unicode="X" horiz-adv-x="1171" d="M518 776 L67 1475 L191 1475 L599 845 L979 1475 L1099 1475 L658 750 L1141 0 L1018 0 L577 680 L152 0 L29 0 L518 776 Z " />
<glyph glyph-name="Y" unicode="Y" horiz-adv-x="1050" d="M470 0 L470 588 L-27 1475 L94 1475 L525 708 L956 1475 L1077 1475 L581 588 L581 0 L470 0 Z " />
<glyph glyph-name="Z" unicode="Z" horiz-adv-x="1123" d="M57 0 L57 82 L873 1381 L116 1381 L116 1475 L1001 1475 L1001 1406 L180 94 L1035 94 L1035 0 L57 0 Z " />
<glyph glyph-name="bracketleft" unicode="&#x5b;" horiz-adv-x="844" d="M335 -356 L335 1572 L712 1572 L712 1479 L439 1479 L439 -263 L712 -263 L712 -356 L335 -356 Z " />
<glyph glyph-name="backslash" unicode="&#x5c;" horiz-adv-x="907" d="M803 -184 L704 -184 L127 1475 L226 1475 L803 -184 Z " />
<glyph glyph-name="bracketright" unicode="&#x5d;" horiz-adv-x="844" d="M509 1572 L509 -356 L132 -356 L132 -263 L405 -263 L405 1479 L132 1479 L132 1572 L509 1572 Z " />
<glyph glyph-name="asciicircum" unicode="&#x5e;" horiz-adv-x="1303" d="M651 1379 L273 916 L139 916 L617 1475 L686 1475 L1164 916 L1030 916 L651 1379 Z " />
<glyph glyph-name="underscore" unicode="&#x5f;" horiz-adv-x="1065" d="M-1 -422 L-1 -328 L1065 -328 L1065 -422 L-1 -422 Z " />
<glyph glyph-name="grave" unicode="&#x60;" horiz-adv-x="1024" d="M550 1224 L297 1542 L438 1542 L635 1224 L550 1224 Z " />
<glyph glyph-name="a" unicode="a" horiz-adv-x="1178" d="M895 159 Q865 96 798 50 Q675 -32 489 -32 Q116 -32 116 293 Q116 502 261 585 Q359 641 610 641 Q714 641 893 629 L893 707 Q893 798 875 853.5 Q857 909 817 943 Q748 1001 583 1001 Q421 1001 360 924 Q330 886 311 800 L209 800 Q224 890 248 940 Q272 990 319 1026 Q408 1095 585 1095 Q802 1095 898 1017 Q1001 934 1001 730 L1001 0 L895 0 L895 159 Z M893 535 Q752 549 602 549 Q472 549 399 533 Q326 517 287 479 Q226 420 226 299 Q226 177 292.5 119.5 Q359 62 501 62 Q694 62 802 165 Q893 252 893 431 L893 535 Z " />
<glyph glyph-name="b" unicode="b" horiz-adv-x="1267" d="M190 0 L190 1516 L298 1516 L298 873 Q430 1093 682 1093 Q911 1093 1042 924 Q1161 770 1161 530 Q1161 292 1042 137 Q911 -32 682 -32 Q430 -32 296 191 L284 0 L190 0 Z M673 999 Q499 999 392 846 Q298 712 298 530 Q298 349 392 215 Q499 62 679 62 Q848 62 949 192 Q1051 323 1051 529 Q1051 741 949 869 Q845 999 673 999 Z " />
<glyph glyph-name="c" unicode="c" horiz-adv-x="1084" d="M921 211 L981 128 Q815 -32 585 -32 Q364 -32 237 109 Q107 254 107 514 Q107 776 236 940 Q358 1094 592 1094 Q768 1094 868 1003.5 Q968 913 972 750 L869 750 Q844 1000 587 1000 Q397 1000 303 856 Q217 725 217 519 Q217 282 338 161 Q436 62 592 62 Q768 62 921 211 Z " />
<glyph glyph-name="d" unicode="d" horiz-adv-x="1267" d="M971 0 L971 188 Q837 -32 586 -32 Q357 -32 226 137 Q107 291 107 530 Q107 770 226 924 Q357 1093 586 1093 Q836 1093 970 873 L970 1516 L1078 1516 L1078 0 L971 0 Z M583 999 Q421 999 320 869 Q217 739 217 530 Q217 323 320 192 Q421 62 589 62 Q769 62 876 215 Q970 349 970 529 Q970 715 876 846 Q809 940 722 975 Q665 999 583 999 Z " />
<glyph glyph-name="e" unicode="e" horiz-adv-x="1157" d="M1054 513 L218 513 Q224 367 272 271 Q322 170 405.5 116 Q489 62 595 62 Q791 62 966 210 L1026 127 Q833 -32 597 -32 Q362 -32 226 137 Q107 285 107 523 Q107 765 230 924 Q362 1093 583 1093 Q795 1093 924.5 933.5 Q1054 774 1054 513 Z M940 607 Q923 743 873 827 Q770 999 581 999 Q457 999 368 923 Q304 867 271 796 Q238 725 221 607 L940 607 Z " />
<glyph glyph-name="f" unicode="f" horiz-adv-x="674" d="M254 0 L254 967 L88 967 L88 1061 L254 1062 L254 1109 Q254 1308 301 1398 Q369 1530 553 1530 Q620 1530 697 1516 L689 1423 Q618 1436 559 1436 Q473 1436 431 1398 Q362 1337 362 1117 L362 1061 L647 1061 L647 967 L362 967 L362 0 L254 0 Z " />
<glyph glyph-name="g" unicode="g" horiz-adv-x="1267" d="M970 186 Q837 -33 586 -33 Q357 -33 226 137 Q107 291 107 530 Q107 770 226 924 Q357 1093 586 1093 Q837 1093 971 873 L971 1061 L1078 1061 L1078 145 Q1078 -114 1013 -249 Q908 -466 595 -466 Q352 -466 160 -326 L220 -243 Q396 -372 604 -372 Q824 -372 907 -223 Q942 -159 956 -79 Q970 1 970 143 L970 186 Z M584 999 Q421 999 319 869 Q217 738 217 530 Q217 322 319 191 Q420 61 589 61 Q769 61 876 214 Q970 348 970 529 Q970 715 876 846 Q809 940 722 975 Q665 999 584 999 Z " />
<glyph glyph-name="h" unicode="h" horiz-adv-x="1225" d="M190 0 L190 1516 L298 1516 L298 846 Q386 944 457 995 Q591 1094 734 1094 Q852 1094 928 1032 Q996 977 1020 891.5 Q1044 806 1044 617 L1044 0 L936 0 L936 623 Q936 791 913 864 Q872 990 713 990 Q511 990 298 713 L298 0 L190 0 Z " />
<glyph glyph-name="i" unicode="i" horiz-adv-x="510" d="M201 0 L201 1061 L309 1061 L309 0 L201 0 Z M257 1464 Q292 1464 317 1439 Q342 1414 342 1378 Q342 1342 316.5 1317 Q291 1292 255 1292 Q219 1292 193.5 1317.5 Q168 1343 168 1379 Q168 1415 193.5 1439.5 Q219 1464 257 1464 Z " />
<glyph glyph-name="j" unicode="j" horiz-adv-x="529" d="M220 1061 L328 1061 L328 0 Q341 -428 31 -439 L31 -344 Q146 -333 187 -250 Q207 -207 213.5 -154 Q220 -101 220 19 L220 1061 Z M276 1464 Q311 1464 336 1439 Q361 1414 361 1378 Q361 1342 335.5 1317 Q310 1292 274 1292 Q238 1292 212.5 1317.5 Q187 1343 187 1379 Q187 1415 212.5 1439.5 Q238 1464 276 1464 Z " />
<glyph glyph-name="k" unicode="k" horiz-adv-x="1029" d="M190 0 L190 1516 L298 1516 L298 630 L799 1061 L932 1061 L421 615 L1034 0 L899 0 L298 610 L298 -1 L190 0 Z " />
<glyph glyph-name="l" unicode="l" horiz-adv-x="487" d="M190 0 L190 1516 L298 1516 L298 0 L190 0 Z " />
<glyph glyph-name="m" unicode="m" horiz-adv-x="1777" d="M190 0 L190 1061 L298 1061 L298 847 Q379 946 439 994 Q558 1093 684 1093 Q895 1093 937 835 Q1031 948 1087 994 Q1207 1093 1332 1093 Q1492 1093 1554 950 Q1580 892 1588 827.5 Q1596 763 1596 617 L1596 0 L1488 0 L1488 623 Q1488 791 1470 863 Q1437 990 1310 990 Q1146 990 947 713 L947 0 L839 0 L839 623 Q839 793 821 863 Q788 990 661 990 Q556 990 438 879 Q351 797 298 712 L298 0 L190 0 Z " />
<glyph glyph-name="n" unicode="n" horiz-adv-x="1225" d="M190 0 L190 1061 L298 1061 L298 846 Q390 946 457 995 Q591 1094 735 1094 Q921 1094 995 951 Q1024 894 1034 826.5 Q1044 759 1044 617 L1044 0 L936 0 L936 623 Q936 791 913 864 Q872 990 713 990 Q646 990 587.5 965 Q529 940 456 879 Q368 806 298 712 L298 0 L190 0 Z " />
<glyph glyph-name="o" unicode="o" horiz-adv-x="1216" d="M615 1093 Q842 1093 982 924 Q1108 770 1108 530 Q1108 292 982 137 Q843 -32 608 -32 Q372 -32 233 137 Q107 292 107 529 Q107 768 233 924 Q371 1093 615 1093 Z M602 999 Q485 999 393 935 Q217 815 217 530 Q217 338 302 215 Q408 62 608 62 Q806 62 913 215 Q998 338 998 529 Q998 724 913 846 Q806 999 602 999 Z " />
<glyph glyph-name="p" unicode="p" horiz-adv-x="1267" d="M190 -439 L190 1061 L297 1061 L297 873 Q343 947 389 988 Q506 1093 682 1093 Q911 1093 1042 924 Q1161 769 1161 530 Q1161 291 1042 137 Q911 -32 682 -32 Q552 -32 460 20.5 Q368 73 298 188 L298 -439 L190 -439 Z M673 999 Q499 999 392 846 Q298 712 298 530 Q298 349 392 215 Q499 62 679 62 Q848 62 949 192 Q1051 323 1051 529 Q1051 741 949 869 Q845 999 673 999 Z " />
<glyph glyph-name="q" unicode="q" horiz-adv-x="1267" d="M970 -439 L970 188 Q836 -32 586 -32 Q357 -32 226 137 Q107 291 107 530 Q107 769 226 924 Q357 1093 586 1093 Q837 1093 971 873 L971 1061 L1078 1061 L1078 -439 L970 -439 Z M584 999 Q421 999 319 869 Q217 739 217 530 Q217 323 319 192 Q420 62 589 62 Q769 62 876 215 Q970 349 970 529 Q970 715 876 846 Q809 940 722 975 Q665 999 584 999 Z " />
<glyph glyph-name="r" unicode="r" horiz-adv-x="780" d="M190 0 L190 1061 L297 1061 L297 845 Q373 969 442 1015 Q534 1076 663 1076 L712 1076 L712 972 L681 972 Q587 972 526.5 948.5 Q466 925 418 871 Q346 790 298 672 L298 0 L190 0 Z " />
<glyph glyph-name="s" unicode="s" horiz-adv-x="1012" d="M82 313 L185 313 Q198 199 243 151 Q281 110 353 86 Q425 62 510 62 Q638 62 720 109 Q812 163 812 286 Q812 394 744 441 Q712 464 664.5 476.5 Q617 489 491 510 Q392 527 344 541 Q296 555 255 581 Q144 649 144 795 Q144 937 244 1019 Q334 1093 482 1093 Q591 1093 675 1055 Q759 1017 796 952 Q834 886 837 786 L734 786 Q723 882 688 923 Q623 998 475 998 Q369 998 309 946 Q249 895 249 803 Q249 713 302.5 674 Q356 635 516 609 Q629 591 683.5 576 Q738 561 786 536 Q917 466 917 288 Q917 132 810 51 Q698 -32 512 -32 Q93 -32 82 313 Z " />
<glyph glyph-name="t" unicode="t" horiz-adv-x="710" d="M251 967 L85 967 L85 1061 L251 1061 L263 1384 L359 1384 L359 1061 L652 1061 L652 967 L359 967 L359 285 Q359 181 395 137.5 Q431 94 518 94 L677 94 L677 0 L508 0 Q380 0 314 76 Q251 149 251 275 L251 967 Z " />
<glyph glyph-name="u" unicode="u" horiz-adv-x="1182" d="M181 1061 L289 1061 L289 438 Q289 275 310 207 Q346 85 492 85 Q608 85 734 190 Q818 260 885 349 L885 1061 L993 1061 L993 0 L885 0 L885 214 Q788 113 734 74 Q605 -19 470 -19 Q295 -19 227 120 Q199 177 190 240 Q181 303 181 444 L181 1061 Z " />
<glyph glyph-name="v" unicode="v" horiz-adv-x="975" d="M468 -28 L32 1061 L142 1061 L487 190 L832 1061 L943 1061 L507 -28 L468 -28 Z " />
<glyph glyph-name="w" unicode="w" horiz-adv-x="1531" d="M399 -28 L69 1061 L179 1061 L429 212 L742 1061 L790 1061 L1103 212 L1353 1061 L1463 1061 L1132 -28 L1088 -28 L766 863 L443 -28 L399 -28 Z " />
<glyph glyph-name="x" unicode="x" horiz-adv-x="962" d="M414 574 L67 1061 L192 1061 L483 653 L775 1061 L897 1061 L535 580 L948 0 L824 0 L466 502 L127 0 L5 0 L414 574 Z " />
<glyph glyph-name="y" unicode="y" horiz-adv-x="975" d="M436 54 L32 1061 L142 1061 L487 190 L832 1061 L943 1061 L452 -170 Q405 -285 380.5 -325.5 Q356 -366 315 -394 Q279 -419 236.5 -428 Q194 -437 112 -439 L112 -344 Q220 -342 261 -313 Q311 -278 354 -164 L436 54 Z " />
<glyph glyph-name="z" unicode="z" horiz-adv-x="920" d="M44 0 L44 82 L704 967 L99 967 L99 1061 L840 1061 L840 988 L175 94 L855 94 L855 0 L44 0 Z " />
<glyph glyph-name="braceleft" unicode="&#x7b;" horiz-adv-x="844" d="M246 644 Q371 604 409 527 Q445 453 445 292 L445 23 Q445 -83 456 -134.5 Q467 -186 495 -213 Q547 -263 683 -263 L723 -263 L723 -356 L676 -356 Q563 -356 501 -338.5 Q439 -321 401 -278 Q335 -205 335 19 L335 273 Q335 447 295 509 Q266 555 217 574.5 Q168 594 74 598 L74 691 Q168 694 217 714 Q266 734 296 781 Q335 842 335 1016 L335 1193 Q335 1319 352.5 1390.5 Q370 1462 411 1501 Q450 1537 510 1552 Q570 1567 676 1567 L723 1567 L723 1475 L683 1475 Q531 1475 488 1423 Q445 1371 445 1189 L445 995 Q445 825 404.5 753.5 Q364 682 246 644 Z " />
<glyph glyph-name="bar" unicode="&#x7c;" horiz-adv-x="686" d="M293 -480 L293 1565 L389 1565 L389 -480 L293 -480 Z " />
<glyph glyph-name="braceright" unicode="&#x7d;" horiz-adv-x="844" d="M598 644 Q474 684 435 761 Q399 835 399 995 L399 1189 Q399 1297 388 1350.5 Q377 1404 349 1430 Q301 1475 161 1475 L121 1475 L121 1567 L168 1567 Q282 1567 344 1549.5 Q406 1532 444 1489 Q509 1415 509 1193 L509 1016 Q509 843 548 781 Q578 734 627 714 Q676 694 770 691 L770 598 Q676 594 627.5 574.5 Q579 555 549 509 Q509 447 509 273 L509 19 Q509 -218 432 -290 Q393 -326 333.5 -341 Q274 -356 168 -356 L121 -356 L121 -263 L161 -263 Q308 -263 353.5 -208.5 Q399 -154 399 23 L399 292 Q399 464 439 535 Q479 606 598 644 Z " />
<glyph glyph-name="asciitilde" unicode="&#x7e;" horiz-adv-x="1303" d="M263 640 L198 701 Q275 784 330 815.5 Q385 847 452 847 Q546 847 664 787 Q751 743 780.5 732.5 Q810 722 850 722 Q943 722 1043 835 L1105 779 Q983 627 850 627 Q802 627 755 641.5 Q708 656 628 695 Q515 751 457 751 Q365 751 263 640 Z " />
<glyph glyph-name="Adieresis" unicode="&#xc4;" horiz-adv-x="1309" d="M983 444 L327 444 L155 0 L38 0 L620 1475 L691 1475 L1273 0 L1156 0 L983 444 Z M947 538 L655 1291 L364 538 L947 538 Z M476 1825 Q510 1825 534.5 1800.5 Q559 1776 559 1741 Q559 1706 534.5 1681.5 Q510 1657 475 1657 Q439 1657 414.5 1682 Q390 1707 390 1742 Q390 1777 415 1801 Q440 1825 476 1825 Z M836 1825 Q870 1825 894.5 1800.5 Q919 1776 919 1741 Q919 1706 894.5 1681.5 Q870 1657 835 1657 Q799 1657 774.5 1682 Q750 1707 750 1742 Q750 1777 775 1801 Q800 1825 836 1825 Z " />
<glyph glyph-name="Aring" unicode="&#xc5;" horiz-adv-x="1309" d="M983 444 L327 444 L155 0 L38 0 L620 1475 L691 1475 L1273 0 L1156 0 L983 444 Z M947 538 L655 1291 L364 538 L947 538 Z M658 1985 Q756 1985 813 1927 Q870 1869 870 1770 Q870 1669 812.5 1612 Q755 1555 654 1555 Q554 1555 496.5 1612 Q439 1669 439 1769 Q439 1872 496.5 1928.5 Q554 1985 658 1985 Z M652 1912 Q590 1912 556.5 1875 Q523 1838 523 1770 Q523 1628 653 1628 Q786 1628 786 1770 Q786 1912 652 1912 Z " />
<glyph glyph-name="Ccedilla" unicode="&#xc7;" horiz-adv-x="1396" d="M1202 306 L1285 243 Q1110 -25 758 -28 L717 -101 Q804 -105 840 -119 Q942 -159 942 -274 Q942 -362 881.5 -411.5 Q821 -461 713 -461 Q578 -461 471 -422 L498 -332 Q599 -372 710 -372 Q839 -372 839 -277 Q839 -184 695 -184 Q674 -184 633 -187 L624 -116 L675 -25 Q468 -8 341 104 Q223 209 164 397 Q118 541 118 728 Q118 1095 291 1305 Q453 1502 750 1502 Q986 1502 1120.5 1386.5 Q1255 1271 1263 1063 L1155 1063 Q1148 1221 1040.5 1312 Q933 1403 753 1403 Q582 1403 474 1329 Q349 1245 285 1066 Q233 922 233 725 Q233 420 370 240 Q436 153 529.5 112 Q623 71 756 71 Q905 71 1007 124.5 Q1109 178 1202 306 Z " />
<glyph glyph-name="Eacute" unicode="&#xc9;" horiz-adv-x="1164" d="M197 0 L197 1475 L1062 1475 L1062 1381 L308 1381 L308 811 L949 811 L949 717 L308 717 L308 94 L1077 94 L1077 0 L197 0 Z M531 1587 L728 1905 L869 1905 L616 1587 L531 1587 Z " />
<glyph glyph-name="Ntilde" unicode="&#xd1;" horiz-adv-x="1411" d="M197 0 L197 1475 L303 1475 L1103 248 L1103 1475 L1213 1475 L1213 -21 L1153 -21 L307 1285 L307 0 L197 0 Z M514 1658 L438 1658 Q488 1833 611 1833 Q643 1833 668.5 1823.5 Q694 1814 743 1784 Q815 1740 836 1740 Q893 1740 935 1831 L1011 1831 Q954 1652 830 1652 Q769 1652 670 1717 Q626 1745 600 1745 Q550 1745 514 1658 Z " />
<glyph glyph-name="Odieresis" unicode="&#xd6;" horiz-adv-x="1519" d="M771 1504 Q1099 1504 1256 1284 Q1401 1079 1401 737 Q1401 397 1256 191 Q1100 -29 759 -29 Q419 -29 263 191 Q118 397 118 735 Q118 1082 263 1284 Q356 1412 493 1462 Q610 1504 771 1504 Z M750 1405 Q474 1405 347 1213 Q274 1103 252 971 Q233 860 233 737 Q233 579 260 465.5 Q287 352 347 262 Q474 70 759 70 Q1046 70 1172 262 Q1286 436 1286 734 Q1286 1043 1172 1213 Q1097 1325 981 1369 Q885 1405 750 1405 Z M581 1825 Q615 1825 639.5 1800.5 Q664 1776 664 1741 Q664 1706 639.5 1681.5 Q615 1657 580 1657 Q544 1657 519.5 1682 Q495 1707 495 1742 Q495 1777 520 1801 Q545 1825 581 1825 Z M941 1825 Q975 1825 999.5 1800.5 Q1024 1776 1024 1741 Q1024 1706 999.5 1681.5 Q975 1657 940 1657 Q904 1657 879.5 1682 Q855 1707 855 1742 Q855 1777 880 1801 Q905 1825 941 1825 Z " />
<glyph glyph-name="Udieresis" unicode="&#xdc;" horiz-adv-x="1379" d="M188 1475 L299 1475 L299 534 Q299 333 355 230 Q443 70 689 70 Q937 70 1024 230 Q1080 333 1080 534 L1080 1475 L1191 1475 L1191 603 Q1191 420 1175 325.5 Q1159 231 1116 162 Q998 -29 690 -29 Q380 -29 263 162 Q220 230 204 326 Q188 422 188 603 L188 1475 Z M511 1825 Q545 1825 569.5 1800.5 Q594 1776 594 1741 Q594 1706 569.5 1681.5 Q545 1657 510 1657 Q474 1657 449.5 1682 Q425 1707 425 1742 Q425 1777 450 1801 Q475 1825 511 1825 Z M871 1825 Q905 1825 929.5 1800.5 Q954 1776 954 1741 Q954 1706 929.5 1681.5 Q905 1657 870 1657 Q834 1657 809.5 1682 Q785 1707 785 1742 Q785 1777 810 1801 Q835 1825 871 1825 Z " />
<glyph glyph-name="aacute" unicode="&#xe1;" horiz-adv-x="1178" d="M895 159 Q865 96 798 50 Q675 -32 489 -32 Q116 -32 116 293 Q116 502 261 585 Q359 641 610 641 Q714 641 893 629 L893 707 Q893 798 875 853.5 Q857 909 817 943 Q748 1001 583 1001 Q421 1001 360 924 Q330 886 311 800 L209 800 Q224 890 248 940 Q272 990 319 1026 Q408 1095 585 1095 Q802 1095 898 1017 Q1001 934 1001 730 L1001 0 L895 0 L895 159 Z M893 535 Q752 549 602 549 Q472 549 399 533 Q326 517 287 479 Q226 420 226 299 Q226 177 292.5 119.5 Q359 62 501 62 Q694 62 802 165 Q893 252 893 431 L893 535 Z M508 1224 L705 1542 L846 1542 L593 1224 L508 1224 Z " />
<glyph glyph-name="agrave" unicode="&#xe0;" horiz-adv-x="1178" d="M895 159 Q865 96 798 50 Q675 -32 489 -32 Q116 -32 116 293 Q116 502 261 585 Q359 641 610 641 Q714 641 893 629 L893 707 Q893 798 875 853.5 Q857 909 817 943 Q748 1001 583 1001 Q421 1001 360 924 Q330 886 311 800 L209 800 Q224 890 248 940 Q272 990 319 1026 Q408 1095 585 1095 Q802 1095 898 1017 Q1001 934 1001 730 L1001 0 L895 0 L895 159 Z M893 535 Q752 549 602 549 Q472 549 399 533 Q326 517 287 479 Q226 420 226 299 Q226 177 292.5 119.5 Q359 62 501 62 Q694 62 802 165 Q893 252 893 431 L893 535 Z M614 1224 L361 1542 L502 1542 L699 1224 L614 1224 Z " />
<glyph glyph-name="acircumflex" unicode="&#xe2;" horiz-adv-x="1178" d="M895 159 Q865 96 798 50 Q675 -32 489 -32 Q116 -32 116 293 Q116 502 261 585 Q359 641 610 641 Q714 641 893 629 L893 707 Q893 798 875 853.5 Q857 909 817 943 Q748 1001 583 1001 Q421 1001 360 924 Q330 886 311 800 L209 800 Q224 890 248 940 Q272 990 319 1026 Q408 1095 585 1095 Q802 1095 898 1017 Q1001 934 1001 730 L1001 0 L895 0 L895 159 Z M893 535 Q752 549 602 549 Q472 549 399 533 Q326 517 287 479 Q226 420 226 299 Q226 177 292.5 119.5 Q359 62 501 62 Q694 62 802 165 Q893 252 893 431 L893 535 Z M604 1454 L413 1224 L294 1224 L573 1541 L636 1541 L915 1224 L795 1224 L604 1454 Z " />
<glyph glyph-name="adieresis" unicode="&#xe4;" horiz-adv-x="1178" d="M895 159 Q865 96 798 50 Q675 -32 489 -32 Q116 -32 116 293 Q116 502 261 585 Q359 641 610 641 Q714 641 893 629 L893 707 Q893 798 875 853.5 Q857 909 817 943 Q748 1001 583 1001 Q421 1001 360 924 Q330 886 311 800 L209 800 Q224 890 248 940 Q272 990 319 1026 Q408 1095 585 1095 Q802 1095 898 1017 Q1001 934 1001 730 L1001 0 L895 0 L895 159 Z M893 535 Q752 549 602 549 Q472 549 399 533 Q326 517 287 479 Q226 420 226 299 Q226 177 292.5 119.5 Q359 62 501 62 Q694 62 802 165 Q893 252 893 431 L893 535 Z M438 1462 Q472 1462 496.5 1437.5 Q521 1413 521 1378 Q521 1343 496.5 1318.5 Q472 1294 437 1294 Q401 1294 376.5 1319 Q352 1344 352 1379 Q352 1414 377 1438 Q402 1462 438 1462 Z M766 1462 Q800 1462 824.5 1437.5 Q849 1413 849 1378 Q849 1343 824.5 1318.5 Q800 1294 765 1294 Q730 1294 705 1319 Q680 1344 680 1379 Q680 1414 705 1438 Q730 1462 766 1462 Z " />
<glyph glyph-name="atilde" unicode="&#xe3;" horiz-adv-x="1178" d="M895 159 Q865 96 798 50 Q675 -32 489 -32 Q116 -32 116 293 Q116 502 261 585 Q359 641 610 641 Q714 641 893 629 L893 707 Q893 798 875 853.5 Q857 909 817 943 Q748 1001 583 1001 Q421 1001 360 924 Q330 886 311 800 L209 800 Q224 890 248 940 Q272 990 319 1026 Q408 1095 585 1095 Q802 1095 898 1017 Q1001 934 1001 730 L1001 0 L895 0 L895 159 Z M893 535 Q752 549 602 549 Q472 549 399 533 Q326 517 287 479 Q226 420 226 299 Q226 177 292.5 119.5 Q359 62 501 62 Q694 62 802 165 Q893 252 893 431 L893 535 Z M386 1295 L310 1295 Q360 1470 483 1470 Q535 1470 615 1421 Q687 1377 708 1377 Q765 1377 807 1468 L883 1468 Q826 1289 703 1289 Q641 1289 542 1354 Q498 1382 472 1382 Q422 1382 386 1295 Z " />
<glyph glyph-name="aring" unicode="&#xe5;" horiz-adv-x="1178" d="M895 159 Q865 96 798 50 Q675 -32 489 -32 Q116 -32 116 293 Q116 502 261 585 Q359 641 610 641 Q714 641 893 629 L893 707 Q893 798 875 853.5 Q857 909 817 943 Q748 1001 583 1001 Q421 1001 360 924 Q330 886 311 800 L209 800 Q224 890 248 940 Q272 990 319 1026 Q408 1095 585 1095 Q802 1095 898 1017 Q1001 934 1001 730 L1001 0 L895 0 L895 159 Z M893 535 Q752 549 602 549 Q472 549 399 533 Q326 517 287 479 Q226 420 226 299 Q226 177 292.5 119.5 Q359 62 501 62 Q694 62 802 165 Q893 252 893 431 L893 535 Z M597 1622 Q695 1622 752 1564 Q809 1506 809 1407 Q809 1306 751.5 1249 Q694 1192 593 1192 Q493 1192 435.5 1249 Q378 1306 378 1406 Q378 1509 435.5 1565.5 Q493 1622 597 1622 Z M591 1548 Q529 1548 495.5 1511 Q462 1474 462 1407 Q462 1265 592 1265 Q725 1265 725 1406 Q725 1548 591 1548 Z " />
<glyph glyph-name="ccedilla" unicode="&#xe7;" horiz-adv-x="1084" d="M600 -32 L561 -101 Q647 -105 684 -120 Q786 -159 786 -274 Q786 -362 725.5 -411.5 Q665 -461 557 -461 Q423 -461 314 -423 L342 -332 Q446 -372 553 -372 Q683 -372 683 -277 Q683 -184 540 -184 Q516 -184 476 -187 L468 -116 L517 -29 Q396 -14 306 48 Q107 186 107 514 Q107 776 236 940 Q358 1094 592 1094 Q768 1094 868 1003.5 Q968 913 972 750 L869 750 Q844 1000 587 1000 Q397 1000 303 856 Q217 725 217 519 Q217 282 338 161 Q436 62 592 62 Q768 62 921 211 L981 128 Q824 -24 600 -32 Z " />
<glyph glyph-name="eacute" unicode="&#xe9;" horiz-adv-x="1157" d="M1054 513 L218 513 Q224 367 272 271 Q322 170 405.5 116 Q489 62 595 62 Q791 62 966 210 L1026 127 Q833 -32 597 -32 Q362 -32 226 137 Q107 285 107 523 Q107 765 230 924 Q362 1093 583 1093 Q795 1093 924.5 933.5 Q1054 774 1054 513 Z M940 607 Q923 743 873 827 Q770 999 581 999 Q457 999 368 923 Q304 867 271 796 Q238 725 221 607 L940 607 Z M456 1224 L653 1542 L794 1542 L541 1224 L456 1224 Z " />
<glyph glyph-name="egrave" unicode="&#xe8;" horiz-adv-x="1157" d="M1054 513 L218 513 Q224 367 272 271 Q322 170 405.5 116 Q489 62 595 62 Q791 62 966 210 L1026 127 Q833 -32 597 -32 Q362 -32 226 137 Q107 285 107 523 Q107 765 230 924 Q362 1093 583 1093 Q795 1093 924.5 933.5 Q1054 774 1054 513 Z M940 607 Q923 743 873 827 Q770 999 581 999 Q457 999 368 923 Q304 867 271 796 Q238 725 221 607 L940 607 Z M616 1224 L363 1542 L504 1542 L701 1224 L616 1224 Z " />
<glyph glyph-name="ecircumflex" unicode="&#xea;" horiz-adv-x="1157" d="M1054 513 L218 513 Q224 367 272 271 Q322 170 405.5 116 Q489 62 595 62 Q791 62 966 210 L1026 127 Q833 -32 597 -32 Q362 -32 226 137 Q107 285 107 523 Q107 765 230 924 Q362 1093 583 1093 Q795 1093 924.5 933.5 Q1054 774 1054 513 Z M940 607 Q923 743 873 827 Q770 999 581 999 Q457 999 368 923 Q304 867 271 796 Q238 725 221 607 L940 607 Z M578 1454 L387 1224 L268 1224 L547 1541 L610 1541 L889 1224 L769 1224 L578 1454 Z " />
<glyph glyph-name="edieresis" unicode="&#xeb;" horiz-adv-x="1157" d="M1054 513 L218 513 Q224 367 272 271 Q322 170 405.5 116 Q489 62 595 62 Q791 62 966 210 L1026 127 Q833 -32 597 -32 Q362 -32 226 137 Q107 285 107 523 Q107 765 230 924 Q362 1093 583 1093 Q795 1093 924.5 933.5 Q1054 774 1054 513 Z M940 607 Q923 743 873 827 Q770 999 581 999 Q457 999 368 923 Q304 867 271 796 Q238 725 221 607 L940 607 Z M416 1462 Q450 1462 474.5 1437.5 Q499 1413 499 1378 Q499 1343 474.5 1318.5 Q450 1294 415 1294 Q379 1294 354.5 1319 Q330 1344 330 1379 Q330 1414 355 1438 Q380 1462 416 1462 Z M744 1462 Q778 1462 802.5 1437.5 Q827 1413 827 1378 Q827 1343 802.5 1318.5 Q778 1294 743 1294 Q708 1294 683 1319 Q658 1344 658 1379 Q658 1414 683 1438 Q708 1462 744 1462 Z " />
<glyph glyph-name="iacute" unicode="&#xed;" horiz-adv-x="508" d="M200 0 L200 1061 L308 1061 L308 0 L200 0 Z M131 1224 L328 1542 L469 1542 L216 1224 L131 1224 Z " />
<glyph glyph-name="igrave" unicode="&#xec;" horiz-adv-x="508" d="M200 0 L200 1061 L308 1061 L308 0 L200 0 Z M292 1224 L39 1542 L180 1542 L377 1224 L292 1224 Z " />
<glyph glyph-name="icircumflex" unicode="&#xee;" horiz-adv-x="508" d="M200 0 L200 1061 L308 1061 L308 0 L200 0 Z M253 1454 L62 1224 L-57 1224 L222 1541 L285 1541 L564 1224 L444 1224 L253 1454 Z " />
<glyph glyph-name="idieresis" unicode="&#xef;" horiz-adv-x="508" d="M200 0 L200 1061 L308 1061 L308 0 L200 0 Z M91 1462 Q125 1462 149.5 1437.5 Q174 1413 174 1378 Q174 1343 149.5 1318.5 Q125 1294 90 1294 Q54 1294 29.5 1319 Q5 1344 5 1379 Q5 1414 30 1438 Q55 1462 91 1462 Z M419 1462 Q453 1462 477.5 1437.5 Q502 1413 502 1378 Q502 1343 477.5 1318.5 Q453 1294 418 1294 Q383 1294 358 1319 Q333 1344 333 1379 Q333 1414 358 1438 Q383 1462 419 1462 Z " />
<glyph glyph-name="ntilde" unicode="&#xf1;" horiz-adv-x="1225" d="M190 0 L190 1061 L298 1061 L298 846 Q390 946 457 995 Q591 1094 735 1094 Q921 1094 995 951 Q1024 894 1034 826.5 Q1044 759 1044 617 L1044 0 L936 0 L936 623 Q936 791 913 864 Q872 990 713 990 Q646 990 587.5 965 Q529 940 456 879 Q368 806 298 712 L298 0 L190 0 Z M402 1295 L326 1295 Q376 1470 499 1470 Q551 1470 631 1421 Q703 1377 724 1377 Q781 1377 823 1468 L899 1468 Q842 1289 719 1289 Q657 1289 558 1354 Q514 1382 488 1382 Q438 1382 402 1295 Z " />
<glyph glyph-name="oacute" unicode="&#xf3;" horiz-adv-x="1216" d="M615 1093 Q842 1093 982 924 Q1108 770 1108 530 Q1108 292 982 137 Q843 -32 608 -32 Q372 -32 233 137 Q107 292 107 529 Q107 768 233 924 Q371 1093 615 1093 Z M602 999 Q485 999 393 935 Q217 815 217 530 Q217 338 302 215 Q408 62 608 62 Q806 62 913 215 Q998 338 998 529 Q998 724 913 846 Q806 999 602 999 Z M485 1224 L682 1542 L823 1542 L570 1224 L485 1224 Z " />
<glyph glyph-name="ograve" unicode="&#xf2;" horiz-adv-x="1216" d="M615 1093 Q842 1093 982 924 Q1108 770 1108 530 Q1108 292 982 137 Q843 -32 608 -32 Q372 -32 233 137 Q107 292 107 529 Q107 768 233 924 Q371 1093 615 1093 Z M602 999 Q485 999 393 935 Q217 815 217 530 Q217 338 302 215 Q408 62 608 62 Q806 62 913 215 Q998 338 998 529 Q998 724 913 846 Q806 999 602 999 Z M646 1224 L393 1542 L534 1542 L731 1224 L646 1224 Z " />
<glyph glyph-name="ocircumflex" unicode="&#xf4;" horiz-adv-x="1216" d="M615 1093 Q842 1093 982 924 Q1108 770 1108 530 Q1108 292 982 137 Q843 -32 608 -32 Q372 -32 233 137 Q107 292 107 529 Q107 768 233 924 Q371 1093 615 1093 Z M602 999 Q485 999 393 935 Q217 815 217 530 Q217 338 302 215 Q408 62 608 62 Q806 62 913 215 Q998 338 998 529 Q998 724 913 846 Q806 999 602 999 Z M607 1454 L416 1224 L297 1224 L576 1541 L639 1541 L918 1224 L798 1224 L607 1454 Z " />
<glyph glyph-name="odieresis" unicode="&#xf6;" horiz-adv-x="1216" d="M615 1093 Q842 1093 982 924 Q1108 770 1108 530 Q1108 292 982 137 Q843 -32 608 -32 Q372 -32 233 137 Q107 292 107 529 Q107 768 233 924 Q371 1093 615 1093 Z M602 999 Q485 999 393 935 Q217 815 217 530 Q217 338 302 215 Q408 62 608 62 Q806 62 913 215 Q998 338 998 529 Q998 724 913 846 Q806 999 602 999 Z M445 1462 Q479 1462 503.5 1437.5 Q528 1413 528 1378 Q528 1343 503.5 1318.5 Q479 1294 444 1294 Q408 1294 383.5 1319 Q359 1344 359 1379 Q359 1414 384 1438 Q409 1462 445 1462 Z M773 1462 Q807 1462 831.5 1437.5 Q856 1413 856 1378 Q856 1343 831.5 1318.5 Q807 1294 772 1294 Q737 1294 712 1319 Q687 1344 687 1379 Q687 1414 712 1438 Q737 1462 773 1462 Z " />
<glyph glyph-name="otilde" unicode="&#xf5;" horiz-adv-x="1216" d="M615 1093 Q842 1093 982 924 Q1108 770 1108 530 Q1108 292 982 137 Q843 -32 608 -32 Q372 -32 233 137 Q107 292 107 529 Q107 768 233 924 Q371 1093 615 1093 Z M602 999 Q485 999 393 935 Q217 815 217 530 Q217 338 302 215 Q408 62 608 62 Q806 62 913 215 Q998 338 998 529 Q998 724 913 846 Q806 999 602 999 Z M396 1295 L320 1295 Q370 1470 493 1470 Q545 1470 625 1421 Q697 1377 718 1377 Q775 1377 817 1468 L893 1468 Q836 1289 713 1289 Q651 1289 552 1354 Q508 1382 482 1382 Q432 1382 396 1295 Z " />
<glyph glyph-name="uacute" unicode="&#xfa;" horiz-adv-x="1182" d="M181 1061 L289 1061 L289 438 Q289 275 310 207 Q346 85 492 85 Q608 85 734 190 Q818 260 885 349 L885 1061 L993 1061 L993 0 L885 0 L885 214 Q788 113 734 74 Q605 -19 470 -19 Q295 -19 227 120 Q199 177 190 240 Q181 303 181 444 L181 1061 Z M502 1224 L699 1542 L840 1542 L587 1224 L502 1224 Z " />
<glyph glyph-name="ugrave" unicode="&#xf9;" horiz-adv-x="1182" d="M181 1061 L289 1061 L289 438 Q289 275 310 207 Q346 85 492 85 Q608 85 734 190 Q818 260 885 349 L885 1061 L993 1061 L993 0 L885 0 L885 214 Q788 113 734 74 Q605 -19 470 -19 Q295 -19 227 120 Q199 177 190 240 Q181 303 181 444 L181 1061 Z M629 1224 L376 1542 L517 1542 L714 1224 L629 1224 Z " />
<glyph glyph-name="ucircumflex" unicode="&#xfb;" horiz-adv-x="1182" d="M181 1061 L289 1061 L289 438 Q289 275 310 207 Q346 85 492 85 Q608 85 734 190 Q818 260 885 349 L885 1061 L993 1061 L993 0 L885 0 L885 214 Q788 113 734 74 Q605 -19 470 -19 Q295 -19 227 120 Q199 177 190 240 Q181 303 181 444 L181 1061 Z M591 1454 L400 1224 L281 1224 L560 1541 L623 1541 L902 1224 L782 1224 L591 1454 Z " />
<glyph glyph-name="udieresis" unicode="&#xfc;" horiz-adv-x="1182" d="M181 1061 L289 1061 L289 438 Q289 275 310 207 Q346 85 492 85 Q608 85 734 190 Q818 260 885 349 L885 1061 L993 1061 L993 0 L885 0 L885 214 Q788 113 734 74 Q605 -19 470 -19 Q295 -19 227 120 Q199 177 190 240 Q181 303 181 444 L181 1061 Z M428 1462 Q462 1462 486.5 1437.5 Q511 1413 511 1378 Q511 1343 486.5 1318.5 Q462 1294 427 1294 Q391 1294 366.5 1319 Q342 1344 342 1379 Q342 1414 367 1438 Q392 1462 428 1462 Z M756 1462 Q790 1462 814.5 1437.5 Q839 1413 839 1378 Q839 1343 814.5 1318.5 Q790 1294 755 1294 Q720 1294 695 1319 Q670 1344 670 1379 Q670 1414 695 1438 Q720 1462 756 1462 Z " />
<glyph glyph-name="dagger" unicode="&#x2020;" horiz-adv-x="1181" d="M541 973 L143 973 L143 1066 L541 1066 L541 1516 L636 1516 L636 1066 L1038 1066 L1038 973 L636 973 L636 -197 L541 -197 L541 973 Z " />
<glyph glyph-name="degree" unicode="&#xb0;" horiz-adv-x="698" d="M354 1531 Q482 1531 559.5 1455 Q637 1379 637 1253 Q637 1136 568 1061 Q489 975 349 975 Q209 975 130 1061 Q61 1137 61 1252 Q61 1381 139.5 1456 Q218 1531 354 1531 Z M346 1449 Q257 1449 206 1397 Q155 1345 155 1253 Q155 1160 206.5 1108.5 Q258 1057 349 1057 Q441 1057 492 1108.5 Q543 1160 543 1252 Q543 1347 492 1398 Q441 1449 346 1449 Z " />
<glyph glyph-name="cent" unicode="&#xa2;" horiz-adv-x="1303" d="M663 -23 L663 272 Q519 277 408 348 Q217 468 217 758 Q217 990 334.5 1125.5 Q452 1261 663 1273 L663 1599 L747 1599 L747 1272 Q907 1259 992 1179.5 Q1077 1100 1081 961 L978 961 Q958 1152 747 1177 L747 368 Q901 385 1030 496 L1093 416 Q947 289 747 273 L747 -23 L663 -23 Z M663 367 L663 1179 Q535 1168 455 1100 Q327 990 327 763 Q327 588 412 487.5 Q497 387 663 367 Z " />
<glyph glyph-name="sterling" unicode="&#xa3;" horiz-adv-x="1303" d="M79 697 L79 789 L310 789 Q271 924 261 973 Q251 1022 251 1084 Q251 1287 401 1403 Q531 1504 732 1504 Q980 1504 1102 1333 Q1178 1225 1182 1061 L1075 1061 Q1067 1225 975.5 1315 Q884 1405 726 1405 Q580 1405 484 1337 Q361 1250 361 1096 Q361 982 421 789 L753 789 L753 697 L445 697 Q486 537 486 424 Q486 359 471 309.5 Q456 260 415 190 Q627 78 827 78 Q1019 78 1116 188 Q1182 263 1194 385 L1299 385 Q1279 209 1181 107 Q1059 -21 822 -21 Q583 -21 363 106 Q291 41 227 12 Q163 -17 79 -23 L79 79 Q164 95 213 121.5 Q262 148 301 198 Q376 295 376 448 Q376 545 335 697 L79 697 Z " />
<glyph glyph-name="section" unicode="&#xa7;" horiz-adv-x="1180" d="M356 968 Q255 1046 255 1188 Q255 1333 348 1418.5 Q441 1504 599 1504 Q769 1504 852 1423.5 Q935 1343 938 1175 L841 1175 Q832 1279 801 1324 Q743 1406 593 1406 Q482 1406 423 1347 Q366 1289 366 1194 Q366 1094 428 1045 Q477 1007 621 979 Q758 953 817.5 934.5 Q877 916 918 885 Q958 856 982 803 Q1006 750 1006 693 Q1006 551 871 461 Q977 372 977 201 Q977 28 858 -64 Q746 -150 557 -150 Q303 -150 213 0 Q164 82 161 215 L254 215 Q266 93 305 44 Q381 -51 551 -51 Q684 -51 770 4 Q867 66 867 204 Q867 313 811 369 Q781 399 732.5 416 Q684 433 548 459 Q353 497 277 562 Q201 628 201 748 Q201 903 356 968 Z M438 921 Q369 892 341 854.5 Q313 817 313 754 Q313 670 367 628 Q417 589 579 554 L789 507 Q895 564 895 684 Q895 777 825 821 Q797 838 767 846.5 Q737 855 587 887 L438 921 Z " />
<glyph glyph-name="bullet" unicode="&#x2022;" horiz-adv-x="1167" d="M587 981 Q700 981 776 900 Q842 830 842 730 Q842 614 757 541 Q684 478 582 478 Q463 478 387 559 Q321 630 321 732 Q321 843 406 918 Q479 981 587 981 Z " />
<glyph glyph-name="paragraph" unicode="&#xb6;" horiz-adv-x="1269" d="M594 1381 L594 -422 L487 -422 L487 689 Q390 699 340 713.5 Q290 728 237 761 Q69 869 69 1080 Q69 1265 203 1376 Q270 1430 349 1452.5 Q428 1475 555 1475 L997 1475 L997 -422 L890 -422 L890 1381 L594 1381 Z " />
<glyph glyph-name="germandbls" unicode="&#xdf;" horiz-adv-x="1297" d="M190 0 L190 1066 Q190 1302 302 1425 Q416 1548 621 1548 Q812 1548 920 1454 Q1030 1358 1030 1198 Q1030 1085 969.5 1006 Q909 927 797 894 Q926 866 1004 806 Q1175 676 1175 438 Q1175 302 1119 188 Q1011 -32 706 -32 Q624 -32 533 -12 L556 80 Q623 62 706 62 Q879 62 970 154 Q1065 250 1065 445 Q1065 675 886 779 Q833 810 779 821.5 Q725 833 617 836 L617 929 Q751 939 816 983 Q920 1054 920 1194 Q920 1320 835 1388 Q752 1454 622 1454 Q428 1454 348 1313 Q298 1225 298 1028 L298 0 L190 0 Z " />
<glyph glyph-name="registered" unicode="&#xae;" horiz-adv-x="1380" d="M520 945 L520 1475 L665 1475 Q772 1475 829 1454 Q919 1420 919 1322 Q919 1231 828 1191 Q845 1173 865 1130 L948 945 L853 945 L779 1107 Q762 1145 739.5 1157 Q717 1169 664 1169 L603 1169 L603 945 L520 945 Z M603 1241 L673 1241 Q831 1241 831 1321 Q831 1364 794 1383 Q757 1402 674 1402 L603 1402 L603 1241 Z M698 1765 Q938 1765 1110 1601 Q1278 1440 1278 1208 Q1278 977 1110 816 Q939 652 690 652 Q441 652 270 816 Q102 977 102 1208 Q102 1444 270 1601 Q445 1765 698 1765 Z M683 1688 Q472 1688 324 1544 Q187 1410 187 1208 Q187 1007 324 874 Q471 729 690 729 Q909 729 1056 874 Q1193 1007 1193 1207 Q1193 1413 1056 1544 Q905 1688 683 1688 Z " />
<glyph glyph-name="copyright" unicode="&#xa9;" horiz-adv-x="1849" d="M1260 848 L1170 848 Q1165 923 1132 968 Q1083 1035 942 1035 Q787 1035 720 939 Q658 851 658 720 Q658 581 731 503 Q804 425 933 425 Q1081 425 1224 525 L1279 452 Q1115 338 943 338 Q749 338 646 457 Q557 560 557 723 Q557 902 663 1017 Q760 1123 942 1123 Q1148 1123 1221 1010 Q1255 956 1260 848 Z M936 1508 Q1159 1508 1350 1394 Q1550 1275 1649 1075 Q1727 920 1727 737 Q1727 417 1498 195 Q1265 -33 925 -33 Q585 -33 352 195 Q123 418 123 736 Q123 954 232 1132 Q347 1321 555 1424 Q724 1508 936 1508 Z M916 1419 Q718 1419 548 1316 Q367 1207 284 1024 Q227 897 227 737 Q227 453 416 262 Q621 56 925 56 Q1229 56 1434 262 Q1623 453 1623 736 Q1623 1027 1434 1213 Q1224 1419 916 1419 Z " />
<glyph glyph-name="trademark" unicode="&#x2122;" horiz-adv-x="1532" d="M368 1397 L368 769 L280 769 L280 1397 L35 1397 L35 1475 L613 1475 L613 1397 L368 1397 Z M806 1279 L773 769 L684 769 L732 1475 L820 1475 L1051 916 L1281 1475 L1366 1475 L1414 769 L1326 769 L1292 1279 L1079 769 L1021 769 L806 1279 Z " />
<glyph glyph-name="acute" unicode="&#xb4;" horiz-adv-x="1024" d="M389 1224 L586 1542 L727 1542 L474 1224 L389 1224 Z " />
<glyph glyph-name="dieresis" unicode="&#xa8;" horiz-adv-x="1024" d="M350 1462 Q384 1462 408.5 1437.5 Q433 1413 433 1378 Q433 1343 408.5 1318.5 Q384 1294 349 1294 Q313 1294 288.5 1319 Q264 1344 264 1379 Q264 1414 289 1438 Q314 1462 350 1462 Z M678 1462 Q712 1462 736.5 1437.5 Q761 1413 761 1378 Q761 1343 736.5 1318.5 Q712 1294 677 1294 Q642 1294 617 1319 Q592 1344 592 1379 Q592 1414 617 1438 Q642 1462 678 1462 Z " />
<glyph glyph-name="notequal" unicode="&#x2260;" horiz-adv-x="1303" d="M157 544 L157 638 L547 638 L641 836 L157 836 L157 931 L685 931 L790 1154 L886 1115 L799 931 L1145 931 L1145 836 L755 836 L661 638 L1145 638 L1145 544 L617 544 L512 321 L416 359 L504 544 L157 544 Z " />
<glyph glyph-name="AE" unicode="&#xc6;" horiz-adv-x="1961" d="M1017 504 L421 504 L85 0 L-28 0 L953 1475 L1813 1475 L1813 1381 L1128 1381 L1128 811 L1701 811 L1701 717 L1128 717 L1128 94 L1829 94 L1829 0 L1017 0 L1017 504 Z M1017 598 L1017 1400 L484 598 L1017 598 Z " />
<glyph glyph-name="Oslash" unicode="&#xd8;" horiz-adv-x="1550" d="M286 182 Q134 388 134 736 Q134 1078 279 1283 Q370 1412 510 1462 Q625 1503 777 1503 Q1059 1503 1205 1360 L1323 1511 L1444 1511 L1269 1288 Q1330 1199 1360 1113 Q1417 954 1417 738 Q1417 397 1272 191 Q1116 -29 771 -29 Q506 -29 350 110 L227 -48 L107 -48 L286 182 Z M356 272 L1139 1275 Q1013 1405 779 1405 Q489 1405 363 1213 Q290 1103 268 971 Q249 860 249 736 Q249 438 356 272 Z M1198 1197 L417 195 Q545 70 770 70 Q971 70 1085 153 Q1302 312 1302 740 Q1302 1026 1198 1197 Z " />
<glyph glyph-name="infinity" unicode="&#x221e;" horiz-adv-x="1548" d="M774 649 Q639 426 438 426 Q303 426 219 510 Q136 591 136 721 Q136 852 219 933 Q305 1016 441 1016 Q639 1016 774 793 Q909 1016 1108 1016 Q1244 1016 1330 933 Q1413 852 1413 721 Q1413 591 1330 510 Q1246 426 1111 426 Q909 426 774 649 Z M724 721 L714 739 Q671 827 598 881 Q525 935 451 935 Q355 935 294 874.5 Q233 814 233 721 Q233 624 294 565 Q357 506 451 506 Q546 506 623 581 Q684 641 715 702 L724 721 Z M825 721 L834 702 Q876 616 950 561 Q1024 506 1098 506 Q1194 506 1255 566.5 Q1316 627 1316 721 Q1316 817 1255 876 Q1193 935 1098 935 Q1001 935 925 860 Q866 802 834 739 L825 721 Z " />
<glyph glyph-name="plusminus" unicode="&#xb1;" horiz-adv-x="1303" d="M157 690 L157 784 L604 784 L604 1186 L698 1186 L698 784 L1145 784 L1145 690 L698 690 L698 288 L604 288 L604 690 L157 690 Z M179 0 L179 94 L1124 94 L1124 0 L179 0 Z " />
<glyph glyph-name="lessequal" unicode="&#x2264;" horiz-adv-x="1303" d="M315 744 L1103 335 L1103 230 L200 711 L200 777 L1103 1259 L1103 1153 L315 744 Z M200 0 L200 94 L1103 94 L1103 0 L200 0 Z " />
<glyph glyph-name="greaterequal" unicode="&#x2265;" horiz-adv-x="1303" d="M988 744 L200 1153 L200 1259 L1103 777 L1103 711 L200 230 L200 335 L988 744 Z M200 0 L200 94 L1103 94 L1103 0 L200 0 Z " />
<glyph glyph-name="yen" unicode="&#xa5;" horiz-adv-x="1303" d="M596 0 L596 377 L236 377 L236 462 L596 462 L596 645 L236 645 L236 730 L544 730 L77 1475 L199 1475 L652 753 L1105 1475 L1226 1475 L759 730 L1067 730 L1067 645 L707 645 L707 462 L1067 462 L1067 377 L707 377 L707 0 L596 0 Z " />
<glyph glyph-name="mu" unicode="&#xb5;" horiz-adv-x="1303" d="M245 1061 L353 1061 L353 405 Q353 257 374 195 Q410 86 555 86 Q671 86 798 182 Q880 245 949 327 L949 1061 L1057 1061 L1057 0 L949 0 L949 198 Q860 110 797 69 Q669 -17 532 -17 Q430 -17 352 37 L353 -439 L245 -439 L245 1061 Z " />
<glyph glyph-name="partialdiff" unicode="&#x2202;" horiz-adv-x="1303" d="M885 991 Q715 1234 412 1473 L474 1535 Q741 1329 871 1175 Q1152 843 1152 514 Q1152 280 1026 132 Q887 -31 651 -31 Q415 -31 276 132 Q150 280 150 511 Q150 742 276 890 Q343 968 440 1011 Q536 1053 642 1053 Q776 1053 885 991 Z M645 959 Q454 959 345 813 Q260 698 260 511 Q260 324 345 209 Q454 63 651 63 Q848 63 957 209 Q1042 324 1042 510 Q1042 697 957 813 Q850 959 645 959 Z " />
<glyph glyph-name="summation" unicode="&#x2211;" horiz-adv-x="1306" d="M1206 1572 L1206 1478 L261 1478 L810 640 L190 -262 L1226 -262 L1226 -356 L65 -356 L65 -270 L685 642 L127 1494 L127 1572 L1206 1572 Z " />
<glyph glyph-name="product" unicode="&#x220f;" horiz-adv-x="1475" d="M1156 1478 L318 1478 L318 -356 L207 -356 L207 1572 L1267 1572 L1267 -356 L1156 -356 L1156 1478 Z " />
<glyph glyph-name="integral" unicode="&#x222b;" horiz-adv-x="702" d="M39 -349 L59 -249 Q98 -262 137 -262 Q244 -262 277 -182 Q293 -141 293 -14 L293 1225 Q293 1394 328 1461 Q357 1516 419 1547.5 Q481 1579 561 1579 Q605 1579 658 1567 L638 1468 Q597 1482 556 1482 Q452 1482 420 1400 Q404 1359 404 1264 L404 -5 Q404 -127 394 -180 Q384 -233 354 -273 Q288 -359 116 -359 Q72 -359 39 -349 Z " />
<glyph glyph-name="ordfeminine" unicode="&#xaa;" horiz-adv-x="761" d="M530 882 L530 954 Q497 921 469 905 Q402 866 296 866 Q57 866 57 1054 Q57 1184 164 1227 Q221 1250 362 1250 Q408 1250 516 1245 L516 1292 Q516 1419 353 1419 Q258 1419 147 1377 L103 1460 Q226 1506 355 1506 Q495 1506 559 1453 Q623 1400 623 1284 L623 882 L530 882 Z M516 1159 Q448 1165 355 1165 Q251 1165 214 1144 Q165 1116 165 1056 Q165 952 310 952 Q432 952 491 1022 Q516 1052 516 1105 L516 1159 Z " />
<glyph glyph-name="ordmasculine" unicode="&#xba;" horiz-adv-x="765" d="M387 1506 Q537 1506 629 1411 Q713 1325 713 1186 Q713 1048 629 961 Q537 867 383 867 Q228 867 136 961 Q52 1047 52 1186 Q52 1328 136 1411 Q230 1506 387 1506 Z M379 1419 Q277 1419 213 1341 Q160 1277 160 1187 Q160 1086 223 1020 Q286 954 383 954 Q489 954 552 1032 Q605 1096 605 1186 Q605 1289 542 1354 Q479 1419 379 1419 Z " />
<glyph glyph-name="Omega" unicode="&#x2126;" horiz-adv-x="1602" d="M125 0 L125 95 L467 95 Q349 151 270 242 Q102 434 102 747 Q102 1085 276 1291 Q457 1506 802 1506 Q1148 1506 1329 1291 Q1502 1085 1502 746 Q1502 511 1409 345.5 Q1316 180 1137 95 L1478 95 L1478 0 L894 0 L894 122 Q963 131 1003 142 Q1201 195 1307 391 Q1387 539 1387 762 Q1387 1049 1250 1220 Q1101 1407 802 1407 Q503 1407 354 1220 Q217 1049 217 761 Q217 363 470 200 Q562 141 710 122 L710 0 L125 0 Z " />
<glyph glyph-name="ae" unicode="&#xe6;" horiz-adv-x="1930" d="M879 629 L879 698 Q879 854 826 920 Q761 1002 572 1002 Q446 1002 386 956.5 Q326 911 304 800 L202 800 Q223 956 310.5 1025.5 Q398 1095 572 1095 Q748 1095 839 1040 Q930 985 962 859 Q1091 1093 1350 1093 Q1559 1093 1691 938 Q1826 777 1826 513 L981 513 Q988 366 1036 270 Q1086 170 1171 116 Q1256 62 1363 62 Q1561 62 1739 210 L1798 127 Q1608 -32 1370 -32 Q1078 -32 947 235 Q839 -32 481 -32 Q102 -32 102 293 Q102 417 159 503 Q227 605 379 628 Q462 641 582 641 Q630 641 809 633 L879 629 Z M879 533 Q759 548 574 548 Q376 548 306 504 Q212 445 212 298 Q212 181 272 125 Q340 62 490 62 Q737 62 833 211 Q879 282 879 404 L879 533 Z M1713 607 Q1694 746 1645 826 Q1540 999 1349 999 Q1135 999 1034 791 Q999 720 985 607 L1713 607 Z " />
<glyph glyph-name="oslash" unicode="&#xf8;" horiz-adv-x="1217" d="M237 134 Q108 297 108 530 Q108 770 234 924 Q373 1093 609 1093 Q791 1093 921 986 L1011 1098 L1124 1098 L984 923 Q1109 771 1109 530 Q1109 291 983 137 Q843 -33 610 -33 Q427 -33 300 72 L206 -45 L93 -45 L237 134 Z M302 216 L859 908 Q758 999 608 999 Q410 999 303 846 Q218 723 218 530 Q218 339 302 216 Z M918 841 L362 150 Q466 61 609 61 Q807 61 914 214 Q999 337 999 530 Q999 723 918 841 Z " />
<glyph glyph-name="questiondown" unicode="&#xbf;" horiz-adv-x="1099" d="M610 946 L610 866 Q610 731 571 660 Q543 609 515.5 587.5 Q488 566 350 487 Q254 433 215 356 Q171 272 171 150 Q171 20 246 -50 Q330 -127 483 -127 Q666 -127 756 -8 Q811 64 837 215 L943 215 Q927 106 902.5 42 Q878 -22 830 -80 Q710 -225 479 -225 Q287 -225 177 -129 Q61 -28 61 160 Q61 363 175 478 Q211 515 246.5 538.5 Q282 562 382 618 Q458 659 484 705.5 Q510 752 510 843 L510 946 L610 946 Z M562 1353 Q601 1353 629 1325.5 Q657 1298 657 1258 Q657 1219 628.5 1191.5 Q600 1164 560 1164 Q519 1164 491 1191.5 Q463 1219 463 1259 Q463 1298 491.5 1325.5 Q520 1353 562 1353 Z " />
<glyph glyph-name="exclamdown" unicode="&#xa1;" horiz-adv-x="634" d="M365 946 L381 -193 L253 -193 L268 946 L365 946 Z M319 1353 Q358 1353 386 1325.5 Q414 1298 414 1258 Q414 1219 385.5 1191.5 Q357 1164 317 1164 Q276 1164 248 1191.5 Q220 1219 220 1259 Q220 1298 248.5 1325.5 Q277 1353 319 1353 Z " />
<glyph glyph-name="logicalnot" unicode="&#xac;" horiz-adv-x="1303" d="M201 690 L201 784 L1023 784 L1023 288 L924 288 L924 690 L201 690 Z " />
<glyph glyph-name="radical" unicode="&#x221a;" horiz-adv-x="1303" d="M554 0 L295 635 L130 635 L130 722 L384 722 L594 199 L1035 1713 L1532 1713 L1532 1625 L1122 1625 L643 0 L554 0 Z " />
<glyph glyph-name="florin" unicode="&#x192;" horiz-adv-x="1303" d="M403 756 L403 849 L613 849 L691 1221 Q719 1356 755 1411 Q818 1506 951 1506 Q1043 1506 1127 1462 L1088 1376 Q1004 1409 953 1409 Q873 1409 833 1343 Q813 1308 793 1209 L717 849 L905 849 L905 756 L702 756 L571 15 Q546 -127 505 -203 Q434 -335 292 -335 Q217 -335 125 -297 L163 -210 Q231 -237 276 -237 Q355 -237 401 -174.5 Q447 -112 472 30 L598 756 L403 756 Z " />
<glyph glyph-name="approxequal" unicode="&#x2248;" horiz-adv-x="1303" d="M321 792 L256 853 Q334 936 388.5 967.5 Q443 999 511 999 Q604 999 722 939 Q808 895 838 884.5 Q868 874 907 874 Q1000 874 1101 986 L1163 930 Q1041 779 908 779 Q859 779 812.5 793.5 Q766 808 686 847 Q573 903 515 903 Q423 903 321 792 Z M321 493 L256 554 Q334 637 388.5 668.5 Q443 700 511 700 Q604 700 722 640 Q808 596 838 585.5 Q868 575 907 575 Q1000 575 1101 687 L1163 631 Q1041 480 908 480 Q859 480 812.5 494.5 Q766 509 686 548 Q573 604 515 604 Q423 604 321 493 Z " />
<glyph glyph-name="increment" unicode="&#x2206;" horiz-adv-x="1303" d="M1294 0 L8 0 L617 1475 L686 1475 L1294 0 Z M1140 94 L652 1291 L163 94 L1140 94 Z " />
<glyph glyph-name="guillemotleft" unicode="&#xab;" horiz-adv-x="799" d="M515 574 L755 219 L645 219 L409 574 L645 929 L755 929 L515 574 Z M190 574 L430 219 L320 219 L84 574 L320 929 L430 929 L190 574 Z " />
<glyph glyph-name="guillemotright" unicode="&#xbb;" horiz-adv-x="799" d="M283 574 L43 929 L153 929 L389 574 L153 219 L43 219 L283 574 Z M608 574 L368 929 L478 929 L714 574 L478 219 L368 219 L608 574 Z " />
<glyph glyph-name="ellipsis" unicode="&#x2026;" horiz-adv-x="1950" d="M321 160 Q360 160 388 132 Q416 104 416 66 Q416 26 387.5 -1.5 Q359 -29 319 -29 Q278 -29 250 -1.5 Q222 26 222 66 Q222 106 250.5 133 Q279 160 321 160 Z M977 160 Q1016 160 1044 132 Q1072 104 1072 66 Q1072 26 1044 -1.5 Q1016 -29 975 -29 Q934 -29 906 -1.5 Q878 26 878 66 Q878 106 906.5 133 Q935 160 977 160 Z M1633 160 Q1672 160 1700 132 Q1728 104 1728 66 Q1728 26 1700 -1.5 Q1672 -29 1631 -29 Q1590 -29 1562 -1.5 Q1534 26 1534 66 Q1534 106 1562.5 133 Q1591 160 1633 160 Z " />
<glyph glyph-name="Agrave" unicode="&#xc0;" horiz-adv-x="1309" d="M983 444 L327 444 L155 0 L38 0 L620 1475 L691 1475 L1273 0 L1156 0 L983 444 Z M947 538 L655 1291 L364 538 L947 538 Z M659 1587 L406 1905 L547 1905 L744 1587 L659 1587 Z " />
<glyph glyph-name="Atilde" unicode="&#xc3;" horiz-adv-x="1309" d="M983 444 L327 444 L155 0 L38 0 L620 1475 L691 1475 L1273 0 L1156 0 L983 444 Z M947 538 L655 1291 L364 538 L947 538 Z M443 1658 L367 1658 Q417 1833 540 1833 Q572 1833 597.5 1823.5 Q623 1814 672 1784 Q744 1740 765 1740 Q822 1740 864 1831 L940 1831 Q883 1652 759 1652 Q698 1652 599 1717 Q555 1745 529 1745 Q479 1745 443 1658 Z " />
<glyph glyph-name="Otilde" unicode="&#xd5;" horiz-adv-x="1519" d="M771 1504 Q1099 1504 1256 1284 Q1401 1079 1401 737 Q1401 397 1256 191 Q1100 -29 759 -29 Q419 -29 263 191 Q118 397 118 735 Q118 1082 263 1284 Q356 1412 493 1462 Q610 1504 771 1504 Z M750 1405 Q474 1405 347 1213 Q274 1103 252 971 Q233 860 233 737 Q233 579 260 465.5 Q287 352 347 262 Q474 70 759 70 Q1046 70 1172 262 Q1286 436 1286 734 Q1286 1043 1172 1213 Q1097 1325 981 1369 Q885 1405 750 1405 Z M548 1658 L472 1658 Q522 1833 645 1833 Q677 1833 702.5 1823.5 Q728 1814 777 1784 Q849 1740 870 1740 Q927 1740 969 1831 L1045 1831 Q988 1652 864 1652 Q803 1652 704 1717 Q660 1745 634 1745 Q584 1745 548 1658 Z " />
<glyph glyph-name="OE" unicode="&#x152;" horiz-adv-x="2074" d="M1241 94 L1942 94 L1942 0 L1255 0 Q1179 0 967 -14 Q911 -17 857 -17 Q516 -17 333 162 Q118 372 118 738 Q118 1133 364 1341 Q542 1492 856 1492 Q911 1492 1064 1482 Q1178 1475 1264 1475 L1926 1475 L1926 1381 L1241 1381 L1241 811 L1814 811 L1814 717 L1241 717 L1241 94 Z M1130 94 L1130 1381 Q968 1397 868 1397 Q683 1397 560 1338 Q233 1182 233 740 Q233 392 434 219 Q599 77 870 77 Q964 77 1130 94 Z " />
<glyph glyph-name="oe" unicode="&#x153;" horiz-adv-x="2069" d="M1065 287 Q1031 199 981 138 Q844 -32 613 -32 Q378 -32 237 137 Q107 292 107 530 Q107 769 237 924 Q378 1093 613 1093 Q844 1093 981 923 Q1032 860 1066 770 Q1099 859 1148 924 Q1276 1093 1492 1093 Q1706 1093 1836 933.5 Q1966 774 1966 513 L1121 513 Q1128 364 1175 270 Q1226 170 1311 116 Q1396 62 1503 62 Q1700 62 1878 210 L1938 127 Q1743 -32 1508 -32 Q1280 -32 1146 138 Q1096 201 1065 287 Z M609 999 Q491 999 398 935 Q217 813 217 530 Q217 338 305 215 Q415 62 615 62 Q815 62 925 215 Q1013 339 1013 529 Q1013 724 925 846 Q814 999 609 999 Z M1852 607 Q1832 747 1786 824 Q1682 999 1489 999 Q1364 999 1274 923 Q1209 868 1174.5 794.5 Q1140 721 1125 607 L1852 607 Z " />
<glyph glyph-name="endash" unicode="&#x2013;" horiz-adv-x="844" d="M40 568 L40 662 L804 662 L804 568 L40 568 Z " />
<glyph glyph-name="emdash" unicode="&#x2014;" horiz-adv-x="1303" d="M-90 568 L-90 662 L1392 662 L1392 568 L-90 568 Z " />
<glyph glyph-name="quotedblleft" unicode="&#x201c;" horiz-adv-x="798" d="M126 1085 L284 1475 L386 1475 L280 1085 L126 1085 Z M424 1085 L582 1475 L684 1475 L576 1085 L424 1085 Z " />
<glyph glyph-name="quotedblright" unicode="&#x201d;" horiz-adv-x="798" d="M127 1085 L233 1475 L387 1475 L229 1085 L127 1085 Z M425 1085 L531 1475 L685 1475 L527 1085 L425 1085 Z " />
<glyph glyph-name="quoteleft" unicode="&#x2018;" horiz-adv-x="499" d="M126 1085 L284 1475 L386 1475 L280 1085 L126 1085 Z " />
<glyph glyph-name="quoteright" unicode="&#x2019;" horiz-adv-x="499" d="M126 1085 L232 1475 L386 1475 L228 1085 L126 1085 Z " />
<glyph glyph-name="divide" unicode="&#xf7;" horiz-adv-x="1303" d="M157 690 L157 784 L1145 784 L1145 690 L157 690 Z M653 1160 Q690 1160 716 1134 Q742 1108 742 1072 Q742 1035 715.5 1009 Q689 983 651 983 Q613 983 587 1009 Q561 1035 561 1072 Q561 1109 587.5 1134.5 Q614 1160 653 1160 Z M653 492 Q689 492 715.5 466 Q742 440 742 404 Q742 367 715.5 341 Q689 315 651 315 Q613 315 587 341 Q561 367 561 404 Q561 441 588 466.5 Q615 492 653 492 Z " />
<glyph glyph-name="lozenge" unicode="&#x25ca;" horiz-adv-x="1189" d="M50 704 L594 1475 L1138 704 L594 -66 L50 704 Z M163 704 L594 105 L1025 704 L594 1304 L163 704 Z " />
<glyph glyph-name="ydieresis" unicode="&#xff;" horiz-adv-x="975" d="M436 54 L32 1061 L142 1061 L487 190 L832 1061 L943 1061 L452 -170 Q405 -285 380.5 -325.5 Q356 -366 315 -394 Q279 -419 236.5 -428 Q194 -437 112 -439 L112 -344 Q220 -342 261 -313 Q311 -278 354 -164 L436 54 Z M325 1462 Q359 1462 383.5 1437.5 Q408 1413 408 1378 Q408 1343 383.5 1318.5 Q359 1294 324 1294 Q288 1294 263.5 1319 Q239 1344 239 1379 Q239 1414 264 1438 Q289 1462 325 1462 Z M653 1462 Q687 1462 711.5 1437.5 Q736 1413 736 1378 Q736 1343 711.5 1318.5 Q687 1294 652 1294 Q617 1294 592 1319 Q567 1344 567 1379 Q567 1414 592 1438 Q617 1462 653 1462 Z " />
<glyph glyph-name="Ydieresis" unicode="&#x178;" horiz-adv-x="1050" d="M470 0 L470 588 L-27 1475 L94 1475 L525 708 L956 1475 L1077 1475 L581 588 L581 0 L470 0 Z M346 1825 Q380 1825 404.5 1800.5 Q429 1776 429 1741 Q429 1706 404.5 1681.5 Q380 1657 345 1657 Q309 1657 284.5 1682 Q260 1707 260 1742 Q260 1777 285 1801 Q310 1825 346 1825 Z M706 1825 Q740 1825 764.5 1800.5 Q789 1776 789 1741 Q789 1706 764.5 1681.5 Q740 1657 705 1657 Q669 1657 644.5 1682 Q620 1707 620 1742 Q620 1777 645 1801 Q670 1825 706 1825 Z " />
<glyph glyph-name="fraction" unicode="&#x2044;" horiz-adv-x="320" d="M-278 0 L487 1475 L599 1475 L-166 0 L-278 0 Z " />
<glyph glyph-name="Euro" unicode="&#x20ac;" horiz-adv-x="1303" d="M-95 533 L-59 618 L106 618 Q101 674 101 717 Q101 745 104 801 L-95 801 L-59 886 L111 886 Q137 1064 205 1190 Q374 1506 747 1506 Q1038 1506 1177 1334 Q1265 1226 1270 1061 L1162 1061 Q1154 1196 1075 1284 Q963 1407 753 1407 Q432 1407 301 1134 Q245 1018 227 886 L1048 886 L1011 801 L219 801 Q216 756 216 722 Q216 677 221 618 L931 618 L895 533 L231 533 Q263 367 358 243 Q494 68 763 68 Q909 68 1012 124.5 Q1115 181 1210 312 L1290 244 Q1191 100 1064 34.5 Q937 -31 756 -31 Q486 -31 324.5 111 Q163 253 115 533 L-95 533 Z " />
<glyph glyph-name="guilsinglleft" unicode="&#x2039;" horiz-adv-x="474" d="M190 574 L430 219 L320 219 L84 574 L320 929 L430 929 L190 574 Z " />
<glyph glyph-name="guilsinglright" unicode="&#x203a;" horiz-adv-x="474" d="M283 574 L43 929 L153 929 L389 574 L153 219 L43 219 L283 574 Z " />
<glyph glyph-name="fi" unicode="&#xfb01;" horiz-adv-x="1184" d="M254 0 L254 967 L88 967 L88 1061 L254 1062 L254 1109 Q254 1308 301 1398 Q369 1530 553 1530 Q620 1530 697 1516 L689 1423 Q618 1436 559 1436 Q473 1436 431 1398 Q362 1337 362 1117 L362 1061 L647 1061 L647 967 L362 967 L362 0 L254 0 Z M875 0 L875 1061 L983 1061 L983 0 L875 0 Z M931 1464 Q966 1464 991 1439 Q1016 1414 1016 1378 Q1016 1342 990.5 1317 Q965 1292 929 1292 Q893 1292 867.5 1317.5 Q842 1343 842 1379 Q842 1415 867.5 1439.5 Q893 1464 931 1464 Z " />
<glyph glyph-name="fl" unicode="&#xfb02;" horiz-adv-x="1161" d="M254 0 L254 967 L88 967 L88 1061 L254 1062 L254 1109 Q254 1308 301 1398 Q369 1530 553 1530 Q620 1530 697 1516 L689 1423 Q618 1436 559 1436 Q473 1436 431 1398 Q362 1337 362 1117 L362 1061 L647 1061 L647 967 L362 967 L362 0 L254 0 Z M863 0 L863 1516 L971 1516 L971 0 L863 0 Z " />
<glyph glyph-name="daggerdbl" unicode="&#x2021;" horiz-adv-x="1181" d="M541 977 L143 977 L143 1070 L541 1070 L541 1516 L636 1516 L636 1068 L1038 1068 L1038 975 L636 975 L636 346 L1038 346 L1038 252 L636 252 L636 -195 L541 -195 L541 250 L143 250 L143 344 L541 344 L541 977 Z " />
<glyph glyph-name="periodcentered" unicode="&#xb7;" horiz-adv-x="638" d="M324 709 Q363 709 391 681 Q419 653 419 615 Q419 575 390.5 547.5 Q362 520 322 520 Q281 520 253 547.5 Q225 575 225 615 Q225 655 253.5 682 Q282 709 324 709 Z " />
<glyph glyph-name="quotesinglbase" unicode="&#x201a;" horiz-adv-x="499" d="M114 -235 L220 154 L374 154 L216 -235 L114 -235 Z " />
<glyph glyph-name="quotedblbase" unicode="&#x201e;" horiz-adv-x="798" d="M106 -227 L212 162 L366 162 L208 -227 L106 -227 Z M404 -227 L510 162 L664 162 L506 -227 L404 -227 Z " />
<glyph glyph-name="perthousand" unicode="&#x2030;" horiz-adv-x="2481" d="M438 1506 Q603 1506 693 1404 Q783 1301 783 1134 Q783 967 693 864 Q603 762 432 762 Q261 762 171 864 Q81 967 81 1133 Q81 1302 171 1404 Q220 1458 282 1482 Q344 1506 438 1506 Z M427 1421 Q296 1421 233 1332 Q181 1259 181 1134 Q181 992 244 919.5 Q307 847 432 847 Q567 847 630 936 Q682 1008 682 1133 Q682 1421 427 1421 Z M1243 715 Q1407 715 1498 613 Q1588 510 1588 343 Q1588 177 1498 73 Q1408 -29 1237 -29 Q1066 -29 976 73 Q886 177 886 342 Q886 511 976 613 Q1025 667 1087 691 Q1149 715 1243 715 Z M1232 630 Q1102 630 1038 541 Q986 469 986 343 Q986 56 1237 56 Q1372 56 1436 145 Q1487 217 1487 342 Q1487 630 1232 630 Z M2054 715 Q2219 715 2309 613 Q2399 510 2399 343 Q2399 176 2309 73 Q2219 -29 2048 -29 Q1877 -29 1787 73 Q1697 177 1697 342 Q1697 511 1787 613 Q1836 667 1898 691 Q1960 715 2054 715 Z M2043 630 Q1913 630 1850 541 Q1798 469 1798 343 Q1798 56 2048 56 Q2183 56 2247 145 Q2298 217 2298 342 Q2298 630 2043 630 Z M354 0 L1203 1475 L1315 1475 L466 0 L354 0 Z " />
<glyph glyph-name="Acircumflex" unicode="&#xc2;" horiz-adv-x="1309" d="M983 444 L327 444 L155 0 L38 0 L620 1475 L691 1475 L1273 0 L1156 0 L983 444 Z M947 538 L655 1291 L364 538 L947 538 Z M654 1817 L463 1587 L344 1587 L623 1905 L686 1905 L965 1587 L845 1587 L654 1817 Z " />
<glyph glyph-name="Ecircumflex" unicode="&#xca;" horiz-adv-x="1164" d="M197 0 L197 1475 L1062 1475 L1062 1381 L308 1381 L308 811 L949 811 L949 717 L308 717 L308 94 L1077 94 L1077 0 L197 0 Z M626 1817 L435 1587 L316 1587 L595 1905 L658 1905 L937 1587 L817 1587 L626 1817 Z " />
<glyph glyph-name="Aacute" unicode="&#xc1;" horiz-adv-x="1309" d="M983 444 L327 444 L155 0 L38 0 L620 1475 L691 1475 L1273 0 L1156 0 L983 444 Z M947 538 L655 1291 L364 538 L947 538 Z M552 1587 L749 1905 L890 1905 L637 1587 L552 1587 Z " />
<glyph glyph-name="Edieresis" unicode="&#xcb;" horiz-adv-x="1164" d="M197 0 L197 1475 L1062 1475 L1062 1381 L308 1381 L308 811 L949 811 L949 717 L308 717 L308 94 L1077 94 L1077 0 L197 0 Z M448 1825 Q482 1825 506.5 1800.5 Q531 1776 531 1741 Q531 1706 506.5 1681.5 Q482 1657 447 1657 Q411 1657 386.5 1682 Q362 1707 362 1742 Q362 1777 387 1801 Q412 1825 448 1825 Z M808 1825 Q842 1825 866.5 1800.5 Q891 1776 891 1741 Q891 1706 866.5 1681.5 Q842 1657 807 1657 Q771 1657 746.5 1682 Q722 1707 722 1742 Q722 1777 747 1801 Q772 1825 808 1825 Z " />
<glyph glyph-name="Egrave" unicode="&#xc8;" horiz-adv-x="1164" d="M197 0 L197 1475 L1062 1475 L1062 1381 L308 1381 L308 811 L949 811 L949 717 L308 717 L308 94 L1077 94 L1077 0 L197 0 Z M667 1587 L414 1905 L555 1905 L752 1587 L667 1587 Z " />
<glyph glyph-name="Iacute" unicode="&#xcd;" horiz-adv-x="506" d="M198 0 L198 1475 L309 1475 L309 0 L198 0 Z M130 1587 L327 1905 L468 1905 L215 1587 L130 1587 Z " />
<glyph glyph-name="Icircumflex" unicode="&#xce;" horiz-adv-x="505" d="M197 0 L197 1475 L308 1475 L308 0 L197 0 Z M252 1817 L61 1587 L-58 1587 L221 1905 L284 1905 L563 1587 L443 1587 L252 1817 Z " />
<glyph glyph-name="Idieresis" unicode="&#xcf;" horiz-adv-x="505" d="M198 0 L198 1475 L309 1475 L309 0 L198 0 Z M74 1825 Q108 1825 132.5 1800.5 Q157 1776 157 1741 Q157 1706 132.5 1681.5 Q108 1657 73 1657 Q37 1657 12.5 1682 Q-12 1707 -12 1742 Q-12 1777 13 1801 Q38 1825 74 1825 Z M434 1825 Q468 1825 492.5 1800.5 Q517 1776 517 1741 Q517 1706 492.5 1681.5 Q468 1657 433 1657 Q397 1657 372.5 1682 Q348 1707 348 1742 Q348 1777 373 1801 Q398 1825 434 1825 Z " />
<glyph glyph-name="Igrave" unicode="&#xcc;" horiz-adv-x="506" d="M198 0 L198 1475 L309 1475 L309 0 L198 0 Z M291 1587 L38 1905 L179 1905 L376 1587 L291 1587 Z " />
<glyph glyph-name="Oacute" unicode="&#xd3;" horiz-adv-x="1519" d="M771 1504 Q1099 1504 1256 1284 Q1401 1079 1401 737 Q1401 397 1256 191 Q1100 -29 759 -29 Q419 -29 263 191 Q118 397 118 735 Q118 1082 263 1284 Q356 1412 493 1462 Q610 1504 771 1504 Z M750 1405 Q474 1405 347 1213 Q274 1103 252 971 Q233 860 233 737 Q233 579 260 465.5 Q287 352 347 262 Q474 70 759 70 Q1046 70 1172 262 Q1286 436 1286 734 Q1286 1043 1172 1213 Q1097 1325 981 1369 Q885 1405 750 1405 Z M637 1587 L834 1905 L975 1905 L722 1587 L637 1587 Z " />
<glyph glyph-name="Ocircumflex" unicode="&#xd4;" horiz-adv-x="1519" d="M771 1504 Q1099 1504 1256 1284 Q1401 1079 1401 737 Q1401 397 1256 191 Q1100 -29 759 -29 Q419 -29 263 191 Q118 397 118 735 Q118 1082 263 1284 Q356 1412 493 1462 Q610 1504 771 1504 Z M750 1405 Q474 1405 347 1213 Q274 1103 252 971 Q233 860 233 737 Q233 579 260 465.5 Q287 352 347 262 Q474 70 759 70 Q1046 70 1172 262 Q1286 436 1286 734 Q1286 1043 1172 1213 Q1097 1325 981 1369 Q885 1405 750 1405 Z M759 1817 L568 1587 L449 1587 L728 1905 L791 1905 L1070 1587 L950 1587 L759 1817 Z " />
<glyph glyph-name="Ograve" unicode="&#xd2;" horiz-adv-x="1519" d="M771 1504 Q1099 1504 1256 1284 Q1401 1079 1401 737 Q1401 397 1256 191 Q1100 -29 759 -29 Q419 -29 263 191 Q118 397 118 735 Q118 1082 263 1284 Q356 1412 493 1462 Q610 1504 771 1504 Z M750 1405 Q474 1405 347 1213 Q274 1103 252 971 Q233 860 233 737 Q233 579 260 465.5 Q287 352 347 262 Q474 70 759 70 Q1046 70 1172 262 Q1286 436 1286 734 Q1286 1043 1172 1213 Q1097 1325 981 1369 Q885 1405 750 1405 Z M797 1587 L544 1905 L685 1905 L882 1587 L797 1587 Z " />
<glyph glyph-name="Uacute" unicode="&#xda;" horiz-adv-x="1379" d="M188 1475 L299 1475 L299 534 Q299 333 355 230 Q443 70 689 70 Q937 70 1024 230 Q1080 333 1080 534 L1080 1475 L1191 1475 L1191 603 Q1191 420 1175 325.5 Q1159 231 1116 162 Q998 -29 690 -29 Q380 -29 263 162 Q220 230 204 326 Q188 422 188 603 L188 1475 Z M581 1587 L778 1905 L919 1905 L666 1587 L581 1587 Z " />
<glyph glyph-name="Ucircumflex" unicode="&#xdb;" horiz-adv-x="1379" d="M188 1475 L299 1475 L299 534 Q299 333 355 230 Q443 70 689 70 Q937 70 1024 230 Q1080 333 1080 534 L1080 1475 L1191 1475 L1191 603 Q1191 420 1175 325.5 Q1159 231 1116 162 Q998 -29 690 -29 Q380 -29 263 162 Q220 230 204 326 Q188 422 188 603 L188 1475 Z M689 1817 L498 1587 L379 1587 L658 1905 L721 1905 L1000 1587 L880 1587 L689 1817 Z " />
<glyph glyph-name="Ugrave" unicode="&#xd9;" horiz-adv-x="1379" d="M188 1475 L299 1475 L299 534 Q299 333 355 230 Q443 70 689 70 Q937 70 1024 230 Q1080 333 1080 534 L1080 1475 L1191 1475 L1191 603 Q1191 420 1175 325.5 Q1159 231 1116 162 Q998 -29 690 -29 Q380 -29 263 162 Q220 230 204 326 Q188 422 188 603 L188 1475 Z M728 1587 L475 1905 L616 1905 L813 1587 L728 1587 Z " />
<glyph glyph-name="dotlessi" unicode="&#x131;" horiz-adv-x="508" d="M200 0 L200 1061 L308 1061 L308 0 L200 0 Z " />
<glyph glyph-name="circumflex" unicode="&#x2c6;" horiz-adv-x="1024" d="M512 1454 L321 1224 L202 1224 L481 1541 L544 1541 L823 1224 L703 1224 L512 1454 Z " />
<glyph glyph-name="tilde" unicode="&#x2dc;" horiz-adv-x="1024" d="M301 1295 L225 1295 Q275 1470 398 1470 Q450 1470 530 1421 Q602 1377 623 1377 Q680 1377 722 1468 L798 1468 Q741 1289 618 1289 Q556 1289 457 1354 Q413 1382 387 1382 Q337 1382 301 1295 Z " />
<glyph glyph-name="overscore" unicode="&#xaf;" horiz-adv-x="1024" d="M264 1326 L264 1435 L760 1435 L760 1326 L264 1326 Z " />
<glyph glyph-name="breve" unicode="&#x2d8;" horiz-adv-x="1024" d="M243 1514 L310 1514 Q318 1427 365.5 1388.5 Q413 1350 512 1350 Q612 1350 658 1388 Q704 1426 712 1514 L781 1514 Q766 1370 700 1312 Q635 1255 512 1255 Q381 1255 318 1315.5 Q255 1376 243 1514 Z " />
<glyph glyph-name="dotaccent" unicode="&#x2d9;" horiz-adv-x="1024" d="M514 1464 Q549 1464 574 1439 Q599 1414 599 1378 Q599 1342 573.5 1317 Q548 1292 512 1292 Q476 1292 450.5 1317.5 Q425 1343 425 1379 Q425 1415 450.5 1439.5 Q476 1464 514 1464 Z " />
<glyph glyph-name="ring" unicode="&#x2da;" horiz-adv-x="1024" d="M515 1622 Q613 1622 670 1564 Q727 1506 727 1407 Q727 1306 669.5 1249 Q612 1192 511 1192 Q411 1192 353.5 1249 Q296 1306 296 1406 Q296 1509 353.5 1565.5 Q411 1622 515 1622 Z M509 1548 Q447 1548 413.5 1511 Q380 1474 380 1407 Q380 1265 510 1265 Q643 1265 643 1406 Q643 1548 509 1548 Z " />
<glyph glyph-name="cedilla" unicode="&#xb8;" horiz-adv-x="1024" d="M504 0 L588 0 L532 -101 Q618 -106 655 -120 Q757 -160 757 -274 Q757 -362 696.5 -411.5 Q636 -461 528 -461 Q395 -461 285 -423 L312 -333 Q416 -372 524 -372 Q654 -372 654 -278 Q654 -185 509 -185 Q486 -185 447 -188 L439 -116 L504 0 Z " />
<glyph glyph-name="hungarumlaut" unicode="&#x2dd;" horiz-adv-x="1024" d="M338 1224 L472 1542 L605 1542 L411 1224 L338 1224 Z M586 1224 L720 1542 L853 1542 L660 1224 L586 1224 Z " />
<glyph glyph-name="ogonek" unicode="&#x2db;" horiz-adv-x="1024" d="M573 0 L675 0 Q577 -75 537.5 -130 Q498 -185 498 -245 Q498 -293 521.5 -314 Q545 -335 598 -335 L691 -335 L691 -424 L609 -424 Q395 -424 395 -261 Q395 -197 436 -137 Q477 -77 573 0 Z " />
<glyph glyph-name="caron" unicode="&#x2c7;" horiz-adv-x="1024" d="M512 1312 L703 1542 L823 1542 L544 1225 L481 1225 L202 1542 L321 1542 L512 1312 Z " />
<glyph glyph-name="nbspace" unicode="&#xa0;" horiz-adv-x="451" d="" />
<glyph glyph-name="currency" unicode="&#xa4;" horiz-adv-x="1303" d="M166 281 L104 345 L320 550 Q223 665 223 810 Q223 951 318 1067 L104 1271 L166 1335 L380 1129 Q501 1222 652 1222 Q802 1222 925 1129 L1137 1335 L1201 1271 L987 1067 Q1082 949 1082 810 Q1082 667 986 550 L1201 345 L1137 281 L923 488 Q800 396 653 396 Q503 396 382 488 L166 281 Z M648 1135 Q507 1135 406 1036 Q310 941 310 809 Q310 677 406 582 Q507 483 652 483 Q797 483 898 582 Q994 678 994 808 Q994 942 898 1036 Q796 1135 648 1135 Z " />
<glyph glyph-name="brokenbar" unicode="&#xa6;" horiz-adv-x="686" d="M296 888 L296 1475 L391 1475 L391 888 L296 888 Z M296 0 L296 586 L391 586 L391 0 L296 0 Z " />
<glyph glyph-name="uni00AD" unicode="&#xad;" horiz-adv-x="799" d="M123 568 L123 662 L676 662 L676 568 L123 568 Z " />
<glyph glyph-name="twosuperior" unicode="&#xb2;" horiz-adv-x="790" d="M52 819 Q69 922 118 984.5 Q167 1047 323 1163 Q472 1274 520.5 1332 Q569 1390 569 1458 Q569 1528 519.5 1568.5 Q470 1609 384 1609 Q269 1609 207 1530 Q179 1495 164 1409 L60 1409 Q80 1549 135 1608 Q219 1696 379 1696 Q523 1696 602.5 1633.5 Q682 1571 682 1457 Q682 1342 599 1259 Q549 1209 395 1095 Q288 1017 250 982 Q212 947 187 906 L708 906 L708 819 L52 819 Z " />
<glyph glyph-name="threesuperior" unicode="&#xb3;" horiz-adv-x="790" d="M259 1230 L259 1317 Q304 1316 332 1316 Q459 1316 513 1350.5 Q567 1385 567 1467 Q567 1539 524 1573 Q481 1607 389 1607 Q214 1607 178 1459 L71 1459 Q91 1567 149 1620 Q229 1696 378 1696 Q512 1696 592 1642 Q677 1585 677 1472 Q677 1337 549 1280 Q705 1215 705 1056 Q705 803 380 803 Q218 803 140 864 Q62 925 46 1065 L152 1065 Q178 892 382 892 Q595 892 595 1052 Q595 1145 546 1185 Q514 1212 465.5 1221 Q417 1230 302 1230 Q287 1230 259 1230 Z " />
<glyph glyph-name="onesuperior" unicode="&#xb9;" horiz-adv-x="545" d="M248 819 L248 1571 L17 1493 L17 1590 L278 1679 L354 1679 L354 819 L248 819 Z " />
<glyph glyph-name="onequarter" unicode="&#xbc;" horiz-adv-x="1883" d="M366 614 L366 1367 L134 1288 L134 1386 L396 1475 L472 1475 L472 614 L366 614 Z M1455 0 L1455 188 L1018 188 L1018 254 L1304 860 L1420 860 L1143 275 L1455 275 L1455 621 L1561 621 L1561 275 L1712 275 L1712 188 L1561 188 L1561 0 L1455 0 Z M399 0 L1164 1475 L1277 1475 L512 0 L399 0 Z " />
<glyph glyph-name="onehalf" unicode="&#xbd;" horiz-adv-x="1881" d="M366 614 L366 1367 L134 1288 L134 1386 L396 1475 L472 1475 L472 614 L366 614 Z M1041 0 Q1059 104 1108.5 166.5 Q1158 229 1312 344 Q1461 455 1509.5 513 Q1558 571 1558 639 Q1558 709 1508.5 749.5 Q1459 790 1373 790 Q1257 790 1196 711 Q1167 673 1153 590 L1049 590 Q1067 729 1124 789 Q1208 877 1368 877 Q1512 877 1591.5 814.5 Q1671 752 1671 638 Q1671 523 1588 440 Q1536 388 1384 276 Q1279 199 1240 163.5 Q1201 128 1176 87 L1697 87 L1697 0 L1041 0 Z M370 0 L1136 1475 L1248 1475 L483 0 L370 0 Z " />
<glyph glyph-name="threequarters" unicode="&#xbe;" horiz-adv-x="1885" d="M307 1025 L307 1113 Q358 1111 385 1111 Q508 1111 561.5 1146 Q615 1181 615 1262 Q615 1334 571.5 1368 Q528 1402 436 1402 Q262 1402 226 1254 L119 1254 Q139 1362 196 1416 Q277 1491 426 1491 Q560 1491 640 1437 Q725 1379 725 1267 Q725 1132 597 1075 Q753 1010 753 851 Q753 598 428 598 Q266 598 188 659 Q110 720 94 860 L200 860 Q226 687 430 687 Q643 687 643 847 Q643 999 501 1018 Q452 1025 307 1025 Z M1533 0 L1533 188 L1095 188 L1095 254 L1381 860 L1498 860 L1220 275 L1533 275 L1533 621 L1639 621 L1639 275 L1789 275 L1789 188 L1639 188 L1639 0 L1533 0 Z M537 0 L1302 1475 L1415 1475 L649 0 L537 0 Z " />
<glyph glyph-name="Eth" unicode="&#xd0;" horiz-adv-x="1459" d="M204 823 L204 1475 L574 1475 Q902 1475 1101 1315 Q1341 1123 1341 737 Q1341 352 1101 160 Q902 0 569 0 L204 0 L204 730 L33 730 L33 823 L204 823 Z M315 823 L809 823 L809 730 L315 730 L315 94 L561 94 Q861 94 1030 235 Q1226 398 1226 738 Q1226 1076 1030 1240 Q861 1381 559 1381 L315 1381 L315 823 Z " />
<glyph glyph-name="multiply" unicode="&#xd7;" horiz-adv-x="1303" d="M584 737 L258 1050 L325 1116 L651 804 L978 1116 L1045 1050 L718 737 L1045 425 L978 358 L651 670 L325 358 L258 425 L584 737 Z " />
<glyph glyph-name="Yacute" unicode="&#xdd;" horiz-adv-x="1050" d="M470 0 L470 588 L-27 1475 L94 1475 L525 708 L956 1475 L1077 1475 L581 588 L581 0 L470 0 Z M429 1587 L626 1905 L767 1905 L514 1587 L429 1587 Z " />
<glyph glyph-name="Thorn" unicode="&#xde;" horiz-adv-x="1243" d="M197 0 L197 1475 L308 1475 L308 1177 L570 1177 Q716 1177 807 1162 Q898 1147 968 1111 Q1060 1063 1110.5 965.5 Q1161 868 1161 738 Q1161 571 1080 461 Q992 342 807 314 Q705 298 571 298 L308 298 L308 0 L197 0 Z M308 392 L595 392 Q718 392 795.5 410 Q873 428 926 469 Q1046 562 1046 738 Q1046 913 927 1005 Q860 1058 745 1074 Q682 1083 596 1083 L308 1083 L308 392 Z " />
<glyph glyph-name="eth" unicode="&#xf0;" horiz-adv-x="1216" d="M842 1029 Q750 1171 604 1322 L383 1155 L331 1215 L546 1379 Q480 1440 369 1533 L431 1596 Q544 1503 620 1435 L813 1582 L868 1522 L680 1380 Q803 1264 902 1122 Q1109 826 1109 535 Q1109 292 983 138 Q844 -32 608 -32 Q372 -32 233 138 Q107 292 107 531 Q107 771 233 924 Q300 1005 397 1050 Q493 1094 599 1094 Q733 1094 842 1029 Z M602 999 Q486 999 393 935 Q217 815 217 530 Q217 338 302 215 Q409 62 608 62 Q807 62 914 215 Q999 338 999 529 Q999 724 914 846 Q807 999 602 999 Z " />
<glyph glyph-name="yacute" unicode="&#xfd;" horiz-adv-x="975" d="M436 54 L32 1061 L142 1061 L487 190 L832 1061 L943 1061 L452 -170 Q405 -285 380.5 -325.5 Q356 -366 315 -394 Q279 -419 236.5 -428 Q194 -437 112 -439 L112 -344 Q220 -342 261 -313 Q311 -278 354 -164 L436 54 Z M412 1224 L609 1542 L750 1542 L497 1224 L412 1224 Z " />
<glyph glyph-name="thorn" unicode="&#xfe;" horiz-adv-x="1284" d="M190 -438 L190 1516 L298 1516 L298 874 Q435 1093 690 1093 Q923 1093 1057 924 Q1178 770 1178 530 Q1178 291 1057 137 Q923 -32 691 -32 Q434 -32 298 188 L298 -438 L190 -438 Z M682 999 Q504 999 394 846 Q298 713 298 530 Q298 349 394 215 Q504 62 688 62 Q859 62 963 192 Q1068 322 1068 529 Q1068 742 963 869 Q857 999 682 999 Z " />
<glyph glyph-name="Amacron" unicode="&#x100;" horiz-adv-x="1309" d="M983 444 L327 444 L155 0 L38 0 L620 1475 L691 1475 L1273 0 L1156 0 L983 444 Z M947 538 L655 1291 L364 538 L947 538 Z M407 1689 L407 1798 L903 1798 L903 1689 L407 1689 Z " />
<glyph glyph-name="amacron" unicode="&#x101;" horiz-adv-x="1178" d="M895 159 Q865 96 798 50 Q675 -32 489 -32 Q116 -32 116 293 Q116 502 261 585 Q359 641 610 641 Q714 641 893 629 L893 707 Q893 798 875 853.5 Q857 909 817 943 Q748 1001 583 1001 Q421 1001 360 924 Q330 886 311 800 L209 800 Q224 890 248 940 Q272 990 319 1026 Q408 1095 585 1095 Q802 1095 898 1017 Q1001 934 1001 730 L1001 0 L895 0 L895 159 Z M893 535 Q752 549 602 549 Q472 549 399 533 Q326 517 287 479 Q226 420 226 299 Q226 177 292.5 119.5 Q359 62 501 62 Q694 62 802 165 Q893 252 893 431 L893 535 Z M340 1326 L340 1435 L836 1435 L836 1326 L340 1326 Z " />
<glyph glyph-name="Abreve" unicode="&#x102;" horiz-adv-x="1309" d="M983 444 L327 444 L155 0 L38 0 L620 1475 L691 1475 L1273 0 L1156 0 L983 444 Z M947 538 L655 1291 L364 538 L947 538 Z M386 1877 L453 1877 Q461 1790 508.5 1751 Q556 1712 655 1712 Q755 1712 801 1750 Q847 1788 855 1877 L924 1877 Q909 1733 843 1674 Q778 1617 655 1617 Q524 1617 461 1677.5 Q398 1738 386 1877 Z " />
<glyph glyph-name="abreve" unicode="&#x103;" horiz-adv-x="1178" d="M895 159 Q865 96 798 50 Q675 -32 489 -32 Q116 -32 116 293 Q116 502 261 585 Q359 641 610 641 Q714 641 893 629 L893 707 Q893 798 875 853.5 Q857 909 817 943 Q748 1001 583 1001 Q421 1001 360 924 Q330 886 311 800 L209 800 Q224 890 248 940 Q272 990 319 1026 Q408 1095 585 1095 Q802 1095 898 1017 Q1001 934 1001 730 L1001 0 L895 0 L895 159 Z M893 535 Q752 549 602 549 Q472 549 399 533 Q326 517 287 479 Q226 420 226 299 Q226 177 292.5 119.5 Q359 62 501 62 Q694 62 802 165 Q893 252 893 431 L893 535 Z M323 1514 L390 1514 Q398 1427 445.5 1388.5 Q493 1350 592 1350 Q692 1350 738 1388 Q784 1426 792 1514 L861 1514 Q846 1370 780 1312 Q715 1255 592 1255 Q461 1255 398 1315.5 Q335 1376 323 1514 Z " />
<glyph glyph-name="Aogonek" unicode="&#x104;" horiz-adv-x="1309" d="M983 444 L327 444 L155 0 L38 0 L620 1475 L691 1475 L1273 0 Q1095 -131 1095 -245 Q1095 -293 1118.5 -314 Q1142 -335 1196 -335 L1289 -335 L1289 -424 L1207 -424 Q993 -424 993 -261 Q993 -140 1170 0 L1156 0 L983 444 Z M947 538 L655 1291 L364 538 L947 538 Z " />
<glyph glyph-name="aogonek" unicode="&#x105;" horiz-adv-x="1194" d="M1001 0 Q823 -129 823 -245 Q823 -293 846.5 -314 Q870 -335 924 -335 L1017 -335 L1017 -424 L935 -424 Q720 -424 720 -261 Q720 -139 898 0 L895 0 L895 159 Q865 96 798 50 Q675 -32 489 -32 Q116 -32 116 293 Q116 502 261 585 Q359 641 610 641 Q714 641 893 629 L893 707 Q893 798 875 853.5 Q857 909 817 943 Q748 1001 583 1001 Q421 1001 360 924 Q330 886 311 800 L209 800 Q224 890 248 940 Q272 990 319 1026 Q408 1095 585 1095 Q802 1095 898 1017 Q1001 934 1001 730 L1001 0 Z M893 535 Q752 549 602 549 Q472 549 399 533 Q326 517 287 479 Q226 420 226 299 Q226 177 292.5 119.5 Q359 62 501 62 Q694 62 802 165 Q893 252 893 431 L893 535 Z " />
<glyph glyph-name="Cacute" unicode="&#x106;" horiz-adv-x="1396" d="M1202 306 L1285 242 Q1188 100 1061 35.5 Q934 -29 748 -29 Q540 -29 409 53 Q255 148 178 353 Q118 512 118 728 Q118 1095 291 1305 Q453 1502 750 1502 Q986 1502 1120.5 1386.5 Q1255 1271 1263 1063 L1155 1063 Q1148 1221 1040.5 1312 Q933 1403 753 1403 Q582 1403 474 1329 Q349 1245 285 1065 Q233 921 233 725 Q233 419 370 239 Q436 152 529.5 111 Q623 70 756 70 Q905 70 1006.5 123.5 Q1108 177 1202 306 Z M596 1587 L793 1905 L934 1905 L681 1587 L596 1587 Z " />
<glyph glyph-name="cacute" unicode="&#x107;" horiz-adv-x="1084" d="M921 211 L981 128 Q815 -32 585 -32 Q364 -32 237 109 Q107 254 107 514 Q107 776 236 940 Q358 1094 592 1094 Q768 1094 868 1003.5 Q968 913 972 750 L869 750 Q844 1000 587 1000 Q397 1000 303 856 Q217 725 217 519 Q217 282 338 161 Q436 62 592 62 Q768 62 921 211 Z M446 1224 L643 1542 L784 1542 L531 1224 L446 1224 Z " />
<glyph glyph-name="Ccircumflex" unicode="&#x108;" horiz-adv-x="1396" d="M1202 306 L1285 242 Q1188 100 1061 35.5 Q934 -29 748 -29 Q540 -29 409 53 Q255 148 178 353 Q118 512 118 728 Q118 1095 291 1305 Q453 1502 750 1502 Q986 1502 1120.5 1386.5 Q1255 1271 1263 1063 L1155 1063 Q1148 1221 1040.5 1312 Q933 1403 753 1403 Q582 1403 474 1329 Q349 1245 285 1065 Q233 921 233 725 Q233 419 370 239 Q436 152 529.5 111 Q623 70 756 70 Q905 70 1006.5 123.5 Q1108 177 1202 306 Z M739 1817 L548 1587 L429 1587 L708 1905 L771 1905 L1050 1587 L930 1587 L739 1817 Z " />
<glyph glyph-name="ccircumflex" unicode="&#x109;" horiz-adv-x="1084" d="M921 211 L981 128 Q815 -32 585 -32 Q364 -32 237 109 Q107 254 107 514 Q107 776 236 940 Q358 1094 592 1094 Q768 1094 868 1003.5 Q968 913 972 750 L869 750 Q844 1000 587 1000 Q397 1000 303 856 Q217 725 217 519 Q217 282 338 161 Q436 62 592 62 Q768 62 921 211 Z M603 1454 L412 1224 L293 1224 L572 1541 L635 1541 L914 1224 L794 1224 L603 1454 Z " />
<glyph glyph-name="Cdotaccent" unicode="&#x10a;" horiz-adv-x="1396" d="M1202 306 L1285 242 Q1188 100 1061 35.5 Q934 -29 748 -29 Q540 -29 409 53 Q255 148 178 353 Q118 512 118 728 Q118 1095 291 1305 Q453 1502 750 1502 Q986 1502 1120.5 1386.5 Q1255 1271 1263 1063 L1155 1063 Q1148 1221 1040.5 1312 Q933 1403 753 1403 Q582 1403 474 1329 Q349 1245 285 1065 Q233 921 233 725 Q233 419 370 239 Q436 152 529.5 111 Q623 70 756 70 Q905 70 1006.5 123.5 Q1108 177 1202 306 Z M741 1827 Q776 1827 801 1802 Q826 1777 826 1741 Q826 1706 800.5 1680.5 Q775 1655 739 1655 Q703 1655 677.5 1680.5 Q652 1706 652 1742 Q652 1778 677.5 1802.5 Q703 1827 741 1827 Z " />
<glyph glyph-name="cdotaccent" unicode="&#x10b;" horiz-adv-x="1084" d="M921 211 L981 128 Q815 -32 585 -32 Q364 -32 237 109 Q107 254 107 514 Q107 776 236 940 Q358 1094 592 1094 Q768 1094 868 1003.5 Q968 913 972 750 L869 750 Q844 1000 587 1000 Q397 1000 303 856 Q217 725 217 519 Q217 282 338 161 Q436 62 592 62 Q768 62 921 211 Z M571 1464 Q606 1464 631 1439 Q656 1414 656 1378 Q656 1342 630.5 1317 Q605 1292 569 1292 Q533 1292 507.5 1317.5 Q482 1343 482 1379 Q482 1415 507.5 1439.5 Q533 1464 571 1464 Z " />
<glyph glyph-name="Ccaron" unicode="&#x10c;" horiz-adv-x="1396" d="M1202 306 L1285 242 Q1188 100 1061 35.5 Q934 -29 748 -29 Q540 -29 409 53 Q255 148 178 353 Q118 512 118 728 Q118 1095 291 1305 Q453 1502 750 1502 Q986 1502 1120.5 1386.5 Q1255 1271 1263 1063 L1155 1063 Q1148 1221 1040.5 1312 Q933 1403 753 1403 Q582 1403 474 1329 Q349 1245 285 1065 Q233 921 233 725 Q233 419 370 239 Q436 152 529.5 111 Q623 70 756 70 Q905 70 1006.5 123.5 Q1108 177 1202 306 Z M732 1676 L923 1905 L1043 1905 L764 1588 L701 1588 L422 1905 L541 1905 L732 1676 Z " />
<glyph glyph-name="ccaron" unicode="&#x10d;" horiz-adv-x="1084" d="M921 211 L981 128 Q815 -32 585 -32 Q364 -32 237 109 Q107 254 107 514 Q107 776 236 940 Q358 1094 592 1094 Q768 1094 868 1003.5 Q968 913 972 750 L869 750 Q844 1000 587 1000 Q397 1000 303 856 Q217 725 217 519 Q217 282 338 161 Q436 62 592 62 Q768 62 921 211 Z M576 1312 L767 1542 L887 1542 L608 1225 L545 1225 L266 1542 L385 1542 L576 1312 Z " />
<glyph glyph-name="Dcaron" unicode="&#x10e;" horiz-adv-x="1452" d="M197 0 L197 1475 L568 1475 Q895 1475 1095 1315 Q1334 1123 1334 738 Q1334 352 1095 160 Q896 0 562 0 L197 0 Z M308 94 L555 94 Q854 94 1023 235 Q1219 398 1219 738 Q1219 1076 1023 1240 Q855 1381 552 1381 L308 1381 L308 94 Z M610 1676 L801 1905 L921 1905 L642 1588 L579 1588 L300 1905 L419 1905 L610 1676 Z " />
<glyph glyph-name="dcaron" unicode="&#x10f;" horiz-adv-x="1411" d="M971 0 L971 188 Q837 -32 586 -32 Q357 -32 226 137 Q107 291 107 530 Q107 770 226 924 Q357 1093 586 1093 Q836 1093 970 873 L970 1516 L1078 1516 L1078 0 L971 0 Z M583 999 Q421 999 320 869 Q217 739 217 530 Q217 323 320 192 Q421 62 589 62 Q769 62 876 215 Q970 349 970 529 Q970 715 876 846 Q809 940 722 975 Q665 999 583 999 Z M1226 1155 L1327 1544 L1452 1544 L1310 1155 L1226 1155 Z " />
<glyph glyph-name="Dcroat" unicode="&#x110;" horiz-adv-x="1459" d="M204 823 L204 1475 L574 1475 Q902 1475 1101 1315 Q1341 1123 1341 737 Q1341 352 1101 160 Q902 0 569 0 L204 0 L204 730 L33 730 L33 823 L204 823 Z M315 823 L809 823 L809 730 L315 730 L315 94 L561 94 Q861 94 1030 235 Q1226 398 1226 738 Q1226 1076 1030 1240 Q861 1381 559 1381 L315 1381 L315 823 Z " />
<glyph glyph-name="dcroat" unicode="&#x111;" horiz-adv-x="1273" d="M970 0 L970 188 Q923 113 879 73 Q763 -32 585 -32 Q357 -32 226 137 Q107 291 107 530 Q107 770 226 924 Q357 1093 585 1093 Q715 1093 807 1040.5 Q899 988 969 873 L969 1230 L636 1230 L636 1315 L969 1315 L969 1516 L1077 1516 L1077 1315 L1236 1315 L1236 1230 L1077 1230 L1077 0 L970 0 Z M583 999 Q421 999 319 869 Q217 739 217 530 Q217 323 319 192 Q421 62 589 62 Q769 62 876 215 Q969 349 969 529 Q969 715 876 846 Q809 940 722 975 Q664 999 583 999 Z " />
<glyph glyph-name="Emacron" unicode="&#x112;" horiz-adv-x="1164" d="M197 0 L197 1475 L1062 1475 L1062 1381 L308 1381 L308 811 L949 811 L949 717 L308 717 L308 94 L1077 94 L1077 0 L197 0 Z M378 1689 L378 1798 L874 1798 L874 1689 L378 1689 Z " />
<glyph glyph-name="emacron" unicode="&#x113;" horiz-adv-x="1157" d="M1054 513 L218 513 Q224 367 272 271 Q322 170 405.5 116 Q489 62 595 62 Q791 62 966 210 L1026 127 Q833 -32 597 -32 Q362 -32 226 137 Q107 285 107 523 Q107 765 230 924 Q362 1093 583 1093 Q795 1093 924.5 933.5 Q1054 774 1054 513 Z M940 607 Q923 743 873 827 Q770 999 581 999 Q457 999 368 923 Q304 867 271 796 Q238 725 221 607 L940 607 Z M330 1326 L330 1435 L826 1435 L826 1326 L330 1326 Z " />
<glyph glyph-name="Ebreve" unicode="&#x114;" horiz-adv-x="1164" d="M197 0 L197 1475 L1062 1475 L1062 1381 L308 1381 L308 811 L949 811 L949 717 L308 717 L308 94 L1077 94 L1077 0 L197 0 Z M358 1877 L425 1877 Q433 1790 480.5 1751 Q528 1712 627 1712 Q727 1712 773 1750 Q819 1788 827 1877 L896 1877 Q881 1733 815 1674 Q750 1617 627 1617 Q496 1617 433 1677.5 Q370 1738 358 1877 Z " />
<glyph glyph-name="ebreve" unicode="&#x115;" horiz-adv-x="1157" d="M1054 513 L218 513 Q224 367 272 271 Q322 170 405.5 116 Q489 62 595 62 Q791 62 966 210 L1026 127 Q833 -32 597 -32 Q362 -32 226 137 Q107 285 107 523 Q107 765 230 924 Q362 1093 583 1093 Q795 1093 924.5 933.5 Q1054 774 1054 513 Z M940 607 Q923 743 873 827 Q770 999 581 999 Q457 999 368 923 Q304 867 271 796 Q238 725 221 607 L940 607 Z M309 1514 L376 1514 Q384 1427 431.5 1388.5 Q479 1350 578 1350 Q678 1350 724 1388 Q770 1426 778 1514 L847 1514 Q832 1370 766 1312 Q701 1255 578 1255 Q447 1255 384 1315.5 Q321 1376 309 1514 Z " />
<glyph glyph-name="Edotaccent" unicode="&#x116;" horiz-adv-x="1164" d="M197 0 L197 1475 L1062 1475 L1062 1381 L308 1381 L308 811 L949 811 L949 717 L308 717 L308 94 L1077 94 L1077 0 L197 0 Z M629 1827 Q664 1827 689 1802 Q714 1777 714 1741 Q714 1706 688.5 1680.5 Q663 1655 627 1655 Q591 1655 565.5 1680.5 Q540 1706 540 1742 Q540 1778 565.5 1802.5 Q591 1827 629 1827 Z " />
<glyph glyph-name="edotaccent" unicode="&#x117;" horiz-adv-x="1157" d="M1054 513 L218 513 Q224 367 272 271 Q322 170 405.5 116 Q489 62 595 62 Q791 62 966 210 L1026 127 Q833 -32 597 -32 Q362 -32 226 137 Q107 285 107 523 Q107 765 230 924 Q362 1093 583 1093 Q795 1093 924.5 933.5 Q1054 774 1054 513 Z M940 607 Q923 743 873 827 Q770 999 581 999 Q457 999 368 923 Q304 867 271 796 Q238 725 221 607 L940 607 Z M581 1464 Q616 1464 641 1439 Q666 1414 666 1378 Q666 1342 640.5 1317 Q615 1292 579 1292 Q543 1292 517.5 1317.5 Q492 1343 492 1379 Q492 1415 517.5 1439.5 Q543 1464 581 1464 Z " />
<glyph glyph-name="Eogonek" unicode="&#x118;" horiz-adv-x="1164" d="M1077 0 Q975 -79 937 -131.5 Q899 -184 899 -245 Q899 -293 922.5 -314 Q946 -335 1000 -335 L1093 -335 L1093 -424 L1011 -424 Q797 -424 797 -261 Q797 -140 975 0 L197 0 L197 1475 L1062 1475 L1062 1381 L308 1381 L308 811 L949 811 L949 717 L308 717 L308 94 L1077 94 L1077 0 Z " />
<glyph glyph-name="eogonek" unicode="&#x119;" horiz-adv-x="1157" d="M1054 513 L218 513 Q224 367 272 271 Q322 170 405.5 116 Q489 62 595 62 Q791 62 967 210 L1026 127 Q873 22 801 -67.5 Q729 -157 729 -245 Q729 -293 752.5 -314 Q776 -335 829 -335 L922 -335 L922 -424 L840 -424 Q626 -424 626 -258 Q626 -139 752 -14 Q668 -32 593 -32 Q362 -32 226 137 Q107 285 107 523 Q107 765 230 924 Q362 1093 583 1093 Q795 1093 924.5 933.5 Q1054 774 1054 513 Z M940 607 Q923 743 873 827 Q771 999 581 999 Q458 999 369 923 Q304 867 271 796 Q238 725 221 607 L940 607 Z " />
<glyph glyph-name="Ecaron" unicode="&#x11a;" horiz-adv-x="1164" d="M197 0 L197 1475 L1062 1475 L1062 1381 L308 1381 L308 811 L949 811 L949 717 L308 717 L308 94 L1077 94 L1077 0 L197 0 Z M626 1676 L817 1905 L937 1905 L658 1588 L595 1588 L316 1905 L435 1905 L626 1676 Z " />
<glyph glyph-name="ecaron" unicode="&#x11b;" horiz-adv-x="1157" d="M1054 513 L218 513 Q224 367 272 271 Q322 170 405.5 116 Q489 62 595 62 Q791 62 966 210 L1026 127 Q833 -32 597 -32 Q362 -32 226 137 Q107 285 107 523 Q107 765 230 924 Q362 1093 583 1093 Q795 1093 924.5 933.5 Q1054 774 1054 513 Z M940 607 Q923 743 873 827 Q770 999 581 999 Q457 999 368 923 Q304 867 271 796 Q238 725 221 607 L940 607 Z M578 1312 L769 1542 L889 1542 L610 1225 L547 1225 L268 1542 L387 1542 L578 1312 Z " />
<glyph glyph-name="Gcircumflex" unicode="&#x11c;" horiz-adv-x="1501" d="M882 636 L882 730 L1320 730 L1320 56 Q1070 -29 779 -29 Q549 -29 413 55 Q118 239 118 724 Q118 1096 297 1306 Q465 1502 771 1502 Q1017 1502 1155.5 1386.5 Q1294 1271 1297 1063 L1189 1063 Q1184 1196 1108 1279 Q996 1403 772 1403 Q492 1403 356 1202 Q233 1022 233 724 Q233 412 376 236 Q447 149 545.5 109.5 Q644 70 792 70 Q996 70 1211 145 L1211 636 L882 636 Z M757 1817 L566 1587 L447 1587 L726 1905 L789 1905 L1068 1587 L948 1587 L757 1817 Z " />
<glyph glyph-name="gcircumflex" unicode="&#x11d;" horiz-adv-x="1267" d="M970 186 Q837 -33 586 -33 Q357 -33 226 137 Q107 291 107 530 Q107 770 226 924 Q357 1093 586 1093 Q837 1093 971 873 L971 1061 L1078 1061 L1078 145 Q1078 -114 1013 -249 Q908 -466 595 -466 Q352 -466 160 -326 L220 -243 Q396 -372 604 -372 Q824 -372 907 -223 Q942 -159 956 -79 Q970 1 970 143 L970 186 Z M584 999 Q421 999 319 869 Q217 738 217 530 Q217 322 319 191 Q420 61 589 61 Q769 61 876 214 Q970 348 970 529 Q970 715 876 846 Q809 940 722 975 Q665 999 584 999 Z M633 1454 L442 1224 L323 1224 L602 1541 L665 1541 L944 1224 L824 1224 L633 1454 Z " />
<glyph glyph-name="Gbreve" unicode="&#x11e;" horiz-adv-x="1501" d="M882 636 L882 730 L1320 730 L1320 56 Q1070 -29 779 -29 Q549 -29 413 55 Q118 239 118 724 Q118 1096 297 1306 Q465 1502 771 1502 Q1017 1502 1155.5 1386.5 Q1294 1271 1297 1063 L1189 1063 Q1184 1196 1108 1279 Q996 1403 772 1403 Q492 1403 356 1202 Q233 1022 233 724 Q233 412 376 236 Q447 149 545.5 109.5 Q644 70 792 70 Q996 70 1211 145 L1211 636 L882 636 Z M482 1877 L549 1877 Q557 1790 604.5 1751 Q652 1712 751 1712 Q851 1712 897 1750 Q943 1788 951 1877 L1020 1877 Q1005 1733 939 1674 Q874 1617 751 1617 Q620 1617 557 1677.5 Q494 1738 482 1877 Z " />
<glyph glyph-name="gbreve" unicode="&#x11f;" horiz-adv-x="1267" d="M970 186 Q837 -33 586 -33 Q357 -33 226 137 Q107 291 107 530 Q107 770 226 924 Q357 1093 586 1093 Q837 1093 971 873 L971 1061 L1078 1061 L1078 145 Q1078 -114 1013 -249 Q908 -466 595 -466 Q352 -466 160 -326 L220 -243 Q396 -372 604 -372 Q824 -372 907 -223 Q942 -159 956 -79 Q970 1 970 143 L970 186 Z M584 999 Q421 999 319 869 Q217 738 217 530 Q217 322 319 191 Q420 61 589 61 Q769 61 876 214 Q970 348 970 529 Q970 715 876 846 Q809 940 722 975 Q665 999 584 999 Z M365 1514 L432 1514 Q440 1427 487.5 1388.5 Q535 1350 634 1350 Q734 1350 780 1388 Q826 1426 834 1514 L903 1514 Q888 1370 822 1312 Q757 1255 634 1255 Q503 1255 440 1315.5 Q377 1376 365 1514 Z " />
<glyph glyph-name="Gdotaccent" unicode="&#x120;" horiz-adv-x="1501" d="M882 636 L882 730 L1320 730 L1320 56 Q1070 -29 779 -29 Q549 -29 413 55 Q118 239 118 724 Q118 1096 297 1306 Q465 1502 771 1502 Q1017 1502 1155.5 1386.5 Q1294 1271 1297 1063 L1189 1063 Q1184 1196 1108 1279 Q996 1403 772 1403 Q492 1403 356 1202 Q233 1022 233 724 Q233 412 376 236 Q447 149 545.5 109.5 Q644 70 792 70 Q996 70 1211 145 L1211 636 L882 636 Z M753 1827 Q788 1827 813 1802 Q838 1777 838 1741 Q838 1706 812.5 1680.5 Q787 1655 751 1655 Q715 1655 689.5 1680.5 Q664 1706 664 1742 Q664 1778 689.5 1802.5 Q715 1827 753 1827 Z " />
<glyph glyph-name="gdotaccent" unicode="&#x121;" horiz-adv-x="1267" d="M970 186 Q837 -33 586 -33 Q357 -33 226 137 Q107 291 107 530 Q107 770 226 924 Q357 1093 586 1093 Q837 1093 971 873 L971 1061 L1078 1061 L1078 145 Q1078 -114 1013 -249 Q908 -466 595 -466 Q352 -466 160 -326 L220 -243 Q396 -372 604 -372 Q824 -372 907 -223 Q942 -159 956 -79 Q970 1 970 143 L970 186 Z M584 999 Q421 999 319 869 Q217 738 217 530 Q217 322 319 191 Q420 61 589 61 Q769 61 876 214 Q970 348 970 529 Q970 715 876 846 Q809 940 722 975 Q665 999 584 999 Z M636 1464 Q671 1464 696 1439 Q721 1414 721 1378 Q721 1342 695.5 1317 Q670 1292 634 1292 Q598 1292 572.5 1317.5 Q547 1343 547 1379 Q547 1415 572.5 1439.5 Q598 1464 636 1464 Z " />
<glyph glyph-name="Gcommaaccent" unicode="&#x122;" horiz-adv-x="1501" d="M882 636 L882 730 L1320 730 L1320 56 Q1070 -29 779 -29 Q549 -29 413 55 Q118 239 118 724 Q118 1096 297 1306 Q465 1502 771 1502 Q1017 1502 1155.5 1386.5 Q1294 1271 1297 1063 L1189 1063 Q1184 1196 1108 1279 Q996 1403 772 1403 Q492 1403 356 1202 Q233 1022 233 724 Q233 412 376 236 Q447 149 545.5 109.5 Q644 70 792 70 Q996 70 1211 145 L1211 636 L882 636 Z M600 -472 L723 -155 L852 -155 L681 -472 L600 -472 Z " />
<glyph glyph-name="gcommaaccent" unicode="&#x123;" horiz-adv-x="1267" d="M970 186 Q837 -33 586 -33 Q357 -33 226 137 Q107 291 107 530 Q107 770 226 924 Q357 1093 586 1093 Q837 1093 971 873 L971 1061 L1078 1061 L1078 145 Q1078 -114 1013 -249 Q908 -466 595 -466 Q352 -466 160 -326 L220 -243 Q396 -372 604 -372 Q824 -372 907 -223 Q942 -159 956 -79 Q970 1 970 143 L970 186 Z M584 999 Q421 999 319 869 Q217 738 217 530 Q217 322 319 191 Q420 61 589 61 Q769 61 876 214 Q970 348 970 529 Q970 715 876 846 Q809 940 722 975 Q665 999 584 999 Z M849 1542 L652 1224 L511 1224 L764 1542 L849 1542 Z " />
<glyph glyph-name="Hcircumflex" unicode="&#x124;" horiz-adv-x="1411" d="M197 0 L197 1475 L308 1475 L308 825 L1102 825 L1102 1475 L1213 1475 L1213 0 L1102 0 L1102 731 L308 731 L308 0 L197 0 Z M705 1817 L514 1587 L395 1587 L674 1905 L737 1905 L1016 1587 L896 1587 L705 1817 Z " />
<glyph glyph-name="hcircumflex" unicode="&#x125;" horiz-adv-x="1225" d="M190 0 L190 1516 L298 1516 L298 846 Q386 944 457 995 Q591 1094 734 1094 Q852 1094 928 1032 Q996 977 1020 891.5 Q1044 806 1044 617 L1044 0 L936 0 L936 623 Q936 791 913 864 Q872 990 713 990 Q511 990 298 713 L298 0 L190 0 Z M286 1817 L95 1587 L-24 1587 L255 1905 L318 1905 L597 1587 L477 1587 L286 1817 Z " />
<glyph glyph-name="Hbar" unicode="&#x126;" horiz-adv-x="1409" d="M197 0 L197 1040 L31 1040 L31 1122 L197 1122 L197 1475 L308 1475 L308 1122 L1102 1122 L1102 1475 L1213 1475 L1213 1122 L1378 1122 L1378 1040 L1213 1040 L1213 0 L1102 0 L1102 731 L308 731 L308 0 L197 0 Z M308 825 L1102 825 L1102 1040 L308 1040 L308 825 Z " />
<glyph glyph-name="hbar" unicode="&#x127;" horiz-adv-x="1230" d="M195 0 L195 1230 L54 1230 L54 1315 L195 1315 L195 1516 L303 1516 L303 1315 L654 1315 L654 1230 L303 1230 L303 846 Q393 945 462 995 Q596 1094 741 1094 Q858 1094 934 1032 Q1002 977 1026 891.5 Q1050 806 1050 617 L1050 0 L942 0 L942 623 Q942 791 919 864 Q878 990 719 990 Q652 990 593 964.5 Q534 939 462 879 Q384 815 303 713 L303 0 L195 0 Z " />
<glyph glyph-name="Itilde" unicode="&#x128;" horiz-adv-x="505" d="M197 0 L197 1475 L308 1475 L308 0 L197 0 Z M41 1658 L-35 1658 Q15 1833 138 1833 Q170 1833 195.5 1823.5 Q221 1814 270 1784 Q342 1740 363 1740 Q420 1740 462 1831 L538 1831 Q481 1652 357 1652 Q296 1652 197 1717 Q153 1745 127 1745 Q77 1745 41 1658 Z " />
<glyph glyph-name="itilde" unicode="&#x129;" horiz-adv-x="508" d="M200 0 L200 1061 L308 1061 L308 0 L200 0 Z M42 1295 L-34 1295 Q16 1470 139 1470 Q191 1470 271 1421 Q343 1377 364 1377 Q421 1377 463 1468 L539 1468 Q482 1289 359 1289 Q297 1289 198 1354 Q154 1382 128 1382 Q78 1382 42 1295 Z " />
<glyph glyph-name="Imacron" unicode="&#x12a;" horiz-adv-x="506" d="M198 0 L198 1475 L309 1475 L309 0 L198 0 Z M5 1689 L5 1798 L501 1798 L501 1689 L5 1689 Z " />
<glyph glyph-name="imacron" unicode="&#x12b;" horiz-adv-x="508" d="M200 0 L200 1061 L308 1061 L308 0 L200 0 Z M6 1326 L6 1435 L502 1435 L502 1326 L6 1326 Z " />
<glyph glyph-name="Ibreve" unicode="&#x12c;" horiz-adv-x="505" d="M198 0 L198 1475 L309 1475 L309 0 L198 0 Z M-16 1877 L51 1877 Q59 1790 106.5 1751 Q154 1712 253 1712 Q353 1712 399 1750 Q445 1788 453 1877 L522 1877 Q507 1733 441 1674 Q376 1617 253 1617 Q122 1617 59 1677.5 Q-4 1738 -16 1877 Z " />
<glyph glyph-name="ibreve" unicode="&#x12d;" horiz-adv-x="508" d="M200 0 L200 1061 L308 1061 L308 0 L200 0 Z M-15 1514 L52 1514 Q60 1427 107.5 1388.5 Q155 1350 254 1350 Q354 1350 400 1388 Q446 1426 454 1514 L523 1514 Q508 1370 442 1312 Q377 1255 254 1255 Q123 1255 60 1315.5 Q-3 1376 -15 1514 Z " />
<glyph glyph-name="Iogonek" unicode="&#x12e;" horiz-adv-x="506" d="M308 0 Q131 -131 131 -245 Q131 -293 154.5 -314 Q178 -335 232 -335 L324 -335 L324 -424 L242 -424 Q28 -424 28 -261 Q28 -140 206 0 L198 0 L198 1475 L308 1475 L308 0 Z " />
<glyph glyph-name="iogonek" unicode="&#x12f;" horiz-adv-x="510" d="M202 0 L202 1061 L309 1061 L309 0 Q132 -131 132 -245 Q132 -293 155.5 -314 Q179 -335 233 -335 L325 -335 L325 -424 L244 -424 Q29 -424 29 -261 Q29 -141 207 0 L202 0 Z M258 1464 Q293 1464 318 1439 Q343 1414 343 1378 Q343 1342 317.5 1317 Q292 1292 256 1292 Q220 1292 194.5 1317.5 Q169 1343 169 1379 Q169 1415 194.5 1439.5 Q220 1464 258 1464 Z " />
<glyph glyph-name="Idot" unicode="&#x130;" horiz-adv-x="506" d="M198 0 L198 1475 L309 1475 L309 0 L198 0 Z M255 1827 Q290 1827 315 1802 Q340 1777 340 1741 Q340 1706 314.5 1680.5 Q289 1655 253 1655 Q217 1655 191.5 1680.5 Q166 1706 166 1742 Q166 1778 191.5 1802.5 Q217 1827 255 1827 Z " />
<glyph glyph-name="IJ" unicode="&#x132;" horiz-adv-x="1054" d="M197 0 L197 1475 L308 1475 L308 0 L197 0 Z M745 1475 L856 1475 L856 94 Q868 -251 564 -259 L564 -165 Q674 -155 709.5 -101 Q745 -47 745 109 L745 1475 Z " />
<glyph glyph-name="ij" unicode="&#x133;" horiz-adv-x="1039" d="M201 0 L201 1061 L309 1061 L309 0 L201 0 Z M257 1464 Q292 1464 317 1439 Q342 1414 342 1378 Q342 1342 316.5 1317 Q291 1292 255 1292 Q219 1292 193.5 1317.5 Q168 1343 168 1379 Q168 1415 193.5 1439.5 Q219 1464 257 1464 Z M730 1061 L838 1061 L838 0 Q851 -428 541 -439 L541 -344 Q656 -333 697 -250 Q717 -207 723.5 -154 Q730 -101 730 19 L730 1061 Z M786 1464 Q821 1464 846 1439 Q871 1414 871 1378 Q871 1342 845.5 1317 Q820 1292 784 1292 Q748 1292 722.5 1317.5 Q697 1343 697 1379 Q697 1415 722.5 1439.5 Q748 1464 786 1464 Z " />
<glyph glyph-name="Jcircumflex" unicode="&#x134;" horiz-adv-x="548" d="M240 1475 L351 1475 L351 94 Q363 -251 59 -259 L59 -165 Q169 -155 204.5 -101 Q240 -47 240 109 L240 1475 Z M274 1817 L83 1587 L-36 1587 L243 1905 L306 1905 L585 1587 L465 1587 L274 1817 Z " />
<glyph glyph-name="jcircumflex" unicode="&#x135;" horiz-adv-x="529" d="M220 1061 L328 1061 L328 0 Q341 -428 31 -439 L31 -344 Q146 -333 187 -250 Q207 -207 213.5 -154 Q220 -101 220 19 L220 1061 Z M264 1454 L73 1224 L-46 1224 L233 1541 L296 1541 L575 1224 L455 1224 L264 1454 Z " />
<glyph glyph-name="Kcommaaccent" unicode="&#x136;" horiz-adv-x="1126" d="M197 0 L197 1475 L308 1475 L308 771 L971 1475 L1108 1475 L440 771 L1163 0 L1022 0 L308 771 L308 0 L197 0 Z M446 -472 L569 -155 L698 -155 L527 -472 L446 -472 Z " />
<glyph glyph-name="kcommaaccent" unicode="&#x137;" horiz-adv-x="1029" d="M190 0 L190 1516 L298 1516 L298 630 L799 1061 L932 1061 L421 615 L1034 0 L899 0 L298 610 L298 -1 L190 0 Z M378 -472 L501 -155 L630 -155 L459 -472 L378 -472 Z " />
<glyph glyph-name="kgreenlandic" unicode="&#x138;" horiz-adv-x="996" d="M173 0 L173 1061 L281 1061 L281 613 L782 1061 L915 1061 L404 597 L1017 0 L882 0 L281 593 L281 -1 L173 0 Z " />
<glyph glyph-name="Lacute" unicode="&#x139;" horiz-adv-x="1058" d="M197 0 L197 1475 L308 1475 L308 94 L1000 94 L1000 0 L197 0 Z M215 1587 L412 1905 L553 1905 L300 1587 L215 1587 Z " />
<glyph glyph-name="lacute" unicode="&#x13a;" horiz-adv-x="487" d="M189 0 L189 1516 L297 1516 L297 0 L189 0 Z M161 1642 L358 1960 L499 1960 L246 1642 L161 1642 Z " />
<glyph glyph-name="Lcommaaccent" unicode="&#x13b;" horiz-adv-x="1058" d="M197 0 L197 1475 L308 1475 L308 94 L1000 94 L1000 0 L197 0 Z M392 -472 L515 -155 L644 -155 L473 -472 L392 -472 Z " />
<glyph glyph-name="lcommaaccent" unicode="&#x13c;" horiz-adv-x="487" d="M189 0 L189 1516 L297 1516 L297 0 L189 0 Z M66 -472 L189 -155 L318 -155 L147 -472 L66 -472 Z " />
<glyph glyph-name="Lcaron" unicode="&#x13d;" horiz-adv-x="1058" d="M197 0 L197 1475 L308 1475 L308 94 L1000 94 L1000 0 L197 0 Z M552 1085 L649 1475 L778 1475 L636 1085 L552 1085 Z " />
<glyph glyph-name="lcaron" unicode="&#x13e;" horiz-adv-x="631" d="M190 0 L190 1516 L298 1516 L298 0 L190 0 Z M446 1155 L547 1544 L672 1544 L530 1155 L446 1155 Z " />
<glyph glyph-name="Ldot" unicode="&#x13f;" horiz-adv-x="1059" d="M181 0 L181 1475 L292 1475 L292 94 L984 94 L984 0 L181 0 Z M774 815 Q813 815 841 787 Q869 759 869 721 Q869 681 840.5 653.5 Q812 626 772 626 Q731 626 703 653.5 Q675 681 675 721 Q675 761 703.5 788 Q732 815 774 815 Z " />
<glyph glyph-name="ldot" unicode="&#x140;" horiz-adv-x="594" d="M173 0 L173 1516 L281 1516 L281 0 L173 0 Z M532 800 Q571 800 599 772 Q627 744 627 706 Q627 666 598.5 638.5 Q570 611 530 611 Q489 611 461 638.5 Q433 666 433 706 Q433 746 461.5 773 Q490 800 532 800 Z " />
<glyph glyph-name="Lslash" unicode="&#x141;" horiz-adv-x="1079" d="M219 0 L219 587 L34 463 L34 569 L219 693 L219 1475 L330 1475 L330 771 L664 991 L664 885 L330 665 L330 94 L1022 94 L1022 0 L219 0 Z " />
<glyph glyph-name="lslash" unicode="&#x142;" horiz-adv-x="547" d="M220 0 L220 743 L-8 578 L-8 681 L220 846 L220 1516 L328 1516 L328 925 L555 1090 L555 986 L328 821 L328 0 L220 0 Z " />
<glyph glyph-name="Nacute" unicode="&#x143;" horiz-adv-x="1411" d="M197 0 L197 1475 L303 1475 L1103 248 L1103 1475 L1213 1475 L1213 -21 L1153 -21 L307 1285 L307 0 L197 0 Z M637 1587 L834 1905 L975 1905 L722 1587 L637 1587 Z " />
<glyph glyph-name="nacute" unicode="&#x144;" horiz-adv-x="1225" d="M190 0 L190 1061 L298 1061 L298 846 Q390 946 457 995 Q591 1094 735 1094 Q921 1094 995 951 Q1024 894 1034 826.5 Q1044 759 1044 617 L1044 0 L936 0 L936 623 Q936 791 913 864 Q872 990 713 990 Q646 990 587.5 965 Q529 940 456 879 Q368 806 298 712 L298 0 L190 0 Z M517 1224 L714 1542 L855 1542 L602 1224 L517 1224 Z " />
<glyph glyph-name="Ncommaaccent" unicode="&#x145;" horiz-adv-x="1411" d="M197 0 L197 1475 L303 1475 L1103 248 L1103 1475 L1213 1475 L1213 -21 L1153 -21 L307 1285 L307 0 L197 0 Z M534 -472 L657 -155 L786 -155 L615 -472 L534 -472 Z " />
<glyph glyph-name="ncommaaccent" unicode="&#x146;" horiz-adv-x="1225" d="M190 0 L190 1061 L298 1061 L298 846 Q390 946 457 995 Q591 1094 735 1094 Q921 1094 995 951 Q1024 894 1034 826.5 Q1044 759 1044 617 L1044 0 L936 0 L936 623 Q936 791 913 864 Q872 990 713 990 Q646 990 587.5 965 Q529 940 456 879 Q368 806 298 712 L298 0 L190 0 Z M456 -472 L579 -155 L708 -155 L537 -472 L456 -472 Z " />
<glyph glyph-name="Ncaron" unicode="&#x147;" horiz-adv-x="1411" d="M197 0 L197 1475 L303 1475 L1103 248 L1103 1475 L1213 1475 L1213 -21 L1153 -21 L307 1285 L307 0 L197 0 Z M739 1676 L930 1905 L1050 1905 L771 1588 L708 1588 L429 1905 L548 1905 L739 1676 Z " />
<glyph glyph-name="ncaron" unicode="&#x148;" horiz-adv-x="1225" d="M190 0 L190 1061 L298 1061 L298 846 Q390 946 457 995 Q591 1094 735 1094 Q921 1094 995 951 Q1024 894 1034 826.5 Q1044 759 1044 617 L1044 0 L936 0 L936 623 Q936 791 913 864 Q872 990 713 990 Q646 990 587.5 965 Q529 940 456 879 Q368 806 298 712 L298 0 L190 0 Z M613 1312 L804 1542 L924 1542 L645 1225 L582 1225 L303 1542 L422 1542 L613 1312 Z " />
<glyph glyph-name="napostrophe" unicode="&#x149;" horiz-adv-x="1197" d="M178 0 L178 1061 L286 1061 L286 846 Q378 946 445 995 Q580 1094 723 1094 Q909 1094 983 951 Q1012 894 1022 826.5 Q1032 759 1032 617 L1032 0 L924 0 L924 623 Q924 791 901 864 Q860 990 701 990 Q501 990 286 712 L286 0 L178 0 Z M-39 1150 L64 1579 L187 1579 L44 1150 L-39 1150 Z " />
<glyph glyph-name="Eng" unicode="&#x14a;" horiz-adv-x="1422" d="M181 0 L181 1475 L288 1475 L1130 243 L1130 1475 L1241 1475 L1241 -29 Q1254 -414 944 -422 L944 -328 Q1062 -316 1100 -247 Q1119 -212 1126 -164 Q1133 -116 1133 -14 L1133 55 L292 1291 L292 0 L181 0 Z " />
<glyph glyph-name="eng" unicode="&#x14b;" horiz-adv-x="1192" d="M173 0 L173 1061 L281 1061 L281 846 Q373 946 440 995 Q574 1094 719 1094 Q904 1094 978 951 Q1007 894 1017 826.5 Q1027 759 1027 617 L1027 1 Q1040 -428 731 -438 L731 -344 Q845 -333 886 -250 Q906 -207 912.5 -153.5 Q919 -100 919 20 L919 623 Q919 791 895 864 Q855 990 697 990 Q496 990 281 712 L281 0 L173 0 Z " />
<glyph glyph-name="Omacron" unicode="&#x14c;" horiz-adv-x="1519" d="M771 1504 Q1099 1504 1256 1284 Q1401 1079 1401 737 Q1401 397 1256 191 Q1100 -29 759 -29 Q419 -29 263 191 Q118 397 118 735 Q118 1082 263 1284 Q356 1412 493 1462 Q610 1504 771 1504 Z M750 1405 Q474 1405 347 1213 Q274 1103 252 971 Q233 860 233 737 Q233 579 260 465.5 Q287 352 347 262 Q474 70 759 70 Q1046 70 1172 262 Q1286 436 1286 734 Q1286 1043 1172 1213 Q1097 1325 981 1369 Q885 1405 750 1405 Z M511 1689 L511 1798 L1007 1798 L1007 1689 L511 1689 Z " />
<glyph glyph-name="omacron" unicode="&#x14d;" horiz-adv-x="1216" d="M615 1093 Q842 1093 982 924 Q1108 770 1108 530 Q1108 292 982 137 Q843 -32 608 -32 Q372 -32 233 137 Q107 292 107 529 Q107 768 233 924 Q371 1093 615 1093 Z M602 999 Q485 999 393 935 Q217 815 217 530 Q217 338 302 215 Q408 62 608 62 Q806 62 913 215 Q998 338 998 529 Q998 724 913 846 Q806 999 602 999 Z M360 1326 L360 1435 L856 1435 L856 1326 L360 1326 Z " />
<glyph glyph-name="Obreve" unicode="&#x14e;" horiz-adv-x="1519" d="M771 1504 Q1099 1504 1256 1284 Q1401 1079 1401 737 Q1401 397 1256 191 Q1100 -29 759 -29 Q419 -29 263 191 Q118 397 118 735 Q118 1082 263 1284 Q356 1412 493 1462 Q610 1504 771 1504 Z M750 1405 Q474 1405 347 1213 Q274 1103 252 971 Q233 860 233 737 Q233 579 260 465.5 Q287 352 347 262 Q474 70 759 70 Q1046 70 1172 262 Q1286 436 1286 734 Q1286 1043 1172 1213 Q1097 1325 981 1369 Q885 1405 750 1405 Z M490 1877 L557 1877 Q565 1790 612.5 1751 Q660 1712 759 1712 Q859 1712 905 1750 Q951 1788 959 1877 L1028 1877 Q1013 1733 947 1674 Q882 1617 759 1617 Q628 1617 565 1677.5 Q502 1738 490 1877 Z " />
<glyph glyph-name="obreve" unicode="&#x14f;" horiz-adv-x="1216" d="M615 1093 Q842 1093 982 924 Q1108 770 1108 530 Q1108 292 982 137 Q843 -32 608 -32 Q372 -32 233 137 Q107 292 107 529 Q107 768 233 924 Q371 1093 615 1093 Z M602 999 Q485 999 393 935 Q217 815 217 530 Q217 338 302 215 Q408 62 608 62 Q806 62 913 215 Q998 338 998 529 Q998 724 913 846 Q806 999 602 999 Z M339 1514 L406 1514 Q414 1427 461.5 1388.5 Q509 1350 608 1350 Q708 1350 754 1388 Q800 1426 808 1514 L877 1514 Q862 1370 796 1312 Q731 1255 608 1255 Q477 1255 414 1315.5 Q351 1376 339 1514 Z " />
<glyph glyph-name="Ohungarumlaut" unicode="&#x150;" horiz-adv-x="1519" d="M771 1504 Q1099 1504 1256 1284 Q1401 1079 1401 737 Q1401 397 1256 191 Q1100 -29 759 -29 Q419 -29 263 191 Q118 397 118 735 Q118 1082 263 1284 Q356 1412 493 1462 Q610 1504 771 1504 Z M750 1405 Q474 1405 347 1213 Q274 1103 252 971 Q233 860 233 737 Q233 579 260 465.5 Q287 352 347 262 Q474 70 759 70 Q1046 70 1172 262 Q1286 436 1286 734 Q1286 1043 1172 1213 Q1097 1325 981 1369 Q885 1405 750 1405 Z M585 1587 L719 1905 L852 1905 L658 1587 L585 1587 Z M833 1587 L967 1905 L1100 1905 L907 1587 L833 1587 Z " />
<glyph glyph-name="ohungarumlaut" unicode="&#x151;" horiz-adv-x="1216" d="M615 1093 Q842 1093 982 924 Q1108 770 1108 530 Q1108 292 982 137 Q843 -32 608 -32 Q372 -32 233 137 Q107 292 107 529 Q107 768 233 924 Q371 1093 615 1093 Z M602 999 Q485 999 393 935 Q217 815 217 530 Q217 338 302 215 Q408 62 608 62 Q806 62 913 215 Q998 338 998 529 Q998 724 913 846 Q806 999 602 999 Z M434 1224 L568 1542 L701 1542 L507 1224 L434 1224 Z M682 1224 L816 1542 L949 1542 L756 1224 L682 1224 Z " />
<glyph glyph-name="Racute" unicode="&#x154;" horiz-adv-x="1296" d="M181 0 L181 1475 L575 1475 Q717 1475 806 1460.5 Q895 1446 963 1412 Q1053 1367 1103 1273 Q1153 1179 1153 1054 Q1153 743 864 657 Q917 627 951 577.5 Q985 528 1023 426 L1179 0 L1056 0 L907 407 Q860 537 788.5 584 Q717 631 568 631 L292 631 L292 0 L181 0 Z M292 725 L597 725 Q811 725 904 785 Q1038 872 1038 1050 Q1038 1222 918 1312 Q826 1381 598 1381 L292 1381 L292 725 Z M498 1587 L695 1905 L836 1905 L583 1587 L498 1587 Z " />
<glyph glyph-name="racute" unicode="&#x155;" horiz-adv-x="780" d="M190 0 L190 1061 L297 1061 L297 845 Q373 969 442 1015 Q534 1076 663 1076 L712 1076 L712 972 L681 972 Q587 972 526.5 948.5 Q466 925 418 871 Q346 790 298 672 L298 0 L190 0 Z M363 1224 L560 1542 L701 1542 L448 1224 L363 1224 Z " />
<glyph glyph-name="Rcommaaccent" unicode="&#x156;" horiz-adv-x="1296" d="M181 0 L181 1475 L575 1475 Q717 1475 806 1460.5 Q895 1446 963 1412 Q1053 1367 1103 1273 Q1153 1179 1153 1054 Q1153 743 864 657 Q917 627 951 577.5 Q985 528 1023 426 L1179 0 L1056 0 L907 407 Q860 537 788.5 584 Q717 631 568 631 L292 631 L292 0 L181 0 Z M292 725 L597 725 Q811 725 904 785 Q1038 872 1038 1050 Q1038 1222 918 1312 Q826 1381 598 1381 L292 1381 L292 725 Z M457 -472 L580 -155 L709 -155 L538 -472 L457 -472 Z " />
<glyph glyph-name="rcommaaccent" unicode="&#x157;" horiz-adv-x="780" d="M189 0 L189 1061 L296 1061 L296 845 Q372 969 441 1015 Q533 1076 662 1076 L711 1076 L711 972 L680 972 Q586 972 525.5 948.5 Q465 925 417 871 Q345 790 297 672 L297 0 L189 0 Z M66 -472 L189 -155 L318 -155 L147 -472 L66 -472 Z " />
<glyph glyph-name="Rcaron" unicode="&#x158;" horiz-adv-x="1296" d="M181 0 L181 1475 L575 1475 Q717 1475 806 1460.5 Q895 1446 963 1412 Q1053 1367 1103 1273 Q1153 1179 1153 1054 Q1153 743 864 657 Q917 627 951 577.5 Q985 528 1023 426 L1179 0 L1056 0 L907 407 Q860 537 788.5 584 Q717 631 568 631 L292 631 L292 0 L181 0 Z M292 725 L597 725 Q811 725 904 785 Q1038 872 1038 1050 Q1038 1222 918 1312 Q826 1381 598 1381 L292 1381 L292 725 Z M600 1676 L791 1905 L911 1905 L632 1588 L569 1588 L290 1905 L409 1905 L600 1676 Z " />
<glyph glyph-name="rcaron" unicode="&#x159;" horiz-adv-x="780" d="M190 0 L190 1061 L297 1061 L297 845 Q373 969 442 1015 Q534 1076 663 1076 L712 1076 L712 972 L681 972 Q587 972 526.5 948.5 Q466 925 418 871 Q346 790 298 672 L298 0 L190 0 Z M424 1312 L615 1542 L735 1542 L456 1225 L393 1225 L114 1542 L233 1542 L424 1312 Z " />
<glyph glyph-name="Sacute" unicode="&#x15a;" horiz-adv-x="1251" d="M109 412 L216 412 Q221 253 301 174 Q407 70 627 70 Q840 70 947 165 Q1043 250 1043 389 Q1043 524 950 598 Q901 637 836.5 661 Q772 685 628 719 Q476 754 404.5 779.5 Q333 805 275 845 Q150 930 150 1110 Q150 1272 251 1377 Q372 1504 607 1504 Q878 1504 989 1348 Q1059 1249 1061 1063 L954 1063 Q949 1223 885 1299 Q796 1405 612 1405 Q435 1405 342 1315 Q261 1237 261 1120 Q261 984 368 920 Q413 893 466.5 875.5 Q520 858 647 828 Q808 789 886 759.5 Q964 730 1026 683 Q1157 583 1157 400 Q1157 312 1124 231 Q1091 150 1034 95 Q902 -29 633 -29 Q322 -29 194 126 Q111 226 109 412 Z M509 1587 L706 1905 L847 1905 L594 1587 L509 1587 Z " />
<glyph glyph-name="sacute" unicode="&#x15b;" horiz-adv-x="1012" d="M82 313 L185 313 Q198 199 243 151 Q281 110 353 86 Q425 62 510 62 Q638 62 720 109 Q812 163 812 286 Q812 394 744 441 Q712 464 664.5 476.5 Q617 489 491 510 Q392 527 344 541 Q296 555 255 581 Q144 649 144 795 Q144 937 244 1019 Q334 1093 482 1093 Q591 1093 675 1055 Q759 1017 796 952 Q834 886 837 786 L734 786 Q723 882 688 923 Q623 998 475 998 Q369 998 309 946 Q249 895 249 803 Q249 713 302.5 674 Q356 635 516 609 Q629 591 683.5 576 Q738 561 786 536 Q917 466 917 288 Q917 132 810 51 Q698 -32 512 -32 Q93 -32 82 313 Z M383 1224 L580 1542 L721 1542 L468 1224 L383 1224 Z " />
<glyph glyph-name="Scircumflex" unicode="&#x15c;" horiz-adv-x="1251" d="M109 412 L216 412 Q221 253 301 174 Q407 70 627 70 Q840 70 947 165 Q1043 250 1043 389 Q1043 524 950 598 Q901 637 836.5 661 Q772 685 628 719 Q476 754 404.5 779.5 Q333 805 275 845 Q150 930 150 1110 Q150 1272 251 1377 Q372 1504 607 1504 Q878 1504 989 1348 Q1059 1249 1061 1063 L954 1063 Q949 1223 885 1299 Q796 1405 612 1405 Q435 1405 342 1315 Q261 1237 261 1120 Q261 984 368 920 Q413 893 466.5 875.5 Q520 858 647 828 Q808 789 886 759.5 Q964 730 1026 683 Q1157 583 1157 400 Q1157 312 1124 231 Q1091 150 1034 95 Q902 -29 633 -29 Q322 -29 194 126 Q111 226 109 412 Z M625 1817 L434 1587 L315 1587 L594 1905 L657 1905 L936 1587 L816 1587 L625 1817 Z " />
<glyph glyph-name="scircumflex" unicode="&#x15d;" horiz-adv-x="1012" d="M82 313 L185 313 Q198 199 243 151 Q281 110 353 86 Q425 62 510 62 Q638 62 720 109 Q812 163 812 286 Q812 394 744 441 Q712 464 664.5 476.5 Q617 489 491 510 Q392 527 344 541 Q296 555 255 581 Q144 649 144 795 Q144 937 244 1019 Q334 1093 482 1093 Q591 1093 675 1055 Q759 1017 796 952 Q834 886 837 786 L734 786 Q723 882 688 923 Q623 998 475 998 Q369 998 309 946 Q249 895 249 803 Q249 713 302.5 674 Q356 635 516 609 Q629 591 683.5 576 Q738 561 786 536 Q917 466 917 288 Q917 132 810 51 Q698 -32 512 -32 Q93 -32 82 313 Z M485 1454 L294 1224 L175 1224 L454 1541 L517 1541 L796 1224 L676 1224 L485 1454 Z " />
<glyph glyph-name="Scedilla" unicode="&#x15e;" horiz-adv-x="1251" d="M678 -28 L637 -101 Q723 -106 760 -120 Q862 -160 862 -274 Q862 -362 801.5 -411.5 Q741 -461 633 -461 Q498 -461 390 -423 L418 -332 Q519 -372 629 -372 Q759 -372 759 -277 Q759 -185 615 -185 Q597 -185 552 -188 L544 -116 L594 -28 Q109 -7 115 412 L222 412 Q227 253 307 174 Q413 70 633 70 Q846 70 953 165 Q1049 250 1049 389 Q1049 524 956 598 Q907 637 842.5 661.5 Q778 686 634 719 Q482 754 410.5 779.5 Q339 805 281 845 Q156 930 156 1110 Q156 1272 257 1377 Q378 1504 613 1504 Q884 1504 995 1348 Q1065 1249 1067 1063 L960 1063 Q955 1223 891 1299 Q802 1405 618 1405 Q441 1405 348 1315 Q267 1237 267 1120 Q267 984 374 920 Q419 893 472.5 875.5 Q526 858 653 828 Q814 789 892 759.5 Q970 730 1032 683 Q1163 583 1163 400 Q1163 259 1086 149 Q972 -14 678 -28 Z " />
<glyph glyph-name="scedilla" unicode="&#x15f;" horiz-adv-x="1012" d="M550 -32 L511 -102 Q598 -106 634 -120 Q736 -160 736 -274 Q736 -362 675.5 -411.5 Q615 -461 507 -461 Q375 -461 265 -423 L292 -333 Q395 -372 503 -372 Q633 -372 633 -277 Q633 -185 488 -185 Q466 -185 427 -188 L418 -116 L466 -31 Q270 -15 178.5 67 Q87 149 82 313 L185 313 Q198 199 243 151 Q281 110 353 86 Q425 62 510 62 Q639 62 720 109 Q812 163 812 285 Q812 394 744 442 Q712 464 665 476.5 Q618 489 491 510 Q392 526 344 540.5 Q296 555 255 581 Q144 649 144 795 Q144 937 244 1019 Q334 1093 482 1093 Q591 1093 675 1055 Q759 1017 796 952 Q834 886 837 786 L734 786 Q723 882 688 923 Q623 998 475 998 Q368 998 308.5 946.5 Q249 895 249 803 Q249 713 302.5 674 Q356 635 516 609 Q706 578 786 536 Q917 466 917 288 Q917 87 736 8 Q662 -24 550 -32 Z " />
<glyph glyph-name="Scaron" unicode="&#x160;" horiz-adv-x="1251" d="M109 412 L216 412 Q221 253 301 174 Q407 70 627 70 Q840 70 947 165 Q1043 250 1043 389 Q1043 524 950 598 Q901 637 836.5 661 Q772 685 628 719 Q476 754 404.5 779.5 Q333 805 275 845 Q150 930 150 1110 Q150 1272 251 1377 Q372 1504 607 1504 Q878 1504 989 1348 Q1059 1249 1061 1063 L954 1063 Q949 1223 885 1299 Q796 1405 612 1405 Q435 1405 342 1315 Q261 1237 261 1120 Q261 984 368 920 Q413 893 466.5 875.5 Q520 858 647 828 Q808 789 886 759.5 Q964 730 1026 683 Q1157 583 1157 400 Q1157 312 1124 231 Q1091 150 1034 95 Q902 -29 633 -29 Q322 -29 194 126 Q111 226 109 412 Z M598 1676 L789 1905 L909 1905 L630 1588 L567 1588 L288 1905 L407 1905 L598 1676 Z " />
<glyph glyph-name="scaron" unicode="&#x161;" horiz-adv-x="1012" d="M82 313 L185 313 Q198 199 243 151 Q281 110 353 86 Q425 62 510 62 Q638 62 720 109 Q812 163 812 286 Q812 394 744 441 Q712 464 664.5 476.5 Q617 489 491 510 Q392 527 344 541 Q296 555 255 581 Q144 649 144 795 Q144 937 244 1019 Q334 1093 482 1093 Q591 1093 675 1055 Q759 1017 796 952 Q834 886 837 786 L734 786 Q723 882 688 923 Q623 998 475 998 Q369 998 309 946 Q249 895 249 803 Q249 713 302.5 674 Q356 635 516 609 Q629 591 683.5 576 Q738 561 786 536 Q917 466 917 288 Q917 132 810 51 Q698 -32 512 -32 Q93 -32 82 313 Z M492 1312 L683 1542 L803 1542 L524 1225 L461 1225 L182 1542 L301 1542 L492 1312 Z " />
<glyph glyph-name="Tcommaaccent" unicode="&#x162;" horiz-adv-x="1089" d="M489 0 L489 1381 L49 1381 L49 1475 L1039 1475 L1039 1381 L600 1381 L600 0 L489 0 Z M365 -472 L488 -155 L617 -155 L446 -472 L365 -472 Z " />
<glyph glyph-name="tcommaaccent" unicode="&#x163;" horiz-adv-x="710" d="M251 967 L85 967 L85 1061 L251 1061 L263 1384 L359 1384 L359 1061 L652 1061 L652 967 L359 967 L359 285 Q359 181 395 137.5 Q431 94 518 94 L677 94 L677 0 L508 0 Q380 0 314 76 Q251 149 251 275 L251 967 Z M204 -472 L327 -155 L456 -155 L285 -472 L204 -472 Z " />
<glyph glyph-name="Tcaron" unicode="&#x164;" horiz-adv-x="1089" d="M489 0 L489 1381 L49 1381 L49 1475 L1039 1475 L1039 1381 L600 1381 L600 0 L489 0 Z M544 1676 L735 1905 L855 1905 L576 1588 L513 1588 L234 1905 L353 1905 L544 1676 Z " />
<glyph glyph-name="tcaron" unicode="&#x165;" horiz-adv-x="766" d="M251 967 L85 967 L85 1061 L251 1061 L263 1384 L359 1384 L359 1061 L652 1061 L652 967 L359 967 L359 285 Q359 181 395 137.5 Q431 94 518 94 L677 94 L677 0 L508 0 Q380 0 314 76 Q251 149 251 275 L251 967 Z M580 1175 L681 1564 L806 1564 L664 1175 L580 1175 Z " />
<glyph glyph-name="Tbar" unicode="&#x166;" horiz-adv-x="1099" d="M494 0 L494 730 L169 730 L169 823 L494 823 L494 1381 L33 1381 L33 1475 L1066 1475 L1066 1381 L605 1381 L605 823 L930 823 L930 730 L605 730 L605 0 L494 0 Z " />
<glyph glyph-name="tbar" unicode="&#x167;" horiz-adv-x="677" d="M235 967 L69 967 L69 1061 L235 1061 L247 1384 L343 1384 L343 1061 L636 1061 L636 967 L343 967 L343 719 L636 719 L636 632 L343 632 L343 285 Q343 181 379 137.5 Q415 94 502 94 L661 94 L661 0 L492 0 Q364 0 298 76 Q235 148 235 275 L235 632 L69 632 L69 719 L235 719 L235 967 Z " />
<glyph glyph-name="Utilde" unicode="&#x168;" horiz-adv-x="1379" d="M188 1475 L299 1475 L299 534 Q299 333 355 230 Q443 70 689 70 Q937 70 1024 230 Q1080 333 1080 534 L1080 1475 L1191 1475 L1191 603 Q1191 420 1175 325.5 Q1159 231 1116 162 Q998 -29 690 -29 Q380 -29 263 162 Q220 230 204 326 Q188 422 188 603 L188 1475 Z M478 1658 L402 1658 Q452 1833 575 1833 Q607 1833 632.5 1823.5 Q658 1814 707 1784 Q779 1740 800 1740 Q857 1740 899 1831 L975 1831 Q918 1652 794 1652 Q733 1652 634 1717 Q590 1745 564 1745 Q514 1745 478 1658 Z " />
<glyph glyph-name="utilde" unicode="&#x169;" horiz-adv-x="1182" d="M181 1061 L289 1061 L289 438 Q289 275 310 207 Q346 85 492 85 Q608 85 734 190 Q818 260 885 349 L885 1061 L993 1061 L993 0 L885 0 L885 214 Q788 113 734 74 Q605 -19 470 -19 Q295 -19 227 120 Q199 177 190 240 Q181 303 181 444 L181 1061 Z M379 1295 L303 1295 Q353 1470 476 1470 Q528 1470 608 1421 Q680 1377 701 1377 Q758 1377 800 1468 L876 1468 Q819 1289 696 1289 Q634 1289 535 1354 Q491 1382 465 1382 Q415 1382 379 1295 Z " />
<glyph glyph-name="Umacron" unicode="&#x16a;" horiz-adv-x="1379" d="M188 1475 L299 1475 L299 534 Q299 333 355 230 Q443 70 689 70 Q937 70 1024 230 Q1080 333 1080 534 L1080 1475 L1191 1475 L1191 603 Q1191 420 1175 325.5 Q1159 231 1116 162 Q998 -29 690 -29 Q380 -29 263 162 Q220 230 204 326 Q188 422 188 603 L188 1475 Z M442 1689 L442 1798 L938 1798 L938 1689 L442 1689 Z " />
<glyph glyph-name="umacron" unicode="&#x16b;" horiz-adv-x="1182" d="M181 1061 L289 1061 L289 438 Q289 275 310 207 Q346 85 492 85 Q608 85 734 190 Q818 260 885 349 L885 1061 L993 1061 L993 0 L885 0 L885 214 Q788 113 734 74 Q605 -19 470 -19 Q295 -19 227 120 Q199 177 190 240 Q181 303 181 444 L181 1061 Z M343 1326 L343 1435 L839 1435 L839 1326 L343 1326 Z " />
<glyph glyph-name="Ubreve" unicode="&#x16c;" horiz-adv-x="1379" d="M188 1475 L299 1475 L299 534 Q299 333 355 230 Q443 70 689 70 Q937 70 1024 230 Q1080 333 1080 534 L1080 1475 L1191 1475 L1191 603 Q1191 420 1175 325.5 Q1159 231 1116 162 Q998 -29 690 -29 Q380 -29 263 162 Q220 230 204 326 Q188 422 188 603 L188 1475 Z M421 1877 L488 1877 Q496 1790 543.5 1751 Q591 1712 690 1712 Q790 1712 836 1750 Q882 1788 890 1877 L959 1877 Q944 1733 878 1674 Q813 1617 690 1617 Q559 1617 496 1677.5 Q433 1738 421 1877 Z " />
<glyph glyph-name="ubreve" unicode="&#x16d;" horiz-adv-x="1182" d="M181 1061 L289 1061 L289 438 Q289 275 310 207 Q346 85 492 85 Q608 85 734 190 Q818 260 885 349 L885 1061 L993 1061 L993 0 L885 0 L885 214 Q788 113 734 74 Q605 -19 470 -19 Q295 -19 227 120 Q199 177 190 240 Q181 303 181 444 L181 1061 Z M322 1514 L389 1514 Q397 1427 444.5 1388.5 Q492 1350 591 1350 Q691 1350 737 1388 Q783 1426 791 1514 L860 1514 Q845 1370 779 1312 Q714 1255 591 1255 Q460 1255 397 1315.5 Q334 1376 322 1514 Z " />
<glyph glyph-name="Uring" unicode="&#x16e;" horiz-adv-x="1379" d="M188 1475 L299 1475 L299 534 Q299 333 355 230 Q443 70 689 70 Q937 70 1024 230 Q1080 333 1080 534 L1080 1475 L1191 1475 L1191 603 Q1191 420 1175 325.5 Q1159 231 1116 162 Q998 -29 690 -29 Q380 -29 263 162 Q220 230 204 326 Q188 422 188 603 L188 1475 Z M693 1985 Q791 1985 848 1927 Q905 1869 905 1770 Q905 1669 847.5 1612 Q790 1555 689 1555 Q589 1555 531.5 1612 Q474 1669 474 1769 Q474 1872 531.5 1928.5 Q589 1985 693 1985 Z M687 1912 Q625 1912 591.5 1875 Q558 1838 558 1770 Q558 1628 688 1628 Q821 1628 821 1770 Q821 1912 687 1912 Z " />
<glyph glyph-name="uring" unicode="&#x16f;" horiz-adv-x="1182" d="M181 1061 L289 1061 L289 438 Q289 275 310 207 Q346 85 492 85 Q608 85 734 190 Q818 260 885 349 L885 1061 L993 1061 L993 0 L885 0 L885 214 Q788 113 734 74 Q605 -19 470 -19 Q295 -19 227 120 Q199 177 190 240 Q181 303 181 444 L181 1061 Z M594 1622 Q692 1622 749 1564 Q806 1506 806 1407 Q806 1306 748.5 1249 Q691 1192 590 1192 Q490 1192 432.5 1249 Q375 1306 375 1406 Q375 1509 432.5 1565.5 Q490 1622 594 1622 Z M588 1548 Q526 1548 492.5 1511 Q459 1474 459 1407 Q459 1265 589 1265 Q722 1265 722 1406 Q722 1548 588 1548 Z " />
<glyph glyph-name="Uhungarumlaut" unicode="&#x170;" horiz-adv-x="1379" d="M188 1475 L299 1475 L299 534 Q299 333 355 230 Q443 70 689 70 Q937 70 1024 230 Q1080 333 1080 534 L1080 1475 L1191 1475 L1191 603 Q1191 420 1175 325.5 Q1159 231 1116 162 Q998 -29 690 -29 Q380 -29 263 162 Q220 230 204 326 Q188 422 188 603 L188 1475 Z M516 1587 L650 1905 L783 1905 L589 1587 L516 1587 Z M764 1587 L898 1905 L1031 1905 L838 1587 L764 1587 Z " />
<glyph glyph-name="uhungarumlaut" unicode="&#x171;" horiz-adv-x="1182" d="M181 1061 L289 1061 L289 438 Q289 275 310 207 Q346 85 492 85 Q608 85 734 190 Q818 260 885 349 L885 1061 L993 1061 L993 0 L885 0 L885 214 Q788 113 734 74 Q605 -19 470 -19 Q295 -19 227 120 Q199 177 190 240 Q181 303 181 444 L181 1061 Z M417 1224 L551 1542 L684 1542 L490 1224 L417 1224 Z M665 1224 L799 1542 L932 1542 L739 1224 L665 1224 Z " />
<glyph glyph-name="Uogonek" unicode="&#x172;" horiz-adv-x="1379" d="M188 1475 L299 1475 L299 534 Q299 333 355 231 Q444 71 690 71 Q937 71 1024 231 Q1080 333 1080 534 L1080 1475 L1191 1475 L1191 603 Q1191 421 1175 327 Q1159 233 1116 162 Q1032 25 834 -15 Q751 -80 714 -134 Q677 -188 677 -245 Q677 -293 700.5 -314 Q724 -335 777 -335 L870 -335 L870 -424 L788 -424 Q574 -424 574 -261 Q574 -149 715 -29 Q538 -22 453 9 Q302 66 245 193.5 Q188 321 188 603 L188 1475 Z " />
<glyph glyph-name="uogonek" unicode="&#x173;" horiz-adv-x="1182" d="M993 0 Q899 -70 857 -128 Q815 -186 815 -245 Q815 -293 838.5 -314 Q862 -335 916 -335 L1009 -335 L1009 -424 L927 -424 Q712 -424 712 -261 Q712 -141 890 0 L885 0 L885 214 Q788 113 734 74 Q606 -19 470 -19 Q295 -19 227 120 Q199 177 190 240 Q181 303 181 444 L181 1061 L289 1061 L289 438 Q289 274 310 206 Q346 84 492 84 Q555 84 610 108 Q665 132 734 190 Q819 261 885 349 L885 1061 L993 1061 L993 0 Z " />
<glyph glyph-name="Wcircumflex" unicode="&#x174;" horiz-adv-x="1829" d="M445 -33 L73 1475 L183 1475 L491 228 L883 1488 L945 1488 L1338 228 L1645 1475 L1756 1475 L1384 -33 L1312 -33 L914 1248 L516 -33 L445 -33 Z M914 1817 L723 1587 L604 1587 L883 1905 L946 1905 L1225 1587 L1105 1587 L914 1817 Z " />
<glyph glyph-name="wcircumflex" unicode="&#x175;" horiz-adv-x="1531" d="M399 -28 L69 1061 L179 1061 L429 212 L742 1061 L790 1061 L1103 212 L1353 1061 L1463 1061 L1132 -28 L1088 -28 L766 863 L443 -28 L399 -28 Z M766 1454 L575 1224 L456 1224 L735 1541 L798 1541 L1077 1224 L957 1224 L766 1454 Z " />
<glyph glyph-name="Ycircumflex" unicode="&#x176;" horiz-adv-x="1050" d="M470 0 L470 588 L-27 1475 L94 1475 L525 708 L956 1475 L1077 1475 L581 588 L581 0 L470 0 Z M524 1817 L333 1587 L214 1587 L493 1905 L556 1905 L835 1587 L715 1587 L524 1817 Z " />
<glyph glyph-name="ycircumflex" unicode="&#x177;" horiz-adv-x="975" d="M436 54 L32 1061 L142 1061 L487 190 L832 1061 L943 1061 L452 -170 Q405 -285 380.5 -325.5 Q356 -366 315 -394 Q279 -419 236.5 -428 Q194 -437 112 -439 L112 -344 Q220 -342 261 -313 Q311 -278 354 -164 L436 54 Z M487 1454 L296 1224 L177 1224 L456 1541 L519 1541 L798 1224 L678 1224 L487 1454 Z " />
<glyph glyph-name="Zacute" unicode="&#x179;" horiz-adv-x="1123" d="M57 0 L57 82 L873 1381 L116 1381 L116 1475 L1001 1475 L1001 1406 L180 94 L1035 94 L1035 0 L57 0 Z M452 1587 L649 1905 L790 1905 L537 1587 L452 1587 Z " />
<glyph glyph-name="zacute" unicode="&#x17a;" horiz-adv-x="920" d="M44 0 L44 82 L704 967 L99 967 L99 1061 L840 1061 L840 988 L175 94 L855 94 L855 0 L44 0 Z M391 1224 L588 1542 L729 1542 L476 1224 L391 1224 Z " />
<glyph glyph-name="Zdotaccent" unicode="&#x17b;" horiz-adv-x="1123" d="M57 0 L57 82 L873 1381 L116 1381 L116 1475 L1001 1475 L1001 1406 L180 94 L1035 94 L1035 0 L57 0 Z M564 1827 Q599 1827 624 1802 Q649 1777 649 1741 Q649 1706 623.5 1680.5 Q598 1655 562 1655 Q526 1655 500.5 1680.5 Q475 1706 475 1742 Q475 1778 500.5 1802.5 Q526 1827 564 1827 Z " />
<glyph glyph-name="zdotaccent" unicode="&#x17c;" horiz-adv-x="920" d="M44 0 L44 82 L704 967 L99 967 L99 1061 L840 1061 L840 988 L175 94 L855 94 L855 0 L44 0 Z M496 1464 Q531 1464 556 1439 Q581 1414 581 1378 Q581 1342 555.5 1317 Q530 1292 494 1292 Q458 1292 432.5 1317.5 Q407 1343 407 1379 Q407 1415 432.5 1439.5 Q458 1464 496 1464 Z " />
<glyph glyph-name="Zcaron" unicode="&#x17d;" horiz-adv-x="1123" d="M57 0 L57 82 L873 1381 L116 1381 L116 1475 L1001 1475 L1001 1406 L180 94 L1035 94 L1035 0 L57 0 Z M561 1676 L752 1905 L872 1905 L593 1588 L530 1588 L251 1905 L370 1905 L561 1676 Z " />
<glyph glyph-name="zcaron" unicode="&#x17e;" horiz-adv-x="920" d="M44 0 L44 82 L704 967 L99 967 L99 1061 L840 1061 L840 988 L175 94 L855 94 L855 0 L44 0 Z M493 1312 L684 1542 L804 1542 L525 1225 L462 1225 L183 1542 L302 1542 L493 1312 Z " />
<glyph glyph-name="uni018F" unicode="&#x18f;" horiz-adv-x="1544" d="M118 825 L1308 825 Q1272 1405 774 1405 Q611 1405 506.5 1352 Q402 1299 329 1178 L234 1232 Q300 1336 368 1389 Q519 1504 775 1504 Q1117 1504 1276 1284 Q1426 1077 1426 737 Q1426 398 1276 191 Q1117 -29 772 -29 Q428 -29 268 191 Q182 309 150 444 Q118 579 118 825 Z M233 731 Q240 570 253 497 Q266 424 298 353 Q371 195 500 127 Q607 70 780 70 Q1145 70 1264 403 Q1310 531 1311 731 L233 731 Z " />
<glyph glyph-name="uni01CD" unicode="&#x1cd;" horiz-adv-x="1309" d="M983 444 L327 444 L155 0 L38 0 L620 1475 L691 1475 L1273 0 L1156 0 L983 444 Z M947 538 L655 1291 L364 538 L947 538 Z M654 1676 L845 1905 L965 1905 L686 1588 L623 1588 L344 1905 L463 1905 L654 1676 Z " />
<glyph glyph-name="uni01CE" unicode="&#x1ce;" horiz-adv-x="1178" d="M895 159 Q865 96 798 50 Q675 -32 489 -32 Q116 -32 116 293 Q116 502 261 585 Q359 641 610 641 Q714 641 893 629 L893 707 Q893 798 875 853.5 Q857 909 817 943 Q748 1001 583 1001 Q421 1001 360 924 Q330 886 311 800 L209 800 Q224 890 248 940 Q272 990 319 1026 Q408 1095 585 1095 Q802 1095 898 1017 Q1001 934 1001 730 L1001 0 L895 0 L895 159 Z M893 535 Q752 549 602 549 Q472 549 399 533 Q326 517 287 479 Q226 420 226 299 Q226 177 292.5 119.5 Q359 62 501 62 Q694 62 802 165 Q893 252 893 431 L893 535 Z M607 1312 L798 1542 L918 1542 L639 1225 L576 1225 L297 1542 L416 1542 L607 1312 Z " />
<glyph glyph-name="uni01D3" unicode="&#x1d3;" horiz-adv-x="1379" d="M188 1475 L299 1475 L299 534 Q299 333 355 230 Q443 70 689 70 Q937 70 1024 230 Q1080 333 1080 534 L1080 1475 L1191 1475 L1191 603 Q1191 420 1175 325.5 Q1159 231 1116 162 Q998 -29 690 -29 Q380 -29 263 162 Q220 230 204 326 Q188 422 188 603 L188 1475 Z M689 1676 L880 1905 L1000 1905 L721 1588 L658 1588 L379 1905 L498 1905 L689 1676 Z " />
<glyph glyph-name="uni01D4" unicode="&#x1d4;" horiz-adv-x="1182" d="M181 1061 L289 1061 L289 438 Q289 275 310 207 Q346 85 492 85 Q608 85 734 190 Q818 260 885 349 L885 1061 L993 1061 L993 0 L885 0 L885 214 Q788 113 734 74 Q605 -19 470 -19 Q295 -19 227 120 Q199 177 190 240 Q181 303 181 444 L181 1061 Z M591 1312 L782 1542 L902 1542 L623 1225 L560 1225 L281 1542 L400 1542 L591 1312 Z " />
<glyph glyph-name="uni01DD" unicode="&#x1dd;" horiz-adv-x="1195" d="M104 602 L975 602 Q958 741 903 829 Q794 999 592 999 Q398 999 223 854 L159 934 Q354 1093 595 1093 Q826 1093 961 924 Q1089 763 1089 530 Q1089 294 961 137 Q823 -32 597 -32 Q418 -32 293 76 Q190 165 147 284 Q104 403 104 602 Z M217 506 Q227 354 268 272 Q374 62 597 62 Q765 62 866.5 180 Q968 298 979 506 L217 506 Z " />
<glyph glyph-name="Gcaron" unicode="&#x1e6;" horiz-adv-x="1501" d="M882 636 L882 730 L1320 730 L1320 56 Q1070 -29 779 -29 Q549 -29 413 55 Q118 239 118 724 Q118 1096 297 1306 Q465 1502 771 1502 Q1017 1502 1155.5 1386.5 Q1294 1271 1297 1063 L1189 1063 Q1184 1196 1108 1279 Q996 1403 772 1403 Q492 1403 356 1202 Q233 1022 233 724 Q233 412 376 236 Q447 149 545.5 109.5 Q644 70 792 70 Q996 70 1211 145 L1211 636 L882 636 Z M750 1676 L941 1905 L1061 1905 L782 1588 L719 1588 L440 1905 L559 1905 L750 1676 Z " />
<glyph glyph-name="gcaron" unicode="&#x1e7;" horiz-adv-x="1267" d="M970 186 Q837 -33 586 -33 Q357 -33 226 137 Q107 291 107 530 Q107 770 226 924 Q357 1093 586 1093 Q837 1093 971 873 L971 1061 L1078 1061 L1078 145 Q1078 -114 1013 -249 Q908 -466 595 -466 Q352 -466 160 -326 L220 -243 Q396 -372 604 -372 Q824 -372 907 -223 Q942 -159 956 -79 Q970 1 970 143 L970 186 Z M584 999 Q421 999 319 869 Q217 738 217 530 Q217 322 319 191 Q420 61 589 61 Q769 61 876 214 Q970 348 970 529 Q970 715 876 846 Q809 940 722 975 Q665 999 584 999 Z M633 1312 L824 1542 L944 1542 L665 1225 L602 1225 L323 1542 L442 1542 L633 1312 Z " />
<glyph glyph-name="uni01F4" unicode="&#x1f4;" horiz-adv-x="1501" d="M882 636 L882 730 L1320 730 L1320 56 Q1070 -29 779 -29 Q549 -29 413 55 Q118 239 118 724 Q118 1096 297 1306 Q465 1502 771 1502 Q1017 1502 1155.5 1386.5 Q1294 1271 1297 1063 L1189 1063 Q1184 1196 1108 1279 Q996 1403 772 1403 Q492 1403 356 1202 Q233 1022 233 724 Q233 412 376 236 Q447 149 545.5 109.5 Q644 70 792 70 Q996 70 1211 145 L1211 636 L882 636 Z M648 1587 L845 1905 L986 1905 L733 1587 L648 1587 Z " />
<glyph glyph-name="uni01F5" unicode="&#x1f5;" horiz-adv-x="1267" d="M970 186 Q837 -33 586 -33 Q357 -33 226 137 Q107 291 107 530 Q107 770 226 924 Q357 1093 586 1093 Q837 1093 971 873 L971 1061 L1078 1061 L1078 145 Q1078 -114 1013 -249 Q908 -466 595 -466 Q352 -466 160 -326 L220 -243 Q396 -372 604 -372 Q824 -372 907 -223 Q942 -159 956 -79 Q970 1 970 143 L970 186 Z M584 999 Q421 999 319 869 Q217 738 217 530 Q217 322 319 191 Q420 61 589 61 Q769 61 876 214 Q970 348 970 529 Q970 715 876 846 Q809 940 722 975 Q665 999 584 999 Z M524 1224 L721 1542 L862 1542 L609 1224 L524 1224 Z " />
<glyph glyph-name="Scommaaccent" unicode="&#x218;" horiz-adv-x="1251" d="M109 412 L216 412 Q221 253 301 174 Q407 70 627 70 Q840 70 947 165 Q1043 250 1043 389 Q1043 524 950 598 Q901 637 836.5 661 Q772 685 628 719 Q476 754 404.5 779.5 Q333 805 275 845 Q150 930 150 1110 Q150 1272 251 1377 Q372 1504 607 1504 Q878 1504 989 1348 Q1059 1249 1061 1063 L954 1063 Q949 1223 885 1299 Q796 1405 612 1405 Q435 1405 342 1315 Q261 1237 261 1120 Q261 984 368 920 Q413 893 466.5 875.5 Q520 858 647 828 Q808 789 886 759.5 Q964 730 1026 683 Q1157 583 1157 400 Q1157 312 1124 231 Q1091 150 1034 95 Q902 -29 633 -29 Q322 -29 194 126 Q111 226 109 412 Z M461 -472 L584 -155 L713 -155 L542 -472 L461 -472 Z " />
<glyph glyph-name="scommaaccent" unicode="&#x219;" horiz-adv-x="1012" d="M82 313 L185 313 Q198 199 243 151 Q281 110 353 86 Q425 62 510 62 Q638 62 720 109 Q812 163 812 286 Q812 394 744 441 Q712 464 664.5 476.5 Q617 489 491 510 Q392 527 344 541 Q296 555 255 581 Q144 649 144 795 Q144 937 244 1019 Q334 1093 482 1093 Q591 1093 675 1055 Q759 1017 796 952 Q834 886 837 786 L734 786 Q723 882 688 923 Q623 998 475 998 Q369 998 309 946 Q249 895 249 803 Q249 713 302.5 674 Q356 635 516 609 Q629 591 683.5 576 Q738 561 786 536 Q917 466 917 288 Q917 132 810 51 Q698 -32 512 -32 Q93 -32 82 313 Z M328 -472 L451 -155 L580 -155 L409 -472 L328 -472 Z " />
<glyph glyph-name="uni021A" unicode="&#x21a;" horiz-adv-x="1089" d="M489 0 L489 1381 L49 1381 L49 1475 L1039 1475 L1039 1381 L600 1381 L600 0 L489 0 Z M365 -472 L488 -155 L617 -155 L446 -472 L365 -472 Z " />
<glyph glyph-name="uni021B" unicode="&#x21b;" horiz-adv-x="710" d="M251 967 L85 967 L85 1061 L251 1061 L263 1384 L359 1384 L359 1061 L652 1061 L652 967 L359 967 L359 285 Q359 181 395 137.5 Q431 94 518 94 L677 94 L677 0 L508 0 Q380 0 314 76 Q251 149 251 275 L251 967 Z M204 -472 L327 -155 L456 -155 L285 -472 L204 -472 Z " />
<glyph glyph-name="uni0226" unicode="&#x226;" horiz-adv-x="1309" d="M983 444 L327 444 L155 0 L38 0 L620 1475 L691 1475 L1273 0 L1156 0 L983 444 Z M947 538 L655 1291 L364 538 L947 538 Z M657 1827 Q692 1827 717 1802 Q742 1777 742 1741 Q742 1706 716.5 1680.5 Q691 1655 655 1655 Q619 1655 593.5 1680.5 Q568 1706 568 1742 Q568 1778 593.5 1802.5 Q619 1827 657 1827 Z " />
<glyph glyph-name="uni0227" unicode="&#x227;" horiz-adv-x="1178" d="M895 159 Q865 96 798 50 Q675 -32 489 -32 Q116 -32 116 293 Q116 502 261 585 Q359 641 610 641 Q714 641 893 629 L893 707 Q893 798 875 853.5 Q857 909 817 943 Q748 1001 583 1001 Q421 1001 360 924 Q330 886 311 800 L209 800 Q224 890 248 940 Q272 990 319 1026 Q408 1095 585 1095 Q802 1095 898 1017 Q1001 934 1001 730 L1001 0 L895 0 L895 159 Z M893 535 Q752 549 602 549 Q472 549 399 533 Q326 517 287 479 Q226 420 226 299 Q226 177 292.5 119.5 Q359 62 501 62 Q694 62 802 165 Q893 252 893 431 L893 535 Z M595 1464 Q630 1464 655 1439 Q680 1414 680 1378 Q680 1342 654.5 1317 Q629 1292 593 1292 Q557 1292 531.5 1317.5 Q506 1343 506 1379 Q506 1415 531.5 1439.5 Q557 1464 595 1464 Z " />
<glyph glyph-name="uni0237" unicode="&#x237;" horiz-adv-x="529" d="M220 1061 L328 1061 L328 0 Q341 -428 31 -439 L31 -344 Q146 -333 187 -250 Q207 -207 213.5 -154 Q220 -101 220 19 L220 1061 Z " />
<glyph glyph-name="uni0259" unicode="&#x259;" horiz-adv-x="1195" d="M104 602 L975 602 Q958 741 903 829 Q794 999 592 999 Q398 999 223 854 L159 934 Q354 1093 595 1093 Q826 1093 961 924 Q1089 763 1089 530 Q1089 294 961 137 Q823 -32 597 -32 Q418 -32 293 76 Q190 165 147 284 Q104 403 104 602 Z M217 506 Q227 354 268 272 Q374 62 597 62 Q765 62 866.5 180 Q968 298 979 506 L217 506 Z " />
<glyph glyph-name="uni02C9" unicode="&#x2c9;" horiz-adv-x="1024" d="M264 1326 L264 1435 L760 1435 L760 1326 L264 1326 Z " />
<glyph glyph-name="uni0312" unicode="&#x312;" horiz-adv-x="1024" d="M727 1542 L530 1224 L389 1224 L642 1542 L727 1542 Z " />
<glyph glyph-name="uni0313" unicode="&#x313;" horiz-adv-x="144" d="M-41 1155 L60 1544 L185 1544 L43 1155 L-41 1155 Z " />
<glyph glyph-name="uni031B" unicode="&#x31b;" horiz-adv-x="144" d="M-41 1155 L60 1544 L185 1544 L43 1155 L-41 1155 Z " />
<glyph glyph-name="commaaccent" unicode="&#x326;" horiz-adv-x="1024" d="M361 -472 L484 -155 L613 -155 L442 -472 L361 -472 Z " />
<glyph glyph-name="uni037E" unicode="&#x37e;" horiz-adv-x="642" d="M220 -258 L328 162 L480 162 L322 -258 L220 -258 Z M414 870 Q453 870 481 842 Q509 814 509 776 Q509 736 480.5 708.5 Q452 681 412 681 Q371 681 343 708.5 Q315 736 315 776 Q315 816 343.5 843 Q372 870 414 870 Z " />
<glyph glyph-name="uni0387" unicode="&#x387;" horiz-adv-x="638" d="M324 709 Q363 709 391 681 Q419 653 419 615 Q419 575 390.5 547.5 Q362 520 322 520 Q281 520 253 547.5 Q225 575 225 615 Q225 655 253.5 682 Q282 709 324 709 Z " />
<glyph glyph-name="uni0400" unicode="&#x400;" horiz-adv-x="1164" d="M197 0 L197 1475 L1062 1475 L1062 1381 L308 1381 L308 811 L949 811 L949 717 L308 717 L308 94 L1077 94 L1077 0 L197 0 Z M658 1587 L405 1905 L546 1905 L743 1587 L658 1587 Z " />
<glyph glyph-name="afii10023" unicode="&#x401;" horiz-adv-x="1164" d="M197 0 L197 1475 L1062 1475 L1062 1381 L308 1381 L308 811 L949 811 L949 717 L308 717 L308 94 L1077 94 L1077 0 L197 0 Z M441 1825 Q475 1825 499.5 1800.5 Q524 1776 524 1741 Q524 1706 499.5 1681.5 Q475 1657 440 1657 Q404 1657 379.5 1682 Q355 1707 355 1742 Q355 1777 380 1801 Q405 1825 441 1825 Z M801 1825 Q835 1825 859.5 1800.5 Q884 1776 884 1741 Q884 1706 859.5 1681.5 Q835 1657 800 1657 Q764 1657 739.5 1682 Q715 1707 715 1742 Q715 1777 740 1801 Q765 1825 801 1825 Z " />
<glyph glyph-name="afii10051" unicode="&#x402;" horiz-adv-x="1606" d="M487 0 L487 1381 L69 1381 L69 1475 L1077 1475 L1077 1381 L598 1381 L598 783 Q719 888 815.5 931.5 Q912 975 1024 975 Q1220 975 1302 847 Q1333 799 1343.5 738 Q1354 677 1354 550 L1354 -74 Q1367 -413 1067 -422 L1067 -328 Q1178 -318 1214 -259 Q1233 -228 1239.5 -187.5 Q1246 -147 1246 -59 L1246 555 Q1246 699 1220 764 Q1176 872 1001 872 Q880 872 752 788 Q681 741 598 660 L598 0 L487 0 Z " />
<glyph glyph-name="afii10052" unicode="&#x403;" horiz-adv-x="1075" d="M197 0 L197 1475 L1015 1475 L1015 1381 L308 1381 L308 0 L197 0 Z M543 1587 L740 1905 L881 1905 L628 1587 L543 1587 Z " />
<glyph glyph-name="afii10053" unicode="&#x404;" horiz-adv-x="1364" d="M938 731 L232 731 Q232 506 291 355 Q354 194 466 127 Q561 70 723 70 Q838 70 931 102 Q1024 134 1076 192 Q1146 269 1150 412 L1257 412 Q1256 318 1238 258 Q1189 90 1006 19 Q882 -29 713 -29 Q395 -29 253 191 Q118 399 118 735 Q118 1076 254 1283 Q400 1504 726 1504 Q1209 1504 1226 1061 L1118 1061 Q1100 1405 730 1405 Q515 1405 396 1286 Q321 1210 284 1104.5 Q247 999 234 825 L938 825 L938 731 Z " />
<glyph glyph-name="afii10054" unicode="&#x405;" horiz-adv-x="1251" d="M109 412 L216 412 Q221 253 301 174 Q407 70 627 70 Q840 70 947 165 Q1043 250 1043 389 Q1043 524 950 598 Q901 637 836.5 661 Q772 685 628 719 Q476 754 404.5 779.5 Q333 805 275 845 Q150 930 150 1110 Q150 1272 251 1377 Q372 1504 607 1504 Q878 1504 989 1348 Q1059 1249 1061 1063 L954 1063 Q949 1223 885 1299 Q796 1405 612 1405 Q435 1405 342 1315 Q261 1237 261 1120 Q261 984 368 920 Q413 893 466.5 875.5 Q520 858 647 828 Q808 789 886 759.5 Q964 730 1026 683 Q1157 583 1157 400 Q1157 312 1124 231 Q1091 150 1034 95 Q902 -29 633 -29 Q322 -29 194 126 Q111 226 109 412 Z " />
<glyph glyph-name="afii10055" unicode="&#x406;" horiz-adv-x="506" d="M197 0 L197 1475 L308 1475 L308 0 L197 0 Z " />
<glyph glyph-name="afii10056" unicode="&#x407;" horiz-adv-x="516" d="M202 0 L202 1475 L313 1475 L313 0 L202 0 Z M76 1825 Q111 1825 136 1800.5 Q161 1776 161 1741 Q161 1706 135.5 1681.5 Q110 1657 75 1657 Q38 1657 13 1681.5 Q-12 1706 -12 1742 Q-12 1777 13.5 1801 Q39 1825 76 1825 Z M443 1825 Q478 1825 503 1800.5 Q528 1776 528 1741 Q528 1706 502.5 1681.5 Q477 1657 442 1657 Q405 1657 380 1681.5 Q355 1706 355 1742 Q355 1777 380.5 1801 Q406 1825 443 1825 Z " />
<glyph glyph-name="afii10057" unicode="&#x408;" horiz-adv-x="548" d="M240 1475 L351 1475 L351 94 Q363 -251 59 -259 L59 -165 Q169 -155 204.5 -101 Q240 -47 240 109 L240 1475 Z " />
<glyph glyph-name="afii10058" unicode="&#x409;" horiz-adv-x="2116" d="M1071 0 L1071 1381 L509 1381 Q479 707 367 357 Q304 164 222.5 82 Q141 0 10 0 L-29 0 L-29 94 L12 94 Q61 94 94 110 Q127 126 161 166 Q265 291 328 637 Q391 983 398 1475 L1182 1475 L1182 871 L1508 871 Q1641 871 1725 851 Q1809 831 1872 784 Q2024 670 2024 436 Q2024 201 1872 88 Q1809 40 1725 20 Q1641 0 1508 0 L1071 0 Z M1182 94 L1484 94 Q1701 94 1805 177.5 Q1909 261 1909 436 Q1909 634 1771 717 Q1673 777 1484 777 L1182 777 L1182 94 Z " />
<glyph glyph-name="afii10059" unicode="&#x40a;" horiz-adv-x="2075" d="M197 0 L197 1475 L308 1475 L308 825 L1009 825 L1009 1475 L1119 1475 L1119 825 L1465 825 Q1712 825 1829 742 Q1981 635 1981 413 Q1981 191 1829 83 Q1712 0 1465 0 L1009 0 L1009 731 L308 731 L308 0 L197 0 Z M1119 94 L1441 94 Q1658 94 1762 172 Q1866 250 1866 413 Q1866 598 1728 675 Q1629 731 1441 731 L1119 731 L1119 94 Z " />
<glyph glyph-name="afii10060" unicode="&#x40b;" horiz-adv-x="1605" d="M487 0 L487 1381 L69 1381 L69 1475 L1077 1475 L1077 1381 L598 1381 L598 783 Q718 888 815 931.5 Q912 975 1024 975 Q1220 975 1302 847 Q1333 799 1343.5 738 Q1354 677 1354 550 L1354 0 L1246 0 L1246 555 Q1246 699 1220 764 Q1176 872 1001 872 Q880 872 752 788 Q681 741 598 660 L598 0 L487 0 Z " />
<glyph glyph-name="afii10061" unicode="&#x40c;" horiz-adv-x="1229" d="M197 0 L197 1475 L308 1475 L308 829 L611 829 L1061 1475 L1192 1475 L709 792 Q770 758 813 703 Q856 648 919 520 L1176 0 L1041 0 L823 461 Q751 614 698 668 Q631 735 498 735 L308 735 L308 0 L197 0 Z M572 1587 L769 1905 L910 1905 L657 1587 L572 1587 Z " />
<glyph glyph-name="uni040D" unicode="&#x40d;" horiz-adv-x="1406" d="M197 0 L197 1475 L308 1475 L308 194 L1110 1475 L1209 1475 L1209 0 L1098 0 L1098 1262 L296 0 L197 0 Z M721 1587 L468 1905 L609 1905 L806 1587 L721 1587 Z " />
<glyph glyph-name="afii10062" unicode="&#x40e;" horiz-adv-x="1105" d="M519 417 L32 1475 L149 1475 L573 534 L1000 1475 L1109 1475 L439 0 L330 0 L519 417 Z M796 1890 L882 1890 Q878 1816 862 1774 Q846 1732 808 1698 Q731 1630 564 1630 Q380 1630 304 1713 Q274 1746 261 1784 Q248 1822 246 1890 L331 1890 Q340 1805 384 1769 Q439 1724 563 1724 Q682 1724 734.5 1761 Q787 1798 796 1890 Z " />
<glyph glyph-name="afii10145" unicode="&#x40f;" horiz-adv-x="1318" d="M197 0 L197 1475 L308 1475 L308 94 L1010 94 L1010 1475 L1120 1475 L1120 0 L722 0 L699 -360 L618 -360 L596 0 L197 0 Z " />
<glyph glyph-name="afii10017" unicode="&#x410;" horiz-adv-x="1309" d="M983 444 L327 444 L155 0 L38 0 L620 1475 L691 1475 L1273 0 L1156 0 L983 444 Z M947 538 L655 1291 L364 538 L947 538 Z " />
<glyph glyph-name="afii10018" unicode="&#x411;" horiz-adv-x="1268" d="M197 0 L197 1475 L1056 1475 L1056 1381 L308 1381 L308 871 L634 871 Q766 871 850 851 Q934 831 997 784 Q1149 670 1149 436 Q1149 201 997 88 Q934 40 850 20 Q766 0 634 0 L197 0 Z M308 94 L609 94 Q826 94 930 177.5 Q1034 261 1034 436 Q1034 558 988 629 Q892 777 609 777 L308 777 L308 94 Z " />
<glyph glyph-name="afii10019" unicode="&#x412;" horiz-adv-x="1322" d="M197 0 L197 1475 L637 1475 Q859 1475 978 1390 Q1113 1293 1113 1110 Q1113 998 1061.5 928.5 Q1010 859 892 811 Q964 798 1009.5 775 Q1055 752 1097 708 Q1203 597 1203 424 Q1203 291 1138 191 Q1072 88 958 44 Q844 0 644 0 L197 0 Z M307 847 L672 847 Q824 847 909 915 Q999 987 999 1111 Q999 1243 907.5 1315 Q816 1387 648 1387 L307 1387 L307 847 Z M307 88 L623 88 Q1088 88 1088 420 Q1088 597 957 686 Q858 753 699 753 L307 753 L307 88 Z " />
<glyph glyph-name="afii10020" unicode="&#x413;" horiz-adv-x="1075" d="M197 0 L197 1475 L1015 1475 L1015 1381 L308 1381 L308 0 L197 0 Z " />
<glyph glyph-name="afii10021" unicode="&#x414;" horiz-adv-x="1386" d="M1215 0 L97 0 L72 -360 L-17 -360 L-17 94 L98 94 Q246 286 328 650 Q366 819 382 995 Q398 1171 404 1475 L1191 1475 L1191 94 L1329 94 L1329 -360 L1241 -360 L1215 0 Z M1080 94 L1080 1381 L518 1381 Q494 925 440 658 Q365 307 220 94 L1080 94 Z " />
<glyph glyph-name="afii10022" unicode="&#x415;" horiz-adv-x="1164" d="M197 0 L197 1475 L1062 1475 L1062 1381 L308 1381 L308 811 L949 811 L949 717 L308 717 L308 94 L1077 94 L1077 0 L197 0 Z " />
<glyph glyph-name="afii10024" unicode="&#x416;" horiz-adv-x="1815" d="M852 0 L852 735 L731 735 Q609 735 547 683 Q485 631 405 461 L188 0 L53 0 L310 520 Q372 647 415.5 702.5 Q459 758 520 792 L37 1475 L168 1475 L618 829 L852 829 L852 1475 L962 1475 L962 829 L1196 829 L1646 1475 L1777 1475 L1294 792 Q1355 759 1398.5 703 Q1442 647 1504 520 L1761 0 L1626 0 L1409 461 Q1337 613 1283 668 Q1217 735 1083 735 L962 735 L962 0 L852 0 Z " />
<glyph glyph-name="afii10025" unicode="&#x417;" horiz-adv-x="1292" d="M426 737 L426 831 L631 831 Q801 831 888 897 Q1003 983 1003 1122 Q1003 1252 918 1324 Q824 1405 626 1405 Q262 1405 246 1061 L138 1061 Q145 1260 246 1372 Q367 1504 637 1504 Q866 1504 989 1415 Q1118 1322 1118 1131 Q1118 899 924 799 Q988 782 1024.5 759.5 Q1061 737 1095 693 Q1175 591 1175 428 Q1175 -29 636 -29 Q319 -29 192 126 Q109 226 107 412 L214 412 Q220 252 298 175 Q404 70 621 70 Q857 70 963 162 Q1060 246 1060 411 Q1060 607 932 685 Q847 737 681 737 L426 737 Z " />
<glyph glyph-name="afii10026" unicode="&#x418;" horiz-adv-x="1406" d="M197 0 L197 1475 L308 1475 L308 194 L1110 1475 L1209 1475 L1209 0 L1098 0 L1098 1262 L296 0 L197 0 Z " />
<glyph glyph-name="afii10027" unicode="&#x419;" horiz-adv-x="1406" d="M197 0 L197 1475 L308 1475 L308 194 L1110 1475 L1209 1475 L1209 0 L1098 0 L1098 1262 L296 0 L197 0 Z M952 1890 L1037 1890 Q1034 1816 1018 1774 Q1002 1732 964 1698 Q886 1630 719 1630 Q536 1630 459 1713 Q429 1746 416.5 1784 Q404 1822 401 1890 L486 1890 Q495 1805 539 1769 Q594 1724 718 1724 Q838 1724 890 1761 Q942 1798 952 1890 Z " />
<glyph glyph-name="afii10028" unicode="&#x41a;" horiz-adv-x="1229" d="M197 0 L197 1475 L308 1475 L308 829 L611 829 L1061 1475 L1192 1475 L709 792 Q770 758 813 703 Q856 648 919 520 L1176 0 L1041 0 L823 461 Q751 614 698 668 Q631 735 498 735 L308 735 L308 0 L197 0 Z " />
<glyph glyph-name="afii10029" unicode="&#x41b;" horiz-adv-x="1378" d="M1071 0 L1071 1381 L509 1381 Q479 708 367 358 Q304 164 222.5 82 Q141 0 10 0 L-29 0 L-29 94 L12 94 Q61 94 94 110 Q127 126 161 166 Q265 291 328 637 Q391 983 398 1475 L1182 1475 L1182 0 L1071 0 Z " />
<glyph glyph-name="afii10030" unicode="&#x41c;" horiz-adv-x="1678" d="M131 0 L241 1475 L347 1475 L839 193 L1330 1475 L1437 1475 L1547 0 L1442 0 L1347 1236 L871 0 L807 0 L331 1236 L236 0 L131 0 Z " />
<glyph glyph-name="afii10031" unicode="&#x41d;" horiz-adv-x="1411" d="M197 0 L197 1475 L308 1475 L308 825 L1102 825 L1102 1475 L1213 1475 L1213 0 L1102 0 L1102 731 L308 731 L308 0 L197 0 Z " />
<glyph glyph-name="afii10032" unicode="&#x41e;" horiz-adv-x="1519" d="M771 1504 Q1099 1504 1256 1284 Q1401 1079 1401 737 Q1401 397 1256 191 Q1100 -29 759 -29 Q419 -29 263 191 Q118 397 118 735 Q118 1082 263 1284 Q356 1412 493 1462 Q610 1504 771 1504 Z M750 1405 Q474 1405 347 1213 Q274 1103 252 971 Q233 860 233 737 Q233 579 260 465.5 Q287 352 347 262 Q474 70 759 70 Q1046 70 1172 262 Q1286 436 1286 734 Q1286 1043 1172 1213 Q1097 1325 981 1369 Q885 1405 750 1405 Z " />
<glyph glyph-name="afii10033" unicode="&#x41f;" horiz-adv-x="1398" d="M197 0 L197 1475 L1200 1475 L1200 0 L1089 0 L1089 1381 L308 1381 L308 0 L197 0 Z " />
<glyph glyph-name="afii10034" unicode="&#x420;" horiz-adv-x="1243" d="M197 0 L197 1475 L570 1475 Q716 1475 807 1460 Q898 1445 968 1409 Q1060 1361 1110.5 1263.5 Q1161 1166 1161 1036 Q1161 869 1080 759 Q992 640 807 612 Q705 596 571 596 L308 596 L308 0 L197 0 Z M308 690 L595 690 Q718 690 795.5 708 Q873 726 926 767 Q1046 860 1046 1036 Q1046 1211 927 1303 Q860 1356 745 1372 Q682 1381 596 1381 L308 1381 L308 690 Z " />
<glyph glyph-name="afii10035" unicode="&#x421;" horiz-adv-x="1396" d="M1202 306 L1285 242 Q1188 100 1061 35.5 Q934 -29 748 -29 Q540 -29 409 53 Q255 148 178 353 Q118 512 118 728 Q118 1095 291 1305 Q453 1502 750 1502 Q986 1502 1120.5 1386.5 Q1255 1271 1263 1063 L1155 1063 Q1148 1221 1040.5 1312 Q933 1403 753 1403 Q582 1403 474 1329 Q349 1245 285 1065 Q233 921 233 725 Q233 419 370 239 Q436 152 529.5 111 Q623 70 756 70 Q905 70 1006.5 123.5 Q1108 177 1202 306 Z " />
<glyph glyph-name="afii10036" unicode="&#x422;" horiz-adv-x="1089" d="M489 0 L489 1381 L49 1381 L49 1475 L1039 1475 L1039 1381 L600 1381 L600 0 L489 0 Z " />
<glyph glyph-name="afii10037" unicode="&#x423;" horiz-adv-x="1105" d="M519 417 L32 1475 L149 1475 L573 534 L1000 1475 L1109 1475 L439 0 L330 0 L519 417 Z " />
<glyph glyph-name="afii10038" unicode="&#x424;" horiz-adv-x="1873" d="M865 -41 L865 135 Q617 146 445 234 Q279 320 200 463 Q133 587 133 738 Q133 951 263 1103 Q414 1279 701 1324 Q772 1335 865 1341 L865 1516 L975 1516 L975 1341 Q1260 1328 1428 1241 Q1593 1155 1672 1011 Q1740 888 1740 738 Q1740 526 1610 375 Q1513 261 1358 202.5 Q1203 144 975 135 L975 -41 L865 -41 Z M865 234 L865 1241 Q651 1233 508 1162 Q248 1033 248 738 Q248 417 556 294 Q678 245 865 234 Z M975 233 Q1225 245 1365 315 Q1625 444 1625 738 Q1625 1214 975 1242 L975 233 Z " />
<glyph glyph-name="afii10039" unicode="&#x425;" horiz-adv-x="1171" d="M518 776 L67 1475 L191 1475 L599 845 L979 1475 L1099 1475 L658 750 L1141 0 L1018 0 L577 680 L152 0 L29 0 L518 776 Z " />
<glyph glyph-name="afii10040" unicode="&#x426;" horiz-adv-x="1385" d="M197 0 L197 1475 L308 1475 L308 94 L1065 94 L1065 1475 L1176 1475 L1176 94 L1314 94 L1314 -360 L1226 -360 L1200 0 L197 0 Z " />
<glyph glyph-name="afii10041" unicode="&#x427;" horiz-adv-x="1298" d="M990 0 L990 706 Q799 555 560 555 Q256 555 180 755 Q144 850 144 1071 L144 1475 L255 1475 L255 1025 Q255 827 307 755 Q381 653 581 653 Q700 653 791 690.5 Q882 728 990 821 L990 1475 L1101 1475 L1101 0 L990 0 Z " />
<glyph glyph-name="afii10042" unicode="&#x428;" horiz-adv-x="1911" d="M197 0 L197 1475 L308 1475 L308 94 L900 94 L900 1475 L1011 1475 L1011 94 L1602 94 L1602 1475 L1713 1475 L1713 0 L197 0 Z " />
<glyph glyph-name="afii10043" unicode="&#x429;" horiz-adv-x="1910" d="M197 0 L197 1475 L308 1475 L308 94 L900 94 L900 1475 L1011 1475 L1011 94 L1602 94 L1602 1475 L1713 1475 L1713 94 L1851 94 L1851 -360 L1763 -360 L1737 0 L197 0 Z " />
<glyph glyph-name="afii10044" unicode="&#x42a;" horiz-adv-x="1522" d="M478 0 L478 1381 L17 1381 L17 1475 L589 1475 L589 871 L915 871 Q1048 871 1132 851 Q1216 831 1279 784 Q1431 670 1431 436 Q1431 201 1279 88 Q1216 40 1132 20 Q1048 0 915 0 L478 0 Z M589 94 L890 94 Q1098 94 1199 168 Q1316 254 1316 432 Q1316 558 1270 629 Q1174 777 890 777 L589 777 L589 94 Z " />
<glyph glyph-name="afii10045" unicode="&#x42b;" horiz-adv-x="1653" d="M197 0 L197 1475 L308 1475 L308 871 L634 871 Q767 871 851 851 Q935 831 998 784 Q1150 670 1150 436 Q1150 201 998 88 Q935 40 851 20 Q767 0 634 0 L197 0 Z M308 94 L609 94 Q827 94 931 177.5 Q1035 261 1035 436 Q1035 634 897 717 Q798 777 609 777 L308 777 L308 94 Z M1344 0 L1344 1475 L1455 1475 L1455 0 L1344 0 Z " />
<glyph glyph-name="afii10046" unicode="&#x42c;" horiz-adv-x="1242" d="M197 0 L197 1475 L308 1475 L308 871 L634 871 Q767 871 851 851 Q935 831 998 784 Q1150 670 1150 436 Q1150 201 998 88 Q935 40 851 20 Q767 0 634 0 L197 0 Z M308 94 L609 94 Q827 94 931 177.5 Q1035 261 1035 436 Q1035 634 897 717 Q798 777 609 777 L308 777 L308 94 Z " />
<glyph glyph-name="afii10047" unicode="&#x42d;" horiz-adv-x="1364" d="M426 731 L426 825 L1129 825 Q1118 1018 1071 1132 Q1012 1278 906 1344 Q808 1405 652 1405 Q266 1405 246 1061 L138 1061 Q156 1504 658 1504 Q976 1504 1115 1283 Q1246 1075 1246 739 Q1246 398 1106 191 Q958 -29 630 -29 Q324 -29 194 125 Q109 226 107 412 L214 412 Q220 252 301 174 Q409 70 627 70 Q846 70 962 186 Q1133 355 1132 731 L426 731 Z " />
<glyph glyph-name="afii10048" unicode="&#x42e;" horiz-adv-x="2112" d="M197 0 L197 1475 L308 1475 L308 825 L690 825 Q709 1049 776 1184 Q864 1362 1016 1438 Q1146 1504 1340 1504 Q1685 1504 1845 1284 Q1994 1077 1994 737 Q1994 398 1845 191 Q1685 -29 1342 -29 Q1069 -29 917 103 Q743 254 699 552 Q687 632 687 731 L308 731 L308 0 L197 0 Z M1331 1405 Q1051 1405 920 1213 Q845 1103 822 970 Q802 860 802 737 Q802 70 1340 70 Q1631 70 1761 262 Q1879 435 1879 734 Q1879 1043 1761 1213 Q1683 1325 1566 1369 Q1468 1405 1331 1405 Z " />
<glyph glyph-name="afii10049" unicode="&#x42f;" horiz-adv-x="1262" d="M953 676 L736 676 Q643 676 597.5 665.5 Q552 655 512 625 Q442 573 398 452 L233 0 L110 0 L283 470 Q320 574 354 623.5 Q388 673 441 702 Q154 783 154 1077 Q154 1229 234 1328 Q319 1436 499 1461 Q595 1475 728 1475 L1064 1475 L1064 0 L953 0 L953 676 Z M953 770 L953 1381 L710 1381 Q462 1381 368 1300 Q269 1215 269 1074 Q269 889 429 813 Q518 770 712 770 L953 770 Z " />
<glyph glyph-name="afii10065" unicode="&#x430;" horiz-adv-x="1178" d="M895 159 Q865 96 798 50 Q675 -32 489 -32 Q116 -32 116 293 Q116 502 261 585 Q359 641 610 641 Q714 641 893 629 L893 707 Q893 798 875 853.5 Q857 909 817 943 Q748 1001 583 1001 Q421 1001 360 924 Q330 886 311 800 L209 800 Q224 890 248 940 Q272 990 319 1026 Q408 1095 585 1095 Q802 1095 898 1017 Q1001 934 1001 730 L1001 0 L895 0 L895 159 Z M893 535 Q752 549 602 549 Q472 549 399 533 Q326 517 287 479 Q226 420 226 299 Q226 177 292.5 119.5 Q359 62 501 62 Q694 62 802 165 Q893 252 893 431 L893 535 Z " />
<glyph glyph-name="afii10066" unicode="&#x431;" horiz-adv-x="1220" d="M211 725 Q315 958 599 958 Q804 958 933 829 Q1071 691 1071 463 Q1071 240 936 103 Q805 -29 592 -29 Q366 -29 243 112 Q102 273 102 634 Q102 922 188 1086.5 Q274 1251 461 1320 Q546 1352 759 1399 Q819 1412 841.5 1436 Q864 1460 867 1516 L970 1516 Q967 1389 916 1352 Q888 1332 855.5 1321.5 Q823 1311 716 1289 Q564 1256 490 1227 Q416 1198 360 1148 Q289 1084 255.5 988.5 Q222 893 211 725 Z M593 864 Q428 864 328 756.5 Q228 649 228 472 Q228 278 339 167 Q439 65 599 65 Q755 65 853 163 Q961 272 961 462 Q961 656 850 767 Q753 864 593 864 Z " />
<glyph glyph-name="afii10067" unicode="&#x432;" horiz-adv-x="1124" d="M190 0 L190 1061 L594 1061 Q790 1061 870 1016 Q976 957 976 802 Q976 617 802 559 Q898 537 948 493 Q1026 423 1026 291 Q1026 123 901 52 Q809 0 609 0 L190 0 Z M298 600 L537 600 Q716 600 776 633 Q866 682 866 801 Q866 895 805.5 930.5 Q745 966 585 966 L298 966 L298 600 Z M298 95 L577 95 Q751 95 815 125 Q905 167 905 291 Q905 420 814 468 Q773 489 717.5 497 Q662 505 554 505 L298 505 L298 95 Z " />
<glyph glyph-name="afii10068" unicode="&#x433;" horiz-adv-x="941" d="M190 0 L190 1061 L883 1061 L883 967 L298 967 L298 0 L190 0 Z " />
<glyph glyph-name="afii10069" unicode="&#x434;" horiz-adv-x="1177" d="M1013 0 L76 0 L48 -347 L-29 -347 L-29 94 L77 94 Q314 439 374 1061 L973 1061 L973 94 L1118 94 L1118 -347 L1041 -347 L1013 0 Z M865 94 L865 967 L471 967 Q412 438 197 94 L865 94 Z " />
<glyph glyph-name="afii10070" unicode="&#x435;" horiz-adv-x="1157" d="M1054 513 L218 513 Q224 367 272 271 Q322 170 405.5 116 Q489 62 595 62 Q791 62 966 210 L1026 127 Q833 -32 597 -32 Q362 -32 226 137 Q107 285 107 523 Q107 765 230 924 Q362 1093 583 1093 Q795 1093 924.5 933.5 Q1054 774 1054 513 Z M940 607 Q923 743 873 827 Q770 999 581 999 Q457 999 368 923 Q304 867 271 796 Q238 725 221 607 L940 607 Z " />
<glyph glyph-name="afii10072" unicode="&#x436;" horiz-adv-x="1709" d="M801 0 L801 509 L771 509 Q688 509 638 480.5 Q588 452 501 354 L188 0 L45 0 L489 481 Q530 526 562 550 L85 1061 L227 1061 L645 600 L801 600 L801 1061 L909 1061 L909 600 L1064 600 L1482 1061 L1624 1061 L1147 550 Q1179 526 1220 481 L1664 0 L1521 0 L1208 354 Q1121 452 1071 480.5 Q1021 509 937 509 L909 509 L909 0 L801 0 Z " />
<glyph glyph-name="afii10073" unicode="&#x437;" horiz-adv-x="1057" d="M364 507 L364 602 L566 602 Q682 602 739 643 Q815 699 815 798 Q815 998 535 998 Q386 998 310.5 943.5 Q235 889 221 772 L117 772 Q121 892 189 972 Q290 1093 537 1093 Q722 1093 823 1021 Q925 950 925 805 Q925 628 784 566 Q857 543 893 514 Q976 447 976 301 Q976 109 844 35 Q723 -32 541 -32 Q329 -32 217.5 56 Q106 144 102 314 L205 314 Q219 199 265 152 Q305 110 380.5 86 Q456 62 544 62 Q701 62 783.5 120 Q866 178 866 289 Q866 418 784 472 Q731 507 568 507 L364 507 Z " />
<glyph glyph-name="afii10074" unicode="&#x438;" horiz-adv-x="1212" d="M190 0 L190 1061 L299 1061 L299 173 L914 1061 L1023 1061 L1023 0 L914 0 L914 890 L299 0 L190 0 Z " />
<glyph glyph-name="afii10075" unicode="&#x439;" horiz-adv-x="1212" d="M190 0 L190 1061 L299 1061 L299 173 L914 1061 L1023 1061 L1023 0 L914 0 L914 890 L299 0 L190 0 Z M839 1511 L924 1511 Q920 1437 904 1395 Q888 1353 850 1320 Q773 1251 606 1251 Q422 1251 346 1334 Q316 1367 303.5 1405.5 Q291 1444 288 1511 L373 1511 Q383 1420 435 1382.5 Q487 1345 605 1345 Q724 1345 776 1382 Q828 1419 839 1511 Z " />
<glyph glyph-name="afii10076" unicode="&#x43a;" horiz-adv-x="1145" d="M190 0 L190 1061 L298 1061 L298 600 L500 600 L918 1061 L1060 1061 L583 550 Q618 523 657 480 L1100 0 L957 0 L645 353 Q558 452 508 480.5 Q458 509 374 509 L298 509 L298 0 L190 0 Z " />
<glyph glyph-name="afii10077" unicode="&#x43b;" horiz-adv-x="1196" d="M897 0 L897 967 L488 967 Q441 577 350 306 Q296 143 218 71.5 Q140 0 18 0 L4 0 L4 94 L19 94 Q105 94 160 163 Q256 283 330 646 Q373 854 390 1061 L1006 1061 L1006 0 L897 0 Z " />
<glyph glyph-name="afii10078" unicode="&#x43c;" horiz-adv-x="1458" d="M111 0 L265 1061 L372 1061 L730 195 L1087 1061 L1194 1061 L1348 0 L1249 0 L1115 880 L756 0 L704 0 L344 880 L210 0 L111 0 Z " />
<glyph glyph-name="afii10079" unicode="&#x43d;" horiz-adv-x="1212" d="M190 0 L190 1061 L298 1061 L298 599 L915 599 L915 1061 L1023 1061 L1023 0 L915 0 L915 505 L298 505 L298 0 L190 0 Z " />
<glyph glyph-name="afii10080" unicode="&#x43e;" horiz-adv-x="1216" d="M615 1093 Q842 1093 982 924 Q1108 770 1108 530 Q1108 292 982 137 Q843 -32 608 -32 Q372 -32 233 137 Q107 292 107 529 Q107 768 233 924 Q371 1093 615 1093 Z M602 999 Q485 999 393 935 Q217 815 217 530 Q217 338 302 215 Q408 62 608 62 Q806 62 913 215 Q998 338 998 529 Q998 724 913 846 Q806 999 602 999 Z " />
<glyph glyph-name="afii10081" unicode="&#x43f;" horiz-adv-x="1182" d="M190 0 L190 1061 L993 1061 L993 0 L885 0 L885 967 L298 967 L298 0 L190 0 Z " />
<glyph glyph-name="afii10082" unicode="&#x440;" horiz-adv-x="1267" d="M190 -439 L190 1061 L297 1061 L297 873 Q343 947 389 988 Q506 1093 682 1093 Q911 1093 1042 924 Q1161 769 1161 530 Q1161 291 1042 137 Q911 -32 682 -32 Q552 -32 460 20.5 Q368 73 298 188 L298 -439 L190 -439 Z M673 999 Q499 999 392 846 Q298 712 298 530 Q298 349 392 215 Q499 62 679 62 Q848 62 949 192 Q1051 323 1051 529 Q1051 741 949 869 Q845 999 673 999 Z " />
<glyph glyph-name="afii10083" unicode="&#x441;" horiz-adv-x="1084" d="M921 211 L981 128 Q815 -32 585 -32 Q364 -32 237 109 Q107 254 107 514 Q107 776 236 940 Q358 1094 592 1094 Q768 1094 868 1003.5 Q968 913 972 750 L869 750 Q844 1000 587 1000 Q397 1000 303 856 Q217 725 217 519 Q217 282 338 161 Q436 62 592 62 Q768 62 921 211 Z " />
<glyph glyph-name="afii10084" unicode="&#x442;" horiz-adv-x="1041" d="M467 0 L467 967 L58 967 L58 1061 L983 1061 L983 967 L575 967 L575 0 L467 0 Z " />
<glyph glyph-name="afii10085" unicode="&#x443;" horiz-adv-x="975" d="M436 54 L32 1061 L142 1061 L487 190 L832 1061 L943 1061 L452 -170 Q405 -285 380.5 -325.5 Q356 -366 315 -394 Q279 -419 236.5 -428 Q194 -437 112 -439 L112 -344 Q220 -342 261 -313 Q311 -278 354 -164 L436 54 Z " />
<glyph glyph-name="afii10086" unicode="&#x444;" horiz-adv-x="1564" d="M732 -439 L732 119 Q668 33 610 0.5 Q552 -32 466 -32 Q294 -32 212 93 Q107 250 107 531 Q107 811 212 969 Q295 1093 467 1093 Q553 1093 611.5 1059.5 Q670 1026 732 942 L732 1516 L833 1516 L833 942 Q897 1027 955 1060 Q1013 1093 1098 1093 Q1271 1093 1353 969 Q1458 811 1458 530 Q1458 250 1354 93 Q1271 -32 1099 -32 Q1012 -32 955 0.5 Q898 33 833 119 L833 -439 L732 -439 Z M732 421 L732 640 Q732 730 719.5 782.5 Q707 835 673 887 Q596 1005 471 1005 Q334 1005 275 874 Q214 738 214 531 Q214 323 275 187 Q334 56 471 56 Q606 56 684 191 Q712 241 722 288.5 Q732 336 732 421 Z M833 640 L833 421 Q833 331 845.5 278.5 Q858 226 892 174 Q969 56 1094 56 Q1231 56 1290 187 Q1351 323 1351 530 Q1351 738 1290 874 Q1231 1005 1094 1005 Q959 1005 881 869 Q853 820 843 772.5 Q833 725 833 640 Z " />
<glyph glyph-name="afii10087" unicode="&#x445;" horiz-adv-x="962" d="M414 574 L67 1061 L192 1061 L483 653 L775 1061 L897 1061 L535 580 L948 0 L824 0 L466 502 L127 0 L5 0 L414 574 Z " />
<glyph glyph-name="afii10088" unicode="&#x446;" horiz-adv-x="1216" d="M190 0 L190 1061 L298 1061 L298 94 L905 94 L905 1061 L1013 1061 L1013 94 L1158 94 L1158 -347 L1081 -347 L1053 0 L190 0 Z " />
<glyph glyph-name="afii10089" unicode="&#x447;" horiz-adv-x="1151" d="M854 0 L854 484 Q713 365 488 365 Q242 365 165 525 Q128 601 128 789 L128 1061 L236 1061 L236 746 Q236 596 290 530 Q350 459 506 459 Q720 459 854 601 L854 1061 L962 1061 L962 0 L854 0 Z " />
<glyph glyph-name="afii10090" unicode="&#x448;" horiz-adv-x="1748" d="M190 0 L190 1061 L298 1061 L298 94 L821 94 L821 1061 L929 1061 L929 94 L1451 94 L1451 1061 L1559 1061 L1559 0 L190 0 Z " />
<glyph glyph-name="afii10091" unicode="&#x449;" horiz-adv-x="1797" d="M190 0 L190 1061 L298 1061 L298 94 L821 94 L821 1061 L929 1061 L929 94 L1451 94 L1451 1061 L1559 1061 L1559 94 L1739 94 L1739 -347 L1662 -347 L1634 0 L190 0 Z " />
<glyph glyph-name="afii10092" unicode="&#x44a;" horiz-adv-x="1321" d="M415 0 L415 967 L17 967 L17 1061 L523 1061 L523 660 L816 660 Q943 660 1017 645 Q1091 630 1139 594 Q1243 516 1243 329 Q1243 132 1117 55 Q1028 0 816 0 L415 0 Z M523 95 L782 95 Q972 95 1038 129 Q1133 176 1133 331 Q1133 499 1023 540 Q955 565 782 565 L523 565 L523 95 Z " />
<glyph glyph-name="afii10093" unicode="&#x44b;" horiz-adv-x="1544" d="M190 0 L190 1061 L298 1061 L298 660 L591 660 Q718 660 792 645 Q866 630 913 594 Q1018 516 1018 329 Q1018 150 921 75 Q824 0 591 0 L190 0 Z M298 95 L558 95 Q747 95 813 129 Q907 176 907 331 Q907 499 798 540 Q729 565 558 565 L298 565 L298 95 Z M1247 0 L1247 1061 L1355 1061 L1355 0 L1247 0 Z " />
<glyph glyph-name="afii10094" unicode="&#x44c;" horiz-adv-x="1096" d="M190 0 L190 1061 L298 1061 L298 660 L591 660 Q718 660 792 645 Q866 630 913 594 Q1018 516 1018 329 Q1018 150 921 75 Q824 0 591 0 L190 0 Z M298 95 L558 95 Q747 95 813 129 Q907 176 907 331 Q907 499 798 540 Q729 565 558 565 L298 565 L298 95 Z " />
<glyph glyph-name="afii10095" unicode="&#x44d;" horiz-adv-x="1101" d="M350 507 L350 602 L879 602 Q840 1000 525 1000 Q346 1000 271 897 Q226 835 218 772 L115 772 Q128 895 201 977 Q306 1094 525 1094 Q757 1094 872 939 Q993 775 993 518 Q993 254 868 102 Q811 32 730.5 0 Q650 -32 531 -32 Q268 -32 163 107 Q101 189 99 314 L202 314 Q216 197 267 148 Q353 63 518 63 Q658 63 737 122 Q805 173 843 273.5 Q881 374 883 507 L350 507 Z " />
<glyph glyph-name="afii10096" unicode="&#x44e;" horiz-adv-x="1642" d="M190 0 L190 1061 L298 1061 L298 599 L537 599 Q552 751 620 865 Q684 974 793 1034 Q900 1093 1035 1093 Q1271 1093 1410 923 Q1536 769 1536 530 Q1536 291 1410 137 Q1271 -32 1035 -32 Q850 -32 721 76 Q545 222 534 504 L298 504 L298 0 L190 0 Z M1029 999 Q913 999 820 935 Q644 815 644 530 Q644 337 729 215 Q836 62 1035 62 Q1234 62 1341 215 Q1426 338 1426 528 Q1426 724 1341 846 Q1233 999 1029 999 Z " />
<glyph glyph-name="afii10097" unicode="&#x44f;" horiz-adv-x="1164" d="M866 473 L519 473 Q460 473 438 450.5 Q416 428 350 298 L198 0 L82 0 L258 350 Q296 425 315 452 Q334 479 364 502 Q162 571 162 777 Q162 931 279 1010 Q357 1061 524 1061 L974 1061 L974 0 L866 0 L866 473 Z M866 568 L866 966 L554 966 Q389 966 330 920 Q272 873 272 775 Q272 670 336 619 Q400 568 532 568 L866 568 Z " />
<glyph glyph-name="uni0450" unicode="&#x450;" horiz-adv-x="1157" d="M1054 513 L218 513 Q224 367 272 271 Q322 170 405.5 116 Q489 62 595 62 Q791 62 966 210 L1026 127 Q833 -32 597 -32 Q362 -32 226 137 Q107 285 107 523 Q107 765 230 924 Q362 1093 583 1093 Q795 1093 924.5 933.5 Q1054 774 1054 513 Z M940 607 Q923 743 873 827 Q770 999 581 999 Q457 999 368 923 Q304 867 271 796 Q238 725 221 607 L940 607 Z M619 1219 L357 1548 L500 1548 L705 1219 L619 1219 Z " />
<glyph glyph-name="afii10071" unicode="&#x451;" horiz-adv-x="1157" d="M1054 513 L218 513 Q224 367 272 271 Q322 170 405.5 116 Q489 62 595 62 Q791 62 966 210 L1026 127 Q833 -32 597 -32 Q362 -32 226 137 Q107 285 107 523 Q107 765 230 924 Q362 1093 583 1093 Q795 1093 924.5 933.5 Q1054 774 1054 513 Z M940 607 Q923 743 873 827 Q770 999 581 999 Q457 999 368 923 Q304 867 271 796 Q238 725 221 607 L940 607 Z M409 1461 Q443 1461 467.5 1436.5 Q492 1412 492 1377 Q492 1342 467.5 1317.5 Q443 1293 408 1293 Q372 1293 347.5 1318 Q323 1343 323 1378 Q323 1413 348 1437 Q373 1461 409 1461 Z M737 1461 Q771 1461 795.5 1436.5 Q820 1412 820 1377 Q820 1342 795.5 1317.5 Q771 1293 736 1293 Q701 1293 676 1318 Q651 1343 651 1378 Q651 1413 676 1437 Q701 1461 737 1461 Z " />
<glyph glyph-name="afii10099" unicode="&#x452;" horiz-adv-x="1230" d="M195 0 L195 1230 L54 1230 L54 1315 L195 1315 L195 1516 L303 1516 L303 1315 L654 1315 L654 1230 L303 1230 L303 846 Q396 947 462 995 Q596 1094 741 1094 Q858 1094 934 1032 Q1002 977 1026 891.5 Q1050 806 1050 617 L1050 9 Q1063 -428 753 -439 L753 -345 Q868 -333 909 -248 Q929 -204 935.5 -149.5 Q942 -95 942 28 L942 623 Q942 791 918 864 Q878 990 719 990 Q652 990 593 964.5 Q534 939 462 879 Q384 815 303 713 L303 0 L195 0 Z " />
<glyph glyph-name="afii10100" unicode="&#x453;" horiz-adv-x="941" d="M190 0 L190 1061 L883 1061 L883 967 L298 967 L298 0 L190 0 Z M451 1219 L655 1548 L799 1548 L537 1219 L451 1219 Z " />
<glyph glyph-name="afii10101" unicode="&#x454;" horiz-adv-x="1101" d="M751 507 L218 507 Q222 329 283 219 Q331 132 406 97 Q478 63 583 63 Q764 63 848 163 Q885 207 899 314 L1002 314 Q994 -32 570 -32 Q422 -32 333 18 Q209 87 151 246 Q108 365 108 519 Q108 775 229 939 Q343 1094 577 1094 Q813 1094 917 957 Q975 880 986 772 L883 772 Q873 847 817 914 Q744 1000 576 1000 Q383 1000 297 855 Q239 758 222 602 L751 602 L751 507 Z " />
<glyph glyph-name="afii10102" unicode="&#x455;" horiz-adv-x="1012" d="M82 313 L185 313 Q198 199 243 151 Q281 110 353 86 Q425 62 510 62 Q638 62 720 109 Q812 163 812 286 Q812 394 744 441 Q712 464 664.5 476.5 Q617 489 491 510 Q392 527 344 541 Q296 555 255 581 Q144 649 144 795 Q144 937 244 1019 Q334 1093 482 1093 Q591 1093 675 1055 Q759 1017 796 952 Q834 886 837 786 L734 786 Q723 882 688 923 Q623 998 475 998 Q369 998 309 946 Q249 895 249 803 Q249 713 302.5 674 Q356 635 516 609 Q629 591 683.5 576 Q738 561 786 536 Q917 466 917 288 Q917 132 810 51 Q698 -32 512 -32 Q93 -32 82 313 Z " />
<glyph glyph-name="afii10103" unicode="&#x456;" horiz-adv-x="510" d="M201 0 L201 1061 L309 1061 L309 0 L201 0 Z M257 1466 Q293 1466 318.5 1440.5 Q344 1415 344 1379 Q344 1342 318 1316.5 Q292 1291 256 1291 Q219 1291 193 1317 Q167 1343 167 1379 Q167 1416 193 1441 Q219 1466 257 1466 Z " />
<glyph glyph-name="afii10104" unicode="&#x457;" horiz-adv-x="523" d="M208 0 L208 1061 L316 1061 L316 0 L208 0 Z M94 1464 Q129 1464 154 1439 Q179 1414 179 1379 Q179 1343 153.5 1318 Q128 1293 93 1293 Q57 1293 31.5 1318 Q6 1343 6 1379 Q6 1415 31.5 1439.5 Q57 1464 94 1464 Z M433 1464 Q468 1464 493 1439 Q518 1414 518 1379 Q518 1343 492.5 1318 Q467 1293 432 1293 Q395 1293 370 1318 Q345 1343 345 1379 Q345 1415 370.5 1439.5 Q396 1464 433 1464 Z " />
<glyph glyph-name="afii10105" unicode="&#x458;" horiz-adv-x="529" d="M220 1061 L328 1061 L328 0 Q341 -428 31 -439 L31 -344 Q146 -333 187 -250 Q207 -207 213.5 -154 Q220 -101 220 19 L220 1061 Z M275 1466 Q311 1466 336.5 1440.5 Q362 1415 362 1379 Q362 1342 336 1316.5 Q310 1291 274 1291 Q237 1291 211 1317 Q185 1343 185 1379 Q185 1416 211 1441 Q237 1466 275 1466 Z " />
<glyph glyph-name="afii10106" unicode="&#x459;" horiz-adv-x="1805" d="M897 0 L897 967 L488 967 Q441 576 350 306 Q295 143 217.5 71.5 Q140 0 18 0 L4 0 L4 94 L19 94 Q105 94 160 163 Q256 283 330 646 Q373 854 390 1061 L1006 1061 L1006 660 L1299 660 Q1426 660 1500 645 Q1574 630 1622 594 Q1726 516 1726 329 Q1726 150 1629 75 Q1532 0 1299 0 L897 0 Z M1006 95 L1265 95 Q1455 95 1521 129 Q1616 176 1616 331 Q1616 499 1506 540 Q1438 565 1265 565 L1006 565 L1006 95 Z " />
<glyph glyph-name="afii10107" unicode="&#x45a;" horiz-adv-x="1808" d="M190 0 L190 1061 L298 1061 L298 628 L902 628 L902 1061 L1010 1061 L1010 627 L1303 627 Q1539 627 1625 568 Q1730 497 1730 326 Q1730 149 1632 74.5 Q1534 0 1303 0 L902 0 L902 533 L298 533 L298 0 L190 0 Z M1010 95 L1270 95 Q1459 95 1525 128 Q1620 176 1620 325 Q1620 476 1510 511 Q1442 532 1270 532 L1010 532 L1010 95 Z " />
<glyph glyph-name="afii10108" unicode="&#x45b;" horiz-adv-x="1230" d="M195 0 L195 1230 L54 1230 L54 1315 L195 1315 L195 1516 L303 1516 L303 1315 L654 1315 L654 1230 L303 1230 L303 846 Q394 946 462 995 Q596 1094 741 1094 Q858 1094 934 1032 Q1002 977 1026 891.5 Q1050 806 1050 617 L1050 0 L942 0 L942 623 Q942 791 919 864 Q878 990 719 990 Q652 990 593 964.5 Q534 939 462 879 Q384 815 303 713 L303 0 L195 0 Z " />
<glyph glyph-name="afii10109" unicode="&#x45c;" horiz-adv-x="1145" d="M190 0 L190 1061 L298 1061 L298 600 L500 600 L918 1061 L1060 1061 L583 550 Q618 523 657 480 L1100 0 L957 0 L645 353 Q558 452 508 480.5 Q458 509 374 509 L298 509 L298 0 L190 0 Z M525 1219 L730 1548 L873 1548 L611 1219 L525 1219 Z " />
<glyph glyph-name="uni045D" unicode="&#x45d;" horiz-adv-x="1212" d="M633 1219 L372 1548 L515 1548 L720 1219 L633 1219 Z M190 0 L190 1061 L299 1061 L299 173 L914 1061 L1023 1061 L1023 0 L914 0 L914 890 L299 0 L190 0 Z " />
<glyph glyph-name="afii10110" unicode="&#x45e;" horiz-adv-x="975" d="M436 54 L32 1061 L142 1061 L487 190 L832 1061 L943 1061 L452 -170 Q405 -285 380.5 -325.5 Q356 -366 315 -394 Q279 -419 236.5 -428 Q194 -437 112 -439 L112 -344 Q220 -342 261 -313 Q311 -278 354 -164 L436 54 Z M712 1511 L797 1511 Q794 1437 778 1395 Q762 1353 724 1320 Q647 1251 479 1251 Q296 1251 220 1334 Q189 1367 176.5 1405.5 Q164 1444 161 1511 L246 1511 Q256 1420 308.5 1382.5 Q361 1345 479 1345 Q598 1345 650 1382 Q702 1419 712 1511 Z " />
<glyph glyph-name="afii10193" unicode="&#x45f;" horiz-adv-x="1202" d="M190 0 L190 1061 L298 1061 L298 94 L905 94 L905 1061 L1013 1061 L1013 0 L665 0 L637 -347 L566 -347 L538 0 L190 0 Z " />
<glyph glyph-name="uni0462" unicode="&#x462;" horiz-adv-x="1407" d="M473 1340 L948 1340 L948 1246 L473 1246 L473 871 L799 871 Q931 871 1015 851 Q1099 831 1162 784 Q1314 670 1314 436 Q1314 201 1162 88 Q1099 40 1015 20 Q931 0 799 0 L362 0 L362 1246 L38 1246 L38 1340 L362 1340 L362 1544 L473 1544 L473 1340 Z M473 94 L774 94 Q991 94 1095 177.5 Q1199 261 1199 436 Q1199 558 1153 629 Q1056 777 774 777 L473 777 L473 94 Z " />
<glyph glyph-name="uni0463" unicode="&#x463;" horiz-adv-x="1221" d="M286 967 L-26 967 L-26 1061 L286 1061 L286 1417 L394 1417 L394 1061 L836 1061 L836 967 L394 967 L394 660 L687 660 Q814 660 888 645 Q962 630 1009 594 Q1114 516 1114 329 Q1114 150 1016.5 75 Q919 0 687 0 L286 0 L286 967 Z M394 95 L653 95 Q843 95 909 129 Q1004 176 1004 331 Q1004 499 894 540 Q826 565 653 565 L394 565 L394 95 Z " />
<glyph glyph-name="afii10050" unicode="&#x490;" horiz-adv-x="1075" d="M197 0 L197 1475 L893 1475 L926 1835 L1015 1835 L1015 1381 L308 1381 L308 0 L197 0 Z " />
<glyph glyph-name="afii10098" unicode="&#x491;" horiz-adv-x="941" d="M190 0 L190 1061 L778 1061 L804 1399 L883 1399 L883 967 L298 967 L298 0 L190 0 Z " />
<glyph glyph-name="uni0492" unicode="&#x492;" horiz-adv-x="1146" d="M268 0 L268 730 L47 730 L47 823 L268 823 L268 1475 L1086 1475 L1086 1381 L379 1381 L379 823 L819 823 L819 730 L379 730 L379 0 L268 0 Z " />
<glyph glyph-name="uni0493" unicode="&#x493;" horiz-adv-x="960" d="M208 0 L208 433 L33 433 L33 529 L208 529 L208 1061 L901 1061 L901 967 L316 967 L316 529 L549 529 L549 433 L316 433 L316 0 L208 0 Z " />
<glyph glyph-name="uni0496" unicode="&#x496;" horiz-adv-x="1814" d="M852 0 L852 735 L731 735 Q609 735 547 683 Q485 631 405 461 L188 0 L53 0 L310 520 Q373 647 416 702.5 Q459 758 520 792 L37 1475 L168 1475 L618 829 L852 829 L852 1475 L962 1475 L962 829 L1197 829 L1646 1475 L1778 1475 L1294 792 Q1355 759 1398.5 703 Q1442 647 1505 520 L1715 94 L1820 94 L1820 -360 L1732 -360 L1705 0 L1627 0 L1409 461 Q1337 613 1283 668 Q1217 735 1084 735 L962 735 L962 0 L852 0 Z " />
<glyph glyph-name="uni0497" unicode="&#x497;" horiz-adv-x="1710" d="M801 0 L801 509 L771 509 Q688 509 638 480.5 Q588 452 501 354 L188 0 L45 0 L489 481 Q530 526 562 550 L85 1061 L227 1061 L645 600 L801 600 L801 1061 L909 1061 L909 600 L1064 600 L1483 1061 L1624 1061 L1147 550 Q1179 525 1220 481 L1577 94 L1694 94 L1694 -347 L1616 -347 L1588 0 L1521 0 L1208 354 Q1121 452 1071 480.5 Q1021 509 937 509 L909 509 L909 0 L801 0 Z " />
<glyph glyph-name="uni0498" unicode="&#x498;" horiz-adv-x="1292" d="M714 -26 L670 -102 Q760 -106 798 -120 Q905 -160 905 -275 Q905 -363 842 -412.5 Q779 -462 668 -462 Q527 -462 416 -423 L443 -333 Q549 -373 664 -373 Q801 -373 801 -277 Q801 -185 648 -185 Q624 -185 584 -188 L576 -116 L627 -29 Q107 -22 112 412 L219 412 Q225 252 303 175 Q409 70 626 70 Q862 70 968 163 Q1065 246 1065 411 Q1065 607 937 685 Q852 737 686 737 L431 737 L431 831 L636 831 Q806 831 893 897 Q1008 983 1008 1122 Q1008 1252 923 1324 Q829 1405 631 1405 Q267 1405 251 1061 L143 1061 Q150 1260 251 1372 Q372 1504 642 1504 Q871 1504 994 1415 Q1123 1322 1123 1131 Q1123 899 929 799 Q993 782 1029.5 759.5 Q1066 737 1100 694 Q1180 592 1180 428 Q1180 91 882 1 Q822 -17 714 -26 Z " />
<glyph glyph-name="uni0499" unicode="&#x499;" horiz-adv-x="1057" d="M589 -31 L547 -106 Q634 -109 675 -125 Q782 -166 782 -285 Q782 -376 719.5 -427.5 Q657 -479 546 -479 Q405 -479 293 -439 L321 -347 Q428 -389 541 -389 Q678 -389 678 -289 Q678 -191 528 -191 Q507 -191 462 -194 L453 -121 L504 -32 Q107 -7 102 314 L205 314 Q219 199 265 152 Q305 110 380.5 86 Q456 62 544 62 Q701 62 783.5 120 Q866 178 866 289 Q866 418 784 472 Q731 507 568 507 L364 507 L364 602 L566 602 Q682 602 739 643 Q815 699 815 798 Q815 998 535 998 Q386 998 310.5 943.5 Q235 889 221 772 L117 772 Q121 892 189 972 Q290 1093 537 1093 Q722 1093 823 1021 Q925 950 925 805 Q925 628 784 566 Q857 543 893 514 Q976 447 976 301 Q976 179 922 105 Q868 31 753 -4 Q689 -23 589 -31 Z " />
<glyph glyph-name="uni049A" unicode="&#x49a;" horiz-adv-x="1229" d="M197 0 L197 1475 L308 1475 L308 829 L611 829 L1060 1475 L1191 1475 L708 792 Q770 758 813 702.5 Q856 647 918 520 L1129 94 L1238 94 L1238 -360 L1150 -360 L1123 0 L1040 0 L823 461 Q751 613 697 668 Q631 735 498 735 L308 735 L308 0 L197 0 Z " />
<glyph glyph-name="uni049B" unicode="&#x49b;" horiz-adv-x="1146" d="M190 0 L190 1061 L298 1061 L298 600 L500 600 L919 1061 L1061 1061 L583 550 Q618 523 657 480 L1014 94 L1121 94 L1121 -347 L1045 -347 L1017 0 L958 0 L645 353 Q558 451 508 480 Q458 509 374 509 L298 509 L298 0 L190 0 Z " />
<glyph glyph-name="uni049C" unicode="&#x49c;" horiz-adv-x="1229" d="M449 735 L308 735 L308 0 L197 0 L197 1475 L308 1475 L308 829 L449 829 L449 1081 L540 1081 L540 829 L611 829 L1060 1475 L1192 1475 L708 792 Q770 758 813 703 Q856 648 919 520 L1176 0 L1041 0 L823 461 Q749 618 693 672 Q637 726 540 733 L540 444 L449 444 L449 735 Z " />
<glyph glyph-name="uni049D" unicode="&#x49d;" horiz-adv-x="1145" d="M396 508 Q383 509 375 509 L298 509 L298 0 L190 0 L190 1061 L298 1061 L298 600 L396 600 L396 805 L480 805 L480 600 L501 600 L919 1061 L1061 1061 L584 550 Q619 523 658 480 L1101 0 L958 0 L646 353 Q543 469 480 493 L480 299 L396 299 L396 508 Z " />
<glyph glyph-name="uni04A2" unicode="&#x4a2;" horiz-adv-x="1406" d="M197 0 L197 1475 L308 1475 L308 825 L1097 825 L1097 1475 L1208 1475 L1208 94 L1322 94 L1322 -360 L1233 -360 L1207 0 L1097 0 L1097 731 L308 731 L308 0 L197 0 Z " />
<glyph glyph-name="uni04A3" unicode="&#x4a3;" horiz-adv-x="1216" d="M190 0 L190 1061 L298 1061 L298 599 L915 599 L915 1061 L1023 1061 L1023 94 L1131 94 L1131 -347 L1054 -347 L1027 0 L915 0 L915 504 L298 504 L298 0 L190 0 Z " />
<glyph glyph-name="uni04AA" unicode="&#x4aa;" horiz-adv-x="1396" d="M1202 306 L1285 243 Q1110 -25 758 -28 L717 -101 Q804 -105 840 -119 Q942 -159 942 -274 Q942 -362 881.5 -411.5 Q821 -461 713 -461 Q578 -461 471 -422 L498 -332 Q599 -372 710 -372 Q839 -372 839 -277 Q839 -184 695 -184 Q674 -184 633 -187 L624 -116 L675 -25 Q468 -8 341 104 Q223 209 164 397 Q118 541 118 728 Q118 1095 291 1305 Q453 1502 750 1502 Q986 1502 1120.5 1386.5 Q1255 1271 1263 1063 L1155 1063 Q1148 1221 1040.5 1312 Q933 1403 753 1403 Q582 1403 474 1329 Q349 1245 285 1066 Q233 922 233 725 Q233 420 370 240 Q436 153 529.5 112 Q623 71 756 71 Q905 71 1007 124.5 Q1109 178 1202 306 Z " />
<glyph glyph-name="uni04AB" unicode="&#x4ab;" horiz-adv-x="1084" d="M601 -32 L560 -106 Q647 -109 689 -125 Q795 -165 795 -286 Q795 -376 732.5 -427.5 Q670 -479 559 -479 Q417 -479 306 -439 L334 -347 Q440 -389 554 -389 Q691 -389 691 -289 Q691 -191 541 -191 Q524 -191 475 -194 L466 -121 L518 -29 Q396 -14 306 48 Q107 186 107 514 Q107 776 236 940 Q358 1094 592 1094 Q768 1094 868 1003.5 Q968 913 972 750 L869 750 Q844 1000 587 1000 Q397 1000 303 856 Q217 725 217 519 Q217 282 338 161 Q436 62 592 62 Q768 62 921 211 L981 128 Q824 -24 601 -32 Z " />
<glyph glyph-name="uni04AE" unicode="&#x4ae;" horiz-adv-x="1050" d="M470 0 L470 588 L-27 1475 L94 1475 L525 708 L956 1475 L1077 1475 L581 588 L581 0 L470 0 Z " />
<glyph glyph-name="uni04AF" unicode="&#x4af;" horiz-adv-x="975" d="M434 -2 L32 1061 L142 1061 L488 132 L833 1061 L943 1061 L542 -2 L542 -439 L434 -439 L434 -2 Z " />
<glyph glyph-name="uni04B0" unicode="&#x4b0;" horiz-adv-x="1045" d="M467 0 L467 576 L233 576 L233 670 L421 670 L-27 1475 L94 1475 L522 708 L951 1475 L1072 1475 L624 670 L812 670 L812 576 L578 576 L578 0 L467 0 Z " />
<glyph glyph-name="uni04B1" unicode="&#x4b1;" horiz-adv-x="975" d="M402 82 L32 1061 L142 1061 L488 132 L833 1061 L944 1061 L574 82 L745 82 L745 0 L542 0 L542 -439 L434 -439 L434 0 L230 0 L230 82 L402 82 Z " />
<glyph glyph-name="uni04B2" unicode="&#x4b2;" horiz-adv-x="1164" d="M515 775 L67 1475 L192 1475 L595 843 L973 1475 L1094 1475 L655 751 L1075 94 L1188 94 L1188 -360 L1101 -360 L1074 0 L1011 0 L575 682 L151 0 L29 0 L515 775 Z " />
<glyph glyph-name="uni04B3" unicode="&#x4b3;" horiz-adv-x="965" d="M414 574 L67 1061 L192 1061 L483 653 L775 1061 L897 1061 L535 580 L881 94 L1026 94 L1026 -347 L949 -347 L921 0 L824 0 L466 502 L127 0 L5 0 L414 574 Z " />
<glyph glyph-name="uni04B6" unicode="&#x4b6;" horiz-adv-x="1297" d="M990 0 L990 706 Q799 555 560 555 Q256 555 180 755 Q144 850 144 1071 L144 1475 L255 1475 L255 1025 Q255 826 307 755 Q381 653 581 653 Q700 653 791 690.5 Q882 728 990 821 L990 1475 L1101 1475 L1101 94 L1214 94 L1214 -360 L1126 -360 L1100 0 L990 0 Z " />
<glyph glyph-name="uni04B7" unicode="&#x4b7;" horiz-adv-x="1155" d="M854 0 L854 484 Q711 365 488 365 Q242 365 165 525 Q128 601 128 789 L128 1061 L236 1061 L236 746 Q236 596 290 530 Q350 459 506 459 Q720 459 854 601 L854 1061 L962 1061 L962 94 L1070 94 L1070 -347 L993 -347 L966 0 L854 0 Z " />
<glyph glyph-name="uni04B8" unicode="&#x4b8;" horiz-adv-x="1298" d="M672 659 Q827 680 990 821 L990 1475 L1101 1475 L1101 0 L990 0 L990 706 Q839 587 672 563 L672 296 L574 296 L574 555 Q556 555 548 555 Q411 555 304 613 Q235 650 200 711.5 Q165 773 153 879 Q144 959 144 1071 L144 1475 L255 1475 L255 1025 Q255 892 274 825 Q293 758 342 718 Q419 657 574 654 L574 933 L672 933 L672 659 Z " />
<glyph glyph-name="uni04B9" unicode="&#x4b9;" horiz-adv-x="1151" d="M854 0 L854 483 Q748 394 591 372 L591 178 L500 178 L500 365 Q393 366 325.5 388.5 Q258 411 209 461 Q163 509 145.5 579 Q128 649 128 788 L128 1061 L236 1061 L236 746 Q236 566 316 505 Q375 461 500 458 L500 684 L591 684 L591 464 Q749 490 854 601 L854 1061 L962 1061 L962 0 L854 0 Z " />
<glyph glyph-name="uni04BA" unicode="&#x4ba;" horiz-adv-x="1248" d="M202 0 L202 1475 L313 1475 L313 783 Q439 887 541.5 931 Q644 975 762 975 Q970 975 1057 847 Q1090 799 1101.5 738.5 Q1113 678 1113 550 L1113 0 L1005 0 L1005 555 Q1005 707 977 764 Q925 872 739 872 Q610 872 475 788 Q404 743 313 660 L313 0 L202 0 Z " />
<glyph glyph-name="uni04BB" unicode="&#x4bb;" horiz-adv-x="1225" d="M190 0 L190 1579 L298 1579 L298 846 Q420 980 520.5 1037 Q621 1094 735 1094 Q852 1094 928 1032 Q996 977 1020 891.5 Q1044 806 1044 617 L1044 0 L936 0 L936 623 Q936 791 913 864 Q872 990 713 990 Q646 990 587 964.5 Q528 939 456 879 Q380 815 298 713 L298 0 L190 0 Z " />
<glyph glyph-name="uni04C0" unicode="&#x4c0;" horiz-adv-x="506" d="M197 0 L197 1475 L308 1475 L308 0 L197 0 Z " />
<glyph glyph-name="uni04C1" unicode="&#x4c1;" horiz-adv-x="1815" d="M852 0 L852 735 L731 735 Q609 735 547 683 Q485 631 405 461 L188 0 L53 0 L310 520 Q372 647 415.5 702.5 Q459 758 520 792 L37 1475 L168 1475 L618 829 L852 829 L852 1475 L962 1475 L962 829 L1196 829 L1646 1475 L1777 1475 L1294 792 Q1355 759 1398.5 703 Q1442 647 1504 520 L1761 0 L1626 0 L1409 461 Q1337 613 1283 668 Q1217 735 1083 735 L962 735 L962 0 L852 0 Z M1130 1890 L1215 1890 Q1212 1816 1196 1774 Q1180 1732 1141 1698 Q1064 1630 897 1630 Q714 1630 637 1713 Q607 1746 594.5 1784 Q582 1822 579 1890 L664 1890 Q673 1805 717 1769 Q772 1724 896 1724 Q1016 1724 1068 1761 Q1120 1798 1130 1890 Z " />
<glyph glyph-name="uni04C2" unicode="&#x4c2;" horiz-adv-x="1709" d="M801 0 L801 509 L771 509 Q688 509 638 480.5 Q588 452 501 354 L188 0 L45 0 L489 481 Q530 526 562 550 L85 1061 L227 1061 L645 600 L801 600 L801 1061 L909 1061 L909 600 L1064 600 L1482 1061 L1624 1061 L1147 550 Q1179 526 1220 481 L1664 0 L1521 0 L1208 354 Q1121 452 1071 480.5 Q1021 509 937 509 L909 509 L909 0 L801 0 Z M1083 1511 L1168 1511 Q1165 1437 1149 1395 Q1133 1353 1095 1320 Q1018 1251 850 1251 Q667 1251 591 1334 Q561 1367 548 1405.5 Q535 1444 532 1511 L617 1511 Q628 1420 680 1382.5 Q732 1345 850 1345 Q969 1345 1021 1382 Q1073 1419 1083 1511 Z " />
<glyph glyph-name="uni04CF" unicode="&#x4cf;" horiz-adv-x="506" d="M197 0 L197 1475 L308 1475 L308 0 L197 0 Z " />
<glyph glyph-name="uni04D4" unicode="&#x4d4;" horiz-adv-x="1961" d="M1017 504 L421 504 L85 0 L-28 0 L953 1475 L1813 1475 L1813 1381 L1128 1381 L1128 811 L1701 811 L1701 717 L1128 717 L1128 94 L1829 94 L1829 0 L1017 0 L1017 504 Z M1017 598 L1017 1400 L484 598 L1017 598 Z " />
<glyph glyph-name="uni04D5" unicode="&#x4d5;" horiz-adv-x="1930" d="M879 629 L879 698 Q879 854 826 920 Q761 1002 572 1002 Q446 1002 386 956.5 Q326 911 304 800 L202 800 Q223 956 310.5 1025.5 Q398 1095 572 1095 Q748 1095 839 1040 Q930 985 962 859 Q1091 1093 1350 1093 Q1559 1093 1691 938 Q1826 777 1826 513 L981 513 Q988 366 1036 270 Q1086 170 1171 116 Q1256 62 1363 62 Q1561 62 1739 210 L1798 127 Q1608 -32 1370 -32 Q1078 -32 947 235 Q839 -32 481 -32 Q102 -32 102 293 Q102 417 159 503 Q227 605 379 628 Q462 641 582 641 Q630 641 809 633 L879 629 Z M879 533 Q759 548 574 548 Q376 548 306 504 Q212 445 212 298 Q212 181 272 125 Q340 62 490 62 Q737 62 833 211 Q879 282 879 404 L879 533 Z M1713 607 Q1694 746 1645 826 Q1540 999 1349 999 Q1135 999 1034 791 Q999 720 985 607 L1713 607 Z " />
<glyph glyph-name="uni04D8" unicode="&#x4d8;" horiz-adv-x="1544" d="M118 825 L1308 825 Q1272 1405 774 1405 Q611 1405 506.5 1352 Q402 1299 329 1178 L234 1232 Q300 1336 368 1389 Q519 1504 775 1504 Q1117 1504 1276 1284 Q1426 1077 1426 737 Q1426 398 1276 191 Q1117 -29 772 -29 Q428 -29 268 191 Q182 309 150 444 Q118 579 118 825 Z M233 731 Q240 570 253 497 Q266 424 298 353 Q371 195 500 127 Q607 70 780 70 Q1145 70 1264 403 Q1310 531 1311 731 L233 731 Z " />
<glyph glyph-name="afii10846" unicode="&#x4d9;" horiz-adv-x="1195" d="M104 602 L975 602 Q958 741 903 829 Q794 999 592 999 Q398 999 223 854 L159 934 Q354 1093 595 1093 Q826 1093 961 924 Q1089 763 1089 530 Q1089 294 961 137 Q823 -32 597 -32 Q418 -32 293 76 Q190 165 147 284 Q104 403 104 602 Z M217 506 Q227 354 268 272 Q374 62 597 62 Q765 62 866.5 180 Q968 298 979 506 L217 506 Z " />
<glyph glyph-name="uni04E2" unicode="&#x4e2;" horiz-adv-x="1406" d="M197 0 L197 1475 L308 1475 L308 194 L1110 1475 L1209 1475 L1209 0 L1098 0 L1098 1262 L296 0 L197 0 Z M446 1689 L446 1798 L942 1798 L942 1689 L446 1689 Z " />
<glyph glyph-name="uni04E3" unicode="&#x4e3;" horiz-adv-x="1212" d="M349 1326 L349 1437 L863 1437 L863 1326 L349 1326 Z M190 0 L190 1061 L299 1061 L299 173 L914 1061 L1023 1061 L1023 0 L914 0 L914 890 L299 0 L190 0 Z " />
<glyph glyph-name="uni04E8" unicode="&#x4e8;" horiz-adv-x="1543" d="M783 1504 Q1116 1504 1277 1284 Q1426 1078 1426 737 Q1426 398 1277 191 Q1117 -29 772 -29 Q427 -29 267 191 Q118 398 118 734 Q118 1080 267 1284 Q362 1412 502 1462 Q622 1504 783 1504 Z M235 825 L1308 825 Q1272 1405 772 1405 Q545 1405 418 1289 Q333 1211 291 1105 Q249 999 235 825 Z M1311 731 L233 731 Q235 496 299 354 Q372 194 500 127 Q607 70 771 70 Q1001 70 1127 185 Q1312 355 1311 731 Z " />
<glyph glyph-name="uni04E9" unicode="&#x4e9;" horiz-adv-x="1216" d="M615 1093 Q842 1093 982 924 Q1108 770 1108 530 Q1108 291 982 137 Q843 -32 608 -32 Q372 -32 233 137 Q107 291 107 529 Q107 768 233 924 Q371 1093 615 1093 Z M998 506 L217 506 Q222 369 269 272 Q324 157 429 103 Q509 62 608 62 Q755 62 857 152 Q986 265 998 506 Z M220 602 L995 602 Q980 724 943 797 Q893 894 806 946.5 Q719 999 608 999 Q461 999 359 909 Q298 855 266 784.5 Q234 714 220 602 Z " />
<glyph glyph-name="uni04EE" unicode="&#x4ee;" horiz-adv-x="1105" d="M519 417 L32 1475 L149 1475 L573 534 L1000 1475 L1109 1475 L439 0 L330 0 L519 417 Z M308 1689 L308 1798 L804 1798 L804 1689 L308 1689 Z " />
<glyph glyph-name="uni04EF" unicode="&#x4ef;" horiz-adv-x="975" d="M436 54 L32 1061 L142 1061 L487 190 L832 1061 L943 1061 L452 -170 Q405 -285 380.5 -325.5 Q356 -366 315 -394 Q279 -419 236.5 -428 Q194 -437 112 -439 L112 -344 Q220 -342 261 -313 Q311 -278 354 -164 L436 54 Z M224 1326 L224 1437 L738 1437 L738 1326 L224 1326 Z " />
<glyph glyph-name="uni1E1E" unicode="&#x1e1e;" horiz-adv-x="1115" d="M197 0 L197 1475 L1062 1475 L1062 1381 L308 1381 L308 810 L949 810 L949 716 L308 716 L308 0 L197 0 Z M645 1827 Q680 1827 705 1802 Q730 1777 730 1741 Q730 1706 704.5 1680.5 Q679 1655 643 1655 Q607 1655 581.5 1680.5 Q556 1706 556 1742 Q556 1778 581.5 1802.5 Q607 1827 645 1827 Z " />
<glyph glyph-name="Wdieresis" unicode="&#x1e84;" horiz-adv-x="1829" d="M445 -33 L73 1475 L183 1475 L491 228 L883 1488 L945 1488 L1338 228 L1645 1475 L1756 1475 L1384 -33 L1312 -33 L914 1248 L516 -33 L445 -33 Z M735 1825 Q769 1825 793.5 1800.5 Q818 1776 818 1741 Q818 1706 793.5 1681.5 Q769 1657 734 1657 Q698 1657 673.5 1682 Q649 1707 649 1742 Q649 1777 674 1801 Q699 1825 735 1825 Z M1095 1825 Q1129 1825 1153.5 1800.5 Q1178 1776 1178 1741 Q1178 1706 1153.5 1681.5 Q1129 1657 1094 1657 Q1058 1657 1033.5 1682 Q1009 1707 1009 1742 Q1009 1777 1034 1801 Q1059 1825 1095 1825 Z " />
<glyph glyph-name="wdieresis" unicode="&#x1e85;" horiz-adv-x="1531" d="M399 -28 L69 1061 L179 1061 L429 212 L742 1061 L790 1061 L1103 212 L1353 1061 L1463 1061 L1132 -28 L1088 -28 L766 863 L443 -28 L399 -28 Z M603 1462 Q637 1462 661.5 1437.5 Q686 1413 686 1378 Q686 1343 661.5 1318.5 Q637 1294 602 1294 Q566 1294 541.5 1319 Q517 1344 517 1379 Q517 1414 542 1438 Q567 1462 603 1462 Z M931 1462 Q965 1462 989.5 1437.5 Q1014 1413 1014 1378 Q1014 1343 989.5 1318.5 Q965 1294 930 1294 Q894 1294 869.5 1319 Q845 1344 845 1379 Q845 1414 870 1438 Q895 1462 931 1462 Z " />
<glyph glyph-name="uni2007" unicode="&#x2007;" horiz-adv-x="1303" d="" />
<glyph glyph-name="uni2011" unicode="&#x2011;" horiz-adv-x="799" d="M123 568 L123 662 L676 662 L676 568 L123 568 Z " />
<glyph glyph-name="figuredash" unicode="&#x2012;" horiz-adv-x="844" d="M40 568 L40 662 L804 662 L804 568 L40 568 Z " />
<glyph glyph-name="afii00208" unicode="&#x2015;" horiz-adv-x="1303" d="M-90 568 L-90 662 L1392 662 L1392 568 L-90 568 Z " />
<glyph glyph-name="zerosuperior" unicode="&#x2070;" horiz-adv-x="790" d="M400 1695 Q591 1695 674 1536 Q730 1427 730 1249 Q730 1051 661 940 Q576 803 395 803 Q200 803 117 962 Q61 1071 61 1250 Q61 1695 400 1695 Z M392 1606 Q168 1606 168 1249 Q168 892 395 892 Q623 892 623 1250 Q623 1396 581 1488 Q528 1606 392 1606 Z " />
<glyph glyph-name="foursuperior" unicode="&#x2074;" horiz-adv-x="791" d="M493 819 L493 1007 L56 1007 L56 1072 L342 1679 L459 1679 L181 1094 L493 1094 L493 1441 L599 1441 L599 1094 L750 1094 L750 1007 L599 1007 L599 819 L493 819 Z " />
<glyph glyph-name="fivesuperior" unicode="&#x2075;" horiz-adv-x="790" d="M113 1221 L142 1679 L655 1679 L655 1590 L244 1590 L221 1318 Q300 1363 413 1363 Q542 1363 621 1298 Q715 1222 715 1081 Q715 954 636 881 Q551 803 386 803 Q225 803 148 863.5 Q71 924 55 1065 L161 1065 Q172 973 225.5 932.5 Q279 892 388 892 Q605 892 605 1076 Q605 1273 396 1273 Q280 1273 179 1187 L113 1221 Z " />
<glyph glyph-name="sixsuperior" unicode="&#x2076;" horiz-adv-x="789" d="M200 1304 Q286 1366 403 1366 Q527 1366 606 1313 Q719 1239 719 1089 Q719 941 617 865 Q534 803 397 803 Q236 803 157.5 885 Q79 967 79 1135 Q79 1408 145 1540 Q223 1695 419 1695 Q552 1695 618.5 1638 Q685 1581 696 1457 L590 1457 Q582 1536 542 1571 Q502 1606 421 1606 Q316 1606 266.5 1538.5 Q217 1471 200 1304 Z M397 1277 Q189 1277 189 1084 Q189 892 400 892 Q612 892 612 1083 Q612 1277 397 1277 Z " />
<glyph glyph-name="sevensuperior" unicode="&#x2077;" horiz-adv-x="604" d="M471 1590 L-9 1590 L-9 1679 L567 1679 L567 1599 L221 819 L100 819 L471 1590 Z " />
<glyph glyph-name="eightsuperior" unicode="&#x2078;" horiz-adv-x="791" d="M198 1275 Q88 1334 88 1458 Q88 1572 168 1633.5 Q248 1695 394 1695 Q541 1695 621 1633.5 Q701 1572 701 1459 Q701 1334 591 1275 Q734 1210 734 1057 Q734 937 644.5 870 Q555 803 395 803 Q235 803 145 870 Q55 937 55 1056 Q55 1209 198 1275 Z M392 1606 Q292 1606 245 1571 Q198 1536 198 1462 Q198 1387 242 1354 Q291 1317 395 1317 Q496 1317 543.5 1352 Q591 1387 591 1461 Q591 1537 547 1569 Q498 1606 392 1606 Z M390 1228 Q273 1228 217 1188 Q165 1151 165 1060 Q165 972 217 934 Q272 894 395 894 Q519 894 571.5 932 Q624 970 624 1061 Q624 1150 571 1188 Q516 1228 390 1228 Z " />
<glyph glyph-name="ninesuperior" unicode="&#x2079;" horiz-adv-x="788" d="M567 1219 Q487 1157 379 1157 Q262 1157 186 1208 Q79 1279 79 1422 Q79 1564 176 1637 Q255 1696 385 1696 Q539 1696 613.5 1614 Q688 1532 688 1362 Q688 1073 637 959 Q568 803 368 803 Q226 803 155 866 Q84 929 71 1066 L177 1066 Q185 975 230 933.5 Q275 892 365 892 Q504 892 542 1019 Q561 1082 567 1219 Z M379 1607 Q186 1607 186 1426 Q186 1246 382 1246 Q578 1246 578 1425 Q578 1607 379 1607 Z " />
<glyph glyph-name="zeroinferior" unicode="&#x2080;" horiz-adv-x="790" d="M400 671 Q591 671 674 512 Q730 403 730 225 Q730 27 661 -84 Q576 -221 395 -221 Q200 -221 117 -62 Q61 47 61 226 Q61 671 400 671 Z M392 582 Q168 582 168 225 Q168 -132 395 -132 Q623 -132 623 226 Q623 372 581 464 Q528 582 392 582 Z " />
<glyph glyph-name="oneinferior" unicode="&#x2081;" horiz-adv-x="545" d="M248 -205 L248 547 L17 469 L17 566 L278 655 L354 655 L354 -205 L248 -205 Z " />
<glyph glyph-name="twoinferior" unicode="&#x2082;" horiz-adv-x="790" d="M52 -205 Q69 -102 118 -39.5 Q167 23 323 139 Q472 250 520.5 308 Q569 366 569 434 Q569 504 519.5 544.5 Q470 585 384 585 Q269 585 207 506 Q179 471 164 385 L60 385 Q80 525 135 584 Q219 672 379 672 Q523 672 602.5 609.5 Q682 547 682 433 Q682 318 599 235 Q549 185 395 71 Q288 -7 250 -42 Q212 -77 187 -118 L708 -118 L708 -205 L52 -205 Z " />
<glyph glyph-name="threeinferior" unicode="&#x2083;" horiz-adv-x="790" d="M259 206 L259 293 Q304 292 332 292 Q459 292 513 326.5 Q567 361 567 443 Q567 515 524 549 Q481 583 389 583 Q214 583 178 435 L71 435 Q91 543 149 596 Q229 672 378 672 Q512 672 592 618 Q677 561 677 448 Q677 313 549 256 Q705 191 705 32 Q705 -221 380 -221 Q218 -221 140 -160 Q62 -99 46 41 L152 41 Q178 -132 382 -132 Q595 -132 595 28 Q595 121 546 161 Q514 188 465.5 197 Q417 206 302 206 Q287 206 259 206 Z " />
<glyph glyph-name="fourinferior" unicode="&#x2084;" horiz-adv-x="791" d="M493 -205 L493 -17 L56 -17 L56 48 L342 655 L459 655 L181 70 L493 70 L493 417 L599 417 L599 70 L750 70 L750 -17 L599 -17 L599 -205 L493 -205 Z " />
<glyph glyph-name="fiveinferior" unicode="&#x2085;" horiz-adv-x="790" d="M113 197 L142 655 L655 655 L655 566 L244 566 L221 294 Q300 339 413 339 Q542 339 621 274 Q715 198 715 57 Q715 -70 636 -143 Q551 -221 386 -221 Q225 -221 148 -160.5 Q71 -100 55 41 L161 41 Q172 -51 225.5 -91.5 Q279 -132 388 -132 Q605 -132 605 52 Q605 249 396 249 Q280 249 179 163 L113 197 Z " />
<glyph glyph-name="sixinferior" unicode="&#x2086;" horiz-adv-x="789" d="M200 280 Q286 342 403 342 Q527 342 606 289 Q719 215 719 65 Q719 -83 617 -159 Q534 -221 397 -221 Q236 -221 157.5 -139 Q79 -57 79 111 Q79 384 145 516 Q223 671 419 671 Q552 671 618.5 614 Q685 557 696 433 L590 433 Q582 512 542 547 Q502 582 421 582 Q316 582 266.5 514.5 Q217 447 200 280 Z M397 253 Q189 253 189 60 Q189 -132 400 -132 Q612 -132 612 59 Q612 253 397 253 Z " />
<glyph glyph-name="seveninferior" unicode="&#x2087;" horiz-adv-x="604" d="M471 566 L-9 566 L-9 655 L567 655 L567 575 L221 -205 L100 -205 L471 566 Z " />
</font>
</svg>
