<?xml version="1.0" encoding="UTF-8"?>
<svg xmlns="http://www.w3.org/2000/svg" xmlns:xlink="http://www.w3.org/1999/xlink" version="1.2" >
<font id="A1 Sans">
<font-face  font-family="A1 Sans" units-per-em="2048" ascent="1536" descent="-512" font-style="normal" font-weight="400" font-stretch="normal" cap-height="1475" x-height="1080" underline-position="-348" underline-thickness="148" />
<missing-glyph  horiz-adv-x="451" d="M45 0 L45 1475 L406 1475 L406 0 L45 0 Z M361 45 L361 1430 L90 1430 L90 45 L361 45 Z " />
<glyph glyph-name="space" unicode="&#x20;" horiz-adv-x="451" d="" />
<glyph glyph-name="exclam" unicode="&#x21;" horiz-adv-x="698" d="M273 385 L249 1475 L449 1475 L426 385 L273 385 Z M352 219 Q403 219 440 182.5 Q477 146 477 95 Q477 44 440 7.5 Q403 -29 350 -29 Q296 -29 259 7.5 Q222 44 222 96 Q222 148 259.5 183.5 Q297 219 352 219 Z " />
<glyph glyph-name="quotedbl" unicode="&#x22;" horiz-adv-x="658" d="M112 909 L112 1475 L245 1475 L245 909 L112 909 Z M413 909 L413 1475 L546 1475 L546 909 L413 909 Z " />
<glyph glyph-name="numbersign" unicode="&#x23;" horiz-adv-x="1303" d="M315 466 L114 466 L133 600 L334 600 L371 850 L170 850 L189 984 L390 984 L460 1462 L616 1462 L546 984 L830 984 L900 1462 L1056 1462 L986 984 L1188 984 L1169 850 L967 850 L930 600 L1132 600 L1113 466 L911 466 L843 0 L687 0 L755 466 L471 466 L403 0 L247 0 L315 466 Z M490 600 L774 600 L811 850 L527 850 L490 600 Z " />
<glyph glyph-name="dollar" unicode="&#x24;" horiz-adv-x="1303" d="M98 429 L266 429 Q266 164 596 137 L596 703 Q447 742 406 755 Q365 768 318 794 Q140 892 140 1096 Q140 1226 209 1319 Q270 1400 362.5 1440 Q455 1480 596 1484 L596 1641 L713 1641 L713 1480 Q1120 1443 1117 1052 L956 1052 Q953 1296 713 1336 L713 846 Q910 798 987 760 Q1212 648 1212 412 Q1212 270 1130 164 Q1035 40 829 5 Q779 -3 713 -8 L713 -169 L596 -169 L596 -8 Q308 9 181 160 Q95 268 98 429 Z M713 672 L713 135 Q849 150 908 182 Q971 217 1006.5 274 Q1042 331 1042 398 Q1042 541 901 611 Q847 637 713 672 Z M596 877 L596 1345 Q475 1334 421 1303 Q307 1236 307 1114 Q307 982 446 923 Q480 908 596 877 Z " />
<glyph glyph-name="percent" unicode="&#x25;" horiz-adv-x="1745" d="M450 1506 Q628 1506 723 1396 Q815 1290 815 1118 Q815 946 723 839 Q629 729 444 729 Q258 729 164 839 Q72 946 72 1116 Q72 1290 164 1396 Q259 1506 450 1506 Z M440 1375 Q227 1375 227 1118 Q227 860 444 860 Q660 860 660 1116 Q660 1375 440 1375 Z M1324 748 Q1503 748 1598 638 Q1690 531 1690 359 Q1690 188 1598 81 Q1504 -29 1318 -29 Q1133 -29 1039 81 Q947 188 947 358 Q947 532 1039 638 Q1134 748 1324 748 Z M1315 617 Q1102 617 1102 359 Q1102 102 1319 102 Q1535 102 1535 358 Q1535 490 1481 553.5 Q1427 617 1315 617 Z M365 0 L1235 1475 L1395 1475 L525 0 L365 0 Z " />
<glyph glyph-name="ampersand" unicode="&#x26;" horiz-adv-x="1508" d="M504 841 Q381 974 340 1045 Q299 1116 299 1196 Q299 1328 400 1416 Q503 1506 678 1506 Q860 1506 965 1413 Q1063 1326 1063 1198 Q1063 1101 999.5 1030 Q936 959 724 821 L1087 409 Q1156 556 1218 804 L1378 804 Q1289 458 1192 287 L1443 0 L1236 0 L1094 161 Q1029 90 987 61 Q856 -32 647 -32 Q434 -32 298 65 Q222 120 179.5 203.5 Q137 287 137 384 Q137 510 212 607 Q251 658 309.5 705 Q368 752 504 841 Z M631 929 L685 966 Q825 1059 862 1099.5 Q899 1140 899 1199 Q899 1277 840 1322 Q781 1367 678 1367 Q576 1367 517 1319 Q462 1274 462 1201 Q462 1148 489.5 1103.5 Q517 1059 631 929 Z M597 732 Q456 640 423 612 Q310 519 310 400 Q310 262 410 186 Q508 110 664 110 Q825 110 917 191 Q943 214 997 274 L597 732 Z " />
<glyph glyph-name="quotesingle" unicode="&#x27;" horiz-adv-x="356" d="M112 909 L112 1475 L245 1475 L245 909 L112 909 Z " />
<glyph glyph-name="parenleft" unicode="&#x28;" horiz-adv-x="857" d="M750 -356 L600 -356 Q442 -159 358 32 Q234 309 234 612 Q234 873 323 1106.5 Q412 1340 600 1572 L750 1572 Q597 1362 521 1177 Q409 908 409 613 Q409 350 489 123.5 Q569 -103 750 -356 Z " />
<glyph glyph-name="parenright" unicode="&#x29;" horiz-adv-x="857" d="M107 1572 L257 1572 Q623 1115 623 604 Q623 95 257 -356 L107 -356 Q260 -144 337 39 Q448 307 448 604 Q448 866 368.5 1092 Q289 1318 107 1572 Z " />
<glyph glyph-name="asterisk" unicode="&#x2a;" horiz-adv-x="1179" d="M173 1166 L224 1311 L521 1208 L515 1507 L664 1507 L657 1208 L955 1309 L1006 1165 L698 1082 L906 834 L779 743 L589 1003 L399 744 L272 833 L480 1082 L173 1166 Z " />
<glyph glyph-name="plus" unicode="&#x2b;" horiz-adv-x="1303" d="M158 664 L158 809 L576 809 L576 1188 L728 1188 L728 809 L1145 809 L1145 664 L728 664 L728 285 L576 285 L576 664 L158 664 Z " />
<glyph glyph-name="comma" unicode="&#x2c;" horiz-adv-x="644" d="M155 -273 L289 217 L504 217 L303 -273 L155 -273 Z " />
<glyph glyph-name="hyphen" unicode="&#x2d;" horiz-adv-x="805" d="M123 541 L123 689 L683 689 L683 541 L123 541 Z " />
<glyph glyph-name="period" unicode="&#x2e;" horiz-adv-x="641" d="M323 219 Q374 219 411 182.5 Q448 146 448 95 Q448 44 411 7.5 Q374 -29 321 -29 Q267 -29 230 7.5 Q193 44 193 96 Q193 148 230.5 183.5 Q268 219 323 219 Z " />
<glyph glyph-name="slash" unicode="&#x2f;" horiz-adv-x="909" d="M70 -184 L650 1475 L807 1475 L228 -184 L70 -184 Z " />
<glyph glyph-name="zero" unicode="0" horiz-adv-x="1303" d="M659 1504 Q851 1504 986 1380 Q1117 1260 1166 1033 Q1197 891 1197 738 Q1197 431 1095 239 Q952 -29 651 -29 Q325 -29 187 281 Q105 464 105 739 Q105 881 132.5 1014.5 Q160 1148 207 1236 Q350 1504 659 1504 Z M646 1352 Q471 1352 374.5 1191 Q278 1030 278 737 Q278 477 352 325 Q451 123 651 123 Q830 123 927 283 Q1024 443 1024 738 Q1024 999 950 1150 Q851 1352 646 1352 Z " />
<glyph glyph-name="one" unicode="1" horiz-adv-x="1303" d="M590 0 L590 1303 L206 1167 L206 1315 L644 1475 L761 1475 L761 0 L590 0 Z " />
<glyph glyph-name="two" unicode="2" horiz-adv-x="1303" d="M90 0 Q108 132 191 244 Q274 356 483 532 Q772 775 845 864 Q935 976 935 1093 Q935 1211 850 1282 Q762 1356 620 1356 Q423 1356 325 1217 Q282 1155 262 1031 L99 1031 Q128 1236 221 1343 Q361 1504 624 1504 Q850 1504 984 1394 Q1116 1286 1116 1099 Q1116 921 991 783 Q903 688 675 509 Q476 353 415 291.5 Q354 230 316 148 L1156 148 L1156 0 L90 0 Z " />
<glyph glyph-name="three" unicode="3" horiz-adv-x="1303" d="M456 705 L456 841 Q510 840 536 840 Q705 840 786 880 Q931 951 931 1114 Q931 1233 846 1294 Q762 1355 627 1355 Q354 1355 298 1120 L135 1120 Q160 1274 250 1368 Q379 1504 628 1504 Q856 1504 984 1393 Q1105 1289 1105 1117 Q1105 874 891 779 Q1160 693 1160 407 Q1160 192 1002 74 Q863 -29 632 -29 Q134 -29 97 399 L263 399 Q308 121 628 121 Q772 121 864 183 Q983 263 983 407 Q983 598 788 671 Q696 705 510 705 Q495 705 456 705 Z " />
<glyph glyph-name="four" unicode="4" horiz-adv-x="1303" d="M834 0 L834 321 L102 321 L102 445 L563 1475 L743 1475 L286 469 L834 469 L834 1039 L999 1039 L999 469 L1238 469 L1238 321 L999 321 L999 0 L834 0 Z " />
<glyph glyph-name="five" unicode="5" horiz-adv-x="1303" d="M203 717 L254 1475 L1083 1475 L1083 1325 L412 1325 L373 856 Q508 938 670 938 Q872 938 999 834 Q1165 698 1165 453 Q1165 236 1028 108 Q883 -29 633 -29 Q398 -29 269.5 78.5 Q141 186 120 399 L287 399 Q305 281 378 209 Q467 121 634 121 Q802 121 900 223 Q988 313 988 449 Q988 603 890 698 Q799 788 646 788 Q556 788 491.5 760.5 Q427 733 318 647 L203 717 Z " />
<glyph glyph-name="six" unicode="6" horiz-adv-x="1303" d="M322 796 Q395 872 478.5 905 Q562 938 678 938 Q885 938 1017 830 Q1181 698 1181 466 Q1181 235 1027 98 Q884 -29 659 -29 Q389 -29 251 151 Q140 296 140 586 Q140 1028 262 1253 Q397 1504 697 1504 Q892 1504 1006.5 1406.5 Q1121 1309 1139 1127 L973 1127 Q934 1354 694 1354 Q577 1354 501 1294.5 Q425 1235 379 1107 Q334 982 322 796 Z M657 788 Q504 788 412 700 Q316 608 316 457 Q316 308 414 210 Q503 121 662 121 Q821 121 910 209 Q1007 307 1007 455 Q1007 608 912.5 698 Q818 788 657 788 Z " />
<glyph glyph-name="seven" unicode="7" horiz-adv-x="1303" d="M953 1325 L152 1325 L152 1475 L1125 1475 L1125 1339 L537 0 L347 0 L953 1325 Z " />
<glyph glyph-name="eight" unicode="8" horiz-adv-x="1303" d="M377 782 Q278 825 231 881 Q154 972 154 1104 Q154 1290 296 1400 Q430 1504 650 1504 Q889 1504 1025 1383 Q1146 1274 1146 1105 Q1146 987 1092 909 Q1038 831 923 782 Q1034 748 1108 669 Q1206 564 1206 405 Q1206 203 1045 84 Q892 -29 648 -29 Q386 -29 233 100 Q95 218 95 405 Q95 543 169 642 Q243 741 377 782 Z M646 1357 Q472 1357 391 1277 Q322 1210 322 1103 Q322 982 407.5 916 Q493 850 649 850 Q806 850 891.5 916 Q977 982 977 1102 Q977 1226 891.5 1291.5 Q806 1357 646 1357 Z M646 703 Q473 703 370 622 Q271 544 271 417 Q271 281 372.5 202.5 Q474 124 651 124 Q831 124 934 207 Q1030 284 1030 417 Q1030 554 916 633 Q814 703 646 703 Z " />
<glyph glyph-name="nine" unicode="9" horiz-adv-x="1303" d="M962 707 Q890 631 808.5 598 Q727 565 614 565 Q419 565 291 669 Q137 795 137 1019 Q137 1248 283 1380 Q419 1504 634 1504 Q759 1504 863 1458 Q967 1412 1032 1327 Q1144 1182 1144 876 Q1144 445 1034 225 Q908 -29 595 -29 Q396 -29 279 71 Q162 171 143 357 L309 357 Q352 121 599 121 Q779 121 862.5 255.5 Q946 390 962 707 Z M627 1353 Q483 1353 401 1268 Q311 1175 311 1029 Q311 884 397 799.5 Q483 715 631 715 Q783 715 873 799 Q966 887 966 1031 Q966 1177 870 1268 Q781 1353 627 1353 Z " />
<glyph glyph-name="colon" unicode="&#x3a;" horiz-adv-x="641" d="M359 219 Q410 219 447 182.5 Q484 146 484 95 Q484 44 447 7.5 Q410 -29 357 -29 Q303 -29 266 7.5 Q229 44 229 96 Q229 148 266.5 183.5 Q304 219 359 219 Z M359 911 Q410 911 447 874.5 Q484 838 484 787 Q484 736 446.5 699.5 Q409 663 357 663 Q303 663 266 699.5 Q229 736 229 788 Q229 840 266.5 875.5 Q304 911 359 911 Z " />
<glyph glyph-name="semicolon" unicode="&#x3b;" horiz-adv-x="645" d="M179 -273 L313 217 L528 217 L327 -273 L179 -273 Z M425 911 Q476 911 513 874.5 Q550 838 550 787 Q550 735 513 699 Q476 663 423 663 Q369 663 332 699.5 Q295 736 295 788 Q295 840 332.5 875.5 Q370 911 425 911 Z " />
<glyph glyph-name="less" unicode="&#x3c;" horiz-adv-x="1303" d="M374 737 L1101 362 L1101 198 L199 684 L199 791 L1101 1277 L1101 1112 L374 737 Z " />
<glyph glyph-name="equal" unicode="&#x3d;" horiz-adv-x="1303" d="M158 505 L158 650 L1145 650 L1145 505 L158 505 Z M158 823 L158 968 L1145 968 L1145 823 L158 823 Z " />
<glyph glyph-name="greater" unicode="&#x3e;" horiz-adv-x="1303" d="M929 737 L202 1112 L202 1277 L1104 791 L1104 684 L202 198 L202 362 L929 737 Z " />
<glyph glyph-name="question" unicode="&#x3f;" horiz-adv-x="1095" d="M424 385 L424 451 Q424 592 469 666 Q496 712 523 733 Q550 754 676 828 Q769 882 804 941 Q847 1013 847 1114 Q847 1227 777 1289 Q702 1356 570 1356 Q405 1356 326 1245 Q281 1183 261 1053 L99 1053 Q112 1159 133 1220.5 Q154 1282 198 1341 Q323 1508 576 1508 Q778 1508 898 1403 Q1020 1296 1020 1106 Q1020 918 912 811 Q858 757 708 672 Q634 630 609 588 Q584 546 584 464 L584 385 L424 385 Z M506 219 Q557 219 594 182.5 Q631 146 631 95 Q631 43 594 7 Q557 -29 504 -29 Q450 -29 413 7 Q376 43 376 96 Q376 148 413.5 183.5 Q451 219 506 219 Z " />
<glyph glyph-name="at" unicode="&#x40;" horiz-adv-x="2203" d="M1391 377 Q1274 216 1058 216 Q874 216 762 333 Q653 446 653 626 Q653 808 762 921 Q872 1035 1054 1035 Q1264 1035 1377 882 L1383 1026 L1521 1026 L1521 497 Q1521 427 1536 396 Q1562 344 1650 344 Q1780 344 1846 452 Q1909 553 1909 718 Q1909 928 1805 1081 Q1691 1248 1464 1324 Q1312 1375 1129 1375 Q706 1375 477 1109 Q294 898 294 588 Q294 268 478 104 Q616 -20 802 -65 Q981 -109 1184 -109 Q1541 -109 1871 12 L1922 -114 Q1733 -186 1564 -216 Q1395 -246 1185 -246 Q847 -246 623 -155 Q123 48 123 587 Q123 961 364 1215 Q644 1512 1126 1512 Q1501 1512 1756 1338 Q1932 1218 2017 1031 Q2080 891 2080 728 Q2080 493 1967 359 Q1910 291 1822.5 253 Q1735 215 1633 215 Q1524 215 1467 253 Q1410 291 1391 377 Z M1076 899 Q961 899 890 824 Q819 750 819 625 Q819 502 890 427 Q962 352 1081 352 Q1212 352 1291 437 Q1362 513 1362 625 Q1362 748 1283 823.5 Q1204 899 1076 899 Z " />
<glyph glyph-name="A" unicode="A" horiz-adv-x="1343" d="M985 414 L359 414 L203 0 L21 0 L601 1475 L743 1475 L1323 0 L1141 0 L985 414 Z M932 558 L672 1249 L411 558 L932 558 Z " />
<glyph glyph-name="B" unicode="B" horiz-adv-x="1343" d="M184 0 L184 1475 L672 1475 Q903 1475 1026 1384 Q1153 1290 1153 1108 Q1153 997 1104 924.5 Q1055 852 947 804 Q1067 776 1139 698 Q1235 593 1235 429 Q1235 201 1058 86 Q925 0 666 0 L184 0 Z M356 865 L673 865 Q815 865 892 920 Q977 980 977 1094 Q977 1208 897 1270.5 Q817 1333 670 1333 L356 1333 L356 865 Z M356 142 L630 142 Q837 142 935 203 Q1055 278 1055 432 Q1055 569 960.5 645.5 Q866 722 695 722 L356 722 L356 142 Z " />
<glyph glyph-name="C" unicode="C" horiz-adv-x="1402" d="M1188 342 L1302 227 Q1214 111 1111 53 Q964 -29 759 -29 Q423 -29 259 193 Q110 393 110 728 Q110 1092 284 1303 Q448 1503 753 1503 Q999 1503 1136 1383.5 Q1273 1264 1278 1046 L1107 1046 Q1101 1164 1037 1239 Q942 1350 754 1350 Q517 1350 399 1170 Q290 1002 290 728 Q290 447 416 281 Q533 126 765 126 Q932 126 1056 210 Q1107 245 1188 342 Z " />
<glyph glyph-name="D" unicode="D" horiz-adv-x="1467" d="M184 0 L184 1475 L574 1475 Q921 1475 1122 1307 Q1356 1112 1356 737 Q1356 363 1122 168 Q922 0 571 0 L184 0 Z M360 148 L562 148 Q835 148 993 279 Q1176 430 1176 738 Q1176 1044 994 1196 Q836 1327 560 1327 L360 1327 L360 148 Z " />
<glyph glyph-name="E" unicode="E" horiz-adv-x="1193" d="M184 0 L184 1475 L1095 1475 L1095 1327 L360 1327 L360 840 L973 840 L973 693 L360 693 L360 148 L1111 148 L1111 0 L184 0 Z " />
<glyph glyph-name="F" unicode="F" horiz-adv-x="1146" d="M184 0 L184 1475 L1094 1475 L1094 1327 L360 1327 L360 830 L973 830 L973 683 L360 683 L360 0 L184 0 Z " />
<glyph glyph-name="G" unicode="G" horiz-adv-x="1511" d="M866 600 L866 742 L1348 742 L1348 59 Q1095 -29 788 -29 Q561 -29 426 48 Q256 144 174 348 Q110 505 110 724 Q110 1090 292 1303 Q464 1503 779 1503 Q1100 1503 1242 1316 Q1322 1210 1324 1046 L1153 1046 Q1147 1166 1081 1239 Q981 1350 779 1350 Q529 1350 406 1170 Q290 1001 290 726 Q290 443 421 278 Q485 198 576 161 Q667 124 801 124 Q989 124 1178 190 L1178 600 L866 600 Z " />
<glyph glyph-name="H" unicode="H" horiz-adv-x="1433" d="M184 0 L184 1475 L360 1475 L360 850 L1072 850 L1072 1475 L1248 1475 L1248 0 L1072 0 L1072 703 L360 703 L360 0 L184 0 Z " />
<glyph glyph-name="I" unicode="I" horiz-adv-x="545" d="M184 0 L184 1475 L360 1475 L360 0 L184 0 Z " />
<glyph glyph-name="J" unicode="J" horiz-adv-x="586" d="M225 1475 L401 1475 L401 133 Q401 -2 381.5 -76 Q362 -150 313 -202 Q226 -291 39 -297 L39 -150 Q148 -141 184 -91 Q208 -59 216.5 -13.5 Q225 32 225 123 L225 1475 Z " />
<glyph glyph-name="K" unicode="K" horiz-adv-x="1192" d="M184 0 L184 1475 L360 1475 L360 786 L974 1475 L1179 1475 L553 781 L1240 0 L1023 0 L360 765 L360 0 L184 0 Z " />
<glyph glyph-name="L" unicode="L" horiz-adv-x="1082" d="M184 0 L184 1475 L360 1475 L360 148 L1031 148 L1031 0 L184 0 Z " />
<glyph glyph-name="M" unicode="M" horiz-adv-x="1765" d="M98 0 L258 1475 L429 1475 L883 300 L1336 1475 L1507 1475 L1667 0 L1499 0 L1374 1143 L932 0 L834 0 L391 1143 L266 0 L98 0 Z " />
<glyph glyph-name="N" unicode="N" horiz-adv-x="1433" d="M184 0 L184 1475 L354 1475 L1075 374 L1075 1475 L1248 1475 L1248 -19 L1130 -19 L357 1175 L357 0 L184 0 Z " />
<glyph glyph-name="O" unicode="O" horiz-adv-x="1543" d="M782 1504 Q1130 1504 1295 1262 Q1432 1061 1432 737 Q1432 415 1295 213 Q1131 -29 771 -29 Q411 -29 247 213 Q110 415 110 734 Q110 1064 247 1262 Q345 1404 495 1459 Q617 1504 782 1504 Z M763 1349 Q518 1349 402 1183 Q290 1023 290 737 Q290 126 771 126 Q1252 126 1252 734 Q1252 1026 1140 1183 Q1079 1269 988 1309 Q897 1349 763 1349 Z " />
<glyph glyph-name="P" unicode="P" horiz-adv-x="1269" d="M184 0 L184 1475 L591 1475 Q747 1475 840 1457.5 Q933 1440 1004 1397 Q1095 1343 1143.5 1246 Q1192 1149 1192 1022 Q1192 791 1046 682 Q900 573 592 573 L360 573 L360 0 L184 0 Z M360 718 L601 718 Q802 718 896 783 Q1012 863 1012 1025 Q1012 1180 904 1259 Q811 1327 606 1327 L360 1327 L360 718 Z " />
<glyph glyph-name="Q" unicode="Q" horiz-adv-x="1550" d="M1400 -135 L1451 -279 Q1331 -344 1217 -344 Q1161 -344 1105 -329 Q1049 -314 944 -271 Q819 -220 775 -206.5 Q731 -193 685 -193 Q572 -193 414 -306 L353 -166 Q434 -118 464 -103 Q582 -45 696 -45 Q759 -45 812.5 -59.5 Q866 -74 1000 -128 Q1155 -189 1224 -189 Q1307 -189 1400 -135 Z M782 1504 Q1130 1504 1295 1262 Q1432 1061 1432 737 Q1432 415 1295 213 Q1131 -29 771 -29 Q411 -29 247 213 Q110 415 110 734 Q110 1064 247 1262 Q345 1404 495 1459 Q617 1504 782 1504 Z M763 1349 Q518 1349 402 1183 Q290 1023 290 737 Q290 126 771 126 Q1252 126 1252 734 Q1252 1026 1140 1183 Q1079 1269 988 1309 Q897 1349 763 1349 Z " />
<glyph glyph-name="R" unicode="R" horiz-adv-x="1319" d="M173 0 L173 1475 L629 1475 Q773 1475 857.5 1460 Q942 1445 1006 1408 Q1092 1359 1139 1265 Q1186 1171 1186 1049 Q1186 854 1063 746 Q1019 707 918 663 Q973 633 1006 583.5 Q1039 534 1073 434 L1218 0 L1024 0 L912 344 Q887 423 880.5 438.5 Q874 454 853 488 Q807 561 752 585 Q697 609 575 609 L349 609 L349 0 L173 0 Z M349 754 L616 754 Q810 754 893 809 Q1006 883 1006 1041 Q1006 1196 900 1271 Q820 1327 628 1327 L349 1327 L349 754 Z " />
<glyph glyph-name="S" unicode="S" horiz-adv-x="1258" d="M97 429 L268 429 Q274 291 340 221 Q433 123 632 123 Q813 123 905 202 Q992 277 992 398 Q992 520 899 586 Q851 619 793.5 640.5 Q736 662 593 698 Q452 734 383.5 760 Q315 786 260 825 Q137 912 137 1096 Q137 1266 240 1375 Q362 1504 601 1504 Q1075 1504 1078 1052 L907 1052 Q902 1188 849 1255 Q771 1352 604 1352 Q461 1352 384 1282 Q311 1215 311 1114 Q311 997 406 941 Q448 916 499 899 Q550 882 672 852 Q830 813 908 781 Q986 749 1046 698 Q1168 595 1168 412 Q1168 215 1042 99 Q903 -29 635 -29 Q309 -29 178 144 Q100 246 97 429 Z " />
<glyph glyph-name="T" unicode="T" horiz-adv-x="1110" d="M466 0 L466 1327 L45 1327 L45 1475 L1064 1475 L1064 1327 L642 1327 L642 0 L466 0 Z " />
<glyph glyph-name="U" unicode="U" horiz-adv-x="1397" d="M175 1475 L351 1475 L351 554 Q351 356 404 264 Q483 126 698 126 Q914 126 992 264 Q1045 357 1045 554 L1045 1475 L1221 1475 L1221 612 Q1221 426 1204 330.5 Q1187 235 1141 163 Q1016 -29 698 -29 Q380 -29 255 163 Q209 235 192 330.5 Q175 426 175 612 L175 1475 Z " />
<glyph glyph-name="V" unicode="V" horiz-adv-x="1190" d="M535 -32 L17 1475 L199 1475 L595 297 L991 1475 L1173 1475 L656 -32 L535 -32 Z " />
<glyph glyph-name="W" unicode="W" horiz-adv-x="1888" d="M448 -32 L80 1475 L259 1475 L529 328 L896 1483 L993 1483 L1359 328 L1629 1475 L1809 1475 L1440 -32 L1312 -32 L944 1131 L577 -32 L448 -32 Z " />
<glyph glyph-name="X" unicode="X" horiz-adv-x="1214" d="M503 769 L56 1475 L258 1475 L627 896 L959 1475 L1154 1475 L714 754 L1191 0 L989 0 L590 627 L216 0 L19 0 L503 769 Z " />
<glyph glyph-name="Y" unicode="Y" horiz-adv-x="1130" d="M477 0 L477 577 L-25 1475 L167 1475 L565 751 L962 1475 L1154 1475 L653 577 L653 0 L477 0 Z " />
<glyph glyph-name="Z" unicode="Z" horiz-adv-x="1127" d="M43 0 L43 133 L811 1327 L103 1327 L103 1475 L1022 1475 L1022 1362 L244 148 L1060 148 L1060 0 L43 0 Z " />
<glyph glyph-name="bracketleft" unicode="&#x5b;" horiz-adv-x="857" d="M314 -356 L314 1572 L734 1572 L734 1438 L481 1438 L481 -217 L734 -217 L734 -356 L314 -356 Z " />
<glyph glyph-name="backslash" unicode="&#x5c;" horiz-adv-x="909" d="M839 -184 L682 -184 L102 1475 L260 1475 L839 -184 Z " />
<glyph glyph-name="bracketright" unicode="&#x5d;" horiz-adv-x="857" d="M544 1572 L544 -356 L124 -356 L124 -222 L377 -222 L377 1433 L124 1433 L124 1572 L544 1572 Z " />
<glyph glyph-name="asciicircum" unicode="&#x5e;" horiz-adv-x="1303" d="M651 1336 L303 905 L110 905 L593 1475 L708 1475 L1191 905 L999 905 L651 1336 Z " />
<glyph glyph-name="underscore" unicode="&#x5f;" horiz-adv-x="1065" d="M-5 -422 L-5 -274 L1070 -274 L1070 -422 L-5 -422 Z " />
<glyph glyph-name="grave" unicode="&#x60;" horiz-adv-x="1024" d="M526 1225 L259 1553 L451 1553 L648 1225 L526 1225 Z " />
<glyph glyph-name="a" unicode="a" horiz-adv-x="1192" d="M872 140 Q826 59 725 13.5 Q624 -32 492 -32 Q110 -32 110 307 Q110 518 246 596 Q349 655 561 655 Q612 655 797 646 L859 643 L859 729 Q859 853 792.5 910 Q726 967 581 967 Q470 967 423 931.5 Q376 896 353 796 L194 796 Q209 892 235 945 Q261 998 311 1037 Q408 1112 598 1112 Q826 1112 926.5 1019 Q1027 926 1027 716 L1027 0 L872 0 L872 140 Z M862 512 Q727 526 595 526 Q391 526 332 468 Q281 418 281 316 Q281 229 317 182 Q370 112 527 112 Q684 112 776 182 Q862 248 862 400 L862 512 Z " />
<glyph glyph-name="b" unicode="b" horiz-adv-x="1272" d="M175 0 L175 1516 L345 1516 L345 929 Q468 1113 695 1113 Q917 1113 1046 948 Q1171 790 1171 540 Q1171 290 1046 132 Q917 -32 693 -32 Q462 -32 333 163 L325 0 L175 0 Z M671 966 Q521 966 428 832 Q345 713 345 540 Q345 369 428 249 Q520 115 676 115 Q823 115 911 233 Q998 351 998 539 Q998 733 911 848 Q821 966 671 966 Z " />
<glyph glyph-name="c" unicode="c" horiz-adv-x="1096" d="M928 260 L1015 136 Q844 -32 594 -32 Q365 -32 237 107 Q100 255 100 524 Q100 787 226 952 Q349 1113 591 1113 Q840 1113 942 947 Q996 859 998 737 L840 737 Q820 965 592 965 Q431 965 349 839 Q273 722 273 533 Q273 325 374 213 Q461 116 606 116 Q781 116 928 260 Z " />
<glyph glyph-name="d" unicode="d" horiz-adv-x="1272" d="M936 0 L936 160 Q807 -32 577 -32 Q354 -32 225 132 Q100 290 100 540 Q100 790 225 948 Q354 1113 576 1113 Q800 1113 926 929 L926 1516 L1096 1516 L1096 0 L936 0 Z M590 966 Q449 966 360 848 Q273 731 273 540 Q273 350 360 233 Q448 115 594 115 Q751 115 843 249 Q926 369 926 539 Q926 730 833 848 Q740 966 590 966 Z " />
<glyph glyph-name="e" unicode="e" horiz-adv-x="1183" d="M1086 496 L274 496 Q286 400 295 363.5 Q304 327 325 288 Q418 116 610 116 Q709 116 793 147.5 Q877 179 976 254 L1058 124 Q846 -32 613 -32 Q365 -32 227 133 Q100 284 100 530 Q100 788 234 949 Q369 1112 598 1112 Q782 1112 907 997 Q1084 836 1086 496 Z M914 629 Q894 758 851 825 Q760 970 596 970 Q334 970 277 629 L914 629 Z " />
<glyph glyph-name="f" unicode="f" horiz-adv-x="734" d="M243 0 L243 933 L82 933 L82 1080 L243 1081 L243 1122 Q243 1316 307 1411 Q387 1531 579 1531 Q662 1531 744 1516 L733 1374 Q656 1387 595 1387 Q529 1387 491.5 1365 Q454 1343 435 1292 Q413 1235 413 1123 L413 1080 L697 1080 L697 933 L413 933 L413 0 L243 0 Z " />
<glyph glyph-name="g" unicode="g" horiz-adv-x="1272" d="M926 158 Q802 -23 577 -23 Q355 -23 225 139 Q100 294 100 540 Q100 787 222 944 Q352 1112 578 1112 Q807 1112 937 920 L937 1080 L1097 1080 L1097 159 Q1097 3 1080.5 -91 Q1064 -185 1023 -259 Q910 -467 601 -467 Q344 -467 148 -329 L230 -200 Q327 -267 412 -295.5 Q497 -324 603 -324 Q802 -324 875 -185 Q904 -130 915 -61.5 Q926 7 926 125 L926 158 Z M590 965 Q448 965 360 847 Q273 730 273 541 Q273 354 360 239 Q447 124 595 124 Q751 124 843 255 Q926 373 926 539 Q926 729 833 847 Q740 965 590 965 Z " />
<glyph glyph-name="h" unicode="h" horiz-adv-x="1241" d="M175 0 L175 1516 L345 1516 L345 901 Q462 1018 553.5 1065.5 Q645 1113 753 1113 Q948 1113 1022 969 Q1053 910 1064 837 Q1075 764 1075 627 L1075 0 L905 0 L905 636 Q905 779 882 846 Q844 956 711 956 Q623 956 538.5 902 Q454 848 345 722 L345 0 L175 0 Z " />
<glyph glyph-name="i" unicode="i" horiz-adv-x="537" d="M183 0 L183 1080 L353 1080 L353 0 L183 0 Z M270 1491 Q317 1491 350 1458 Q383 1425 383 1379 Q383 1333 349.5 1300 Q316 1267 268 1267 Q220 1267 186.5 1300 Q153 1333 153 1380 Q153 1427 187 1459 Q221 1491 270 1491 Z " />
<glyph glyph-name="j" unicode="j" horiz-adv-x="554" d="M201 1080 L371 1080 L371 23 Q371 -121 352 -199.5 Q333 -278 284 -334 Q201 -429 21 -439 L21 -291 Q82 -285 112.5 -269 Q143 -253 164 -218 Q186 -180 193.5 -131.5 Q201 -83 201 21 L201 1080 Z M288 1491 Q335 1491 368 1458 Q401 1425 401 1379 Q401 1333 367.5 1300 Q334 1267 286 1267 Q238 1267 204.5 1300 Q171 1333 171 1380 Q171 1427 205 1459 Q239 1491 288 1491 Z " />
<glyph glyph-name="k" unicode="k" horiz-adv-x="1073" d="M175 0 L175 1516 L345 1516 L345 643 L802 1080 L1003 1080 L527 623 L1089 0 L884 0 L345 609 L345 -1 L175 0 Z " />
<glyph glyph-name="l" unicode="l" horiz-adv-x="520" d="M175 0 L175 1516 L345 1516 L345 0 L175 0 Z " />
<glyph glyph-name="m" unicode="m" horiz-adv-x="1809" d="M175 0 L175 1080 L343 1080 L343 899 Q444 1012 529.5 1062 Q615 1112 709 1112 Q847 1112 919 1015 Q948 976 973 881 Q1095 1014 1176.5 1063 Q1258 1112 1360 1112 Q1532 1112 1597 968 Q1624 908 1633.5 837 Q1643 766 1643 627 L1643 0 L1473 0 L1473 636 Q1473 778 1455 844 Q1424 955 1316 955 Q1223 955 1119 862 Q1081 828 994 721 L994 0 L824 0 L824 636 Q824 780 806 844 Q776 955 668 955 Q521 955 345 721 L345 0 L175 0 Z " />
<glyph glyph-name="n" unicode="n" horiz-adv-x="1242" d="M175 0 L175 1080 L345 1080 L345 898 Q465 1018 556 1065.5 Q647 1113 754 1113 Q948 1113 1022 969 Q1052 910 1063.5 836.5 Q1075 763 1075 627 L1075 0 L905 0 L905 636 Q905 780 882 846 Q844 956 711 956 Q623 956 537 901 Q451 846 345 721 L345 0 L175 0 Z " />
<glyph glyph-name="o" unicode="o" horiz-adv-x="1240" d="M627 1112 Q856 1112 1001 948 Q1139 791 1139 540 Q1139 290 1001 132 Q857 -32 620 -32 Q382 -32 238 132 Q100 290 100 538 Q100 790 238 948 Q381 1112 627 1112 Z M614 965 Q447 965 352 831 Q273 720 273 540 Q273 360 352 249 Q446 115 619 115 Q793 115 887 249 Q966 360 966 538 Q966 721 887 831 Q792 965 614 965 Z " />
<glyph glyph-name="p" unicode="p" horiz-adv-x="1272" d="M175 -439 L175 1080 L334 1080 L334 919 Q462 1112 695 1112 Q917 1112 1046 948 Q1171 790 1171 540 Q1171 290 1046 132 Q917 -32 695 -32 Q470 -32 345 151 L345 -439 L175 -439 Z M671 965 Q521 965 428 831 Q345 712 345 540 Q345 369 428 249 Q520 115 676 115 Q823 115 911 233 Q998 350 998 538 Q998 732 911 847 Q821 965 671 965 Z " />
<glyph glyph-name="q" unicode="q" horiz-adv-x="1272" d="M926 -439 L926 151 Q882 89 843 57 Q736 -32 576 -32 Q354 -32 225 132 Q100 290 100 540 Q100 790 225 948 Q354 1112 576 1112 Q804 1112 937 920 L937 1080 L1096 1080 L1096 -439 L926 -439 Z M590 965 Q448 965 360 847 Q273 730 273 540 Q273 350 360 233 Q448 115 595 115 Q751 115 843 249 Q926 369 926 538 Q926 729 833 847 Q740 965 590 965 Z " />
<glyph glyph-name="r" unicode="r" horiz-adv-x="798" d="M175 0 L175 1080 L340 1080 L340 894 Q426 1004 489 1041 Q578 1094 699 1094 L742 1094 L742 930 L704 930 Q621 930 570.5 913 Q520 896 471 852 Q420 806 345 687 L345 0 L175 0 Z " />
<glyph glyph-name="s" unicode="s" horiz-adv-x="1042" d="M73 332 L231 332 Q242 234 282 189 Q357 108 525 108 Q793 108 793 295 Q793 387 727 427 Q697 446 667 453.5 Q637 461 498 487 Q322 519 243 567 Q126 638 126 792 Q126 946 236 1035 Q333 1112 497 1112 Q616 1112 705.5 1073 Q795 1034 839 962 Q885 888 886 782 L728 782 Q718 867 687 903 Q627 972 492 972 Q397 972 345 929 Q293 886 293 808 Q293 730 341.5 698 Q390 666 552 636 Q668 614 725 596.5 Q782 579 831 550 Q956 476 956 305 Q956 145 845 57 Q731 -32 526 -32 Q80 -32 73 332 Z " />
<glyph glyph-name="t" unicode="t" horiz-adv-x="758" d="M237 933 L76 933 L76 1080 L239 1080 L253 1400 L407 1400 L407 1080 L696 1080 L696 933 L407 933 L407 342 Q407 234 439 190.5 Q471 147 550 147 L723 147 L723 0 L543 0 Q237 0 237 315 L237 933 Z " />
<glyph glyph-name="u" unicode="u" horiz-adv-x="1198" d="M168 1080 L338 1080 L338 444 Q338 305 356 244 Q387 138 507 138 Q590 138 668.5 188.5 Q747 239 853 359 L853 1080 L1023 1080 L1023 0 L853 0 L853 181 Q752 88 707 58 Q590 -19 465 -19 Q285 -19 216 121 Q188 179 178 248.5 Q168 318 168 453 L168 1080 Z " />
<glyph glyph-name="v" unicode="v" horiz-adv-x="1016" d="M451 -25 L24 1080 L203 1080 L508 246 L813 1080 L992 1080 L565 -25 L451 -25 Z " />
<glyph glyph-name="w" unicode="w" horiz-adv-x="1582" d="M377 -25 L55 1080 L228 1080 L452 276 L745 1080 L837 1080 L1130 276 L1354 1080 L1527 1080 L1205 -25 L1088 -25 L791 797 L494 -25 L377 -25 Z " />
<glyph glyph-name="x" unicode="x" horiz-adv-x="1009" d="M401 577 L49 1080 L241 1080 L515 692 L775 1080 L957 1080 L593 580 L1000 0 L807 0 L480 464 L185 0 L2 0 L401 577 Z " />
<glyph glyph-name="y" unicode="y" horiz-adv-x="1016" d="M425 41 L24 1080 L203 1080 L508 246 L812 1080 L992 1080 L541 -86 Q480 -241 450 -290 Q397 -375 330 -406 Q263 -437 125 -439 L125 -291 Q229 -290 268 -264 Q322 -228 365 -115 L425 41 Z " />
<glyph glyph-name="z" unicode="z" horiz-adv-x="943" d="M41 0 L41 134 L654 933 L93 933 L93 1080 L862 1080 L862 957 L243 147 L878 147 L878 0 L41 0 Z " />
<glyph glyph-name="braceleft" unicode="&#x7b;" horiz-adv-x="857" d="M304 644 Q416 603 450 533 Q485 461 485 296 L485 30 Q485 -135 532 -179 Q579 -223 701 -223 L751 -223 L751 -356 L682 -356 Q563 -356 500 -341.5 Q437 -327 395 -289 Q351 -249 333 -180.5 Q315 -112 315 14 L315 278 Q315 445 270 506 Q243 543 202.5 558 Q162 573 82 577 L82 712 Q164 715 206.5 732 Q249 749 275 789 Q315 849 315 1011 L315 1199 Q315 1330 333.5 1399 Q352 1468 397 1506 Q439 1541 502 1555 Q565 1569 682 1569 L751 1569 L751 1436 L700 1436 Q566 1436 525.5 1388.5 Q485 1341 485 1183 L485 984 Q485 820 448 751 Q411 682 304 644 Z " />
<glyph glyph-name="bar" unicode="&#x7c;" horiz-adv-x="689" d="M260 -461 L260 1566 L426 1566 L426 -461 L260 -461 Z " />
<glyph glyph-name="braceright" unicode="&#x7d;" horiz-adv-x="857" d="M553 644 Q442 683 407 755 Q372 827 372 984 L372 1183 Q372 1351 326 1394 Q282 1436 157 1436 L106 1436 L106 1569 L175 1569 Q300 1569 366 1552.5 Q432 1536 472 1494 Q510 1456 526 1388.5 Q542 1321 542 1199 L542 1011 Q542 849 582 789 Q608 749 650.5 732 Q693 715 775 712 L775 577 Q695 573 655 558 Q615 543 587 506 Q542 445 542 278 L542 14 Q542 -119 521 -189.5 Q500 -260 449 -299 Q408 -331 347.5 -343.5 Q287 -356 175 -356 L106 -356 L106 -223 L156 -223 Q288 -223 330 -174 Q372 -125 372 30 L372 296 Q372 461 407 533 Q441 603 553 644 Z " />
<glyph glyph-name="asciitilde" unicode="&#x7e;" horiz-adv-x="1303" d="M261 604 L159 702 Q251 805 313.5 842.5 Q376 880 454 880 Q551 880 665 819 Q758 769 783.5 759.5 Q809 750 849 750 Q939 750 1045 870 L1145 776 Q1067 680 998 637 Q929 594 852 594 Q762 594 636 658 Q555 699 522.5 710.5 Q490 722 457 722 Q370 722 261 604 Z " />
<glyph glyph-name="Adieresis" unicode="&#xc4;" horiz-adv-x="1343" d="M985 414 L359 414 L203 0 L21 0 L601 1475 L743 1475 L1323 0 L1141 0 L985 414 Z M932 558 L672 1249 L411 558 L932 558 Z M481 1850 Q526 1850 557.5 1819 Q589 1788 589 1744 Q589 1700 557 1668.5 Q525 1637 479 1637 Q433 1637 401 1668.5 Q369 1700 369 1744 Q369 1789 401.5 1819.5 Q434 1850 481 1850 Z M866 1850 Q911 1850 942.5 1819 Q974 1788 974 1744 Q974 1700 942 1668.5 Q910 1637 864 1637 Q818 1637 786 1668.5 Q754 1700 754 1744 Q754 1789 786.5 1819.5 Q819 1850 866 1850 Z " />
<glyph glyph-name="Aring" unicode="&#xc5;" horiz-adv-x="1343" d="M985 414 L359 414 L203 0 L21 0 L601 1475 L743 1475 L1323 0 L1141 0 L985 414 Z M932 558 L672 1249 L411 558 L932 558 Z M675 2016 Q780 2016 842 1954.5 Q904 1893 904 1788 Q904 1682 842 1621 Q780 1560 672 1560 Q557 1560 495 1629 Q439 1691 439 1787 Q439 1895 501.5 1955.5 Q564 2016 675 2016 Z M669 1918 Q613 1918 581.5 1884 Q550 1850 550 1788 Q550 1658 672 1658 Q793 1658 793 1788 Q793 1918 669 1918 Z " />
<glyph glyph-name="Ccedilla" unicode="&#xc7;" horiz-adv-x="1402" d="M1188 342 L1302 227 Q1124 -21 780 -28 L744 -94 Q828 -101 865 -118 Q962 -162 962 -276 Q962 -372 896 -424.5 Q830 -477 710 -477 Q577 -477 459 -437 L496 -318 Q612 -357 704 -357 Q819 -357 819 -277 Q819 -200 693 -200 Q668 -200 621 -204 L604 -112 L655 -22 Q462 -3 334 109 Q226 205 168 364.5 Q110 524 110 727 Q110 1092 284 1303 Q448 1503 753 1503 Q999 1503 1136 1383.5 Q1273 1264 1278 1046 L1107 1046 Q1101 1164 1037 1239 Q942 1350 754 1350 Q517 1350 399 1170 Q290 1002 290 728 Q290 447 416 281 Q533 126 765 126 Q931 126 1056 211 Q1107 246 1188 342 Z " />
<glyph glyph-name="Eacute" unicode="&#xc9;" horiz-adv-x="1193" d="M184 0 L184 1475 L1095 1475 L1095 1327 L360 1327 L360 840 L973 840 L973 693 L360 693 L360 148 L1111 148 L1111 0 L184 0 Z M530 1595 L727 1923 L919 1923 L652 1595 L530 1595 Z " />
<glyph glyph-name="Ntilde" unicode="&#xd1;" horiz-adv-x="1433" d="M184 0 L184 1475 L354 1475 L1075 374 L1075 1475 L1248 1475 L1248 -19 L1130 -19 L357 1175 L357 0 L184 0 Z M535 1654 L429 1654 Q473 1856 620 1856 Q674 1856 753 1811 Q825 1771 847 1771 Q897 1771 932 1855 L1038 1855 Q1013 1762 979 1717 Q929 1648 839 1648 Q780 1648 674 1710 Q635 1733 613 1733 Q565 1733 535 1654 Z " />
<glyph glyph-name="Odieresis" unicode="&#xd6;" horiz-adv-x="1543" d="M782 1504 Q1130 1504 1295 1262 Q1432 1061 1432 737 Q1432 415 1295 213 Q1131 -29 771 -29 Q411 -29 247 213 Q110 415 110 734 Q110 1064 247 1262 Q345 1404 495 1459 Q617 1504 782 1504 Z M763 1349 Q518 1349 402 1183 Q290 1023 290 737 Q290 126 771 126 Q1252 126 1252 734 Q1252 1026 1140 1183 Q1079 1269 988 1309 Q897 1349 763 1349 Z M581 1850 Q626 1850 657.5 1819 Q689 1788 689 1744 Q689 1700 657 1668.5 Q625 1637 579 1637 Q534 1637 501.5 1668.5 Q469 1700 469 1744 Q469 1789 501.5 1819.5 Q534 1850 581 1850 Z M966 1850 Q1010 1850 1041.5 1819 Q1073 1788 1073 1744 Q1073 1700 1041 1668.5 Q1009 1637 964 1637 Q918 1637 886 1668.5 Q854 1700 854 1744 Q854 1789 886.5 1819.5 Q919 1850 966 1850 Z " />
<glyph glyph-name="Udieresis" unicode="&#xdc;" horiz-adv-x="1397" d="M175 1475 L351 1475 L351 554 Q351 356 404 264 Q483 126 698 126 Q914 126 992 264 Q1045 357 1045 554 L1045 1475 L1221 1475 L1221 612 Q1221 426 1204 330.5 Q1187 235 1141 163 Q1016 -29 698 -29 Q380 -29 255 163 Q209 235 192 330.5 Q175 426 175 612 L175 1475 Z M508 1850 Q553 1850 584.5 1819 Q616 1788 616 1744 Q616 1700 584 1668.5 Q552 1637 506 1637 Q460 1637 428 1668.5 Q396 1700 396 1744 Q396 1789 428.5 1819.5 Q461 1850 508 1850 Z M893 1850 Q938 1850 969.5 1819 Q1001 1788 1001 1744 Q1001 1700 969 1668.5 Q937 1637 891 1637 Q845 1637 813 1668.5 Q781 1700 781 1744 Q781 1789 813.5 1819.5 Q846 1850 893 1850 Z " />
<glyph glyph-name="aacute" unicode="&#xe1;" horiz-adv-x="1192" d="M872 140 Q826 59 725 13.5 Q624 -32 492 -32 Q110 -32 110 307 Q110 518 246 596 Q349 655 561 655 Q612 655 797 646 L859 643 L859 729 Q859 853 792.5 910 Q726 967 581 967 Q470 967 423 931.5 Q376 896 353 796 L194 796 Q209 892 235 945 Q261 998 311 1037 Q408 1112 598 1112 Q826 1112 926.5 1019 Q1027 926 1027 716 L1027 0 L872 0 L872 140 Z M862 512 Q727 526 595 526 Q391 526 332 468 Q281 418 281 316 Q281 229 317 182 Q370 112 527 112 Q684 112 776 182 Q862 248 862 400 L862 512 Z M502 1225 L699 1553 L891 1553 L624 1225 L502 1225 Z " />
<glyph glyph-name="agrave" unicode="&#xe0;" horiz-adv-x="1192" d="M872 140 Q826 59 725 13.5 Q624 -32 492 -32 Q110 -32 110 307 Q110 518 246 596 Q349 655 561 655 Q612 655 797 646 L859 643 L859 729 Q859 853 792.5 910 Q726 967 581 967 Q470 967 423 931.5 Q376 896 353 796 L194 796 Q209 892 235 945 Q261 998 311 1037 Q408 1112 598 1112 Q826 1112 926.5 1019 Q1027 926 1027 716 L1027 0 L872 0 L872 140 Z M862 512 Q727 526 595 526 Q391 526 332 468 Q281 418 281 316 Q281 229 317 182 Q370 112 527 112 Q684 112 776 182 Q862 248 862 400 L862 512 Z M595 1225 L328 1553 L520 1553 L717 1225 L595 1225 Z " />
<glyph glyph-name="acircumflex" unicode="&#xe2;" horiz-adv-x="1192" d="M872 140 Q826 59 725 13.5 Q624 -32 492 -32 Q110 -32 110 307 Q110 518 246 596 Q349 655 561 655 Q612 655 797 646 L859 643 L859 729 Q859 853 792.5 910 Q726 967 581 967 Q470 967 423 931.5 Q376 896 353 796 L194 796 Q209 892 235 945 Q261 998 311 1037 Q408 1112 598 1112 Q826 1112 926.5 1019 Q1027 926 1027 716 L1027 0 L872 0 L872 140 Z M862 512 Q727 526 595 526 Q391 526 332 468 Q281 418 281 316 Q281 229 317 182 Q370 112 527 112 Q684 112 776 182 Q862 248 862 400 L862 512 Z M601 1436 L426 1225 L257 1225 L549 1553 L653 1553 L945 1225 L776 1225 L601 1436 Z " />
<glyph glyph-name="adieresis" unicode="&#xe4;" horiz-adv-x="1192" d="M872 140 Q826 59 725 13.5 Q624 -32 492 -32 Q110 -32 110 307 Q110 518 246 596 Q349 655 561 655 Q612 655 797 646 L859 643 L859 729 Q859 853 792.5 910 Q726 967 581 967 Q470 967 423 931.5 Q376 896 353 796 L194 796 Q209 892 235 945 Q261 998 311 1037 Q408 1112 598 1112 Q826 1112 926.5 1019 Q1027 926 1027 716 L1027 0 L872 0 L872 140 Z M862 512 Q727 526 595 526 Q391 526 332 468 Q281 418 281 316 Q281 229 317 182 Q370 112 527 112 Q684 112 776 182 Q862 248 862 400 L862 512 Z M422 1486 Q466 1486 497.5 1455 Q529 1424 529 1380 Q529 1335 497 1304 Q465 1273 420 1273 Q374 1273 342 1304.5 Q310 1336 310 1380 Q310 1425 342.5 1455.5 Q375 1486 422 1486 Z M777 1486 Q821 1486 852.5 1455 Q884 1424 884 1380 Q884 1335 852 1304 Q820 1273 775 1273 Q729 1273 697 1304.5 Q665 1336 665 1380 Q665 1425 697.5 1455.5 Q730 1486 777 1486 Z " />
<glyph glyph-name="atilde" unicode="&#xe3;" horiz-adv-x="1192" d="M872 140 Q826 59 725 13.5 Q624 -32 492 -32 Q110 -32 110 307 Q110 518 246 596 Q349 655 561 655 Q612 655 797 646 L859 643 L859 729 Q859 853 792.5 910 Q726 967 581 967 Q470 967 423 931.5 Q376 896 353 796 L194 796 Q209 892 235 945 Q261 998 311 1037 Q408 1112 598 1112 Q826 1112 926.5 1019 Q1027 926 1027 716 L1027 0 L872 0 L872 140 Z M862 512 Q727 526 595 526 Q391 526 332 468 Q281 418 281 316 Q281 229 317 182 Q370 112 527 112 Q684 112 776 182 Q862 248 862 400 L862 512 Z M398 1284 L292 1284 Q336 1486 482 1486 Q538 1486 616 1442 Q688 1401 710 1401 Q758 1401 795 1485 L901 1485 Q875 1391 842 1347 Q791 1278 703 1278 Q643 1278 537 1340 Q498 1363 476 1363 Q428 1363 398 1284 Z " />
<glyph glyph-name="aring" unicode="&#xe5;" horiz-adv-x="1192" d="M872 140 Q826 59 725 13.5 Q624 -32 492 -32 Q110 -32 110 307 Q110 518 246 596 Q349 655 561 655 Q612 655 797 646 L859 643 L859 729 Q859 853 792.5 910 Q726 967 581 967 Q470 967 423 931.5 Q376 896 353 796 L194 796 Q209 892 235 945 Q261 998 311 1037 Q408 1112 598 1112 Q826 1112 926.5 1019 Q1027 926 1027 716 L1027 0 L872 0 L872 140 Z M862 512 Q727 526 595 526 Q391 526 332 468 Q281 418 281 316 Q281 229 317 182 Q370 112 527 112 Q684 112 776 182 Q862 248 862 400 L862 512 Z M606 1652 Q712 1652 773.5 1590.5 Q835 1529 835 1424 Q835 1319 772.5 1258 Q710 1197 603 1197 Q488 1197 426 1266 Q370 1328 370 1424 Q370 1531 432.5 1591.5 Q495 1652 606 1652 Z M600 1554 Q544 1554 512.5 1520 Q481 1486 481 1425 Q481 1295 603 1295 Q724 1295 724 1424 Q724 1554 600 1554 Z " />
<glyph glyph-name="ccedilla" unicode="&#xe7;" horiz-adv-x="1096" d="M625 -32 L591 -94 Q675 -101 712 -118 Q809 -162 809 -276 Q809 -372 743 -424.5 Q677 -477 557 -477 Q424 -477 306 -437 L343 -318 Q459 -357 551 -357 Q666 -357 666 -277 Q666 -200 540 -200 Q515 -200 468 -204 L451 -112 L500 -25 Q391 -10 305 48 Q100 188 100 524 Q100 787 226 952 Q349 1113 591 1113 Q840 1113 942 947 Q996 859 998 737 L840 737 Q820 965 592 965 Q431 965 349 839 Q273 721 273 532 Q273 324 374 212 Q461 115 607 115 Q781 115 928 260 L1015 136 Q863 -18 625 -32 Z " />
<glyph glyph-name="eacute" unicode="&#xe9;" horiz-adv-x="1183" d="M1086 496 L274 496 Q286 400 295 363.5 Q304 327 325 288 Q418 116 610 116 Q709 116 793 147.5 Q877 179 976 254 L1058 124 Q846 -32 613 -32 Q365 -32 227 133 Q100 284 100 530 Q100 788 234 949 Q369 1112 598 1112 Q782 1112 907 997 Q1084 836 1086 496 Z M914 629 Q894 758 851 825 Q760 970 596 970 Q334 970 277 629 L914 629 Z M457 1225 L654 1553 L846 1553 L579 1225 L457 1225 Z " />
<glyph glyph-name="egrave" unicode="&#xe8;" horiz-adv-x="1183" d="M1086 496 L274 496 Q286 400 295 363.5 Q304 327 325 288 Q418 116 610 116 Q709 116 793 147.5 Q877 179 976 254 L1058 124 Q846 -32 613 -32 Q365 -32 227 133 Q100 284 100 530 Q100 788 234 949 Q369 1112 598 1112 Q782 1112 907 997 Q1084 836 1086 496 Z M914 629 Q894 758 851 825 Q760 970 596 970 Q334 970 277 629 L914 629 Z M608 1225 L341 1553 L533 1553 L730 1225 L608 1225 Z " />
<glyph glyph-name="ecircumflex" unicode="&#xea;" horiz-adv-x="1183" d="M1086 496 L274 496 Q286 400 295 363.5 Q304 327 325 288 Q418 116 610 116 Q709 116 793 147.5 Q877 179 976 254 L1058 124 Q846 -32 613 -32 Q365 -32 227 133 Q100 284 100 530 Q100 788 234 949 Q369 1112 598 1112 Q782 1112 907 997 Q1084 836 1086 496 Z M914 629 Q894 758 851 825 Q760 970 596 970 Q334 970 277 629 L914 629 Z M593 1436 L418 1225 L249 1225 L541 1553 L645 1553 L937 1225 L768 1225 L593 1436 Z " />
<glyph glyph-name="edieresis" unicode="&#xeb;" horiz-adv-x="1183" d="M1086 496 L274 496 Q286 400 295 363.5 Q304 327 325 288 Q418 116 610 116 Q709 116 793 147.5 Q877 179 976 254 L1058 124 Q846 -32 613 -32 Q365 -32 227 133 Q100 284 100 530 Q100 788 234 949 Q369 1112 598 1112 Q782 1112 907 997 Q1084 836 1086 496 Z M914 629 Q894 758 851 825 Q760 970 596 970 Q334 970 277 629 L914 629 Z M419 1486 Q463 1486 494.5 1455 Q526 1424 526 1380 Q526 1335 494 1304 Q462 1273 417 1273 Q371 1273 339 1304.5 Q307 1336 307 1380 Q307 1425 339.5 1455.5 Q372 1486 419 1486 Z M774 1486 Q818 1486 849.5 1455 Q881 1424 881 1380 Q881 1335 849 1304 Q817 1273 772 1273 Q726 1273 694 1304.5 Q662 1336 662 1380 Q662 1425 694.5 1455.5 Q727 1486 774 1486 Z " />
<glyph glyph-name="iacute" unicode="&#xed;" horiz-adv-x="535" d="M183 0 L183 1080 L353 1080 L353 0 L183 0 Z M136 1225 L333 1553 L525 1553 L258 1225 L136 1225 Z " />
<glyph glyph-name="igrave" unicode="&#xec;" horiz-adv-x="535" d="M182 0 L182 1080 L352 1080 L352 0 L182 0 Z M275 1225 L8 1553 L200 1553 L397 1225 L275 1225 Z " />
<glyph glyph-name="icircumflex" unicode="&#xee;" horiz-adv-x="535" d="M182 0 L182 1080 L352 1080 L352 0 L182 0 Z M266 1436 L91 1225 L-78 1225 L214 1553 L318 1553 L610 1225 L441 1225 L266 1436 Z " />
<glyph glyph-name="idieresis" unicode="&#xef;" horiz-adv-x="535" d="M182 0 L182 1080 L352 1080 L352 0 L182 0 Z M92 1486 Q136 1486 167.5 1455 Q199 1424 199 1380 Q199 1335 167 1304 Q135 1273 90 1273 Q44 1273 12 1304.5 Q-20 1336 -20 1380 Q-20 1425 12.5 1455.5 Q45 1486 92 1486 Z M447 1486 Q491 1486 522.5 1455 Q554 1424 554 1380 Q554 1335 522 1304 Q490 1273 445 1273 Q399 1273 367 1304.5 Q335 1336 335 1380 Q335 1425 367.5 1455.5 Q400 1486 447 1486 Z " />
<glyph glyph-name="ntilde" unicode="&#xf1;" horiz-adv-x="1242" d="M175 0 L175 1080 L345 1080 L345 898 Q465 1018 556 1065.5 Q647 1113 754 1113 Q948 1113 1022 969 Q1052 910 1063.5 836.5 Q1075 763 1075 627 L1075 0 L905 0 L905 636 Q905 780 882 846 Q844 956 711 956 Q623 956 537 901 Q451 846 345 721 L345 0 L175 0 Z M421 1284 L315 1284 Q359 1486 505 1486 Q561 1486 639 1442 Q711 1401 733 1401 Q781 1401 818 1485 L924 1485 Q898 1391 865 1347 Q814 1278 726 1278 Q666 1278 560 1340 Q521 1363 499 1363 Q451 1363 421 1284 Z " />
<glyph glyph-name="oacute" unicode="&#xf3;" horiz-adv-x="1240" d="M627 1112 Q856 1112 1001 948 Q1139 791 1139 540 Q1139 290 1001 132 Q857 -32 620 -32 Q382 -32 238 132 Q100 290 100 538 Q100 790 238 948 Q381 1112 627 1112 Z M614 965 Q447 965 352 831 Q273 720 273 540 Q273 360 352 249 Q446 115 619 115 Q793 115 887 249 Q966 360 966 538 Q966 721 887 831 Q792 965 614 965 Z M483 1225 L680 1553 L872 1553 L605 1225 L483 1225 Z " />
<glyph glyph-name="ograve" unicode="&#xf2;" horiz-adv-x="1240" d="M627 1112 Q856 1112 1001 948 Q1139 791 1139 540 Q1139 290 1001 132 Q857 -32 620 -32 Q382 -32 238 132 Q100 290 100 538 Q100 790 238 948 Q381 1112 627 1112 Z M614 965 Q447 965 352 831 Q273 720 273 540 Q273 360 352 249 Q446 115 619 115 Q793 115 887 249 Q966 360 966 538 Q966 721 887 831 Q792 965 614 965 Z M634 1225 L367 1553 L559 1553 L756 1225 L634 1225 Z " />
<glyph glyph-name="ocircumflex" unicode="&#xf4;" horiz-adv-x="1240" d="M627 1112 Q856 1112 1001 948 Q1139 791 1139 540 Q1139 290 1001 132 Q857 -32 620 -32 Q382 -32 238 132 Q100 290 100 538 Q100 790 238 948 Q381 1112 627 1112 Z M614 965 Q447 965 352 831 Q273 720 273 540 Q273 360 352 249 Q446 115 619 115 Q793 115 887 249 Q966 360 966 538 Q966 721 887 831 Q792 965 614 965 Z M618 1436 L443 1225 L274 1225 L566 1553 L670 1553 L962 1225 L793 1225 L618 1436 Z " />
<glyph glyph-name="odieresis" unicode="&#xf6;" horiz-adv-x="1240" d="M627 1112 Q856 1112 1001 948 Q1139 791 1139 540 Q1139 290 1001 132 Q857 -32 620 -32 Q382 -32 238 132 Q100 290 100 538 Q100 790 238 948 Q381 1112 627 1112 Z M614 965 Q447 965 352 831 Q273 720 273 540 Q273 360 352 249 Q446 115 619 115 Q793 115 887 249 Q966 360 966 538 Q966 721 887 831 Q792 965 614 965 Z M444 1486 Q488 1486 519.5 1455 Q551 1424 551 1380 Q551 1335 519 1304 Q487 1273 442 1273 Q396 1273 364 1304.5 Q332 1336 332 1380 Q332 1425 364.5 1455.5 Q397 1486 444 1486 Z M799 1486 Q843 1486 874.5 1455 Q906 1424 906 1380 Q906 1335 874 1304 Q842 1273 797 1273 Q751 1273 719 1304.5 Q687 1336 687 1380 Q687 1425 719.5 1455.5 Q752 1486 799 1486 Z " />
<glyph glyph-name="otilde" unicode="&#xf5;" horiz-adv-x="1240" d="M627 1112 Q856 1112 1001 948 Q1139 791 1139 540 Q1139 290 1001 132 Q857 -32 620 -32 Q382 -32 238 132 Q100 290 100 538 Q100 790 238 948 Q381 1112 627 1112 Z M614 965 Q447 965 352 831 Q273 720 273 540 Q273 360 352 249 Q446 115 619 115 Q793 115 887 249 Q966 360 966 538 Q966 721 887 831 Q792 965 614 965 Z M420 1284 L314 1284 Q358 1486 504 1486 Q560 1486 638 1442 Q710 1401 732 1401 Q780 1401 817 1485 L923 1485 Q897 1391 864 1347 Q813 1278 725 1278 Q665 1278 559 1340 Q520 1363 498 1363 Q450 1363 420 1284 Z " />
<glyph glyph-name="uacute" unicode="&#xfa;" horiz-adv-x="1198" d="M168 1080 L338 1080 L338 444 Q338 305 356 244 Q387 138 507 138 Q590 138 668.5 188.5 Q747 239 853 359 L853 1080 L1023 1080 L1023 0 L853 0 L853 181 Q752 88 707 58 Q590 -19 465 -19 Q285 -19 216 121 Q188 179 178 248.5 Q168 318 168 453 L168 1080 Z M497 1225 L694 1553 L886 1553 L619 1225 L497 1225 Z " />
<glyph glyph-name="ugrave" unicode="&#xf9;" horiz-adv-x="1198" d="M168 1080 L338 1080 L338 444 Q338 305 356 244 Q387 138 507 138 Q590 138 668.5 188.5 Q747 239 853 359 L853 1080 L1023 1080 L1023 0 L853 0 L853 181 Q752 88 707 58 Q590 -19 465 -19 Q285 -19 216 121 Q188 179 178 248.5 Q168 318 168 453 L168 1080 Z M613 1225 L346 1553 L538 1553 L735 1225 L613 1225 Z " />
<glyph glyph-name="ucircumflex" unicode="&#xfb;" horiz-adv-x="1198" d="M168 1080 L338 1080 L338 444 Q338 305 356 244 Q387 138 507 138 Q590 138 668.5 188.5 Q747 239 853 359 L853 1080 L1023 1080 L1023 0 L853 0 L853 181 Q752 88 707 58 Q590 -19 465 -19 Q285 -19 216 121 Q188 179 178 248.5 Q168 318 168 453 L168 1080 Z M598 1436 L423 1225 L254 1225 L546 1553 L650 1553 L942 1225 L773 1225 L598 1436 Z " />
<glyph glyph-name="udieresis" unicode="&#xfc;" horiz-adv-x="1198" d="M168 1080 L338 1080 L338 444 Q338 305 356 244 Q387 138 507 138 Q590 138 668.5 188.5 Q747 239 853 359 L853 1080 L1023 1080 L1023 0 L853 0 L853 181 Q752 88 707 58 Q590 -19 465 -19 Q285 -19 216 121 Q188 179 178 248.5 Q168 318 168 453 L168 1080 Z M424 1486 Q468 1486 499.5 1455 Q531 1424 531 1380 Q531 1335 499 1304 Q467 1273 422 1273 Q376 1273 344 1304.5 Q312 1336 312 1380 Q312 1425 344.5 1455.5 Q377 1486 424 1486 Z M779 1486 Q823 1486 854.5 1455 Q886 1424 886 1380 Q886 1335 854 1304 Q822 1273 777 1273 Q731 1273 699 1304.5 Q667 1336 667 1380 Q667 1425 699.5 1455.5 Q732 1486 779 1486 Z " />
<glyph glyph-name="dagger" unicode="&#x2020;" horiz-adv-x="1181" d="M514 948 L146 948 L146 1087 L514 1087 L514 1516 L664 1516 L664 1087 L1035 1087 L1035 948 L664 948 L664 -199 L514 -199 L514 948 Z " />
<glyph glyph-name="degree" unicode="&#xb0;" horiz-adv-x="740" d="M375 1536 Q515 1536 600 1453.5 Q685 1371 685 1235 Q685 1110 609 1028 Q523 935 370 935 Q218 935 131 1028 Q55 1110 55 1235 Q55 1374 141 1455 Q227 1536 375 1536 Z M367 1427 Q278 1427 228 1376.5 Q178 1326 178 1235 Q178 1145 228 1094.5 Q278 1044 367 1044 Q468 1044 518 1102 Q562 1153 562 1235 Q562 1328 511.5 1377.5 Q461 1427 367 1427 Z " />
<glyph glyph-name="cent" unicode="&#xa2;" horiz-adv-x="1303" d="M644 -26 L644 283 Q503 292 395 358 Q194 481 194 780 Q194 967 274 1096 Q391 1286 644 1304 L644 1607 L761 1607 L761 1303 Q931 1287 1021.5 1199 Q1112 1111 1114 959 L956 959 Q942 1123 761 1157 L761 431 Q914 449 1035 555 L1128 436 Q984 302 761 283 L761 -26 L644 -26 Z M644 438 L644 1155 Q532 1134 476 1084 Q367 985 367 790 Q367 573 516 482 Q554 458 644 438 Z " />
<glyph glyph-name="sterling" unicode="&#xa3;" horiz-adv-x="1303" d="M73 669 L73 803 L290 803 Q233 987 233 1085 Q233 1290 379 1402 Q513 1504 722 1504 Q993 1504 1118 1319 Q1192 1210 1195 1045 L1029 1045 Q1022 1193 941.5 1272.5 Q861 1352 718 1352 Q592 1352 508 1294 Q406 1224 406 1091 Q406 981 463 803 L790 803 L790 669 L491 669 Q522 532 522 453 Q522 386 512 349.5 Q502 313 460 227 Q650 133 827 133 Q993 133 1076 229 Q1131 292 1141 395 L1306 395 Q1286 226 1194 119 Q1070 -24 827 -24 Q591 -24 383 99 Q308 34 239.5 7 Q171 -20 73 -24 L73 142 Q151 156 195.5 178 Q240 200 276 242 Q349 327 349 475 Q349 548 318 669 L73 669 Z " />
<glyph glyph-name="section" unicode="&#xa7;" horiz-adv-x="1181" d="M327 952 Q228 1034 228 1173 Q228 1330 337 1423 Q431 1504 597 1504 Q965 1504 968 1165 L814 1165 Q807 1252 777 1291 Q722 1361 592 1361 Q500 1361 450 1315 Q398 1267 398 1187 Q398 1103 454 1063 Q501 1028 646 997 Q775 970 835.5 948 Q896 926 937 892 Q976 861 1000 806.5 Q1024 752 1024 695 Q1024 553 892 455 Q992 369 992 209 Q992 30 872 -65 Q761 -153 565 -153 Q145 -153 141 217 L292 217 Q302 114 338 71 Q405 -10 558 -10 Q674 -10 744 37 Q822 90 822 200 Q822 290 770 338 Q741 365 699 379.5 Q657 394 526 423 Q328 467 253 534 Q217 566 196 617.5 Q175 669 175 724 Q175 873 327 952 Z M443 891 Q405 871 391 861 Q338 822 338 746 Q338 671 389 634 Q432 601 585 563 L775 516 Q861 569 861 669 Q861 750 800 790 Q775 807 748 815 Q721 823 586 855 L443 891 Z " />
<glyph glyph-name="bullet" unicode="&#x2022;" horiz-adv-x="1169" d="M589 1008 Q714 1008 798 918 Q871 841 871 730 Q871 602 777 521 Q697 451 584 451 Q453 451 369 541 Q296 620 296 732 Q296 855 390 938 Q470 1008 589 1008 Z " />
<glyph glyph-name="paragraph" unicode="&#xb6;" horiz-adv-x="1319" d="M635 1329 L635 -422 L479 -422 L479 659 Q318 674 224 738 Q61 849 61 1065 Q61 1257 192 1371 Q259 1428 341.5 1452 Q424 1476 557 1476 L1048 1476 L1048 -422 L892 -422 L892 1329 L635 1329 Z " />
<glyph glyph-name="germandbls" unicode="&#xdf;" horiz-adv-x="1315" d="M175 0 L175 1062 Q175 1302 298 1428 Q416 1548 633 1548 Q836 1548 954 1449 Q1066 1354 1066 1195 Q1066 981 844 894 Q970 864 1049 797 Q1200 668 1200 441 Q1200 220 1084 96 Q965 -32 735 -32 Q654 -32 565 -15 L590 133 Q654 116 726 116 Q876 116 954 207 Q1027 293 1027 453 Q1027 665 870 756 Q822 784 769.5 794 Q717 804 609 807 L609 946 Q730 953 793 990 Q899 1053 899 1180 Q899 1291 825 1349 Q751 1407 633 1407 Q467 1407 395 1291 Q345 1211 345 1041 L345 0 L175 0 Z " />
<glyph glyph-name="registered" unicode="&#xae;" horiz-adv-x="1409" d="M519 937 L519 1475 L695 1475 Q802 1475 857 1451 Q942 1414 942 1316 Q942 1228 856 1187 Q876 1167 894 1122 L969 937 L847 937 L791 1072 Q774 1122 752.5 1137.5 Q731 1153 677 1153 L629 1153 L629 937 L519 937 Z M629 1240 L690 1240 Q764 1240 796.5 1257 Q829 1274 829 1314 Q829 1352 798 1368 Q767 1384 695 1384 L629 1384 L629 1240 Z M712 1773 Q958 1773 1134 1605 Q1306 1440 1306 1202 Q1306 966 1134 800 Q959 632 704 632 Q449 632 274 800 Q102 966 102 1201 Q102 1443 274 1605 Q453 1773 712 1773 Z M698 1667 Q492 1667 349 1527 Q217 1398 217 1202 Q217 1007 349 878 Q492 738 704 738 Q916 738 1059 878 Q1191 1007 1191 1201 Q1191 1401 1059 1527 Q912 1667 698 1667 Z " />
<glyph glyph-name="copyright" unicode="&#xa9;" horiz-adv-x="1883" d="M1279 848 L1157 848 Q1146 1006 959 1006 Q827 1006 767 922 Q710 843 710 724 Q710 598 776 526.5 Q842 455 959 455 Q1096 455 1224 546 L1296 455 Q1137 340 965 340 Q775 340 669 455 Q574 559 574 725 Q574 903 681 1016 Q780 1121 955 1121 Q1162 1121 1238 1006 Q1274 951 1279 848 Z M953 1520 Q1180 1520 1376 1404 Q1580 1283 1682 1080 Q1761 922 1761 737 Q1761 412 1528 185 Q1289 -46 942 -46 Q595 -46 357 185 Q123 412 123 736 Q123 956 234 1137 Q352 1330 564 1435 Q737 1520 953 1520 Z M933 1387 Q743 1387 580 1289 Q406 1186 326 1011 Q271 890 271 737 Q271 464 453 283 Q650 87 942 87 Q1234 87 1431 283 Q1613 464 1613 735 Q1613 1014 1431 1191 Q1229 1387 933 1387 Z " />
<glyph glyph-name="trademark" unicode="&#x2122;" horiz-adv-x="1584" d="M400 1372 L400 769 L276 769 L276 1372 L40 1372 L40 1475 L636 1475 L636 1372 L400 1372 Z M851 1258 L818 769 L694 769 L749 1475 L889 1475 L1082 975 L1274 1475 L1412 1475 L1467 769 L1343 769 L1310 1258 L1121 769 L1041 769 L851 1258 Z " />
<glyph glyph-name="acute" unicode="&#xb4;" horiz-adv-x="1024" d="M376 1225 L573 1553 L765 1553 L498 1225 L376 1225 Z " />
<glyph glyph-name="dieresis" unicode="&#xa8;" horiz-adv-x="1024" d="M337 1486 Q381 1486 412.5 1455 Q444 1424 444 1380 Q444 1335 412 1304 Q380 1273 335 1273 Q289 1273 257 1304.5 Q225 1336 225 1380 Q225 1425 257.5 1455.5 Q290 1486 337 1486 Z M692 1486 Q736 1486 767.5 1455 Q799 1424 799 1380 Q799 1335 767 1304 Q735 1273 690 1273 Q644 1273 612 1304.5 Q580 1336 580 1380 Q580 1425 612.5 1455.5 Q645 1486 692 1486 Z " />
<glyph glyph-name="notequal" unicode="&#x2260;" horiz-adv-x="1303" d="M158 505 L158 650 L526 650 L610 823 L158 823 L158 968 L678 968 L792 1207 L929 1143 L844 968 L1145 968 L1145 823 L777 823 L693 650 L1145 650 L1145 505 L625 505 L511 267 L374 330 L459 505 L158 505 Z " />
<glyph glyph-name="AE" unicode="&#xc6;" horiz-adv-x="1989" d="M995 480 L429 480 L119 0 L-73 0 L894 1475 L1859 1475 L1859 1327 L1171 1327 L1171 840 L1738 840 L1738 693 L1171 693 L1171 148 L1875 148 L1875 0 L995 0 L995 480 Z M995 623 L995 1356 L520 623 L995 623 Z " />
<glyph glyph-name="Oslash" unicode="&#xd8;" horiz-adv-x="1564" d="M279 183 Q121 394 121 735 Q121 1061 258 1263 Q423 1504 781 1504 Q1042 1504 1194 1383 L1292 1511 L1463 1511 L1290 1285 Q1443 1082 1443 741 Q1443 415 1306 213 Q1142 -29 781 -29 Q530 -29 377 87 L272 -51 L101 -51 L279 183 Z M390 328 L1092 1249 Q981 1349 782 1349 Q301 1349 301 736 Q301 480 390 328 Z M1179 1139 L478 220 Q588 126 782 126 Q1263 126 1263 738 Q1263 988 1179 1139 Z " />
<glyph glyph-name="infinity" unicode="&#x221e;" horiz-adv-x="1601" d="M801 616 Q744 534 692 491 Q586 403 449 403 Q299 403 210 494 Q125 581 125 717 Q125 856 210 941 Q301 1032 451 1032 Q558 1032 640.5 982 Q723 932 801 819 Q858 903 910 946 Q1015 1032 1150 1032 Q1300 1032 1391 941 Q1476 856 1476 718 Q1476 581 1391 494 Q1302 403 1152 403 Q1043 403 961 452.5 Q879 502 801 616 Z M732 718 L720 737 Q606 912 464 912 Q375 912 318.5 857.5 Q262 803 262 717 Q262 629 318 576 Q376 522 464 522 Q601 522 719 698 L732 718 Z M869 718 L882 698 Q999 522 1137 522 Q1226 522 1282.5 576.5 Q1339 631 1339 717 Q1339 805 1283 858 Q1226 912 1137 912 Q995 912 881 737 L869 718 Z " />
<glyph glyph-name="plusminus" unicode="&#xb1;" horiz-adv-x="1303" d="M158 679 L158 824 L576 824 L576 1203 L728 1203 L728 824 L1145 824 L1145 679 L728 679 L728 300 L576 300 L576 679 L158 679 Z M173 0 L173 145 L1130 145 L1130 0 L173 0 Z " />
<glyph glyph-name="lessequal" unicode="&#x2264;" horiz-adv-x="1303" d="M374 782 L1101 422 L1101 258 L199 729 L199 836 L1101 1307 L1101 1143 L374 782 Z M202 0 L202 149 L1101 149 L1101 0 L202 0 Z " />
<glyph glyph-name="greaterequal" unicode="&#x2265;" horiz-adv-x="1303" d="M929 782 L202 1143 L202 1307 L1104 836 L1104 729 L202 258 L202 422 L929 782 Z M202 0 L202 149 L1101 149 L1101 0 L202 0 Z " />
<glyph glyph-name="yen" unicode="&#xa5;" horiz-adv-x="1303" d="M563 0 L563 344 L201 344 L201 461 L563 461 L563 616 L201 616 L201 733 L494 733 L40 1475 L233 1475 L651 781 L1069 1475 L1261 1475 L807 733 L1101 733 L1101 616 L739 616 L739 461 L1101 461 L1101 344 L739 344 L739 0 L563 0 Z " />
<glyph glyph-name="mu" unicode="&#xb5;" horiz-adv-x="1303" d="M224 1080 L394 1080 L394 426 Q394 289 413 233 Q444 139 568 139 Q650 139 729.5 186 Q809 233 909 341 L909 1080 L1079 1080 L1079 0 L909 0 L909 167 Q824 88 772 55 Q661 -17 539 -17 Q459 -17 393 21 L394 -439 L224 -439 L224 1080 Z " />
<glyph glyph-name="partialdiff" unicode="&#x2202;" horiz-adv-x="1303" d="M830 1013 Q682 1221 395 1449 L490 1543 Q747 1349 888 1186 Q1171 856 1171 521 Q1171 274 1034 125 Q890 -31 652 -31 Q414 -31 270 125 Q133 274 133 512 Q133 751 270 902 Q338 976 432 1016.5 Q526 1057 630 1057 Q732 1057 830 1013 Z M647 913 Q481 913 384 788 Q306 686 306 514 Q306 343 384 241 Q480 116 652 116 Q824 116 920 241 Q998 343 998 513 Q998 685 920 788 Q824 913 647 913 Z " />
<glyph glyph-name="summation" unicode="&#x2211;" horiz-adv-x="1306" d="M1213 1572 L1213 1430 L321 1430 L838 643 L265 -214 L1234 -214 L1234 -356 L68 -356 L68 -219 L640 643 L116 1441 L116 1572 L1213 1572 Z " />
<glyph glyph-name="product" unicode="&#x220f;" horiz-adv-x="1476" d="M1109 1430 L366 1430 L366 -356 L195 -356 L195 1572 L1280 1572 L1280 -356 L1109 -356 L1109 1430 Z " />
<glyph glyph-name="integral" unicode="&#x222b;" horiz-adv-x="774" d="M49 -342 L80 -199 Q125 -216 163 -216 Q258 -216 287 -145 Q302 -107 302 41 L302 1146 Q302 1270 308 1327.5 Q314 1385 333 1431 Q362 1501 428 1539.5 Q494 1578 587 1578 Q644 1578 721 1559 L690 1417 Q644 1435 604 1435 Q512 1435 483 1362 Q469 1324 469 1205 L469 73 Q469 -73 459.5 -134.5 Q450 -196 422 -244 Q352 -359 165 -359 Q106 -359 49 -342 Z " />
<glyph glyph-name="ordfeminine" unicode="&#xaa;" horiz-adv-x="788" d="M527 856 L527 924 Q493 891 464 875 Q398 839 296 839 Q56 839 56 1036 Q56 1145 124 1191 Q192 1237 351 1237 Q401 1237 505 1232 L505 1272 Q505 1333 469 1360 Q433 1387 351 1387 Q259 1387 153 1348 L106 1464 Q231 1506 358 1506 Q515 1506 584 1445.5 Q653 1385 653 1249 L653 856 L527 856 Z M505 1125 Q426 1131 364 1131 Q276 1131 240.5 1110.5 Q205 1090 205 1039 Q205 950 327 950 Q410 950 457.5 984 Q505 1018 505 1078 L505 1125 Z " />
<glyph glyph-name="ordmasculine" unicode="&#xba;" horiz-adv-x="792" d="M401 1506 Q558 1506 654 1413 Q748 1323 748 1173 Q748 1023 654 933 Q558 840 397 840 Q234 840 139 933 Q45 1023 45 1172 Q45 1325 139 1413 Q237 1506 401 1506 Z M393 1385 Q306 1385 250.5 1326 Q195 1267 195 1173 Q195 1078 250.5 1019.5 Q306 961 397 961 Q494 961 550 1029 Q598 1087 598 1172 Q598 1269 542 1327 Q486 1385 393 1385 Z " />
<glyph glyph-name="Omega" unicode="&#x2126;" horiz-adv-x="1607" d="M108 0 L108 133 L419 133 Q300 209 239 282 Q94 455 94 749 Q94 1064 253 1267 Q438 1505 802 1505 Q1166 1505 1351 1267 Q1510 1064 1510 748 Q1510 528 1430.5 378 Q1351 228 1185 133 L1496 133 L1496 0 L894 0 L894 162 Q1330 241 1330 756 Q1330 1030 1201 1188 Q1068 1350 802 1350 Q536 1350 403 1188 Q274 1030 274 754 Q274 413 478 262 Q583 184 710 162 L710 0 L108 0 Z " />
<glyph glyph-name="ae" unicode="&#xe6;" horiz-adv-x="1924" d="M842 643 L842 709 Q842 845 799 900 Q743 971 575 971 Q467 971 417.5 933 Q368 895 346 796 L187 796 Q209 962 301 1037 Q393 1112 576 1112 Q744 1112 833.5 1065 Q923 1018 960 911 Q1089 1112 1340 1112 Q1528 1112 1656 992 Q1827 831 1830 496 L1009 496 Q1021 361 1061 288 Q1155 115 1350 115 Q1451 115 1535 146.5 Q1619 178 1721 254 L1802 124 Q1593 -33 1360 -33 Q1085 -33 942 199 Q880 89 758.5 28.5 Q637 -32 478 -32 Q92 -32 92 304 Q92 520 244 603 Q339 655 557 655 Q614 655 780 646 L842 643 Z M845 508 Q725 522 564 522 Q396 522 338 483 Q263 433 263 312 Q263 210 316 162 Q373 112 502 112 Q715 112 802 232 Q845 292 845 400 L845 508 Z M1655 630 Q1634 759 1592 825 Q1501 969 1334 969 Q1202 969 1120 882.5 Q1038 796 1012 630 L1655 630 Z " />
<glyph glyph-name="oslash" unicode="&#xf8;" horiz-adv-x="1241" d="M231 140 Q101 305 101 539 Q101 791 239 948 Q383 1112 622 1112 Q794 1112 923 1018 L1002 1117 L1153 1117 L1011 937 Q1140 785 1140 539 Q1140 290 1002 132 Q859 -32 619 -32 Q450 -32 320 60 L239 -42 L87 -42 L231 140 Z M338 278 L827 894 Q733 965 621 965 Q447 965 353 831 Q274 719 274 536 Q274 456 287.5 401 Q301 346 338 278 Z M905 800 L416 184 Q507 115 619 115 Q794 115 888 249 Q967 360 967 546 Q967 624 955.5 671 Q944 718 905 800 Z " />
<glyph glyph-name="questiondown" unicode="&#xbf;" horiz-adv-x="1095" d="M641 952 L641 886 Q641 745 597 671 Q570 625 543 604 Q516 583 390 510 Q299 456 263 396 Q220 326 220 223 Q220 109 289 48 Q364 -19 496 -19 Q661 -19 740 92 Q784 153 805 284 L967 284 Q954 178 933 116.5 Q912 55 868 -4 Q743 -171 490 -171 Q288 -171 169 -66 Q47 41 47 231 Q47 418 155 526 Q210 580 358 665 Q432 707 457 749 Q482 791 482 873 L482 952 L641 952 Z M564 1393 Q616 1393 653 1356.5 Q690 1320 690 1269 Q690 1217 652.5 1181 Q615 1145 562 1145 Q509 1145 472 1181.5 Q435 1218 435 1270 Q435 1321 472.5 1357 Q510 1393 564 1393 Z " />
<glyph glyph-name="exclamdown" unicode="&#xa1;" horiz-adv-x="698" d="M426 952 L449 -138 L249 -138 L272 952 L426 952 Z M351 1393 Q403 1393 440 1356.5 Q477 1320 477 1269 Q477 1217 439.5 1181 Q402 1145 349 1145 Q296 1145 259 1181.5 Q222 1218 222 1270 Q222 1321 259.5 1357 Q297 1393 351 1393 Z " />
<glyph glyph-name="logicalnot" unicode="&#xac;" horiz-adv-x="1303" d="M203 667 L203 811 L1032 811 L1032 285 L880 285 L880 667 L203 667 Z " />
<glyph glyph-name="radical" unicode="&#x221a;" horiz-adv-x="1303" d="M499 0 L269 611 L111 611 L111 749 L400 749 L583 233 L1027 1764 L1562 1764 L1562 1625 L1158 1625 L674 0 L499 0 Z " />
<glyph glyph-name="florin" unicode="&#x192;" horiz-adv-x="1303" d="M353 731 L353 870 L579 870 L641 1169 Q663 1279 678.5 1322.5 Q694 1366 725 1408 Q798 1506 942 1506 Q1034 1506 1136 1459 L1094 1326 Q1005 1362 958 1362 Q883 1362 846 1296 Q826 1262 806 1163 L745 870 L936 870 L936 731 L722 731 L605 71 Q574 -103 528 -187 Q449 -331 284 -331 Q199 -331 98 -290 L138 -151 Q211 -181 261 -181 Q335 -181 377.5 -117 Q420 -53 447 103 L556 731 L353 731 Z " />
<glyph glyph-name="approxequal" unicode="&#x2248;" horiz-adv-x="1303" d="M301 776 L199 868 Q289 969 352.5 1007.5 Q416 1046 494 1046 Q592 1046 705 985 Q798 935 823.5 925.5 Q849 916 888 916 Q979 916 1085 1036 L1185 947 Q1106 851 1037.5 808 Q969 765 892 765 Q802 765 676 829 Q595 870 562.5 882 Q530 894 497 894 Q410 894 301 776 Z M301 441 L199 533 Q290 635 353 673 Q416 711 494 711 Q591 711 705 650 Q798 601 823.5 591.5 Q849 582 889 582 Q980 582 1085 701 L1185 613 Q1107 517 1038 474 Q969 431 892 431 Q802 431 676 495 Q595 536 562.5 547.5 Q530 559 497 559 Q410 559 301 441 Z " />
<glyph glyph-name="increment" unicode="&#x2206;" horiz-adv-x="1303" d="M1327 0 L-23 0 L583 1475 L722 1475 L1327 0 Z M1092 145 L652 1249 L212 145 L1092 145 Z " />
<glyph glyph-name="guillemotleft" unicode="&#xab;" horiz-adv-x="881" d="M607 574 L847 205 L691 205 L443 574 L691 943 L847 943 L607 574 Z M241 574 L481 205 L325 205 L77 574 L325 943 L481 943 L241 574 Z " />
<glyph glyph-name="guillemotright" unicode="&#xbb;" horiz-adv-x="881" d="M274 574 L34 943 L190 943 L438 574 L190 205 L34 205 L274 574 Z M640 574 L400 943 L556 943 L804 574 L556 205 L400 205 L640 574 Z " />
<glyph glyph-name="ellipsis" unicode="&#x2026;" horiz-adv-x="1953" d="M323 219 Q374 219 411 182.5 Q448 146 448 95 Q448 44 411 7.5 Q374 -29 321 -29 Q267 -29 230 7.5 Q193 44 193 96 Q193 148 230.5 183.5 Q268 219 323 219 Z M979 219 Q1030 219 1067 182.5 Q1104 146 1104 95 Q1104 44 1067 7.5 Q1030 -29 977 -29 Q923 -29 886 7 Q849 43 849 96 Q849 148 886.5 183.5 Q924 219 979 219 Z M1635 219 Q1686 219 1723 182.5 Q1760 146 1760 95 Q1760 43 1723 7 Q1686 -29 1633 -29 Q1579 -29 1542 7.5 Q1505 44 1505 96 Q1505 148 1542.5 183.5 Q1580 219 1635 219 Z " />
<glyph glyph-name="Agrave" unicode="&#xc0;" horiz-adv-x="1343" d="M985 414 L359 414 L203 0 L21 0 L601 1475 L743 1475 L1323 0 L1141 0 L985 414 Z M932 558 L672 1249 L411 558 L932 558 Z M663 1595 L396 1923 L588 1923 L785 1595 L663 1595 Z " />
<glyph glyph-name="Atilde" unicode="&#xc3;" horiz-adv-x="1343" d="M985 414 L359 414 L203 0 L21 0 L601 1475 L743 1475 L1323 0 L1141 0 L985 414 Z M932 558 L672 1249 L411 558 L932 558 Z M472 1654 L366 1654 Q410 1856 557 1856 Q611 1856 690 1811 Q762 1771 784 1771 Q834 1771 869 1855 L975 1855 Q950 1762 916 1717 Q866 1648 776 1648 Q717 1648 611 1710 Q572 1733 550 1733 Q502 1733 472 1654 Z " />
<glyph glyph-name="Otilde" unicode="&#xd5;" horiz-adv-x="1543" d="M782 1504 Q1130 1504 1295 1262 Q1432 1061 1432 737 Q1432 415 1295 213 Q1131 -29 771 -29 Q411 -29 247 213 Q110 415 110 734 Q110 1064 247 1262 Q345 1404 495 1459 Q617 1504 782 1504 Z M763 1349 Q518 1349 402 1183 Q290 1023 290 737 Q290 126 771 126 Q1252 126 1252 734 Q1252 1026 1140 1183 Q1079 1269 988 1309 Q897 1349 763 1349 Z M572 1654 L466 1654 Q510 1856 657 1856 Q711 1856 790 1811 Q862 1771 884 1771 Q934 1771 969 1855 L1075 1855 Q1050 1762 1016 1717 Q966 1648 876 1648 Q817 1648 711 1710 Q672 1733 650 1733 Q602 1733 572 1654 Z " />
<glyph glyph-name="OE" unicode="&#x152;" horiz-adv-x="2092" d="M1274 148 L1979 148 L1979 0 L1276 0 Q1207 0 981 -14 Q927 -17 868 -17 Q640 -17 491 54 Q303 143 202 331 Q109 503 109 738 Q109 1114 342 1323 Q532 1492 862 1492 Q934 1492 1088 1482 Q1206 1475 1282 1475 L1963 1475 L1963 1327 L1274 1327 L1274 840 L1841 840 L1841 693 L1274 693 L1274 148 Z M1098 148 L1098 1327 Q981 1343 869 1343 Q596 1343 441 1182 Q289 1023 289 739 Q289 426 469 267 Q622 132 875 132 Q973 132 1098 148 Z " />
<glyph glyph-name="oe" unicode="&#x153;" horiz-adv-x="2072" d="M1060 245 Q1017 163 972 114 Q840 -32 621 -32 Q384 -32 239 132 Q99 290 99 540 Q99 790 239 948 Q384 1112 621 1112 Q924 1112 1061 833 Q1099 911 1141 963 Q1263 1112 1481 1112 Q1708 1112 1838.5 948 Q1969 784 1970 496 L1150 496 Q1163 359 1202 288 Q1296 116 1492 116 Q1592 116 1676 147.5 Q1760 179 1862 254 L1943 124 Q1730 -32 1497 -32 Q1342 -32 1235.5 35 Q1129 102 1060 245 Z M619 965 Q451 965 353 831 Q272 720 272 540 Q272 361 353 249 Q450 115 624 115 Q799 115 896 249 Q977 361 977 539 Q977 720 896 831 Q797 965 619 965 Z M1796 630 Q1775 758 1734 824 Q1642 969 1475 969 Q1342 969 1261.5 884 Q1181 799 1153 630 L1796 630 Z " />
<glyph glyph-name="endash" unicode="&#x2013;" horiz-adv-x="911" d="M53 541 L53 689 L858 689 L858 541 L53 541 Z " />
<glyph glyph-name="emdash" unicode="&#x2014;" horiz-adv-x="1303" d="M-90 541 L-90 689 L1392 689 L1392 541 L-90 541 Z " />
<glyph glyph-name="quotedblleft" unicode="&#x201c;" horiz-adv-x="871" d="M94 1029 L287 1475 L430 1475 L306 1029 L94 1029 Z M437 1029 L629 1475 L773 1475 L647 1029 L437 1029 Z " />
<glyph glyph-name="quotedblright" unicode="&#x201d;" horiz-adv-x="871" d="M107 1029 L231 1475 L443 1475 L250 1029 L107 1029 Z M450 1029 L574 1475 L786 1475 L593 1029 L450 1029 Z " />
<glyph glyph-name="quoteleft" unicode="&#x2018;" horiz-adv-x="528" d="M94 1029 L287 1475 L430 1475 L306 1029 L94 1029 Z " />
<glyph glyph-name="quoteright" unicode="&#x2019;" horiz-adv-x="528" d="M106 1029 L230 1475 L442 1475 L249 1029 L106 1029 Z " />
<glyph glyph-name="divide" unicode="&#xf7;" horiz-adv-x="1303" d="M158 664 L158 809 L1145 809 L1145 664 L158 664 Z M654 1212 Q702 1212 737 1178 Q772 1144 772 1096 Q772 1048 737 1014 Q702 980 652 980 Q601 980 566 1014 Q531 1048 531 1097 Q531 1145 566.5 1178.5 Q602 1212 654 1212 Z M654 493 Q702 493 737 459 Q772 425 772 377 Q772 329 737 295 Q702 261 652 261 Q601 261 566 295 Q531 329 531 378 Q531 426 566.5 459.5 Q602 493 654 493 Z " />
<glyph glyph-name="lozenge" unicode="&#x25ca;" horiz-adv-x="1190" d="M31 704 L595 1465 L1158 704 L595 -57 L31 704 Z M221 704 L595 201 L967 704 L595 1207 L221 704 Z " />
<glyph glyph-name="ydieresis" unicode="&#xff;" horiz-adv-x="1016" d="M425 41 L24 1080 L203 1080 L508 246 L812 1080 L992 1080 L541 -86 Q480 -241 450 -290 Q397 -375 330 -406 Q263 -437 125 -439 L125 -291 Q229 -290 268 -264 Q322 -228 365 -115 L425 41 Z M333 1486 Q377 1486 408.5 1455 Q440 1424 440 1380 Q440 1335 408 1304 Q376 1273 331 1273 Q285 1273 253 1304.5 Q221 1336 221 1380 Q221 1425 253.5 1455.5 Q286 1486 333 1486 Z M688 1486 Q732 1486 763.5 1455 Q795 1424 795 1380 Q795 1335 763 1304 Q731 1273 686 1273 Q640 1273 608 1304.5 Q576 1336 576 1380 Q576 1425 608.5 1455.5 Q641 1486 688 1486 Z " />
<glyph glyph-name="Ydieresis" unicode="&#x178;" horiz-adv-x="1130" d="M477 0 L477 577 L-25 1475 L167 1475 L565 751 L962 1475 L1154 1475 L653 577 L653 0 L477 0 Z M375 1850 Q420 1850 451.5 1819 Q483 1788 483 1744 Q483 1700 451 1668.5 Q419 1637 373 1637 Q327 1637 295 1668.5 Q263 1700 263 1744 Q263 1789 295.5 1819.5 Q328 1850 375 1850 Z M760 1850 Q805 1850 836.5 1819 Q868 1788 868 1744 Q868 1700 836 1668.5 Q804 1637 758 1637 Q712 1637 680 1668.5 Q648 1700 648 1744 Q648 1789 680.5 1819.5 Q713 1850 760 1850 Z " />
<glyph glyph-name="fraction" unicode="&#x2044;" horiz-adv-x="322" d="M-299 0 L469 1475 L621 1475 L-148 0 L-299 0 Z " />
<glyph glyph-name="Euro" unicode="&#x20ac;" horiz-adv-x="1303" d="M-69 516 L-24 633 L122 633 Q118 685 118 723 Q118 749 120 787 L-69 787 L-24 904 L131 904 Q159 1088 236 1220 Q404 1506 763 1506 Q1064 1506 1204 1323 Q1287 1215 1290 1051 L1123 1051 Q1116 1170 1049 1244 Q952 1353 765 1353 Q388 1353 313 904 L1046 904 L1001 787 L301 787 Q298 747 298 723 Q298 695 303 633 L936 633 L891 516 L321 516 Q411 125 781 125 Q914 125 1008 174.5 Q1102 224 1200 346 L1313 229 Q1210 93 1081.5 31 Q953 -31 773 -31 Q438 -31 269 194 Q171 325 136 516 L-69 516 Z " />
<glyph glyph-name="guilsinglleft" unicode="&#x2039;" horiz-adv-x="515" d="M241 574 L481 205 L325 205 L77 574 L325 943 L481 943 L241 574 Z " />
<glyph glyph-name="guilsinglright" unicode="&#x203a;" horiz-adv-x="515" d="M274 574 L34 943 L190 943 L438 574 L190 205 L34 205 L274 574 Z " />
<glyph glyph-name="fi" unicode="&#xfb01;" horiz-adv-x="1253" d="M243 0 L243 933 L82 933 L82 1080 L243 1081 L243 1122 Q243 1316 307 1411 Q387 1531 579 1531 Q662 1531 744 1516 L733 1374 Q656 1387 595 1387 Q529 1387 491.5 1365 Q454 1343 435 1292 Q413 1235 413 1123 L413 1080 L697 1080 L697 933 L413 933 L413 0 L243 0 Z M900 0 L900 1080 L1070 1080 L1070 0 L900 0 Z M987 1491 Q1034 1491 1067 1458 Q1100 1425 1100 1379 Q1100 1333 1066.5 1300 Q1033 1267 985 1267 Q937 1267 903.5 1300 Q870 1333 870 1380 Q870 1427 904 1459 Q938 1491 987 1491 Z " />
<glyph glyph-name="fl" unicode="&#xfb02;" horiz-adv-x="1236" d="M243 0 L243 933 L82 933 L82 1080 L243 1081 L243 1122 Q243 1316 307 1411 Q387 1531 579 1531 Q662 1531 744 1516 L733 1374 Q656 1387 595 1387 Q529 1387 491.5 1365 Q454 1343 435 1292 Q413 1235 413 1123 L413 1080 L697 1080 L697 933 L413 933 L413 0 L243 0 Z M892 0 L892 1516 L1062 1516 L1062 0 L892 0 Z " />
<glyph glyph-name="daggerdbl" unicode="&#x2021;" horiz-adv-x="1181" d="M514 951 L146 951 L146 1090 L514 1090 L514 1516 L664 1516 L664 1089 L1035 1089 L1035 950 L664 950 L664 382 L1035 382 L1035 239 L664 239 L664 -184 L514 -184 L514 238 L146 238 L146 381 L514 381 L514 951 Z " />
<glyph glyph-name="periodcentered" unicode="&#xb7;" horiz-adv-x="641" d="M325 738 Q376 738 413 701.5 Q450 665 450 614 Q450 563 412.5 526.5 Q375 490 323 490 Q269 490 232 526.5 Q195 563 195 615 Q195 667 232.5 702.5 Q270 738 325 738 Z " />
<glyph glyph-name="quotesinglbase" unicode="&#x201a;" horiz-adv-x="528" d="M89 -233 L213 212 L425 212 L232 -233 L89 -233 Z " />
<glyph glyph-name="quotedblbase" unicode="&#x201e;" horiz-adv-x="871" d="M84 -228 L208 217 L420 217 L227 -228 L84 -228 Z M427 -228 L551 217 L763 217 L570 -228 L427 -228 Z " />
<glyph glyph-name="perthousand" unicode="&#x2030;" horiz-adv-x="2605" d="M450 1506 Q628 1506 723 1396 Q815 1290 815 1118 Q815 946 723 839 Q629 729 444 729 Q258 729 164 839 Q72 946 72 1116 Q72 1290 164 1396 Q259 1506 450 1506 Z M440 1375 Q227 1375 227 1118 Q227 860 444 860 Q660 860 660 1116 Q660 1375 440 1375 Z M1324 748 Q1503 748 1598 638 Q1690 531 1690 359 Q1690 188 1598 81 Q1504 -29 1318 -29 Q1133 -29 1039 81 Q947 188 947 358 Q947 532 1039 638 Q1134 748 1324 748 Z M1315 617 Q1102 617 1102 359 Q1102 102 1319 102 Q1535 102 1535 358 Q1535 490 1481 553.5 Q1427 617 1315 617 Z M2166 748 Q2345 748 2440 638 Q2532 532 2532 359 Q2532 188 2440 81 Q2345 -29 2160 -29 Q1975 -29 1881 81 Q1789 188 1789 358 Q1789 532 1881 638 Q1976 748 2166 748 Z M2156 617 Q1944 617 1944 359 Q1944 102 2160 102 Q2377 102 2377 358 Q2377 617 2156 617 Z M365 0 L1235 1475 L1395 1475 L525 0 L365 0 Z " />
<glyph glyph-name="Acircumflex" unicode="&#xc2;" horiz-adv-x="1343" d="M985 414 L359 414 L203 0 L21 0 L601 1475 L743 1475 L1323 0 L1141 0 L985 414 Z M932 558 L672 1249 L411 558 L932 558 Z M671 1806 L496 1595 L327 1595 L619 1923 L723 1923 L1015 1595 L846 1595 L671 1806 Z " />
<glyph glyph-name="Ecircumflex" unicode="&#xca;" horiz-adv-x="1193" d="M184 0 L184 1475 L1095 1475 L1095 1327 L360 1327 L360 840 L973 840 L973 693 L360 693 L360 148 L1111 148 L1111 0 L184 0 Z M638 1806 L463 1595 L294 1595 L586 1923 L690 1923 L982 1595 L813 1595 L638 1806 Z " />
<glyph glyph-name="Aacute" unicode="&#xc1;" horiz-adv-x="1343" d="M985 414 L359 414 L203 0 L21 0 L601 1475 L743 1475 L1323 0 L1141 0 L985 414 Z M932 558 L672 1249 L411 558 L932 558 Z M549 1595 L746 1923 L938 1923 L671 1595 L549 1595 Z " />
<glyph glyph-name="Edieresis" unicode="&#xcb;" horiz-adv-x="1193" d="M184 0 L184 1475 L1095 1475 L1095 1327 L360 1327 L360 840 L973 840 L973 693 L360 693 L360 148 L1111 148 L1111 0 L184 0 Z M448 1850 Q493 1850 524.5 1819 Q556 1788 556 1744 Q556 1700 524 1668.5 Q492 1637 446 1637 Q400 1637 368 1668.5 Q336 1700 336 1744 Q336 1789 368.5 1819.5 Q401 1850 448 1850 Z M833 1850 Q878 1850 909.5 1819 Q941 1788 941 1744 Q941 1700 909 1668.5 Q877 1637 831 1637 Q785 1637 753 1668.5 Q721 1700 721 1744 Q721 1789 753.5 1819.5 Q786 1850 833 1850 Z " />
<glyph glyph-name="Egrave" unicode="&#xc8;" horiz-adv-x="1193" d="M184 0 L184 1475 L1095 1475 L1095 1327 L360 1327 L360 840 L973 840 L973 693 L360 693 L360 148 L1111 148 L1111 0 L184 0 Z M666 1595 L399 1923 L591 1923 L788 1595 L666 1595 Z " />
<glyph glyph-name="Iacute" unicode="&#xcd;" horiz-adv-x="545" d="M178 0 L178 1475 L354 1475 L354 0 L178 0 Z M139 1595 L336 1923 L528 1923 L261 1595 L139 1595 Z " />
<glyph glyph-name="Icircumflex" unicode="&#xce;" horiz-adv-x="545" d="M184 0 L184 1475 L360 1475 L360 0 L184 0 Z M271 1806 L96 1595 L-73 1595 L219 1923 L323 1923 L615 1595 L446 1595 L271 1806 Z " />
<glyph glyph-name="Idieresis" unicode="&#xcf;" horiz-adv-x="545" d="M184 0 L184 1475 L360 1475 L360 0 L184 0 Z M82 1850 Q127 1850 158.5 1819 Q190 1788 190 1744 Q190 1700 158 1668.5 Q126 1637 80 1637 Q34 1637 2 1668.5 Q-30 1700 -30 1744 Q-30 1789 2.5 1819.5 Q35 1850 82 1850 Z M467 1850 Q512 1850 543.5 1819 Q575 1788 575 1744 Q575 1700 543 1668.5 Q511 1637 465 1637 Q419 1637 387 1668.5 Q355 1700 355 1744 Q355 1789 387.5 1819.5 Q420 1850 467 1850 Z " />
<glyph glyph-name="Igrave" unicode="&#xcc;" horiz-adv-x="545" d="M184 0 L184 1475 L360 1475 L360 0 L184 0 Z M282 1595 L15 1923 L207 1923 L404 1595 L282 1595 Z " />
<glyph glyph-name="Oacute" unicode="&#xd3;" horiz-adv-x="1543" d="M782 1504 Q1130 1504 1295 1262 Q1432 1061 1432 737 Q1432 415 1295 213 Q1131 -29 771 -29 Q411 -29 247 213 Q110 415 110 734 Q110 1064 247 1262 Q345 1404 495 1459 Q617 1504 782 1504 Z M763 1349 Q518 1349 402 1183 Q290 1023 290 737 Q290 126 771 126 Q1252 126 1252 734 Q1252 1026 1140 1183 Q1079 1269 988 1309 Q897 1349 763 1349 Z M635 1595 L832 1923 L1024 1923 L757 1595 L635 1595 Z " />
<glyph glyph-name="Ocircumflex" unicode="&#xd4;" horiz-adv-x="1543" d="M782 1504 Q1130 1504 1295 1262 Q1432 1061 1432 737 Q1432 415 1295 213 Q1131 -29 771 -29 Q411 -29 247 213 Q110 415 110 734 Q110 1064 247 1262 Q345 1404 495 1459 Q617 1504 782 1504 Z M763 1349 Q518 1349 402 1183 Q290 1023 290 737 Q290 126 771 126 Q1252 126 1252 734 Q1252 1026 1140 1183 Q1079 1269 988 1309 Q897 1349 763 1349 Z M770 1806 L595 1595 L426 1595 L718 1923 L822 1923 L1114 1595 L945 1595 L770 1806 Z " />
<glyph glyph-name="Ograve" unicode="&#xd2;" horiz-adv-x="1543" d="M782 1504 Q1130 1504 1295 1262 Q1432 1061 1432 737 Q1432 415 1295 213 Q1131 -29 771 -29 Q411 -29 247 213 Q110 415 110 734 Q110 1064 247 1262 Q345 1404 495 1459 Q617 1504 782 1504 Z M763 1349 Q518 1349 402 1183 Q290 1023 290 737 Q290 126 771 126 Q1252 126 1252 734 Q1252 1026 1140 1183 Q1079 1269 988 1309 Q897 1349 763 1349 Z M785 1595 L518 1923 L710 1923 L907 1595 L785 1595 Z " />
<glyph glyph-name="Uacute" unicode="&#xda;" horiz-adv-x="1397" d="M175 1475 L351 1475 L351 554 Q351 356 404 264 Q483 126 698 126 Q914 126 992 264 Q1045 357 1045 554 L1045 1475 L1221 1475 L1221 612 Q1221 426 1204 330.5 Q1187 235 1141 163 Q1016 -29 698 -29 Q380 -29 255 163 Q209 235 192 330.5 Q175 426 175 612 L175 1475 Z M576 1595 L773 1923 L965 1923 L698 1595 L576 1595 Z " />
<glyph glyph-name="Ucircumflex" unicode="&#xdb;" horiz-adv-x="1397" d="M175 1475 L351 1475 L351 554 Q351 356 404 264 Q483 126 698 126 Q914 126 992 264 Q1045 357 1045 554 L1045 1475 L1221 1475 L1221 612 Q1221 426 1204 330.5 Q1187 235 1141 163 Q1016 -29 698 -29 Q380 -29 255 163 Q209 235 192 330.5 Q175 426 175 612 L175 1475 Z M697 1806 L522 1595 L353 1595 L645 1923 L749 1923 L1041 1595 L872 1595 L697 1806 Z " />
<glyph glyph-name="Ugrave" unicode="&#xd9;" horiz-adv-x="1397" d="M175 1475 L351 1475 L351 554 Q351 356 404 264 Q483 126 698 126 Q914 126 992 264 Q1045 357 1045 554 L1045 1475 L1221 1475 L1221 612 Q1221 426 1204 330.5 Q1187 235 1141 163 Q1016 -29 698 -29 Q380 -29 255 163 Q209 235 192 330.5 Q175 426 175 612 L175 1475 Z M713 1595 L446 1923 L638 1923 L835 1595 L713 1595 Z " />
<glyph glyph-name="dotlessi" unicode="&#x131;" horiz-adv-x="535" d="M182 0 L182 1080 L352 1080 L352 0 L182 0 Z " />
<glyph glyph-name="circumflex" unicode="&#x2c6;" horiz-adv-x="1024" d="M511 1436 L336 1225 L167 1225 L459 1553 L563 1553 L855 1225 L686 1225 L511 1436 Z " />
<glyph glyph-name="tilde" unicode="&#x2dc;" horiz-adv-x="1024" d="M313 1284 L207 1284 Q251 1486 397 1486 Q453 1486 531 1442 Q603 1401 625 1401 Q673 1401 710 1485 L816 1485 Q790 1391 757 1347 Q706 1278 618 1278 Q558 1278 452 1340 Q413 1363 391 1363 Q343 1363 313 1284 Z " />
<glyph glyph-name="overscore" unicode="&#xaf;" horiz-adv-x="1024" d="M248 1315 L248 1452 L776 1452 L776 1315 L248 1315 Z " />
<glyph glyph-name="breve" unicode="&#x2d8;" horiz-adv-x="1024" d="M226 1530 L326 1530 Q333 1454 367 1421 Q413 1375 512 1375 Q604 1375 646 1410.5 Q688 1446 695 1530 L797 1530 Q784 1393 727 1327 Q660 1247 513 1247 Q348 1247 281 1344 Q236 1410 226 1530 Z " />
<glyph glyph-name="dotaccent" unicode="&#x2d9;" horiz-adv-x="1024" d="M514 1491 Q561 1491 594 1458 Q627 1425 627 1379 Q627 1333 593.5 1300 Q560 1267 512 1267 Q464 1267 430.5 1300 Q397 1333 397 1380 Q397 1427 431 1459 Q465 1491 514 1491 Z " />
<glyph glyph-name="ring" unicode="&#x2da;" horiz-adv-x="1024" d="M516 1652 Q622 1652 683.5 1590.5 Q745 1529 745 1424 Q745 1319 682.5 1258 Q620 1197 513 1197 Q398 1197 336 1266 Q280 1328 280 1424 Q280 1531 342.5 1591.5 Q405 1652 516 1652 Z M510 1554 Q454 1554 422.5 1520 Q391 1486 391 1425 Q391 1295 513 1295 Q634 1295 634 1424 Q634 1554 510 1554 Z " />
<glyph glyph-name="cedilla" unicode="&#xb8;" horiz-adv-x="1024" d="M479 0 L607 0 L555 -94 Q639 -101 676 -118 Q773 -161 773 -276 Q773 -372 707 -424.5 Q641 -477 521 -477 Q388 -477 270 -437 L307 -318 Q421 -357 515 -357 Q630 -357 630 -277 Q630 -200 504 -200 Q479 -200 432 -204 L415 -112 L479 0 Z " />
<glyph glyph-name="hungarumlaut" unicode="&#x2dd;" horiz-adv-x="1024" d="M311 1225 L447 1553 L620 1553 L413 1225 L311 1225 Z M581 1225 L728 1553 L905 1553 L684 1225 L581 1225 Z " />
<glyph glyph-name="ogonek" unicode="&#x2db;" horiz-adv-x="1024" d="M560 0 L689 0 Q588 -78 550.5 -129 Q513 -180 513 -236 Q513 -318 605 -318 L708 -318 L708 -438 L607 -438 Q370 -438 370 -265 Q370 -197 413.5 -136.5 Q457 -76 560 0 Z " />
<glyph glyph-name="caron" unicode="&#x2c7;" horiz-adv-x="1024" d="M513 1341 L688 1553 L857 1553 L565 1225 L461 1225 L169 1553 L338 1553 L513 1341 Z " />
<glyph glyph-name="nbspace" unicode="&#xa0;" horiz-adv-x="451" d="" />
<glyph glyph-name="currency" unicode="&#xa4;" horiz-adv-x="1303" d="M191 279 L102 371 L308 566 Q223 672 223 809 Q223 943 307 1051 L102 1245 L191 1336 L396 1140 Q510 1222 651 1222 Q794 1222 908 1140 L1110 1336 L1202 1245 L998 1051 Q1081 939 1081 810 Q1081 676 997 566 L1202 371 L1110 280 L907 477 Q787 396 652 396 Q516 396 397 477 L191 279 Z M649 1090 Q526 1090 439 1004 Q356 923 356 809 Q356 696 439 614 Q526 528 652 528 Q778 528 865 614 Q948 696 948 809 Q948 924 865 1004 Q776 1090 649 1090 Z " />
<glyph glyph-name="brokenbar" unicode="&#xa6;" horiz-adv-x="689" d="M267 873 L267 1475 L422 1475 L422 873 L267 873 Z M267 0 L267 602 L422 602 L422 0 L267 0 Z " />
<glyph glyph-name="uni00AD" unicode="&#xad;" horiz-adv-x="805" d="M123 541 L123 689 L683 689 L683 541 L123 541 Z " />
<glyph glyph-name="twosuperior" unicode="&#xb2;" horiz-adv-x="811" d="M45 819 Q57 910 94 964 Q145 1040 287 1152 Q454 1283 503 1337.5 Q552 1392 552 1448 Q552 1506 509 1540 Q466 1574 392 1574 Q307 1574 259 1530 Q211 1486 195 1393 L50 1393 Q72 1539 129 1601 Q217 1695 391 1695 Q537 1695 622 1632 Q706 1569 706 1451 Q706 1355 656.5 1291 Q607 1227 439 1104 Q344 1035 313 1008 Q282 981 250 940 L730 940 L730 819 L45 819 Z " />
<glyph glyph-name="threesuperior" unicode="&#xb3;" horiz-adv-x="811" d="M264 1212 L264 1326 L315 1326 L335 1326 Q454 1326 502.5 1355.5 Q551 1385 551 1458 Q551 1574 396 1574 Q245 1574 213 1448 L68 1448 Q85 1558 144 1616 Q224 1695 390 1695 Q540 1695 623 1631 Q701 1571 701 1460 Q701 1341 595 1278 Q734 1212 734 1066 Q734 925 633 860 Q544 803 393 803 Q190 803 104 898 Q57 952 44 1075 L190 1075 Q213 925 396 925 Q583 925 583 1060 Q583 1176 479 1201 Q435 1212 315 1212 Q298 1212 264 1212 Z " />
<glyph glyph-name="onesuperior" unicode="&#xb9;" horiz-adv-x="559" d="M244 819 L244 1534 L15 1458 L15 1586 L288 1679 L392 1679 L392 819 L244 819 Z " />
<glyph glyph-name="onequarter" unicode="&#xbc;" horiz-adv-x="1924" d="M370 614 L370 1329 L141 1254 L141 1382 L414 1475 L518 1475 L518 614 L370 614 Z M1477 0 L1477 179 L1040 179 L1040 278 L1320 860 L1483 860 L1210 300 L1477 300 L1477 618 L1621 618 L1621 300 L1763 300 L1763 179 L1621 179 L1621 0 L1477 0 Z M401 0 L1169 1475 L1321 1475 L552 0 L401 0 Z " />
<glyph glyph-name="onehalf" unicode="&#xbd;" horiz-adv-x="1922" d="M365 614 L365 1329 L136 1254 L136 1382 L409 1475 L513 1475 L513 614 L365 614 Z M1065 0 Q1077 91 1114 145 Q1164 221 1307 333 Q1474 464 1523 518.5 Q1572 573 1572 629 Q1572 688 1529.5 721.5 Q1487 755 1413 755 Q1244 755 1215 574 L1070 574 Q1091 720 1149 782 Q1237 876 1410 876 Q1557 876 1642 813 Q1726 751 1726 632 Q1726 536 1676.5 472 Q1627 408 1459 285 Q1364 216 1333.5 189 Q1303 162 1270 121 L1750 121 L1750 0 L1065 0 Z M376 0 L1145 1475 L1296 1475 L528 0 L376 0 Z " />
<glyph glyph-name="threequarters" unicode="&#xbe;" horiz-adv-x="1926" d="M296 1007 L296 1122 Q330 1121 347 1121 Q366 1121 372 1121 Q487 1121 535 1151 Q583 1181 583 1253 Q583 1370 428 1370 Q277 1370 245 1244 L100 1244 Q117 1354 176 1412 Q256 1491 422 1491 Q572 1491 655 1427 Q733 1367 733 1256 Q733 1136 627 1073 Q766 1007 766 861 Q766 598 425 598 Q221 598 136 693 Q89 747 76 870 L222 870 Q245 720 429 720 Q615 720 615 855 Q615 916 590.5 949.5 Q566 983 511 996 Q466 1007 296 1007 Z M1545 0 L1545 179 L1109 179 L1109 278 L1388 860 L1551 860 L1279 300 L1545 300 L1545 618 L1689 618 L1689 300 L1831 300 L1831 179 L1689 179 L1689 0 L1545 0 Z M526 0 L1294 1475 L1445 1475 L677 0 L526 0 Z " />
<glyph glyph-name="Eth" unicode="&#xd0;" horiz-adv-x="1472" d="M190 846 L190 1475 L580 1475 Q927 1475 1128 1307 Q1362 1112 1362 737 Q1362 363 1128 168 Q927 0 577 0 L190 0 L190 712 L19 712 L19 846 L190 846 Z M366 846 L814 846 L814 712 L366 712 L366 148 L568 148 Q842 148 999 279 Q1182 430 1182 738 Q1182 1044 1000 1196 Q842 1327 566 1327 L366 1327 L366 846 Z " />
<glyph glyph-name="multiply" unicode="&#xd7;" horiz-adv-x="1303" d="M545 736 L240 1028 L346 1133 L651 842 L956 1133 L1061 1028 L756 736 L1061 445 L956 340 L651 631 L346 340 L240 445 L545 736 Z " />
<glyph glyph-name="Yacute" unicode="&#xdd;" horiz-adv-x="1130" d="M477 0 L477 577 L-25 1475 L167 1475 L565 751 L962 1475 L1154 1475 L653 577 L653 0 L477 0 Z M457 1595 L654 1923 L846 1923 L579 1595 L457 1595 Z " />
<glyph glyph-name="Thorn" unicode="&#xde;" horiz-adv-x="1269" d="M184 0 L184 1475 L360 1475 L360 1190 L591 1190 Q746 1190 839.5 1172.5 Q933 1155 1004 1112 Q1095 1058 1143.5 961 Q1192 864 1192 737 Q1192 507 1046 398 Q900 289 592 289 L360 289 L360 0 L184 0 Z M360 434 L601 434 Q802 434 896 499 Q1012 579 1012 741 Q1012 895 904 974 Q811 1042 606 1042 L360 1042 L360 434 Z " />
<glyph glyph-name="eth" unicode="&#xf0;" horiz-adv-x="1238" d="M797 1051 Q708 1180 594 1299 L381 1145 L316 1227 L517 1374 Q450 1437 362 1509 L457 1604 Q568 1515 634 1457 L821 1593 L888 1511 L714 1383 Q921 1184 1029 969 Q1137 754 1137 541 Q1137 285 1000 131 Q856 -32 619 -32 Q382 -32 237 131 Q100 286 100 533 Q100 781 237 937 Q308 1018 410 1061 Q500 1099 596 1099 Q699 1099 797 1051 Z M613 955 Q446 955 351 822 Q273 713 273 535 Q273 358 351 248 Q446 115 618 115 Q791 115 886 248 Q964 358 964 533 Q964 713 886 822 Q791 955 613 955 Z " />
<glyph glyph-name="yacute" unicode="&#xfd;" horiz-adv-x="1016" d="M425 41 L24 1080 L203 1080 L508 246 L812 1080 L992 1080 L541 -86 Q480 -241 450 -290 Q397 -375 330 -406 Q263 -437 125 -439 L125 -291 Q229 -290 268 -264 Q322 -228 365 -115 L425 41 Z M417 1225 L614 1553 L806 1553 L539 1225 L417 1225 Z " />
<glyph glyph-name="thorn" unicode="&#xfe;" horiz-adv-x="1290" d="M175 -450 L175 1516 L345 1516 L345 930 Q470 1113 703 1113 Q930 1113 1062 948 Q1189 790 1189 540 Q1189 290 1062 132 Q930 -32 703 -32 Q474 -32 345 151 L345 -450 L175 -450 Z M680 966 Q526 966 430 832 Q345 713 345 540 Q345 369 430 249 Q525 115 686 115 Q836 115 926 233 Q1016 350 1016 539 Q1016 734 926 848 Q834 966 680 966 Z " />
<glyph glyph-name="Amacron" unicode="&#x100;" horiz-adv-x="1343" d="M985 414 L359 414 L203 0 L21 0 L601 1475 L743 1475 L1323 0 L1141 0 L985 414 Z M932 558 L672 1249 L411 558 L932 558 Z M407 1685 L407 1822 L935 1822 L935 1685 L407 1685 Z " />
<glyph glyph-name="amacron" unicode="&#x101;" horiz-adv-x="1192" d="M872 140 Q826 59 725 13.5 Q624 -32 492 -32 Q110 -32 110 307 Q110 518 246 596 Q349 655 561 655 Q612 655 797 646 L859 643 L859 729 Q859 853 792.5 910 Q726 967 581 967 Q470 967 423 931.5 Q376 896 353 796 L194 796 Q209 892 235 945 Q261 998 311 1037 Q408 1112 598 1112 Q826 1112 926.5 1019 Q1027 926 1027 716 L1027 0 L872 0 L872 140 Z M862 512 Q727 526 595 526 Q391 526 332 468 Q281 418 281 316 Q281 229 317 182 Q370 112 527 112 Q684 112 776 182 Q862 248 862 400 L862 512 Z M345 1315 L345 1452 L873 1452 L873 1315 L345 1315 Z " />
<glyph glyph-name="Abreve" unicode="&#x102;" horiz-adv-x="1343" d="M985 414 L359 414 L203 0 L21 0 L601 1475 L743 1475 L1323 0 L1141 0 L985 414 Z M932 558 L672 1249 L411 558 L932 558 Z M385 1900 L485 1900 Q492 1825 526 1791 Q572 1745 671 1745 Q762 1745 804.5 1780.5 Q847 1816 854 1900 L956 1900 Q943 1762 886 1697 Q818 1617 671 1617 Q508 1617 440 1714 Q395 1780 385 1900 Z " />
<glyph glyph-name="abreve" unicode="&#x103;" horiz-adv-x="1192" d="M872 140 Q826 59 725 13.5 Q624 -32 492 -32 Q110 -32 110 307 Q110 518 246 596 Q349 655 561 655 Q612 655 797 646 L859 643 L859 729 Q859 853 792.5 910 Q726 967 581 967 Q470 967 423 931.5 Q376 896 353 796 L194 796 Q209 892 235 945 Q261 998 311 1037 Q408 1112 598 1112 Q826 1112 926.5 1019 Q1027 926 1027 716 L1027 0 L872 0 L872 140 Z M862 512 Q727 526 595 526 Q391 526 332 468 Q281 418 281 316 Q281 229 317 182 Q370 112 527 112 Q684 112 776 182 Q862 248 862 400 L862 512 Z M315 1530 L415 1530 Q422 1454 456 1421 Q502 1375 601 1375 Q693 1375 735 1410.5 Q777 1446 784 1530 L886 1530 Q873 1393 816 1327 Q749 1247 602 1247 Q437 1247 370 1344 Q325 1410 315 1530 Z " />
<glyph glyph-name="Aogonek" unicode="&#x104;" horiz-adv-x="1343" d="M985 414 L359 414 L203 0 L21 0 L601 1475 L743 1475 L1323 0 Q1228 -72 1187.5 -126.5 Q1147 -181 1147 -236 Q1147 -279 1168.5 -298.5 Q1190 -318 1239 -318 L1342 -318 L1342 -438 L1240 -438 Q1004 -438 1004 -265 Q1004 -196 1046.5 -137 Q1089 -78 1194 0 L1141 0 L985 414 Z M932 558 L672 1249 L411 558 L932 558 Z " />
<glyph glyph-name="aogonek" unicode="&#x105;" horiz-adv-x="1211" d="M1027 0 Q851 -131 851 -236 Q851 -318 943 -318 L1046 -318 L1046 -438 L945 -438 Q708 -438 708 -265 Q708 -198 750.5 -138 Q793 -78 892 -4 L898 0 L872 0 L872 140 Q826 59 725 13.5 Q624 -32 492 -32 Q110 -32 110 307 Q110 518 246 596 Q349 655 561 655 Q612 655 797 646 L859 643 L859 729 Q859 853 792.5 910 Q726 967 581 967 Q470 967 423 931.5 Q376 896 353 796 L194 796 Q209 892 235 945 Q261 998 311 1037 Q408 1112 598 1112 Q826 1112 926.5 1019 Q1027 926 1027 716 L1027 0 Z M862 512 Q727 526 595 526 Q391 526 332 468 Q281 418 281 316 Q281 229 317 182 Q370 112 527 112 Q684 112 776 182 Q862 248 862 400 L862 512 Z " />
<glyph glyph-name="Cacute" unicode="&#x106;" horiz-adv-x="1402" d="M1188 342 L1302 227 Q1214 111 1111 53 Q964 -29 759 -29 Q423 -29 259 193 Q110 393 110 728 Q110 1092 284 1303 Q448 1503 753 1503 Q999 1503 1136 1383.5 Q1273 1264 1278 1046 L1107 1046 Q1101 1164 1037 1239 Q942 1350 754 1350 Q517 1350 399 1170 Q290 1002 290 728 Q290 447 416 281 Q533 126 765 126 Q932 126 1056 210 Q1107 245 1188 342 Z M596 1595 L793 1923 L985 1923 L718 1595 L596 1595 Z " />
<glyph glyph-name="cacute" unicode="&#x107;" horiz-adv-x="1096" d="M928 260 L1015 136 Q844 -32 594 -32 Q365 -32 237 107 Q100 255 100 524 Q100 787 226 952 Q349 1113 591 1113 Q840 1113 942 947 Q996 859 998 737 L840 737 Q820 965 592 965 Q431 965 349 839 Q273 722 273 533 Q273 325 374 213 Q461 116 606 116 Q781 116 928 260 Z M448 1225 L645 1553 L837 1553 L570 1225 L448 1225 Z " />
<glyph glyph-name="Ccircumflex" unicode="&#x108;" horiz-adv-x="1402" d="M1188 342 L1302 227 Q1214 111 1111 53 Q964 -29 759 -29 Q423 -29 259 193 Q110 393 110 728 Q110 1092 284 1303 Q448 1503 753 1503 Q999 1503 1136 1383.5 Q1273 1264 1278 1046 L1107 1046 Q1101 1164 1037 1239 Q942 1350 754 1350 Q517 1350 399 1170 Q290 1002 290 728 Q290 447 416 281 Q533 126 765 126 Q932 126 1056 210 Q1107 245 1188 342 Z M750 1806 L575 1595 L406 1595 L698 1923 L802 1923 L1094 1595 L925 1595 L750 1806 Z " />
<glyph glyph-name="ccircumflex" unicode="&#x109;" horiz-adv-x="1096" d="M928 260 L1015 136 Q844 -32 594 -32 Q365 -32 237 107 Q100 255 100 524 Q100 787 226 952 Q349 1113 591 1113 Q840 1113 942 947 Q996 859 998 737 L840 737 Q820 965 592 965 Q431 965 349 839 Q273 722 273 533 Q273 325 374 213 Q461 116 606 116 Q781 116 928 260 Z M599 1436 L424 1225 L255 1225 L547 1553 L651 1553 L943 1225 L774 1225 L599 1436 Z " />
<glyph glyph-name="Cdotaccent" unicode="&#x10a;" horiz-adv-x="1402" d="M1188 342 L1302 227 Q1214 111 1111 53 Q964 -29 759 -29 Q423 -29 259 193 Q110 393 110 728 Q110 1092 284 1303 Q448 1503 753 1503 Q999 1503 1136 1383.5 Q1273 1264 1278 1046 L1107 1046 Q1101 1164 1037 1239 Q942 1350 754 1350 Q517 1350 399 1170 Q290 1002 290 728 Q290 447 416 281 Q533 126 765 126 Q932 126 1056 210 Q1107 245 1188 342 Z M750 1856 Q797 1856 830 1823 Q863 1790 863 1744 Q863 1698 829.5 1665 Q796 1632 748 1632 Q700 1632 666.5 1665 Q633 1698 633 1745 Q633 1792 667 1824 Q701 1856 750 1856 Z " />
<glyph glyph-name="cdotaccent" unicode="&#x10b;" horiz-adv-x="1096" d="M928 260 L1015 136 Q844 -32 594 -32 Q365 -32 237 107 Q100 255 100 524 Q100 787 226 952 Q349 1113 591 1113 Q840 1113 942 947 Q996 859 998 737 L840 737 Q820 965 592 965 Q431 965 349 839 Q273 722 273 533 Q273 325 374 213 Q461 116 606 116 Q781 116 928 260 Z M579 1491 Q626 1491 659 1458 Q692 1425 692 1379 Q692 1333 658.5 1300 Q625 1267 577 1267 Q529 1267 495.5 1300 Q462 1333 462 1380 Q462 1427 496 1459 Q530 1491 579 1491 Z " />
<glyph glyph-name="Ccaron" unicode="&#x10c;" horiz-adv-x="1402" d="M1188 342 L1302 227 Q1214 111 1111 53 Q964 -29 759 -29 Q423 -29 259 193 Q110 393 110 728 Q110 1092 284 1303 Q448 1503 753 1503 Q999 1503 1136 1383.5 Q1273 1264 1278 1046 L1107 1046 Q1101 1164 1037 1239 Q942 1350 754 1350 Q517 1350 399 1170 Q290 1002 290 728 Q290 447 416 281 Q533 126 765 126 Q932 126 1056 210 Q1107 245 1188 342 Z M741 1711 L916 1923 L1085 1923 L793 1595 L689 1595 L397 1923 L566 1923 L741 1711 Z " />
<glyph glyph-name="ccaron" unicode="&#x10d;" horiz-adv-x="1096" d="M928 260 L1015 136 Q844 -32 594 -32 Q365 -32 237 107 Q100 255 100 524 Q100 787 226 952 Q349 1113 591 1113 Q840 1113 942 947 Q996 859 998 737 L840 737 Q820 965 592 965 Q431 965 349 839 Q273 722 273 533 Q273 325 374 213 Q461 116 606 116 Q781 116 928 260 Z M581 1341 L756 1553 L925 1553 L633 1225 L529 1225 L237 1553 L406 1553 L581 1341 Z " />
<glyph glyph-name="Dcaron" unicode="&#x10e;" horiz-adv-x="1467" d="M184 0 L184 1475 L574 1475 Q921 1475 1122 1307 Q1356 1112 1356 737 Q1356 363 1122 168 Q922 0 571 0 L184 0 Z M360 148 L562 148 Q835 148 993 279 Q1176 430 1176 738 Q1176 1044 994 1196 Q836 1327 560 1327 L360 1327 L360 148 Z M619 1711 L794 1923 L963 1923 L671 1595 L567 1595 L275 1923 L444 1923 L619 1711 Z " />
<glyph glyph-name="dcaron" unicode="&#x10f;" horiz-adv-x="1490" d="M936 0 L936 160 Q807 -32 577 -32 Q354 -32 225 132 Q100 290 100 540 Q100 790 225 948 Q354 1113 576 1113 Q800 1113 926 929 L926 1516 L1096 1516 L1096 0 L936 0 Z M590 966 Q449 966 360 848 Q273 731 273 540 Q273 350 360 233 Q448 115 594 115 Q751 115 843 249 Q926 369 926 539 Q926 730 833 848 Q740 966 590 966 Z M1230 1103 L1342 1545 L1531 1545 L1359 1103 L1230 1103 Z " />
<glyph glyph-name="Dcroat" unicode="&#x110;" horiz-adv-x="1472" d="M190 846 L190 1475 L580 1475 Q927 1475 1128 1307 Q1362 1112 1362 737 Q1362 363 1128 168 Q927 0 577 0 L190 0 L190 712 L19 712 L19 846 L190 846 Z M366 846 L814 846 L814 712 L366 712 L366 148 L568 148 Q842 148 999 279 Q1182 430 1182 738 Q1182 1044 1000 1196 Q842 1327 566 1327 L366 1327 L366 846 Z " />
<glyph glyph-name="dcroat" unicode="&#x111;" horiz-adv-x="1284" d="M942 0 L942 160 Q811 -32 580 -32 Q356 -32 225 132 Q100 290 100 540 Q100 791 225 949 Q356 1113 579 1113 Q805 1113 932 929 L932 1233 L597 1233 L597 1344 L932 1344 L932 1516 L1102 1516 L1102 1344 L1264 1344 L1264 1233 L1102 1233 L1102 0 L942 0 Z M593 966 Q450 966 361 848 Q273 731 273 540 Q273 350 361 233 Q450 115 597 115 Q755 115 849 249 Q932 369 932 539 Q932 730 838 848 Q744 966 593 966 Z " />
<glyph glyph-name="Emacron" unicode="&#x112;" horiz-adv-x="1193" d="M184 0 L184 1475 L1095 1475 L1095 1327 L360 1327 L360 840 L973 840 L973 693 L360 693 L360 148 L1111 148 L1111 0 L184 0 Z M374 1685 L374 1822 L902 1822 L902 1685 L374 1685 Z " />
<glyph glyph-name="emacron" unicode="&#x113;" horiz-adv-x="1183" d="M1086 496 L274 496 Q286 400 295 363.5 Q304 327 325 288 Q418 116 610 116 Q709 116 793 147.5 Q877 179 976 254 L1058 124 Q846 -32 613 -32 Q365 -32 227 133 Q100 284 100 530 Q100 788 234 949 Q369 1112 598 1112 Q782 1112 907 997 Q1084 836 1086 496 Z M914 629 Q894 758 851 825 Q760 970 596 970 Q334 970 277 629 L914 629 Z M327 1315 L327 1452 L855 1452 L855 1315 L327 1315 Z " />
<glyph glyph-name="Ebreve" unicode="&#x114;" horiz-adv-x="1193" d="M184 0 L184 1475 L1095 1475 L1095 1327 L360 1327 L360 840 L973 840 L973 693 L360 693 L360 148 L1111 148 L1111 0 L184 0 Z M352 1900 L452 1900 Q459 1825 493 1791 Q539 1745 638 1745 Q729 1745 771.5 1780.5 Q814 1816 821 1900 L923 1900 Q910 1762 853 1697 Q785 1617 638 1617 Q475 1617 407 1714 Q362 1780 352 1900 Z " />
<glyph glyph-name="ebreve" unicode="&#x115;" horiz-adv-x="1183" d="M1086 496 L274 496 Q286 400 295 363.5 Q304 327 325 288 Q418 116 610 116 Q709 116 793 147.5 Q877 179 976 254 L1058 124 Q846 -32 613 -32 Q365 -32 227 133 Q100 284 100 530 Q100 788 234 949 Q369 1112 598 1112 Q782 1112 907 997 Q1084 836 1086 496 Z M914 629 Q894 758 851 825 Q760 970 596 970 Q334 970 277 629 L914 629 Z M309 1530 L409 1530 Q416 1454 450 1421 Q496 1375 595 1375 Q687 1375 729 1410.5 Q771 1446 778 1530 L880 1530 Q867 1393 810 1327 Q743 1247 596 1247 Q431 1247 364 1344 Q319 1410 309 1530 Z " />
<glyph glyph-name="Edotaccent" unicode="&#x116;" horiz-adv-x="1193" d="M184 0 L184 1475 L1095 1475 L1095 1327 L360 1327 L360 840 L973 840 L973 693 L360 693 L360 148 L1111 148 L1111 0 L184 0 Z M640 1856 Q687 1856 720 1823 Q753 1790 753 1744 Q753 1698 719.5 1665 Q686 1632 638 1632 Q590 1632 556.5 1665 Q523 1698 523 1745 Q523 1792 557 1824 Q591 1856 640 1856 Z " />
<glyph glyph-name="edotaccent" unicode="&#x117;" horiz-adv-x="1183" d="M1086 496 L274 496 Q286 400 295 363.5 Q304 327 325 288 Q418 116 610 116 Q709 116 793 147.5 Q877 179 976 254 L1058 124 Q846 -32 613 -32 Q365 -32 227 133 Q100 284 100 530 Q100 788 234 949 Q369 1112 598 1112 Q782 1112 907 997 Q1084 836 1086 496 Z M914 629 Q894 758 851 825 Q760 970 596 970 Q334 970 277 629 L914 629 Z M595 1491 Q642 1491 675 1458 Q708 1425 708 1379 Q708 1333 674.5 1300 Q641 1267 593 1267 Q545 1267 511.5 1300 Q478 1333 478 1380 Q478 1427 512 1459 Q546 1491 595 1491 Z " />
<glyph glyph-name="Eogonek" unicode="&#x118;" horiz-adv-x="1193" d="M1111 0 Q1018 -69 976 -125 Q934 -181 934 -236 Q934 -279 956 -298.5 Q978 -318 1027 -318 L1129 -318 L1129 -438 L1028 -438 Q791 -438 791 -264 Q791 -138 981 0 L184 0 L184 1475 L1095 1475 L1095 1327 L360 1327 L360 840 L973 840 L973 693 L360 693 L360 148 L1111 148 L1111 0 Z " />
<glyph glyph-name="eogonek" unicode="&#x119;" horiz-adv-x="1183" d="M1086 496 L274 496 Q286 400 295 363 Q304 326 325 288 Q418 115 610 115 Q709 115 793 147 Q877 179 976 254 L1058 124 Q903 20 831.5 -66.5 Q760 -153 760 -235 Q760 -279 781.5 -298.5 Q803 -318 852 -318 L955 -318 L955 -438 L854 -438 Q732 -438 674.5 -395 Q617 -352 617 -262 Q617 -140 744 -18 Q660 -33 593 -33 Q446 -33 325 46 Q100 193 100 530 Q100 788 234 949 Q369 1112 598 1112 Q782 1112 907 997 Q1084 836 1086 496 Z M914 629 Q894 758 851 825 Q760 970 596 970 Q334 970 277 629 L914 629 Z " />
<glyph glyph-name="Ecaron" unicode="&#x11a;" horiz-adv-x="1193" d="M184 0 L184 1475 L1095 1475 L1095 1327 L360 1327 L360 840 L973 840 L973 693 L360 693 L360 148 L1111 148 L1111 0 L184 0 Z M640 1711 L815 1923 L984 1923 L692 1595 L588 1595 L296 1923 L465 1923 L640 1711 Z " />
<glyph glyph-name="ecaron" unicode="&#x11b;" horiz-adv-x="1183" d="M1086 496 L274 496 Q286 400 295 363.5 Q304 327 325 288 Q418 116 610 116 Q709 116 793 147.5 Q877 179 976 254 L1058 124 Q846 -32 613 -32 Q365 -32 227 133 Q100 284 100 530 Q100 788 234 949 Q369 1112 598 1112 Q782 1112 907 997 Q1084 836 1086 496 Z M914 629 Q894 758 851 825 Q760 970 596 970 Q334 970 277 629 L914 629 Z M595 1341 L770 1553 L939 1553 L647 1225 L543 1225 L251 1553 L420 1553 L595 1341 Z " />
<glyph glyph-name="Gcircumflex" unicode="&#x11c;" horiz-adv-x="1511" d="M866 600 L866 742 L1348 742 L1348 59 Q1095 -29 788 -29 Q561 -29 426 48 Q256 144 174 348 Q110 505 110 724 Q110 1090 292 1303 Q464 1503 779 1503 Q1100 1503 1242 1316 Q1322 1210 1324 1046 L1153 1046 Q1147 1166 1081 1239 Q981 1350 779 1350 Q529 1350 406 1170 Q290 1001 290 726 Q290 443 421 278 Q485 198 576 161 Q667 124 801 124 Q989 124 1178 190 L1178 600 L866 600 Z M770 1806 L595 1595 L426 1595 L718 1923 L822 1923 L1114 1595 L945 1595 L770 1806 Z " />
<glyph glyph-name="gcircumflex" unicode="&#x11d;" horiz-adv-x="1272" d="M926 158 Q802 -23 577 -23 Q355 -23 225 139 Q100 294 100 540 Q100 787 222 944 Q352 1112 578 1112 Q807 1112 937 920 L937 1080 L1097 1080 L1097 159 Q1097 3 1080.5 -91 Q1064 -185 1023 -259 Q910 -467 601 -467 Q344 -467 148 -329 L230 -200 Q327 -267 412 -295.5 Q497 -324 603 -324 Q802 -324 875 -185 Q904 -130 915 -61.5 Q926 7 926 125 L926 158 Z M590 965 Q448 965 360 847 Q273 730 273 541 Q273 354 360 239 Q447 124 595 124 Q751 124 843 255 Q926 373 926 539 Q926 729 833 847 Q740 965 590 965 Z M640 1436 L465 1225 L296 1225 L588 1553 L692 1553 L984 1225 L815 1225 L640 1436 Z " />
<glyph glyph-name="Gbreve" unicode="&#x11e;" horiz-adv-x="1511" d="M866 600 L866 742 L1348 742 L1348 59 Q1095 -29 788 -29 Q561 -29 426 48 Q256 144 174 348 Q110 505 110 724 Q110 1090 292 1303 Q464 1503 779 1503 Q1100 1503 1242 1316 Q1322 1210 1324 1046 L1153 1046 Q1147 1166 1081 1239 Q981 1350 779 1350 Q529 1350 406 1170 Q290 1001 290 726 Q290 443 421 278 Q485 198 576 161 Q667 124 801 124 Q989 124 1178 190 L1178 600 L866 600 Z M478 1900 L578 1900 Q585 1825 619 1791 Q665 1745 764 1745 Q855 1745 897.5 1780.5 Q940 1816 947 1900 L1049 1900 Q1036 1762 979 1697 Q911 1617 764 1617 Q601 1617 533 1714 Q488 1780 478 1900 Z " />
<glyph glyph-name="gbreve" unicode="&#x11f;" horiz-adv-x="1272" d="M926 158 Q802 -23 577 -23 Q355 -23 225 139 Q100 294 100 540 Q100 787 222 944 Q352 1112 578 1112 Q807 1112 937 920 L937 1080 L1097 1080 L1097 159 Q1097 3 1080.5 -91 Q1064 -185 1023 -259 Q910 -467 601 -467 Q344 -467 148 -329 L230 -200 Q327 -267 412 -295.5 Q497 -324 603 -324 Q802 -324 875 -185 Q904 -130 915 -61.5 Q926 7 926 125 L926 158 Z M590 965 Q448 965 360 847 Q273 730 273 541 Q273 354 360 239 Q447 124 595 124 Q751 124 843 255 Q926 373 926 539 Q926 729 833 847 Q740 965 590 965 Z M350 1530 L450 1530 Q457 1454 491 1421 Q537 1375 636 1375 Q728 1375 770 1410.5 Q812 1446 819 1530 L921 1530 Q908 1393 851 1327 Q784 1247 637 1247 Q472 1247 405 1344 Q360 1410 350 1530 Z " />
<glyph glyph-name="Gdotaccent" unicode="&#x120;" horiz-adv-x="1511" d="M866 600 L866 742 L1348 742 L1348 59 Q1095 -29 788 -29 Q561 -29 426 48 Q256 144 174 348 Q110 505 110 724 Q110 1090 292 1303 Q464 1503 779 1503 Q1100 1503 1242 1316 Q1322 1210 1324 1046 L1153 1046 Q1147 1166 1081 1239 Q981 1350 779 1350 Q529 1350 406 1170 Q290 1001 290 726 Q290 443 421 278 Q485 198 576 161 Q667 124 801 124 Q989 124 1178 190 L1178 600 L866 600 Z M766 1856 Q813 1856 846 1823 Q879 1790 879 1744 Q879 1698 845.5 1665 Q812 1632 764 1632 Q716 1632 682.5 1665 Q649 1698 649 1745 Q649 1792 683 1824 Q717 1856 766 1856 Z " />
<glyph glyph-name="gdotaccent" unicode="&#x121;" horiz-adv-x="1272" d="M926 158 Q802 -23 577 -23 Q355 -23 225 139 Q100 294 100 540 Q100 787 222 944 Q352 1112 578 1112 Q807 1112 937 920 L937 1080 L1097 1080 L1097 159 Q1097 3 1080.5 -91 Q1064 -185 1023 -259 Q910 -467 601 -467 Q344 -467 148 -329 L230 -200 Q327 -267 412 -295.5 Q497 -324 603 -324 Q802 -324 875 -185 Q904 -130 915 -61.5 Q926 7 926 125 L926 158 Z M590 965 Q448 965 360 847 Q273 730 273 541 Q273 354 360 239 Q447 124 595 124 Q751 124 843 255 Q926 373 926 539 Q926 729 833 847 Q740 965 590 965 Z M631 1491 Q678 1491 711 1458 Q744 1425 744 1379 Q744 1333 710.5 1300 Q677 1267 629 1267 Q581 1267 547.5 1300 Q514 1333 514 1380 Q514 1427 548 1459 Q582 1491 631 1491 Z " />
<glyph glyph-name="Gcommaaccent" unicode="&#x122;" horiz-adv-x="1511" d="M866 600 L866 742 L1348 742 L1348 59 Q1095 -29 788 -29 Q561 -29 426 48 Q256 144 174 348 Q110 505 110 724 Q110 1090 292 1303 Q464 1503 779 1503 Q1100 1503 1242 1316 Q1322 1210 1324 1046 L1153 1046 Q1147 1166 1081 1239 Q981 1350 779 1350 Q529 1350 406 1170 Q290 1001 290 726 Q290 443 421 278 Q485 198 576 161 Q667 124 801 124 Q989 124 1178 190 L1178 600 L866 600 Z M575 -480 L706 -152 L890 -152 L694 -480 L575 -480 Z " />
<glyph glyph-name="gcommaaccent" unicode="&#x123;" horiz-adv-x="1272" d="M926 158 Q802 -23 577 -23 Q355 -23 225 139 Q100 294 100 540 Q100 787 222 944 Q352 1112 578 1112 Q807 1112 937 920 L937 1080 L1097 1080 L1097 159 Q1097 3 1080.5 -91 Q1064 -185 1023 -259 Q910 -467 601 -467 Q344 -467 148 -329 L230 -200 Q327 -267 412 -295.5 Q497 -324 603 -324 Q802 -324 875 -185 Q904 -130 915 -61.5 Q926 7 926 125 L926 158 Z M590 965 Q448 965 360 847 Q273 730 273 541 Q273 354 360 239 Q447 124 595 124 Q751 124 843 255 Q926 373 926 539 Q926 729 833 847 Q740 965 590 965 Z M890 1553 L693 1225 L501 1225 L768 1553 L890 1553 Z " />
<glyph glyph-name="Hcircumflex" unicode="&#x124;" horiz-adv-x="1433" d="M184 0 L184 1475 L360 1475 L360 850 L1072 850 L1072 1475 L1248 1475 L1248 0 L1072 0 L1072 703 L360 703 L360 0 L184 0 Z M715 1806 L540 1595 L371 1595 L663 1923 L767 1923 L1059 1595 L890 1595 L715 1806 Z " />
<glyph glyph-name="hcircumflex" unicode="&#x125;" horiz-adv-x="1241" d="M175 0 L175 1516 L345 1516 L345 901 Q462 1018 553.5 1065.5 Q645 1113 753 1113 Q948 1113 1022 969 Q1053 910 1064 837 Q1075 764 1075 627 L1075 0 L905 0 L905 636 Q905 779 882 846 Q844 956 711 956 Q623 956 538.5 902 Q454 848 345 722 L345 0 L175 0 Z M320 1806 L145 1595 L-24 1595 L268 1923 L372 1923 L664 1595 L495 1595 L320 1806 Z " />
<glyph glyph-name="Hbar" unicode="&#x126;" horiz-adv-x="1431" d="M184 0 L184 1045 L20 1045 L20 1150 L184 1150 L184 1475 L360 1475 L360 1150 L1072 1150 L1072 1475 L1248 1475 L1248 1150 L1411 1150 L1411 1045 L1248 1045 L1248 0 L1072 0 L1072 703 L360 703 L360 0 L184 0 Z M360 850 L1072 850 L1072 1045 L360 1045 L360 850 Z " />
<glyph glyph-name="hbar" unicode="&#x127;" horiz-adv-x="1247" d="M181 0 L181 1233 L32 1233 L32 1344 L181 1344 L181 1516 L351 1516 L351 1344 L698 1344 L698 1233 L351 1233 L351 901 Q448 995 500 1029 Q624 1113 758 1113 Q954 1113 1028 969 Q1059 910 1070 837 Q1081 764 1081 627 L1081 0 L911 0 L911 636 Q911 779 888 846 Q850 956 717 956 Q627 956 550.5 907 Q474 858 351 722 L351 0 L181 0 Z " />
<glyph glyph-name="Itilde" unicode="&#x128;" horiz-adv-x="545" d="M184 0 L184 1475 L360 1475 L360 0 L184 0 Z M73 1654 L-33 1654 Q11 1856 158 1856 Q212 1856 291 1811 Q363 1771 385 1771 Q435 1771 470 1855 L576 1855 Q551 1762 517 1717 Q467 1648 377 1648 Q318 1648 212 1710 Q173 1733 151 1733 Q103 1733 73 1654 Z " />
<glyph glyph-name="itilde" unicode="&#x129;" horiz-adv-x="535" d="M182 0 L182 1080 L352 1080 L352 0 L182 0 Z M68 1284 L-38 1284 Q6 1486 152 1486 Q208 1486 286 1442 Q358 1401 380 1401 Q428 1401 465 1485 L571 1485 Q545 1391 512 1347 Q461 1278 373 1278 Q313 1278 207 1340 Q168 1363 146 1363 Q98 1363 68 1284 Z " />
<glyph glyph-name="Imacron" unicode="&#x12a;" horiz-adv-x="545" d="M184 0 L184 1475 L360 1475 L360 0 L184 0 Z M8 1685 L8 1822 L536 1822 L536 1685 L8 1685 Z " />
<glyph glyph-name="imacron" unicode="&#x12b;" horiz-adv-x="535" d="M182 0 L182 1080 L352 1080 L352 0 L182 0 Z M3 1315 L3 1452 L531 1452 L531 1315 L3 1315 Z " />
<glyph glyph-name="Ibreve" unicode="&#x12c;" horiz-adv-x="545" d="M184 0 L184 1475 L360 1475 L360 0 L184 0 Z M-14 1900 L86 1900 Q93 1825 127 1791 Q173 1745 272 1745 Q363 1745 405.5 1780.5 Q448 1816 455 1900 L557 1900 Q544 1762 487 1697 Q419 1617 272 1617 Q109 1617 41 1714 Q-4 1780 -14 1900 Z " />
<glyph glyph-name="ibreve" unicode="&#x12d;" horiz-adv-x="535" d="M182 0 L182 1080 L352 1080 L352 0 L182 0 Z M-19 1530 L81 1530 Q88 1454 122 1421 Q168 1375 267 1375 Q359 1375 401 1410.5 Q443 1446 450 1530 L552 1530 Q539 1393 482 1327 Q415 1247 268 1247 Q103 1247 36 1344 Q-9 1410 -19 1530 Z " />
<glyph glyph-name="Iogonek" unicode="&#x12e;" horiz-adv-x="545" d="M361 0 Q265 -72 225 -126 Q185 -180 185 -236 Q185 -318 277 -318 L380 -318 L380 -438 L279 -438 Q42 -438 42 -264 Q42 -198 86.5 -136 Q131 -74 232 0 L185 0 L185 1475 L361 1475 L361 0 Z " />
<glyph glyph-name="iogonek" unicode="&#x12f;" horiz-adv-x="537" d="M184 0 L184 1080 L354 1080 L354 0 Q258 -72 218 -126 Q178 -180 178 -236 Q178 -318 270 -318 L373 -318 L373 -438 L272 -438 Q35 -438 35 -265 Q35 -196 77 -137.5 Q119 -79 225 0 L184 0 Z M270 1491 Q317 1491 350 1458 Q383 1425 383 1379 Q383 1333 349.5 1300 Q316 1267 268 1267 Q220 1267 186.5 1300 Q153 1333 153 1380 Q153 1427 187 1459 Q221 1491 270 1491 Z " />
<glyph glyph-name="Idot" unicode="&#x130;" horiz-adv-x="545" d="M184 0 L184 1475 L360 1475 L360 0 L184 0 Z M274 1856 Q321 1856 354 1823 Q387 1790 387 1744 Q387 1698 353.5 1665 Q320 1632 272 1632 Q224 1632 190.5 1665 Q157 1698 157 1745 Q157 1792 191 1824 Q225 1856 274 1856 Z " />
<glyph glyph-name="IJ" unicode="&#x132;" horiz-adv-x="1130" d="M184 0 L184 1475 L360 1475 L360 0 L184 0 Z M769 1475 L945 1475 L945 133 Q945 -2 925.5 -76 Q906 -150 857 -202 Q770 -291 583 -297 L583 -150 Q692 -141 728 -91 Q752 -59 760.5 -13.5 Q769 32 769 123 L769 1475 Z " />
<glyph glyph-name="ij" unicode="&#x133;" horiz-adv-x="1092" d="M183 0 L183 1080 L353 1080 L353 0 L183 0 Z M270 1491 Q317 1491 350 1458 Q383 1425 383 1379 Q383 1333 349.5 1300 Q316 1267 268 1267 Q220 1267 186.5 1300 Q153 1333 153 1380 Q153 1427 187 1459 Q221 1491 270 1491 Z M738 1080 L908 1080 L908 23 Q908 -121 889 -199.5 Q870 -278 821 -334 Q738 -429 558 -439 L558 -291 Q619 -285 649.5 -269 Q680 -253 701 -218 Q723 -180 730.5 -131.5 Q738 -83 738 21 L738 1080 Z M825 1491 Q872 1491 905 1458 Q938 1425 938 1379 Q938 1333 904.5 1300 Q871 1267 823 1267 Q775 1267 741.5 1300 Q708 1333 708 1380 Q708 1427 742 1459 Q776 1491 825 1491 Z " />
<glyph glyph-name="Jcircumflex" unicode="&#x134;" horiz-adv-x="586" d="M225 1475 L401 1475 L401 133 Q401 -2 381.5 -76 Q362 -150 313 -202 Q226 -291 39 -297 L39 -150 Q148 -141 184 -91 Q208 -59 216.5 -13.5 Q225 32 225 123 L225 1475 Z M299 1806 L124 1595 L-45 1595 L247 1923 L351 1923 L643 1595 L474 1595 L299 1806 Z " />
<glyph glyph-name="jcircumflex" unicode="&#x135;" horiz-adv-x="554" d="M201 1080 L371 1080 L371 23 Q371 -121 352 -199.5 Q333 -278 284 -334 Q201 -429 21 -439 L21 -291 Q82 -285 112.5 -269 Q143 -253 164 -218 Q186 -180 193.5 -131.5 Q201 -83 201 21 L201 1080 Z M276 1436 L101 1225 L-68 1225 L224 1553 L328 1553 L620 1225 L451 1225 L276 1436 Z " />
<glyph glyph-name="Kcommaaccent" unicode="&#x136;" horiz-adv-x="1192" d="M184 0 L184 1475 L360 1475 L360 786 L974 1475 L1179 1475 L553 781 L1240 0 L1023 0 L360 765 L360 0 L184 0 Z M445 -480 L576 -152 L760 -152 L564 -480 L445 -480 Z " />
<glyph glyph-name="kcommaaccent" unicode="&#x137;" horiz-adv-x="1073" d="M175 0 L175 1516 L345 1516 L345 643 L802 1080 L1003 1080 L527 623 L1089 0 L884 0 L345 609 L345 -1 L175 0 Z M365 -480 L496 -152 L680 -152 L484 -480 L365 -480 Z " />
<glyph glyph-name="kgreenlandic" unicode="&#x138;" horiz-adv-x="1042" d="M160 0 L160 1080 L330 1080 L330 632 L787 1080 L988 1080 L512 611 L1074 0 L869 0 L330 598 L330 -1 L160 0 Z " />
<glyph glyph-name="Lacute" unicode="&#x139;" horiz-adv-x="1082" d="M184 0 L184 1475 L360 1475 L360 148 L1031 148 L1031 0 L184 0 Z M220 1595 L417 1923 L609 1923 L342 1595 L220 1595 Z " />
<glyph glyph-name="lacute" unicode="&#x13a;" horiz-adv-x="520" d="M164 0 L164 1516 L334 1516 L334 0 L164 0 Z M156 1645 L353 1973 L545 1973 L278 1645 L156 1645 Z " />
<glyph glyph-name="Lcommaaccent" unicode="&#x13b;" horiz-adv-x="1082" d="M184 0 L184 1475 L360 1475 L360 148 L1031 148 L1031 0 L184 0 Z M370 -480 L501 -152 L685 -152 L489 -480 L370 -480 Z " />
<glyph glyph-name="lcommaaccent" unicode="&#x13c;" horiz-adv-x="520" d="M175 0 L175 1516 L345 1516 L345 0 L175 0 Z M44 -480 L175 -152 L359 -152 L163 -480 L44 -480 Z " />
<glyph glyph-name="Lcaron" unicode="&#x13d;" horiz-adv-x="1082" d="M184 0 L184 1475 L360 1475 L360 148 L1031 148 L1031 0 L184 0 Z M561 1033 L670 1475 L862 1475 L690 1033 L561 1033 Z " />
<glyph glyph-name="lcaron" unicode="&#x13e;" horiz-adv-x="739" d="M175 0 L175 1516 L345 1516 L345 0 L175 0 Z M479 1103 L591 1545 L780 1545 L608 1103 L479 1103 Z " />
<glyph glyph-name="Ldot" unicode="&#x13f;" horiz-adv-x="1083" d="M169 0 L169 1475 L345 1475 L345 148 L1016 148 L1016 0 L169 0 Z M811 869 Q862 869 899 832.5 Q936 796 936 745 Q936 694 898.5 657.5 Q861 621 809 621 Q755 621 718 657.5 Q681 694 681 746 Q681 798 718.5 833.5 Q756 869 811 869 Z " />
<glyph glyph-name="ldot" unicode="&#x140;" horiz-adv-x="687" d="M160 0 L160 1516 L330 1516 L330 0 L160 0 Z M596 824 Q647 824 684 787.5 Q721 751 721 700 Q721 649 683.5 612.5 Q646 576 594 576 Q540 576 503 612.5 Q466 649 466 701 Q466 753 503.5 788.5 Q541 824 596 824 Z " />
<glyph glyph-name="Lslash" unicode="&#x141;" horiz-adv-x="1107" d="M210 0 L210 562 L20 438 L20 598 L210 722 L210 1475 L386 1475 L386 837 L692 1037 L692 876 L386 677 L386 148 L1057 148 L1057 0 L210 0 Z " />
<glyph glyph-name="lslash" unicode="&#x142;" horiz-adv-x="587" d="M208 0 L208 687 L-11 532 L-11 675 L208 830 L208 1516 L378 1516 L378 948 L597 1103 L597 960 L378 805 L378 0 L208 0 Z " />
<glyph glyph-name="Nacute" unicode="&#x143;" horiz-adv-x="1433" d="M184 0 L184 1475 L354 1475 L1075 374 L1075 1475 L1248 1475 L1248 -19 L1130 -19 L357 1175 L357 0 L184 0 Z M634 1595 L831 1923 L1023 1923 L756 1595 L634 1595 Z " />
<glyph glyph-name="nacute" unicode="&#x144;" horiz-adv-x="1242" d="M175 0 L175 1080 L345 1080 L345 898 Q465 1018 556 1065.5 Q647 1113 754 1113 Q948 1113 1022 969 Q1052 910 1063.5 836.5 Q1075 763 1075 627 L1075 0 L905 0 L905 636 Q905 780 882 846 Q844 956 711 956 Q623 956 537 901 Q451 846 345 721 L345 0 L175 0 Z M512 1225 L709 1553 L901 1553 L634 1225 L512 1225 Z " />
<glyph glyph-name="Ncommaaccent" unicode="&#x145;" horiz-adv-x="1433" d="M184 0 L184 1475 L354 1475 L1075 374 L1075 1475 L1248 1475 L1248 -19 L1130 -19 L357 1175 L357 0 L184 0 Z M522 -480 L653 -152 L837 -152 L641 -480 L522 -480 Z " />
<glyph glyph-name="ncommaaccent" unicode="&#x146;" horiz-adv-x="1242" d="M175 0 L175 1080 L345 1080 L345 898 Q465 1018 556 1065.5 Q647 1113 754 1113 Q948 1113 1022 969 Q1052 910 1063.5 836.5 Q1075 763 1075 627 L1075 0 L905 0 L905 636 Q905 780 882 846 Q844 956 711 956 Q623 956 537 901 Q451 846 345 721 L345 0 L175 0 Z M429 -480 L560 -152 L744 -152 L548 -480 L429 -480 Z " />
<glyph glyph-name="Ncaron" unicode="&#x147;" horiz-adv-x="1433" d="M184 0 L184 1475 L354 1475 L1075 374 L1075 1475 L1248 1475 L1248 -19 L1130 -19 L357 1175 L357 0 L184 0 Z M745 1711 L920 1923 L1089 1923 L797 1595 L693 1595 L401 1923 L570 1923 L745 1711 Z " />
<glyph glyph-name="ncaron" unicode="&#x148;" horiz-adv-x="1242" d="M175 0 L175 1080 L345 1080 L345 898 Q465 1018 556 1065.5 Q647 1113 754 1113 Q948 1113 1022 969 Q1052 910 1063.5 836.5 Q1075 763 1075 627 L1075 0 L905 0 L905 636 Q905 780 882 846 Q844 956 711 956 Q623 956 537 901 Q451 846 345 721 L345 0 L175 0 Z M617 1341 L792 1553 L961 1553 L669 1225 L565 1225 L273 1553 L442 1553 L617 1341 Z " />
<glyph glyph-name="napostrophe" unicode="&#x149;" horiz-adv-x="1266" d="M214 0 L214 1080 L384 1080 L384 898 Q481 992 537 1029 Q659 1112 793 1112 Q987 1112 1061 968 Q1091 910 1102.5 837 Q1114 764 1114 627 L1114 0 L944 0 L944 636 Q944 779 921 845 Q883 955 750 955 Q662 955 578 901.5 Q494 848 384 721 L384 0 L214 0 Z M-45 1098 L68 1579 L253 1579 L82 1098 L-45 1098 Z " />
<glyph glyph-name="Eng" unicode="&#x14a;" horiz-adv-x="1443" d="M169 0 L169 1475 L340 1475 L1099 371 L1099 1475 L1273 1475 L1273 -6 Q1273 -135 1254 -206.5 Q1235 -278 1186 -328 Q1105 -413 923 -422 L923 -274 Q1025 -267 1065 -213 Q1103 -159 1103 -9 L1103 63 L343 1180 L343 0 L169 0 Z " />
<glyph glyph-name="eng" unicode="&#x14b;" horiz-adv-x="1211" d="M160 0 L160 1080 L330 1080 L330 898 Q427 992 483 1030 Q606 1113 739 1113 Q933 1113 1007 969 Q1037 910 1048.5 836.5 Q1060 763 1060 627 L1060 11 Q1060 -132 1041 -211 Q1022 -290 973 -345 Q890 -441 710 -450 L710 -303 Q771 -297 801.5 -281 Q832 -265 853 -230 Q875 -191 882.5 -143 Q890 -95 890 10 L890 636 Q890 779 867 846 Q829 956 696 956 Q608 956 524 902 Q440 848 330 721 L330 0 L160 0 Z " />
<glyph glyph-name="Omacron" unicode="&#x14c;" horiz-adv-x="1543" d="M782 1504 Q1130 1504 1295 1262 Q1432 1061 1432 737 Q1432 415 1295 213 Q1131 -29 771 -29 Q411 -29 247 213 Q110 415 110 734 Q110 1064 247 1262 Q345 1404 495 1459 Q617 1504 782 1504 Z M763 1349 Q518 1349 402 1183 Q290 1023 290 737 Q290 126 771 126 Q1252 126 1252 734 Q1252 1026 1140 1183 Q1079 1269 988 1309 Q897 1349 763 1349 Z M507 1685 L507 1822 L1035 1822 L1035 1685 L507 1685 Z " />
<glyph glyph-name="omacron" unicode="&#x14d;" horiz-adv-x="1240" d="M627 1112 Q856 1112 1001 948 Q1139 791 1139 540 Q1139 290 1001 132 Q857 -32 620 -32 Q382 -32 238 132 Q100 290 100 538 Q100 790 238 948 Q381 1112 627 1112 Z M614 965 Q447 965 352 831 Q273 720 273 540 Q273 360 352 249 Q446 115 619 115 Q793 115 887 249 Q966 360 966 538 Q966 721 887 831 Q792 965 614 965 Z M355 1315 L355 1452 L883 1452 L883 1315 L355 1315 Z " />
<glyph glyph-name="Obreve" unicode="&#x14e;" horiz-adv-x="1543" d="M782 1504 Q1130 1504 1295 1262 Q1432 1061 1432 737 Q1432 415 1295 213 Q1131 -29 771 -29 Q411 -29 247 213 Q110 415 110 734 Q110 1064 247 1262 Q345 1404 495 1459 Q617 1504 782 1504 Z M763 1349 Q518 1349 402 1183 Q290 1023 290 737 Q290 126 771 126 Q1252 126 1252 734 Q1252 1026 1140 1183 Q1079 1269 988 1309 Q897 1349 763 1349 Z M485 1900 L585 1900 Q592 1825 626 1791 Q672 1745 771 1745 Q862 1745 904.5 1780.5 Q947 1816 954 1900 L1056 1900 Q1043 1762 986 1697 Q918 1617 771 1617 Q608 1617 540 1714 Q495 1780 485 1900 Z " />
<glyph glyph-name="obreve" unicode="&#x14f;" horiz-adv-x="1240" d="M627 1112 Q856 1112 1001 948 Q1139 791 1139 540 Q1139 290 1001 132 Q857 -32 620 -32 Q382 -32 238 132 Q100 290 100 538 Q100 790 238 948 Q381 1112 627 1112 Z M614 965 Q447 965 352 831 Q273 720 273 540 Q273 360 352 249 Q446 115 619 115 Q793 115 887 249 Q966 360 966 538 Q966 721 887 831 Q792 965 614 965 Z M333 1530 L433 1530 Q440 1454 474 1421 Q520 1375 619 1375 Q711 1375 753 1410.5 Q795 1446 802 1530 L904 1530 Q891 1393 834 1327 Q767 1247 620 1247 Q455 1247 388 1344 Q343 1410 333 1530 Z " />
<glyph glyph-name="Ohungarumlaut" unicode="&#x150;" horiz-adv-x="1543" d="M782 1504 Q1130 1504 1295 1262 Q1432 1061 1432 737 Q1432 415 1295 213 Q1131 -29 771 -29 Q411 -29 247 213 Q110 415 110 734 Q110 1064 247 1262 Q345 1404 495 1459 Q617 1504 782 1504 Z M763 1349 Q518 1349 402 1183 Q290 1023 290 737 Q290 126 771 126 Q1252 126 1252 734 Q1252 1026 1140 1183 Q1079 1269 988 1309 Q897 1349 763 1349 Z M570 1595 L706 1923 L879 1923 L672 1595 L570 1595 Z M840 1595 L987 1923 L1164 1923 L943 1595 L840 1595 Z " />
<glyph glyph-name="ohungarumlaut" unicode="&#x151;" horiz-adv-x="1240" d="M627 1112 Q856 1112 1001 948 Q1139 791 1139 540 Q1139 290 1001 132 Q857 -32 620 -32 Q382 -32 238 132 Q100 290 100 538 Q100 790 238 948 Q381 1112 627 1112 Z M614 965 Q447 965 352 831 Q273 720 273 540 Q273 360 352 249 Q446 115 619 115 Q793 115 887 249 Q966 360 966 538 Q966 721 887 831 Q792 965 614 965 Z M419 1225 L555 1553 L728 1553 L521 1225 L419 1225 Z M689 1225 L836 1553 L1013 1553 L792 1225 L689 1225 Z " />
<glyph glyph-name="Racute" unicode="&#x154;" horiz-adv-x="1319" d="M173 0 L173 1475 L629 1475 Q773 1475 857.5 1460 Q942 1445 1006 1408 Q1092 1359 1139 1265 Q1186 1171 1186 1049 Q1186 854 1063 746 Q1019 707 918 663 Q973 633 1006 583.5 Q1039 534 1073 434 L1218 0 L1024 0 L912 344 Q887 423 880.5 438.5 Q874 454 853 488 Q807 561 752 585 Q697 609 575 609 L349 609 L349 0 L173 0 Z M349 754 L616 754 Q810 754 893 809 Q1006 883 1006 1041 Q1006 1196 900 1271 Q820 1327 628 1327 L349 1327 L349 754 Z M505 1595 L702 1923 L894 1923 L627 1595 L505 1595 Z " />
<glyph glyph-name="racute" unicode="&#x155;" horiz-adv-x="798" d="M175 0 L175 1080 L340 1080 L340 894 Q426 1004 489 1041 Q578 1094 699 1094 L742 1094 L742 930 L704 930 Q621 930 570.5 913 Q520 896 471 852 Q420 806 345 687 L345 0 L175 0 Z M354 1225 L551 1553 L743 1553 L476 1225 L354 1225 Z " />
<glyph glyph-name="Rcommaaccent" unicode="&#x156;" horiz-adv-x="1319" d="M173 0 L173 1475 L629 1475 Q773 1475 857.5 1460 Q942 1445 1006 1408 Q1092 1359 1139 1265 Q1186 1171 1186 1049 Q1186 854 1063 746 Q1019 707 918 663 Q973 633 1006 583.5 Q1039 534 1073 434 L1218 0 L1024 0 L912 344 Q887 423 880.5 438.5 Q874 454 853 488 Q807 561 752 585 Q697 609 575 609 L349 609 L349 0 L173 0 Z M349 754 L616 754 Q810 754 893 809 Q1006 883 1006 1041 Q1006 1196 900 1271 Q820 1327 628 1327 L349 1327 L349 754 Z M452 -480 L583 -152 L767 -152 L571 -480 L452 -480 Z " />
<glyph glyph-name="rcommaaccent" unicode="&#x157;" horiz-adv-x="798" d="M175 0 L175 1080 L340 1080 L340 894 Q426 1004 489 1041 Q578 1094 699 1094 L742 1094 L742 930 L704 930 Q621 930 570.5 913 Q520 896 471 852 Q420 806 345 687 L345 0 L175 0 Z M44 -480 L175 -152 L359 -152 L163 -480 L44 -480 Z " />
<glyph glyph-name="Rcaron" unicode="&#x158;" horiz-adv-x="1319" d="M173 0 L173 1475 L629 1475 Q773 1475 857.5 1460 Q942 1445 1006 1408 Q1092 1359 1139 1265 Q1186 1171 1186 1049 Q1186 854 1063 746 Q1019 707 918 663 Q973 633 1006 583.5 Q1039 534 1073 434 L1218 0 L1024 0 L912 344 Q887 423 880.5 438.5 Q874 454 853 488 Q807 561 752 585 Q697 609 575 609 L349 609 L349 0 L173 0 Z M349 754 L616 754 Q810 754 893 809 Q1006 883 1006 1041 Q1006 1196 900 1271 Q820 1327 628 1327 L349 1327 L349 754 Z M620 1711 L795 1923 L964 1923 L672 1595 L568 1595 L276 1923 L445 1923 L620 1711 Z " />
<glyph glyph-name="rcaron" unicode="&#x159;" horiz-adv-x="799" d="M175 0 L175 1080 L340 1080 L340 894 Q426 1004 489 1041 Q578 1094 699 1094 L742 1094 L742 930 L704 930 Q621 930 570.5 913 Q520 896 471 852 Q420 806 345 687 L345 0 L175 0 Z M441 1341 L616 1553 L785 1553 L493 1225 L389 1225 L97 1553 L266 1553 L441 1341 Z " />
<glyph glyph-name="Sacute" unicode="&#x15a;" horiz-adv-x="1258" d="M97 429 L268 429 Q274 291 340 221 Q433 123 632 123 Q813 123 905 202 Q992 277 992 398 Q992 520 899 586 Q851 619 793.5 640.5 Q736 662 593 698 Q452 734 383.5 760 Q315 786 260 825 Q137 912 137 1096 Q137 1266 240 1375 Q362 1504 601 1504 Q1075 1504 1078 1052 L907 1052 Q902 1188 849 1255 Q771 1352 604 1352 Q461 1352 384 1282 Q311 1215 311 1114 Q311 997 406 941 Q448 916 499 899 Q550 882 672 852 Q830 813 908 781 Q986 749 1046 698 Q1168 595 1168 412 Q1168 215 1042 99 Q903 -29 635 -29 Q309 -29 178 144 Q100 246 97 429 Z M497 1595 L694 1923 L886 1923 L619 1595 L497 1595 Z " />
<glyph glyph-name="sacute" unicode="&#x15b;" horiz-adv-x="1042" d="M73 332 L231 332 Q242 234 282 189 Q357 108 525 108 Q793 108 793 295 Q793 387 727 427 Q697 446 667 453.5 Q637 461 498 487 Q322 519 243 567 Q126 638 126 792 Q126 946 236 1035 Q333 1112 497 1112 Q616 1112 705.5 1073 Q795 1034 839 962 Q885 888 886 782 L728 782 Q718 867 687 903 Q627 972 492 972 Q397 972 345 929 Q293 886 293 808 Q293 730 341.5 698 Q390 666 552 636 Q668 614 725 596.5 Q782 579 831 550 Q956 476 956 305 Q956 145 845 57 Q731 -32 526 -32 Q80 -32 73 332 Z M384 1225 L581 1553 L773 1553 L506 1225 L384 1225 Z " />
<glyph glyph-name="Scircumflex" unicode="&#x15c;" horiz-adv-x="1258" d="M97 429 L268 429 Q274 291 340 221 Q433 123 632 123 Q813 123 905 202 Q992 277 992 398 Q992 520 899 586 Q851 619 793.5 640.5 Q736 662 593 698 Q452 734 383.5 760 Q315 786 260 825 Q137 912 137 1096 Q137 1266 240 1375 Q362 1504 601 1504 Q1075 1504 1078 1052 L907 1052 Q902 1188 849 1255 Q771 1352 604 1352 Q461 1352 384 1282 Q311 1215 311 1114 Q311 997 406 941 Q448 916 499 899 Q550 882 672 852 Q830 813 908 781 Q986 749 1046 698 Q1168 595 1168 412 Q1168 215 1042 99 Q903 -29 635 -29 Q309 -29 178 144 Q100 246 97 429 Z M628 1806 L453 1595 L284 1595 L576 1923 L680 1923 L972 1595 L803 1595 L628 1806 Z " />
<glyph glyph-name="scircumflex" unicode="&#x15d;" horiz-adv-x="1042" d="M73 332 L231 332 Q242 234 282 189 Q357 108 525 108 Q793 108 793 295 Q793 387 727 427 Q697 446 667 453.5 Q637 461 498 487 Q322 519 243 567 Q126 638 126 792 Q126 946 236 1035 Q333 1112 497 1112 Q616 1112 705.5 1073 Q795 1034 839 962 Q885 888 886 782 L728 782 Q718 867 687 903 Q627 972 492 972 Q397 972 345 929 Q293 886 293 808 Q293 730 341.5 698 Q390 666 552 636 Q668 614 725 596.5 Q782 579 831 550 Q956 476 956 305 Q956 145 845 57 Q731 -32 526 -32 Q80 -32 73 332 Z M497 1436 L322 1225 L153 1225 L445 1553 L549 1553 L841 1225 L672 1225 L497 1436 Z " />
<glyph glyph-name="Scedilla" unicode="&#x15e;" horiz-adv-x="1258" d="M691 -27 L654 -94 Q738 -101 775 -118 Q872 -162 872 -276 Q872 -372 806.5 -424.5 Q741 -477 620 -477 Q488 -477 369 -437 L407 -318 Q520 -357 614 -357 Q729 -357 729 -277 Q729 -200 604 -200 Q578 -200 531 -204 L514 -112 L563 -25 Q330 -10 215.5 102 Q101 214 97 429 L268 429 Q274 291 340 221 Q433 123 632 123 Q813 123 905 202 Q992 277 992 398 Q992 520 899 586 Q851 619 793.5 640.5 Q736 662 593 698 Q452 734 383.5 760 Q315 786 260 825 Q137 912 137 1096 Q137 1266 240 1375 Q362 1504 601 1504 Q1075 1504 1078 1052 L907 1052 Q902 1188 849 1255 Q771 1352 604 1352 Q461 1352 384 1282 Q311 1215 311 1114 Q311 997 406 941 Q448 916 499 899 Q550 882 672 852 Q830 813 908 781 Q986 749 1046 698 Q1168 595 1168 412 Q1168 264 1090 153 Q976 -7 691 -27 Z " />
<glyph glyph-name="scedilla" unicode="&#x15f;" horiz-adv-x="1042" d="M583 -30 L548 -94 Q632 -101 669 -118 Q766 -162 766 -276 Q766 -372 700 -424.5 Q634 -477 514 -477 Q381 -477 263 -437 L300 -318 Q416 -357 508 -357 Q623 -357 623 -277 Q623 -200 497 -200 Q470 -200 425 -204 L408 -112 L455 -29 Q76 2 73 332 L231 332 Q242 234 282 189 Q357 108 525 108 Q793 108 793 295 Q793 387 727 427 Q697 446 667 453.5 Q637 461 498 487 Q322 519 243 567 Q126 638 126 792 Q126 946 236 1035 Q333 1112 497 1112 Q616 1112 705.5 1073 Q795 1034 839 962 Q885 888 886 782 L728 782 Q718 867 687 903 Q627 972 492 972 Q397 972 345 929 Q293 886 293 808 Q293 730 341.5 698 Q390 666 552 636 Q668 614 725 596.5 Q782 579 831 550 Q956 476 956 303 Q956 155 861 70 Q766 -15 583 -30 Z " />
<glyph glyph-name="Scaron" unicode="&#x160;" horiz-adv-x="1258" d="M97 429 L268 429 Q274 291 340 221 Q433 123 632 123 Q813 123 905 202 Q992 277 992 398 Q992 520 899 586 Q851 619 793.5 640.5 Q736 662 593 698 Q452 734 383.5 760 Q315 786 260 825 Q137 912 137 1096 Q137 1266 240 1375 Q362 1504 601 1504 Q1075 1504 1078 1052 L907 1052 Q902 1188 849 1255 Q771 1352 604 1352 Q461 1352 384 1282 Q311 1215 311 1114 Q311 997 406 941 Q448 916 499 899 Q550 882 672 852 Q830 813 908 781 Q986 749 1046 698 Q1168 595 1168 412 Q1168 215 1042 99 Q903 -29 635 -29 Q309 -29 178 144 Q100 246 97 429 Z M599 1711 L774 1923 L943 1923 L651 1595 L547 1595 L255 1923 L424 1923 L599 1711 Z " />
<glyph glyph-name="scaron" unicode="&#x161;" horiz-adv-x="1042" d="M73 332 L231 332 Q242 234 282 189 Q357 108 525 108 Q793 108 793 295 Q793 387 727 427 Q697 446 667 453.5 Q637 461 498 487 Q322 519 243 567 Q126 638 126 792 Q126 946 236 1035 Q333 1112 497 1112 Q616 1112 705.5 1073 Q795 1034 839 962 Q885 888 886 782 L728 782 Q718 867 687 903 Q627 972 492 972 Q397 972 345 929 Q293 886 293 808 Q293 730 341.5 698 Q390 666 552 636 Q668 614 725 596.5 Q782 579 831 550 Q956 476 956 305 Q956 145 845 57 Q731 -32 526 -32 Q80 -32 73 332 Z M508 1341 L683 1553 L852 1553 L560 1225 L456 1225 L164 1553 L333 1553 L508 1341 Z " />
<glyph glyph-name="Tcommaaccent" unicode="&#x162;" horiz-adv-x="1110" d="M466 0 L466 1327 L45 1327 L45 1475 L1064 1475 L1064 1327 L642 1327 L642 0 L466 0 Z M335 -480 L466 -152 L650 -152 L454 -480 L335 -480 Z " />
<glyph glyph-name="tcommaaccent" unicode="&#x163;" horiz-adv-x="758" d="M237 933 L76 933 L76 1080 L239 1080 L253 1400 L407 1400 L407 1080 L696 1080 L696 933 L407 933 L407 342 Q407 234 439 190.5 Q471 147 550 147 L723 147 L723 0 L543 0 Q237 0 237 315 L237 933 Z M199 -480 L330 -152 L514 -152 L318 -480 L199 -480 Z " />
<glyph glyph-name="Tcaron" unicode="&#x164;" horiz-adv-x="1110" d="M466 0 L466 1327 L45 1327 L45 1475 L1064 1475 L1064 1327 L642 1327 L642 0 L466 0 Z M556 1711 L731 1923 L900 1923 L608 1595 L504 1595 L212 1923 L381 1923 L556 1711 Z " />
<glyph glyph-name="tcaron" unicode="&#x165;" horiz-adv-x="874" d="M237 933 L76 933 L76 1080 L239 1080 L253 1400 L407 1400 L407 1080 L696 1080 L696 933 L407 933 L407 342 Q407 234 439 190.5 Q471 147 550 147 L723 147 L723 0 L543 0 Q237 0 237 315 L237 933 Z M620 1192 L732 1634 L921 1634 L749 1192 L620 1192 Z " />
<glyph glyph-name="Tbar" unicode="&#x166;" horiz-adv-x="1120" d="M472 0 L472 712 L175 712 L175 846 L472 846 L472 1327 L30 1327 L30 1475 L1089 1475 L1089 1327 L648 1327 L648 846 L945 846 L945 712 L648 712 L648 0 L472 0 Z " />
<glyph glyph-name="tbar" unicode="&#x167;" horiz-adv-x="733" d="M222 933 L61 933 L61 1080 L224 1080 L238 1400 L392 1400 L392 1080 L681 1080 L681 933 L392 933 L392 716 L681 716 L681 604 L392 604 L392 342 Q392 234 424 190.5 Q456 147 535 147 L708 147 L708 0 L528 0 Q222 0 222 315 L222 604 L61 604 L61 716 L222 716 L222 933 Z " />
<glyph glyph-name="Utilde" unicode="&#x168;" horiz-adv-x="1397" d="M175 1475 L351 1475 L351 554 Q351 356 404 264 Q483 126 698 126 Q914 126 992 264 Q1045 357 1045 554 L1045 1475 L1221 1475 L1221 612 Q1221 426 1204 330.5 Q1187 235 1141 163 Q1016 -29 698 -29 Q380 -29 255 163 Q209 235 192 330.5 Q175 426 175 612 L175 1475 Z M499 1654 L393 1654 Q437 1856 584 1856 Q638 1856 717 1811 Q789 1771 811 1771 Q861 1771 896 1855 L1002 1855 Q977 1762 943 1717 Q893 1648 803 1648 Q744 1648 638 1710 Q599 1733 577 1733 Q529 1733 499 1654 Z " />
<glyph glyph-name="utilde" unicode="&#x169;" horiz-adv-x="1198" d="M168 1080 L338 1080 L338 444 Q338 305 356 244 Q387 138 507 138 Q590 138 668.5 188.5 Q747 239 853 359 L853 1080 L1023 1080 L1023 0 L853 0 L853 181 Q752 88 707 58 Q590 -19 465 -19 Q285 -19 216 121 Q188 179 178 248.5 Q168 318 168 453 L168 1080 Z M400 1284 L294 1284 Q338 1486 484 1486 Q540 1486 618 1442 Q690 1401 712 1401 Q760 1401 797 1485 L903 1485 Q877 1391 844 1347 Q793 1278 705 1278 Q645 1278 539 1340 Q500 1363 478 1363 Q430 1363 400 1284 Z " />
<glyph glyph-name="Umacron" unicode="&#x16a;" horiz-adv-x="1397" d="M175 1475 L351 1475 L351 554 Q351 356 404 264 Q483 126 698 126 Q914 126 992 264 Q1045 357 1045 554 L1045 1475 L1221 1475 L1221 612 Q1221 426 1204 330.5 Q1187 235 1141 163 Q1016 -29 698 -29 Q380 -29 255 163 Q209 235 192 330.5 Q175 426 175 612 L175 1475 Z M434 1685 L434 1822 L962 1822 L962 1685 L434 1685 Z " />
<glyph glyph-name="umacron" unicode="&#x16b;" horiz-adv-x="1198" d="M168 1080 L338 1080 L338 444 Q338 305 356 244 Q387 138 507 138 Q590 138 668.5 188.5 Q747 239 853 359 L853 1080 L1023 1080 L1023 0 L853 0 L853 181 Q752 88 707 58 Q590 -19 465 -19 Q285 -19 216 121 Q188 179 178 248.5 Q168 318 168 453 L168 1080 Z M335 1315 L335 1452 L863 1452 L863 1315 L335 1315 Z " />
<glyph glyph-name="Ubreve" unicode="&#x16c;" horiz-adv-x="1397" d="M175 1475 L351 1475 L351 554 Q351 356 404 264 Q483 126 698 126 Q914 126 992 264 Q1045 357 1045 554 L1045 1475 L1221 1475 L1221 612 Q1221 426 1204 330.5 Q1187 235 1141 163 Q1016 -29 698 -29 Q380 -29 255 163 Q209 235 192 330.5 Q175 426 175 612 L175 1475 Z M412 1900 L512 1900 Q519 1825 553 1791 Q599 1745 698 1745 Q789 1745 831.5 1780.5 Q874 1816 881 1900 L983 1900 Q970 1762 913 1697 Q845 1617 698 1617 Q535 1617 467 1714 Q422 1780 412 1900 Z " />
<glyph glyph-name="ubreve" unicode="&#x16d;" horiz-adv-x="1198" d="M168 1080 L338 1080 L338 444 Q338 305 356 244 Q387 138 507 138 Q590 138 668.5 188.5 Q747 239 853 359 L853 1080 L1023 1080 L1023 0 L853 0 L853 181 Q752 88 707 58 Q590 -19 465 -19 Q285 -19 216 121 Q188 179 178 248.5 Q168 318 168 453 L168 1080 Z M313 1530 L413 1530 Q420 1454 454 1421 Q500 1375 599 1375 Q691 1375 733 1410.5 Q775 1446 782 1530 L884 1530 Q871 1393 814 1327 Q747 1247 600 1247 Q435 1247 368 1344 Q323 1410 313 1530 Z " />
<glyph glyph-name="Uring" unicode="&#x16e;" horiz-adv-x="1397" d="M175 1475 L351 1475 L351 554 Q351 356 404 264 Q483 126 698 126 Q914 126 992 264 Q1045 357 1045 554 L1045 1475 L1221 1475 L1221 612 Q1221 426 1204 330.5 Q1187 235 1141 163 Q1016 -29 698 -29 Q380 -29 255 163 Q209 235 192 330.5 Q175 426 175 612 L175 1475 Z M702 2016 Q807 2016 869 1954.5 Q931 1893 931 1788 Q931 1682 869 1621 Q807 1560 699 1560 Q584 1560 522 1629 Q466 1691 466 1787 Q466 1895 528.5 1955.5 Q591 2016 702 2016 Z M696 1918 Q640 1918 608.5 1884 Q577 1850 577 1788 Q577 1658 699 1658 Q820 1658 820 1788 Q820 1918 696 1918 Z " />
<glyph glyph-name="uring" unicode="&#x16f;" horiz-adv-x="1198" d="M168 1080 L338 1080 L338 444 Q338 305 356 244 Q387 138 507 138 Q590 138 668.5 188.5 Q747 239 853 359 L853 1080 L1023 1080 L1023 0 L853 0 L853 181 Q752 88 707 58 Q590 -19 465 -19 Q285 -19 216 121 Q188 179 178 248.5 Q168 318 168 453 L168 1080 Z M603 1652 Q709 1652 770.5 1590.5 Q832 1529 832 1424 Q832 1319 769.5 1258 Q707 1197 600 1197 Q485 1197 423 1266 Q367 1328 367 1424 Q367 1531 429.5 1591.5 Q492 1652 603 1652 Z M597 1554 Q541 1554 509.5 1520 Q478 1486 478 1425 Q478 1295 600 1295 Q721 1295 721 1424 Q721 1554 597 1554 Z " />
<glyph glyph-name="Uhungarumlaut" unicode="&#x170;" horiz-adv-x="1397" d="M175 1475 L351 1475 L351 554 Q351 356 404 264 Q483 126 698 126 Q914 126 992 264 Q1045 357 1045 554 L1045 1475 L1221 1475 L1221 612 Q1221 426 1204 330.5 Q1187 235 1141 163 Q1016 -29 698 -29 Q380 -29 255 163 Q209 235 192 330.5 Q175 426 175 612 L175 1475 Z M498 1595 L634 1923 L807 1923 L600 1595 L498 1595 Z M768 1595 L915 1923 L1092 1923 L871 1595 L768 1595 Z " />
<glyph glyph-name="uhungarumlaut" unicode="&#x171;" horiz-adv-x="1198" d="M168 1080 L338 1080 L338 444 Q338 305 356 244 Q387 138 507 138 Q590 138 668.5 188.5 Q747 239 853 359 L853 1080 L1023 1080 L1023 0 L853 0 L853 181 Q752 88 707 58 Q590 -19 465 -19 Q285 -19 216 121 Q188 179 178 248.5 Q168 318 168 453 L168 1080 Z M398 1225 L534 1553 L707 1553 L500 1225 L398 1225 Z M668 1225 L815 1553 L992 1553 L771 1225 L668 1225 Z " />
<glyph glyph-name="Uogonek" unicode="&#x172;" horiz-adv-x="1397" d="M175 1475 L351 1475 L351 554 Q351 357 404 264 Q484 126 698 126 Q913 126 992 264 Q1045 356 1045 554 L1045 1475 L1221 1475 L1221 612 Q1221 427 1204 332 Q1187 237 1141 164 Q1054 27 857 -14 Q770 -82 734.5 -132 Q699 -182 699 -236 Q699 -279 721 -298.5 Q743 -318 791 -318 L894 -318 L894 -438 L793 -438 Q556 -438 556 -264 Q556 -145 707 -29 Q540 -23 452 10 Q294 69 234.5 198.5 Q175 328 175 612 L175 1475 Z " />
<glyph glyph-name="uogonek" unicode="&#x173;" horiz-adv-x="1198" d="M1023 0 Q928 -72 887.5 -126.5 Q847 -181 847 -236 Q847 -279 868.5 -298.5 Q890 -318 939 -318 L1042 -318 L1042 -438 L941 -438 Q704 -438 704 -264 Q704 -138 894 0 L853 0 L853 181 Q752 88 707 58 Q590 -19 465 -19 Q285 -19 216 121 Q188 179 178 248.5 Q168 318 168 453 L168 1080 L338 1080 L338 444 Q338 305 356 244 Q387 138 507 138 Q590 138 668.5 188.5 Q747 239 853 359 L853 1080 L1023 1080 L1023 0 Z " />
<glyph glyph-name="Wcircumflex" unicode="&#x174;" horiz-adv-x="1888" d="M448 -32 L80 1475 L259 1475 L529 328 L896 1483 L993 1483 L1359 328 L1629 1475 L1809 1475 L1440 -32 L1312 -32 L944 1131 L577 -32 L448 -32 Z M943 1806 L768 1595 L599 1595 L891 1923 L995 1923 L1287 1595 L1118 1595 L943 1806 Z " />
<glyph glyph-name="wcircumflex" unicode="&#x175;" horiz-adv-x="1582" d="M377 -25 L55 1080 L228 1080 L452 276 L745 1080 L837 1080 L1130 276 L1354 1080 L1527 1080 L1205 -25 L1088 -25 L791 797 L494 -25 L377 -25 Z M790 1436 L615 1225 L446 1225 L738 1553 L842 1553 L1134 1225 L965 1225 L790 1436 Z " />
<glyph glyph-name="Ycircumflex" unicode="&#x176;" horiz-adv-x="1130" d="M477 0 L477 577 L-25 1475 L167 1475 L565 751 L962 1475 L1154 1475 L653 577 L653 0 L477 0 Z M563 1806 L388 1595 L219 1595 L511 1923 L615 1923 L907 1595 L738 1595 L563 1806 Z " />
<glyph glyph-name="ycircumflex" unicode="&#x177;" horiz-adv-x="1016" d="M425 41 L24 1080 L203 1080 L508 246 L812 1080 L992 1080 L541 -86 Q480 -241 450 -290 Q397 -375 330 -406 Q263 -437 125 -439 L125 -291 Q229 -290 268 -264 Q322 -228 365 -115 L425 41 Z M509 1436 L334 1225 L165 1225 L457 1553 L561 1553 L853 1225 L684 1225 L509 1436 Z " />
<glyph glyph-name="Zacute" unicode="&#x179;" horiz-adv-x="1127" d="M43 0 L43 133 L811 1327 L103 1327 L103 1475 L1022 1475 L1022 1362 L244 148 L1060 148 L1060 0 L43 0 Z M454 1595 L651 1923 L843 1923 L576 1595 L454 1595 Z " />
<glyph glyph-name="zacute" unicode="&#x17a;" horiz-adv-x="943" d="M41 0 L41 134 L654 933 L93 933 L93 1080 L862 1080 L862 957 L243 147 L878 147 L878 0 L41 0 Z M388 1225 L585 1553 L777 1553 L510 1225 L388 1225 Z " />
<glyph glyph-name="Zdotaccent" unicode="&#x17b;" horiz-adv-x="1127" d="M43 0 L43 133 L811 1327 L103 1327 L103 1475 L1022 1475 L1022 1362 L244 148 L1060 148 L1060 0 L43 0 Z M577 1856 Q624 1856 657 1823 Q690 1790 690 1744 Q690 1698 656.5 1665 Q623 1632 575 1632 Q527 1632 493.5 1665 Q460 1698 460 1745 Q460 1792 494 1824 Q528 1856 577 1856 Z " />
<glyph glyph-name="zdotaccent" unicode="&#x17c;" horiz-adv-x="943" d="M41 0 L41 134 L654 933 L93 933 L93 1080 L862 1080 L862 957 L243 147 L878 147 L878 0 L41 0 Z M508 1491 Q555 1491 588 1458 Q621 1425 621 1379 Q621 1333 587.5 1300 Q554 1267 506 1267 Q458 1267 424.5 1300 Q391 1333 391 1380 Q391 1427 425 1459 Q459 1491 508 1491 Z " />
<glyph glyph-name="Zcaron" unicode="&#x17d;" horiz-adv-x="1127" d="M43 0 L43 133 L811 1327 L103 1327 L103 1475 L1022 1475 L1022 1362 L244 148 L1060 148 L1060 0 L43 0 Z M578 1711 L753 1923 L922 1923 L630 1595 L526 1595 L234 1923 L403 1923 L578 1711 Z " />
<glyph glyph-name="zcaron" unicode="&#x17e;" horiz-adv-x="943" d="M41 0 L41 134 L654 933 L93 933 L93 1080 L862 1080 L862 957 L243 147 L878 147 L878 0 L41 0 Z M507 1341 L682 1553 L851 1553 L559 1225 L455 1225 L163 1553 L332 1553 L507 1341 Z " />
<glyph glyph-name="uni018F" unicode="&#x18f;" horiz-adv-x="1560" d="M110 842 L1264 842 Q1253 1000 1199 1109 Q1133 1242 1019 1300 Q924 1349 782 1349 Q634 1349 541 1301.5 Q448 1254 377 1142 L228 1228 Q296 1332 367 1385 Q523 1504 784 1504 Q1143 1504 1310 1262 Q1450 1059 1450 737 Q1450 415 1310 212 Q1143 -29 789 -29 Q498 -29 337 116 Q231 211 177 347.5 Q123 484 113 683 Q110 732 110 842 Z M294 699 Q301 563 313 500.5 Q325 438 355 376 Q417 246 521 186 Q625 126 786 126 Q1114 126 1223 421 Q1265 536 1268 699 L294 699 Z " />
<glyph glyph-name="uni01CD" unicode="&#x1cd;" horiz-adv-x="1343" d="M985 414 L359 414 L203 0 L21 0 L601 1475 L743 1475 L1323 0 L1141 0 L985 414 Z M932 558 L672 1249 L411 558 L932 558 Z M673 1711 L848 1923 L1017 1923 L725 1595 L621 1595 L329 1923 L498 1923 L673 1711 Z " />
<glyph glyph-name="uni01CE" unicode="&#x1ce;" horiz-adv-x="1192" d="M872 140 Q826 59 725 13.5 Q624 -32 492 -32 Q110 -32 110 307 Q110 518 246 596 Q349 655 561 655 Q612 655 797 646 L859 643 L859 729 Q859 853 792.5 910 Q726 967 581 967 Q470 967 423 931.5 Q376 896 353 796 L194 796 Q209 892 235 945 Q261 998 311 1037 Q408 1112 598 1112 Q826 1112 926.5 1019 Q1027 926 1027 716 L1027 0 L872 0 L872 140 Z M862 512 Q727 526 595 526 Q391 526 332 468 Q281 418 281 316 Q281 229 317 182 Q370 112 527 112 Q684 112 776 182 Q862 248 862 400 L862 512 Z M604 1341 L779 1553 L948 1553 L656 1225 L552 1225 L260 1553 L429 1553 L604 1341 Z " />
<glyph glyph-name="uni01D3" unicode="&#x1d3;" horiz-adv-x="1397" d="M175 1475 L351 1475 L351 554 Q351 356 404 264 Q483 126 698 126 Q914 126 992 264 Q1045 357 1045 554 L1045 1475 L1221 1475 L1221 612 Q1221 426 1204 330.5 Q1187 235 1141 163 Q1016 -29 698 -29 Q380 -29 255 163 Q209 235 192 330.5 Q175 426 175 612 L175 1475 Z M699 1711 L874 1923 L1043 1923 L751 1595 L647 1595 L355 1923 L524 1923 L699 1711 Z " />
<glyph glyph-name="uni01D4" unicode="&#x1d4;" horiz-adv-x="1198" d="M168 1080 L338 1080 L338 444 Q338 305 356 244 Q387 138 507 138 Q590 138 668.5 188.5 Q747 239 853 359 L853 1080 L1023 1080 L1023 0 L853 0 L853 181 Q752 88 707 58 Q590 -19 465 -19 Q285 -19 216 121 Q188 179 178 248.5 Q168 318 168 453 L168 1080 Z M600 1341 L775 1553 L944 1553 L652 1225 L548 1225 L256 1553 L425 1553 L600 1341 Z " />
<glyph glyph-name="uni01DD" unicode="&#x1dd;" horiz-adv-x="1226" d="M99 623 L946 623 Q926 748 880 818 Q784 965 604 965 Q418 965 231 830 L143 955 Q358 1112 605 1112 Q843 1112 986 948 Q1125 788 1125 540 Q1125 292 986 133 Q843 -32 612 -32 Q381 -32 237 133 Q98 292 98 551 Q98 578 99 623 Z M275 495 Q291 354 329 287 Q426 115 611 115 Q734 115 820 192 Q879 244 908.5 313.5 Q938 383 949 495 L275 495 Z " />
<glyph glyph-name="Gcaron" unicode="&#x1e6;" horiz-adv-x="1511" d="M866 600 L866 742 L1348 742 L1348 59 Q1095 -29 788 -29 Q561 -29 426 48 Q256 144 174 348 Q110 505 110 724 Q110 1090 292 1303 Q464 1503 779 1503 Q1100 1503 1242 1316 Q1322 1210 1324 1046 L1153 1046 Q1147 1166 1081 1239 Q981 1350 779 1350 Q529 1350 406 1170 Q290 1001 290 726 Q290 443 421 278 Q485 198 576 161 Q667 124 801 124 Q989 124 1178 190 L1178 600 L866 600 Z M763 1711 L938 1923 L1107 1923 L815 1595 L711 1595 L419 1923 L588 1923 L763 1711 Z " />
<glyph glyph-name="gcaron" unicode="&#x1e7;" horiz-adv-x="1272" d="M926 158 Q802 -23 577 -23 Q355 -23 225 139 Q100 294 100 540 Q100 787 222 944 Q352 1112 578 1112 Q807 1112 937 920 L937 1080 L1097 1080 L1097 159 Q1097 3 1080.5 -91 Q1064 -185 1023 -259 Q910 -467 601 -467 Q344 -467 148 -329 L230 -200 Q327 -267 412 -295.5 Q497 -324 603 -324 Q802 -324 875 -185 Q904 -130 915 -61.5 Q926 7 926 125 L926 158 Z M590 965 Q448 965 360 847 Q273 730 273 541 Q273 354 360 239 Q447 124 595 124 Q751 124 843 255 Q926 373 926 539 Q926 729 833 847 Q740 965 590 965 Z M631 1341 L806 1553 L975 1553 L683 1225 L579 1225 L287 1553 L456 1553 L631 1341 Z " />
<glyph glyph-name="uni01F4" unicode="&#x1f4;" horiz-adv-x="1511" d="M866 600 L866 742 L1348 742 L1348 59 Q1095 -29 788 -29 Q561 -29 426 48 Q256 144 174 348 Q110 505 110 724 Q110 1090 292 1303 Q464 1503 779 1503 Q1100 1503 1242 1316 Q1322 1210 1324 1046 L1153 1046 Q1147 1166 1081 1239 Q981 1350 779 1350 Q529 1350 406 1170 Q290 1001 290 726 Q290 443 421 278 Q485 198 576 161 Q667 124 801 124 Q989 124 1178 190 L1178 600 L866 600 Z M644 1595 L841 1923 L1033 1923 L766 1595 L644 1595 Z " />
<glyph glyph-name="uni01F5" unicode="&#x1f5;" horiz-adv-x="1272" d="M926 158 Q802 -23 577 -23 Q355 -23 225 139 Q100 294 100 540 Q100 787 222 944 Q352 1112 578 1112 Q807 1112 937 920 L937 1080 L1097 1080 L1097 159 Q1097 3 1080.5 -91 Q1064 -185 1023 -259 Q910 -467 601 -467 Q344 -467 148 -329 L230 -200 Q327 -267 412 -295.5 Q497 -324 603 -324 Q802 -324 875 -185 Q904 -130 915 -61.5 Q926 7 926 125 L926 158 Z M590 965 Q448 965 360 847 Q273 730 273 541 Q273 354 360 239 Q447 124 595 124 Q751 124 843 255 Q926 373 926 539 Q926 729 833 847 Q740 965 590 965 Z M514 1225 L711 1553 L903 1553 L636 1225 L514 1225 Z " />
<glyph glyph-name="Scommaaccent" unicode="&#x218;" horiz-adv-x="1258" d="M97 429 L268 429 Q274 291 340 221 Q433 123 632 123 Q813 123 905 202 Q992 277 992 398 Q992 520 899 586 Q851 619 793.5 640.5 Q736 662 593 698 Q452 734 383.5 760 Q315 786 260 825 Q137 912 137 1096 Q137 1266 240 1375 Q362 1504 601 1504 Q1075 1504 1078 1052 L907 1052 Q902 1188 849 1255 Q771 1352 604 1352 Q461 1352 384 1282 Q311 1215 311 1114 Q311 997 406 941 Q448 916 499 899 Q550 882 672 852 Q830 813 908 781 Q986 749 1046 698 Q1168 595 1168 412 Q1168 215 1042 99 Q903 -29 635 -29 Q309 -29 178 144 Q100 246 97 429 Z M429 -480 L560 -152 L744 -152 L548 -480 L429 -480 Z " />
<glyph glyph-name="scommaaccent" unicode="&#x219;" horiz-adv-x="1042" d="M73 332 L231 332 Q242 234 282 189 Q357 108 525 108 Q793 108 793 295 Q793 387 727 427 Q697 446 667 453.5 Q637 461 498 487 Q322 519 243 567 Q126 638 126 792 Q126 946 236 1035 Q333 1112 497 1112 Q616 1112 705.5 1073 Q795 1034 839 962 Q885 888 886 782 L728 782 Q718 867 687 903 Q627 972 492 972 Q397 972 345 929 Q293 886 293 808 Q293 730 341.5 698 Q390 666 552 636 Q668 614 725 596.5 Q782 579 831 550 Q956 476 956 305 Q956 145 845 57 Q731 -32 526 -32 Q80 -32 73 332 Z M316 -480 L447 -152 L631 -152 L435 -480 L316 -480 Z " />
<glyph glyph-name="uni021A" unicode="&#x21a;" horiz-adv-x="1110" d="M466 0 L466 1327 L45 1327 L45 1475 L1064 1475 L1064 1327 L642 1327 L642 0 L466 0 Z M335 -480 L466 -152 L650 -152 L454 -480 L335 -480 Z " />
<glyph glyph-name="uni021B" unicode="&#x21b;" horiz-adv-x="758" d="M237 933 L76 933 L76 1080 L239 1080 L253 1400 L407 1400 L407 1080 L696 1080 L696 933 L407 933 L407 342 Q407 234 439 190.5 Q471 147 550 147 L723 147 L723 0 L543 0 Q237 0 237 315 L237 933 Z M199 -480 L330 -152 L514 -152 L318 -480 L199 -480 Z " />
<glyph glyph-name="uni0226" unicode="&#x226;" horiz-adv-x="1343" d="M985 414 L359 414 L203 0 L21 0 L601 1475 L743 1475 L1323 0 L1141 0 L985 414 Z M932 558 L672 1249 L411 558 L932 558 Z M673 1856 Q720 1856 753 1823 Q786 1790 786 1744 Q786 1698 752.5 1665 Q719 1632 671 1632 Q623 1632 589.5 1665 Q556 1698 556 1745 Q556 1792 590 1824 Q624 1856 673 1856 Z " />
<glyph glyph-name="uni0227" unicode="&#x227;" horiz-adv-x="1192" d="M872 140 Q826 59 725 13.5 Q624 -32 492 -32 Q110 -32 110 307 Q110 518 246 596 Q349 655 561 655 Q612 655 797 646 L859 643 L859 729 Q859 853 792.5 910 Q726 967 581 967 Q470 967 423 931.5 Q376 896 353 796 L194 796 Q209 892 235 945 Q261 998 311 1037 Q408 1112 598 1112 Q826 1112 926.5 1019 Q1027 926 1027 716 L1027 0 L872 0 L872 140 Z M862 512 Q727 526 595 526 Q391 526 332 468 Q281 418 281 316 Q281 229 317 182 Q370 112 527 112 Q684 112 776 182 Q862 248 862 400 L862 512 Z M605 1491 Q652 1491 685 1458 Q718 1425 718 1379 Q718 1333 684.5 1300 Q651 1267 603 1267 Q555 1267 521.5 1300 Q488 1333 488 1380 Q488 1427 522 1459 Q556 1491 605 1491 Z " />
<glyph glyph-name="uni0237" unicode="&#x237;" horiz-adv-x="554" d="M201 1080 L371 1080 L371 23 Q371 -121 352 -199.5 Q333 -278 284 -334 Q201 -429 21 -439 L21 -291 Q82 -285 112.5 -269 Q143 -253 164 -218 Q186 -180 193.5 -131.5 Q201 -83 201 21 L201 1080 Z " />
<glyph glyph-name="uni0259" unicode="&#x259;" horiz-adv-x="1226" d="M99 623 L946 623 Q926 748 880 818 Q784 965 604 965 Q418 965 231 830 L143 955 Q358 1112 605 1112 Q843 1112 986 948 Q1125 788 1125 540 Q1125 292 986 133 Q843 -32 612 -32 Q381 -32 237 133 Q98 292 98 551 Q98 578 99 623 Z M275 495 Q291 354 329 287 Q426 115 611 115 Q734 115 820 192 Q879 244 908.5 313.5 Q938 383 949 495 L275 495 Z " />
<glyph glyph-name="uni02C9" unicode="&#x2c9;" horiz-adv-x="1024" d="M248 1315 L248 1452 L776 1452 L776 1315 L248 1315 Z " />
<glyph glyph-name="uni0312" unicode="&#x312;" horiz-adv-x="1024" d="M757 1553 L560 1225 L368 1225 L635 1553 L757 1553 Z " />
<glyph glyph-name="uni0313" unicode="&#x313;" horiz-adv-x="219" d="M-41 1103 L71 1545 L260 1545 L88 1103 L-41 1103 Z " />
<glyph glyph-name="uni031B" unicode="&#x31b;" horiz-adv-x="219" d="M-41 1103 L71 1545 L260 1545 L88 1103 L-41 1103 Z " />
<glyph glyph-name="commaaccent" unicode="&#x326;" horiz-adv-x="1024" d="M332 -480 L463 -152 L647 -152 L451 -480 L332 -480 Z " />
<glyph glyph-name="uni037E" unicode="&#x37e;" horiz-adv-x="645" d="M179 -273 L313 217 L528 217 L327 -273 L179 -273 Z M425 911 Q476 911 513 874.5 Q550 838 550 787 Q550 735 513 699 Q476 663 423 663 Q369 663 332 699.5 Q295 736 295 788 Q295 840 332.5 875.5 Q370 911 425 911 Z " />
<glyph glyph-name="uni0387" unicode="&#x387;" horiz-adv-x="641" d="M325 738 Q376 738 413 701.5 Q450 665 450 614 Q450 563 412.5 526.5 Q375 490 323 490 Q269 490 232 526.5 Q195 563 195 615 Q195 667 232.5 702.5 Q270 738 325 738 Z " />
<glyph glyph-name="uni0400" unicode="&#x400;" horiz-adv-x="1193" d="M184 0 L184 1475 L1095 1475 L1095 1327 L360 1327 L360 840 L973 840 L973 693 L360 693 L360 148 L1111 148 L1111 0 L184 0 Z M660 1595 L393 1923 L585 1923 L782 1595 L660 1595 Z " />
<glyph glyph-name="afii10023" unicode="&#x401;" horiz-adv-x="1193" d="M184 0 L184 1475 L1095 1475 L1095 1327 L360 1327 L360 840 L973 840 L973 693 L360 693 L360 148 L1111 148 L1111 0 L184 0 Z M444 1850 Q489 1850 520.5 1819 Q552 1788 552 1744 Q552 1700 520 1668.5 Q488 1637 442 1637 Q396 1637 364 1668.5 Q332 1700 332 1744 Q332 1789 364.5 1819.5 Q397 1850 444 1850 Z M829 1850 Q874 1850 905.5 1819 Q937 1788 937 1744 Q937 1700 905 1668.5 Q873 1637 827 1637 Q781 1637 749 1668.5 Q717 1700 717 1744 Q717 1789 749.5 1819.5 Q782 1850 829 1850 Z " />
<glyph glyph-name="afii10051" unicode="&#x402;" horiz-adv-x="1576" d="M454 0 L454 1328 L51 1328 L51 1475 L1114 1475 L1114 1328 L630 1328 L630 822 Q751 917 835.5 952 Q920 987 1027 987 Q1225 987 1305 857 Q1335 807 1347 741 Q1359 675 1359 551 L1359 -45 Q1359 -166 1340 -233 Q1321 -300 1275 -345 Q1195 -424 1018 -431 L1018 -284 Q1116 -277 1153 -230 Q1174 -203 1181.5 -165 Q1189 -127 1189 -49 L1189 560 Q1189 683 1166 739 Q1127 831 983 831 Q898 831 820.5 791 Q743 751 630 650 L630 0 L454 0 Z " />
<glyph glyph-name="afii10052" unicode="&#x403;" horiz-adv-x="1101" d="M184 0 L184 1475 L1046 1475 L1046 1328 L360 1328 L360 0 L184 0 Z M539 1595 L736 1923 L928 1923 L661 1595 L539 1595 Z " />
<glyph glyph-name="afii10053" unicode="&#x404;" horiz-adv-x="1376" d="M936 704 L291 704 Q294 501 348 368 Q405 229 503 170 Q587 121 718 121 Q1093 121 1105 429 L1276 429 Q1274 336 1258 277 Q1209 102 1025 25 Q894 -29 717 -29 Q379 -29 233 212 Q110 415 110 736 Q110 1058 237 1262 Q388 1504 730 1504 Q1036 1504 1164 1331 Q1242 1227 1245 1060 L1075 1060 Q1058 1354 734 1354 Q543 1354 441 1251 Q376 1186 341.5 1092 Q307 998 294 847 L936 847 L936 704 Z " />
<glyph glyph-name="afii10054" unicode="&#x405;" horiz-adv-x="1258" d="M97 429 L268 429 Q274 291 340 221 Q433 123 632 123 Q813 123 905 202 Q992 277 992 398 Q992 520 899 586 Q851 619 793.5 640.5 Q736 662 593 698 Q452 734 383.5 760 Q315 786 260 825 Q137 912 137 1096 Q137 1266 240 1375 Q362 1504 601 1504 Q1075 1504 1078 1052 L907 1052 Q902 1188 849 1255 Q771 1352 604 1352 Q461 1352 384 1282 Q311 1215 311 1114 Q311 997 406 941 Q448 916 499 899 Q550 882 672 852 Q830 813 908 781 Q986 749 1046 698 Q1168 595 1168 412 Q1168 215 1042 99 Q903 -29 635 -29 Q309 -29 178 144 Q100 246 97 429 Z " />
<glyph glyph-name="afii10055" unicode="&#x406;" horiz-adv-x="545" d="M184 0 L184 1475 L360 1475 L360 0 L184 0 Z " />
<glyph glyph-name="afii10056" unicode="&#x407;" horiz-adv-x="553" d="M189 0 L189 1475 L365 1475 L365 0 L189 0 Z M84 1850 Q129 1850 161 1819 Q193 1788 193 1744 Q193 1700 160.5 1668.5 Q128 1637 82 1637 Q36 1637 3.5 1668.5 Q-29 1700 -29 1744 Q-29 1789 3.5 1819.5 Q36 1850 84 1850 Z M474 1850 Q519 1850 551 1819 Q583 1788 583 1744 Q583 1700 550.5 1668.5 Q518 1637 472 1637 Q426 1637 393.5 1668.5 Q361 1700 361 1744 Q361 1789 394 1819.5 Q427 1850 474 1850 Z " />
<glyph glyph-name="afii10057" unicode="&#x408;" horiz-adv-x="586" d="M225 1475 L401 1475 L401 133 Q401 -2 381.5 -76 Q362 -150 313 -202 Q226 -291 39 -297 L39 -150 Q148 -141 184 -91 Q208 -59 216.5 -13.5 Q225 32 225 123 L225 1475 Z " />
<glyph glyph-name="afii10058" unicode="&#x409;" horiz-adv-x="2130" d="M1045 0 L1045 1328 L553 1328 Q525 947 499 762.5 Q473 578 422 398 Q346 131 222 49 Q149 0 11 0 L-24 0 L-24 147 L10 147 Q64 147 97.5 165 Q131 183 166 232 Q256 359 311 671.5 Q366 984 384 1475 L1221 1475 L1221 882 L1518 882 Q2044 882 2044 441 Q2044 0 1518 0 L1045 0 Z M1221 147 L1479 147 Q1667 147 1756 208 Q1864 283 1864 443 Q1864 617 1737 690 Q1650 739 1479 739 L1221 739 L1221 147 Z " />
<glyph glyph-name="afii10059" unicode="&#x40a;" horiz-adv-x="2105" d="M184 0 L184 1475 L360 1475 L360 850 L1009 850 L1009 1475 L1181 1475 L1181 851 L1491 851 Q1732 851 1855 768 Q2018 657 2018 425 Q2018 0 1491 0 L1009 0 L1009 702 L360 702 L360 0 L184 0 Z M1181 147 L1453 147 Q1641 147 1730 205 Q1838 275 1838 427 Q1838 593 1711 661 Q1624 708 1453 708 L1181 708 L1181 147 Z " />
<glyph glyph-name="afii10060" unicode="&#x40b;" horiz-adv-x="1589" d="M454 0 L454 1328 L51 1328 L51 1475 L1114 1475 L1114 1328 L630 1328 L630 822 Q751 916 835.5 951.5 Q920 987 1027 987 Q1225 987 1305 857 Q1335 807 1347 741 Q1359 675 1359 551 L1359 0 L1189 0 L1189 560 Q1189 683 1166 739 Q1127 831 983 831 Q899 831 821 791 Q743 751 630 650 L630 0 L454 0 Z " />
<glyph glyph-name="afii10061" unicode="&#x40c;" horiz-adv-x="1276" d="M184 0 L184 1475 L360 1475 L360 847 L617 847 L1043 1475 L1238 1475 L767 790 Q828 752 866.5 701.5 Q905 651 965 531 L1229 0 L1015 0 L816 436 Q742 599 682 651.5 Q622 704 509 704 L360 704 L360 0 L184 0 Z M578 1595 L775 1923 L967 1923 L700 1595 L578 1595 Z " />
<glyph glyph-name="uni040D" unicode="&#x40d;" horiz-adv-x="1429" d="M184 0 L184 1475 L356 1475 L356 306 L1080 1475 L1238 1475 L1238 0 L1066 0 L1066 1165 L342 0 L184 0 Z M714 1595 L447 1923 L639 1923 L836 1595 L714 1595 Z " />
<glyph glyph-name="afii10062" unicode="&#x40e;" horiz-adv-x="1144" d="M503 438 L12 1475 L201 1475 L589 625 L977 1475 L1158 1475 L483 0 L302 0 L503 438 Z M372 1911 Q380 1826 422 1790 Q469 1751 575 1751 Q681 1751 728 1787 Q775 1823 784 1911 L916 1911 Q913 1824 897 1780 Q838 1619 578 1619 Q381 1619 302 1705 Q270 1741 256 1785.5 Q242 1830 239 1911 L372 1911 Z " />
<glyph glyph-name="afii10145" unicode="&#x40f;" horiz-adv-x="1361" d="M184 0 L184 1475 L360 1475 L360 147 L1000 147 L1000 1475 L1176 1475 L1176 0 L773 0 L745 -360 L615 -360 L587 0 L184 0 Z " />
<glyph glyph-name="afii10017" unicode="&#x410;" horiz-adv-x="1343" d="M985 414 L359 414 L203 0 L21 0 L601 1475 L743 1475 L1323 0 L1141 0 L985 414 Z M932 558 L672 1249 L411 558 L932 558 Z " />
<glyph glyph-name="afii10018" unicode="&#x411;" horiz-adv-x="1287" d="M184 0 L184 1475 L1082 1475 L1082 1328 L356 1328 L356 882 L653 882 Q892 882 1016 796 Q1179 681 1179 441 Q1179 0 653 0 L184 0 Z M356 147 L614 147 Q802 147 891 208 Q999 283 999 443 Q999 617 872 690 Q785 739 614 739 L356 739 L356 147 Z " />
<glyph glyph-name="afii10019" unicode="&#x412;" horiz-adv-x="1343" d="M184 0 L184 1475 L672 1475 Q903 1475 1026 1384 Q1153 1290 1153 1108 Q1153 997 1104 924.5 Q1055 852 947 804 Q1067 776 1139 698 Q1235 593 1235 429 Q1235 201 1058 86 Q925 0 666 0 L184 0 Z M356 865 L673 865 Q815 865 892 920 Q977 980 977 1094 Q977 1208 897 1270.5 Q817 1333 670 1333 L356 1333 L356 865 Z M356 142 L630 142 Q837 142 935 203 Q1055 278 1055 432 Q1055 569 960.5 645.5 Q866 722 695 722 L356 722 L356 142 Z " />
<glyph glyph-name="afii10020" unicode="&#x413;" horiz-adv-x="1101" d="M184 0 L184 1475 L1046 1475 L1046 1328 L360 1328 L360 0 L184 0 Z " />
<glyph glyph-name="afii10021" unicode="&#x414;" horiz-adv-x="1407" d="M1190 0 L148 0 L114 -360 L-22 -360 L-24 147 L95 147 Q239 362 309 704 Q342 863 357 1024 Q372 1185 381 1475 L1221 1475 L1221 147 L1360 147 L1360 -360 L1224 -360 L1190 0 Z M1045 147 L1045 1328 L553 1328 Q522 891 481 688 Q419 379 286 147 L1045 147 Z " />
<glyph glyph-name="afii10022" unicode="&#x415;" horiz-adv-x="1193" d="M184 0 L184 1475 L1095 1475 L1095 1327 L360 1327 L360 840 L973 840 L973 693 L360 693 L360 148 L1111 148 L1111 0 L184 0 Z " />
<glyph glyph-name="afii10024" unicode="&#x416;" horiz-adv-x="1875" d="M850 0 L850 704 L761 704 Q631 704 565 628 Q517 573 455 436 L256 0 L41 0 L306 531 Q366 651 404.5 701.5 Q443 752 504 790 L33 1475 L228 1475 L654 847 L850 847 L850 1475 L1020 1475 L1020 847 L1216 847 L1642 1475 L1837 1475 L1366 790 Q1426 753 1465.5 701.5 Q1505 650 1564 531 L1829 0 L1614 0 L1415 436 Q1341 600 1281 652 Q1221 704 1109 704 L1020 704 L1020 0 L850 0 Z " />
<glyph glyph-name="afii10025" unicode="&#x417;" horiz-adv-x="1309" d="M422 707 L422 850 L613 850 Q781 850 861 907 Q967 980 967 1111 Q967 1227 888 1288 Q804 1354 640 1354 Q317 1354 301 1060 L130 1060 Q140 1504 653 1504 Q888 1504 1017 1411 Q1146 1317 1146 1126 Q1146 1012 1103 935 Q1060 858 967 803 Q1202 727 1202 439 Q1202 -29 660 -29 Q313 -29 182 143 Q104 244 100 429 L271 429 Q277 289 344 220 Q440 121 644 121 Q1022 121 1022 422 Q1022 571 935 639 Q848 707 658 707 L422 707 Z " />
<glyph glyph-name="afii10026" unicode="&#x418;" horiz-adv-x="1429" d="M184 0 L184 1475 L356 1475 L356 306 L1080 1475 L1238 1475 L1238 0 L1066 0 L1066 1165 L342 0 L184 0 Z " />
<glyph glyph-name="afii10027" unicode="&#x419;" horiz-adv-x="1429" d="M184 0 L184 1475 L356 1475 L356 306 L1080 1475 L1238 1475 L1238 0 L1066 0 L1066 1165 L342 0 L184 0 Z M525 1911 Q533 1826 575 1790 Q622 1751 728 1751 Q834 1751 881 1787 Q928 1823 937 1911 L1069 1911 Q1066 1824 1050 1780 Q991 1619 731 1619 Q534 1619 455 1705 Q423 1741 409 1785.5 Q395 1830 392 1911 L525 1911 Z " />
<glyph glyph-name="afii10028" unicode="&#x41a;" horiz-adv-x="1276" d="M184 0 L184 1475 L360 1475 L360 847 L617 847 L1043 1475 L1238 1475 L767 790 Q828 752 866.5 701.5 Q905 651 965 531 L1229 0 L1015 0 L816 436 Q742 599 682 651.5 Q622 704 509 704 L360 704 L360 0 L184 0 Z " />
<glyph glyph-name="afii10029" unicode="&#x41b;" horiz-adv-x="1413" d="M1045 0 L1045 1328 L553 1328 Q525 947 499 762.5 Q473 578 422 399 Q346 131 222 49 Q149 0 11 0 L-24 0 L-24 148 L10 148 Q64 148 97.5 166 Q131 184 166 232 Q256 359 311 671.5 Q366 984 384 1475 L1221 1475 L1221 0 L1045 0 Z " />
<glyph glyph-name="afii10030" unicode="&#x41c;" horiz-adv-x="1713" d="M120 0 L239 1475 L410 1475 L857 300 L1304 1475 L1475 1475 L1594 0 L1426 0 L1336 1133 L906 0 L808 0 L378 1133 L288 0 L120 0 Z " />
<glyph glyph-name="afii10031" unicode="&#x41d;" horiz-adv-x="1433" d="M184 0 L184 1475 L360 1475 L360 850 L1072 850 L1072 1475 L1248 1475 L1248 0 L1072 0 L1072 703 L360 703 L360 0 L184 0 Z " />
<glyph glyph-name="afii10032" unicode="&#x41e;" horiz-adv-x="1543" d="M782 1504 Q1130 1504 1295 1262 Q1432 1061 1432 737 Q1432 415 1295 213 Q1131 -29 771 -29 Q411 -29 247 213 Q110 415 110 734 Q110 1064 247 1262 Q345 1404 495 1459 Q617 1504 782 1504 Z M763 1349 Q518 1349 402 1183 Q290 1023 290 737 Q290 126 771 126 Q1252 126 1252 734 Q1252 1026 1140 1183 Q1079 1269 988 1309 Q897 1349 763 1349 Z " />
<glyph glyph-name="afii10033" unicode="&#x41f;" horiz-adv-x="1420" d="M184 0 L184 1475 L1235 1475 L1235 0 L1059 0 L1059 1328 L360 1328 L360 0 L184 0 Z " />
<glyph glyph-name="afii10034" unicode="&#x420;" horiz-adv-x="1269" d="M184 0 L184 1475 L591 1475 Q747 1475 840 1457.5 Q933 1440 1004 1397 Q1095 1343 1143.5 1246 Q1192 1149 1192 1022 Q1192 791 1046 682 Q900 573 592 573 L360 573 L360 0 L184 0 Z M360 718 L601 718 Q802 718 896 783 Q1012 863 1012 1025 Q1012 1180 904 1259 Q811 1327 606 1327 L360 1327 L360 718 Z " />
<glyph glyph-name="afii10035" unicode="&#x421;" horiz-adv-x="1402" d="M1188 342 L1302 227 Q1214 111 1111 53 Q964 -29 759 -29 Q423 -29 259 193 Q110 393 110 728 Q110 1092 284 1303 Q448 1503 753 1503 Q999 1503 1136 1383.5 Q1273 1264 1278 1046 L1107 1046 Q1101 1164 1037 1239 Q942 1350 754 1350 Q517 1350 399 1170 Q290 1002 290 728 Q290 447 416 281 Q533 126 765 126 Q932 126 1056 210 Q1107 245 1188 342 Z " />
<glyph glyph-name="afii10036" unicode="&#x422;" horiz-adv-x="1110" d="M466 0 L466 1327 L45 1327 L45 1475 L1064 1475 L1064 1327 L642 1327 L642 0 L466 0 Z " />
<glyph glyph-name="afii10037" unicode="&#x423;" horiz-adv-x="1144" d="M503 438 L12 1475 L201 1475 L589 625 L977 1475 L1158 1475 L483 0 L302 0 L503 438 Z " />
<glyph glyph-name="afii10038" unicode="&#x424;" horiz-adv-x="1859" d="M836 -41 L836 149 Q583 164 420 246 Q114 400 114 738 Q114 952 244 1099 Q388 1262 668 1308 Q741 1320 836 1326 L836 1516 L1001 1516 L1001 1326 Q1276 1311 1439 1229 Q1745 1075 1745 738 Q1745 525 1615 377 Q1521 272 1374.5 217.5 Q1228 163 1001 149 L1001 -41 L836 -41 Z M836 295 L836 1181 Q642 1172 517 1109 Q294 997 294 738 Q294 327 836 295 Z M1001 294 Q1219 305 1342 367 Q1565 480 1565 738 Q1565 948 1425.5 1057.5 Q1286 1167 1001 1181 L1001 294 Z " />
<glyph glyph-name="afii10039" unicode="&#x425;" horiz-adv-x="1214" d="M503 769 L56 1475 L258 1475 L627 896 L959 1475 L1154 1475 L714 754 L1191 0 L989 0 L590 627 L216 0 L19 0 L503 769 Z " />
<glyph glyph-name="afii10040" unicode="&#x426;" horiz-adv-x="1409" d="M184 0 L184 1475 L360 1475 L360 147 L1038 147 L1038 1475 L1214 1475 L1214 147 L1352 147 L1352 -360 L1217 -360 L1183 0 L184 0 Z " />
<glyph glyph-name="afii10041" unicode="&#x427;" horiz-adv-x="1330" d="M970 0 L970 667 Q952 656 944 650 Q842 585 784 565 Q676 526 548 526 Q265 526 182 708 Q137 807 137 1017 L137 1475 L313 1475 L313 1008 Q313 834 357 770 Q420 679 595 679 Q701 679 784.5 713.5 Q868 748 970 833 L970 1475 L1146 1475 L1146 0 L970 0 Z " />
<glyph glyph-name="afii10042" unicode="&#x428;" horiz-adv-x="1963" d="M184 0 L184 1475 L360 1475 L360 147 L893 147 L893 1475 L1069 1475 L1069 147 L1602 147 L1602 1475 L1778 1475 L1778 0 L184 0 Z " />
<glyph glyph-name="afii10043" unicode="&#x429;" horiz-adv-x="1965" d="M184 0 L184 1475 L360 1475 L360 148 L893 148 L893 1475 L1069 1475 L1069 148 L1602 148 L1602 1475 L1778 1475 L1778 148 L1917 148 L1917 -360 L1781 -360 L1747 0 L184 0 Z " />
<glyph glyph-name="afii10044" unicode="&#x42a;" horiz-adv-x="1559" d="M477 0 L477 1328 L15 1328 L15 1475 L649 1475 L649 882 L946 882 Q1472 882 1472 441 Q1472 0 946 0 L477 0 Z M649 147 L907 147 Q1096 147 1184 208 Q1292 283 1292 443 Q1292 617 1165 690 Q1078 739 907 739 L649 739 L649 147 Z " />
<glyph glyph-name="afii10045" unicode="&#x42b;" horiz-adv-x="1728" d="M184 0 L184 1475 L356 1475 L356 882 L653 882 Q892 882 1016 796 Q1179 681 1179 441 Q1179 0 653 0 L184 0 Z M356 147 L614 147 Q802 147 891 208 Q999 283 999 443 Q999 617 872 690 Q785 739 614 739 L356 739 L356 147 Z M1368 0 L1368 1475 L1544 1475 L1544 0 L1368 0 Z " />
<glyph glyph-name="afii10046" unicode="&#x42c;" horiz-adv-x="1266" d="M184 0 L184 1475 L356 1475 L356 882 L653 882 Q892 882 1016 796 Q1179 681 1179 441 Q1179 0 653 0 L184 0 Z M356 147 L614 147 Q802 147 891 208 Q999 283 999 443 Q999 617 872 690 Q785 739 614 739 L356 739 L356 147 Z " />
<glyph glyph-name="afii10047" unicode="&#x42d;" horiz-adv-x="1376" d="M440 704 L440 847 L1081 847 Q1068 1017 1025 1118 Q971 1246 878 1302 Q793 1354 656 1354 Q320 1354 301 1060 L130 1060 Q135 1253 242 1364 Q376 1504 660 1504 Q995 1504 1142 1262 Q1266 1058 1266 738 Q1266 416 1136 212 Q982 -29 644 -29 Q470 -29 343 25 Q217 79 160 174 Q103 269 100 429 L271 429 Q277 290 346 219 Q443 121 645 121 Q829 121 931 221 Q1079 368 1085 704 L440 704 Z " />
<glyph glyph-name="afii10048" unicode="&#x42e;" horiz-adv-x="2153" d="M184 0 L184 1475 L360 1475 L360 850 L709 850 Q731 1055 793 1179 Q881 1353 1037 1434 Q1173 1504 1381 1504 Q1734 1504 1902 1262 Q2042 1060 2042 737 Q2042 415 1902 212 Q1734 -29 1373 -29 Q919 -29 767 356 Q711 498 704 702 L360 702 L360 0 L184 0 Z M1364 1349 Q1117 1349 999 1183 Q884 1024 884 737 Q884 126 1373 126 Q1630 126 1747 291 Q1862 452 1862 734 Q1862 1026 1747 1183 Q1685 1269 1592.5 1309 Q1500 1349 1364 1349 Z " />
<glyph glyph-name="afii10049" unicode="&#x42f;" horiz-adv-x="1282" d="M922 640 L753 640 Q657 640 605.5 626 Q554 612 519 577 Q483 540 464 502.5 Q445 465 417 376 L295 0 L100 0 L256 464 Q291 567 324 615.5 Q357 664 411 694 Q302 733 247 786 Q144 887 144 1059 Q144 1218 221 1321 Q284 1405 396 1440 Q508 1475 713 1475 L1098 1475 L1098 0 L922 0 L922 640 Z M922 785 L922 1328 L703 1328 Q493 1328 412 1262 Q324 1189 324 1058 Q324 892 459 825 Q539 785 716 785 L922 785 Z " />
<glyph glyph-name="afii10065" unicode="&#x430;" horiz-adv-x="1192" d="M872 140 Q826 59 725 13.5 Q624 -32 492 -32 Q110 -32 110 307 Q110 518 246 596 Q349 655 561 655 Q612 655 797 646 L859 643 L859 729 Q859 853 792.5 910 Q726 967 581 967 Q470 967 423 931.5 Q376 896 353 796 L194 796 Q209 892 235 945 Q261 998 311 1037 Q408 1112 599 1112 Q826 1112 926.5 1019 Q1027 926 1027 716 L1027 0 L872 0 L872 140 Z M862 512 Q727 526 595 526 Q391 526 332 468 Q281 418 281 316 Q281 229 317 182 Q370 112 527 112 Q684 112 776 182 Q862 248 862 400 L862 512 Z " />
<glyph glyph-name="afii10066" unicode="&#x431;" horiz-adv-x="1210" d="M270 779 Q312 871 377 915 Q467 976 613 976 Q825 976 956 846 Q1091 711 1091 484 Q1091 248 950 106 Q816 -29 601 -29 Q316 -29 190 190 Q100 347 100 635 Q100 909 162 1064.5 Q224 1220 367 1304 Q471 1365 665 1405 Q751 1423 779.5 1444.5 Q808 1466 812 1516 L963 1516 Q961 1375 891 1321 Q859 1298 825.5 1286.5 Q792 1275 689 1253 Q460 1204 377 1110 Q294 1016 270 779 Z M587 832 Q445 832 361.5 738 Q278 644 278 484 Q278 305 377 207 Q461 122 596 122 Q730 122 814 206 Q914 306 914 485 Q914 662 813 754 Q728 832 587 832 Z " />
<glyph glyph-name="afii10067" unicode="&#x432;" horiz-adv-x="1176" d="M175 0 L175 1080 L640 1080 Q848 1080 933 1030 Q1040 966 1040 813 Q1040 720 1002 664.5 Q964 609 873 569 Q967 541 1011 501 Q1083 433 1083 305 Q1083 125 950 53 Q855 0 648 0 L175 0 Z M346 625 L569 625 Q731 625 785 652 Q867 694 867 798 Q867 880 813 911 Q759 942 614 942 L346 942 L346 625 Z M346 139 L602 139 Q760 139 821 167 Q902 205 902 311 Q902 417 832.5 455.5 Q763 494 572 494 L346 494 L346 139 Z " />
<glyph glyph-name="afii10068" unicode="&#x433;" horiz-adv-x="955" d="M175 0 L175 1080 L907 1080 L907 933 L346 933 L346 0 L175 0 Z " />
<glyph glyph-name="afii10069" unicode="&#x434;" horiz-adv-x="1210" d="M1002 0 L135 0 L98 -355 L-26 -355 L-26 147 L80 147 Q299 493 351 1080 L1023 1080 L1023 147 L1163 147 L1163 -355 L1039 -355 L1002 0 Z M852 147 L852 933 L502 933 Q442 446 264 147 L852 147 Z " />
<glyph glyph-name="afii10070" unicode="&#x435;" horiz-adv-x="1183" d="M1086 496 L274 496 Q286 400 295 363.5 Q304 327 325 288 Q418 116 610 116 Q709 116 793 147.5 Q877 179 976 254 L1058 124 Q846 -32 613 -32 Q365 -32 227 133 Q100 284 100 530 Q100 788 234 949 Q369 1112 598 1112 Q782 1112 907 997 Q1084 836 1086 496 Z M914 629 Q894 758 851 825 Q760 970 596 970 Q334 970 277 629 L914 629 Z " />
<glyph glyph-name="afii10072" unicode="&#x436;" horiz-adv-x="1746" d="M791 0 L791 494 L760 494 Q677 494 634 464.5 Q591 435 505 320 L261 0 L50 0 L426 465 Q479 535 520 566 L83 1080 L283 1080 L655 627 L791 627 L791 1080 L955 1080 L955 627 L1090 627 L1463 1080 L1662 1080 L1225 566 Q1267 535 1319 465 L1695 0 L1484 0 L1240 320 Q1156 432 1123 456 Q1071 494 985 494 L955 494 L955 0 L791 0 Z " />
<glyph glyph-name="afii10073" unicode="&#x437;" horiz-adv-x="1081" d="M360 489 L360 623 L556 623 Q775 623 775 794 Q775 970 531 970 Q402 970 338 924 Q274 878 261 778 L103 778 Q116 1112 543 1112 Q735 1112 838 1041 Q948 967 948 814 Q948 650 813 579 Q885 554 920 522 Q998 454 998 310 Q998 110 858 33 Q738 -32 547 -32 Q97 -32 90 318 L248 318 Q260 223 301 182 Q377 108 547 108 Q825 108 825 305 Q825 420 749 462 Q700 489 560 489 L360 489 Z " />
<glyph glyph-name="afii10074" unicode="&#x438;" horiz-adv-x="1237" d="M175 0 L175 1080 L342 1080 L342 256 L895 1080 L1062 1080 L1062 0 L895 0 L895 820 L342 0 L175 0 Z " />
<glyph glyph-name="afii10075" unicode="&#x439;" horiz-adv-x="1237" d="M175 0 L175 1080 L342 1080 L342 256 L895 1080 L1062 1080 L1062 0 L895 0 L895 820 L342 0 L175 0 Z M414 1550 Q421 1465 464 1430 Q511 1390 617 1390 Q723 1390 770 1426 Q817 1462 826 1550 L958 1550 Q955 1463 939 1419 Q879 1258 620 1258 Q422 1258 344 1344 Q311 1380 297.5 1424.5 Q284 1469 281 1550 L414 1550 Z " />
<glyph glyph-name="afii10076" unicode="&#x43a;" horiz-adv-x="1182" d="M175 0 L175 1080 L346 1080 L346 627 L527 627 L899 1080 L1099 1080 L662 566 Q706 532 756 465 L1132 0 L916 0 L672 320 Q588 433 555 457 Q503 494 417 494 L346 494 L346 0 L175 0 Z " />
<glyph glyph-name="afii10077" unicode="&#x43b;" horiz-adv-x="1224" d="M878 0 L878 933 L517 933 Q468 541 384 295 Q329 138 249 69 Q169 0 41 0 L7 0 L7 147 L28 147 Q74 147 103 161.5 Q132 176 160 213 Q227 301 285 546.5 Q343 792 366 1080 L1049 1080 L1049 0 L878 0 Z " />
<glyph glyph-name="afii10078" unicode="&#x43c;" horiz-adv-x="1488" d="M99 0 L240 1080 L406 1080 L744 279 L1082 1080 L1249 1080 L1390 0 L1227 0 L1120 808 L785 0 L704 0 L369 807 L261 0 L99 0 Z " />
<glyph glyph-name="afii10079" unicode="&#x43d;" horiz-adv-x="1237" d="M175 0 L175 1080 L346 1080 L346 632 L891 632 L891 1080 L1062 1080 L1062 0 L891 0 L891 487 L346 487 L346 0 L175 0 Z " />
<glyph glyph-name="afii10080" unicode="&#x43e;" horiz-adv-x="1240" d="M627 1112 Q856 1112 1001 948 Q1139 791 1139 540 Q1139 290 1001 132 Q857 -32 620 -32 Q382 -32 238 132 Q100 290 100 538 Q100 790 238 948 Q381 1112 627 1112 Z M614 965 Q447 965 352 831 Q273 720 273 540 Q273 360 352 249 Q446 115 619 115 Q793 115 887 249 Q966 360 966 538 Q966 721 887 831 Q792 965 614 965 Z " />
<glyph glyph-name="afii10081" unicode="&#x43f;" horiz-adv-x="1210" d="M175 0 L175 1080 L1035 1080 L1035 0 L864 0 L864 933 L346 933 L346 0 L175 0 Z " />
<glyph glyph-name="afii10082" unicode="&#x440;" horiz-adv-x="1272" d="M175 -439 L175 1080 L334 1080 L334 919 Q462 1112 695 1112 Q917 1112 1046 948 Q1171 790 1171 540 Q1171 290 1046 132 Q917 -32 695 -32 Q470 -32 345 151 L345 -439 L175 -439 Z M671 965 Q521 965 428 831 Q345 712 345 540 Q345 369 428 249 Q520 115 676 115 Q823 115 911 233 Q998 350 998 538 Q998 732 911 847 Q821 965 671 965 Z " />
<glyph glyph-name="afii10083" unicode="&#x441;" horiz-adv-x="1096" d="M928 260 L1015 136 Q844 -32 594 -32 Q365 -32 237 107 Q100 255 100 524 Q100 787 226 952 Q349 1113 591 1113 Q840 1113 942 947 Q996 859 998 737 L840 737 Q820 965 592 965 Q431 965 349 839 Q273 722 273 533 Q273 325 374 213 Q461 116 606 116 Q781 116 928 260 Z " />
<glyph glyph-name="afii10084" unicode="&#x442;" horiz-adv-x="1057" d="M443 0 L443 935 L50 935 L50 1080 L1007 1080 L1007 935 L614 935 L614 0 L443 0 Z " />
<glyph glyph-name="afii10085" unicode="&#x443;" horiz-adv-x="1016" d="M425 41 L24 1080 L203 1080 L508 246 L812 1080 L992 1080 L541 -86 Q480 -241 450 -290 Q397 -375 330 -406 Q263 -437 125 -439 L125 -291 Q229 -290 268 -264 Q322 -228 365 -115 L425 41 Z " />
<glyph glyph-name="afii10086" unicode="&#x444;" horiz-adv-x="1590" d="M719 -439 L719 104 Q659 28 604 -2 Q549 -32 471 -32 Q289 -32 200 106 Q100 262 100 539 Q100 813 199 971 Q288 1113 471 1113 Q549 1113 604.5 1082 Q660 1051 719 976 L719 1516 L870 1516 L870 975 Q925 1049 982.5 1081 Q1040 1113 1119 1113 Q1300 1113 1389 971 Q1488 813 1488 539 Q1488 262 1388 106 Q1299 -32 1118 -32 Q1039 -32 983 -1 Q927 30 870 105 L870 -439 L719 -439 Z M719 454 L719 625 Q719 711 708 761.5 Q697 812 668 862 Q601 977 492 977 Q371 977 318 856 Q264 733 264 541 Q264 348 318 224 Q371 104 492 104 Q611 104 678 236 Q719 317 719 454 Z M870 625 L870 454 Q870 368 880.5 318.5 Q891 269 920 219 Q987 104 1097 104 Q1217 104 1270 224 Q1324 348 1324 540 Q1324 733 1270 856 Q1217 977 1097 977 Q979 977 911 846 Q887 799 878.5 753 Q870 707 870 625 Z " />
<glyph glyph-name="afii10087" unicode="&#x445;" horiz-adv-x="1009" d="M401 577 L49 1080 L241 1080 L515 692 L775 1080 L957 1080 L593 580 L1000 0 L807 0 L480 464 L185 0 L2 0 L401 577 Z " />
<glyph glyph-name="afii10088" unicode="&#x446;" horiz-adv-x="1236" d="M175 0 L175 1080 L346 1080 L346 147 L877 147 L877 1080 L1048 1080 L1048 147 L1188 147 L1188 -355 L1064 -355 L1027 0 L175 0 Z " />
<glyph glyph-name="afii10089" unicode="&#x447;" horiz-adv-x="1168" d="M822 0 L822 459 Q681 361 483 361 Q231 361 153 526 Q115 605 115 801 L115 1080 L286 1080 L286 758 Q286 620 339.5 564 Q393 508 524 508 Q698 508 822 622 L822 1080 L993 1080 L993 0 L822 0 Z " />
<glyph glyph-name="afii10090" unicode="&#x448;" horiz-adv-x="1782" d="M175 0 L175 1080 L346 1080 L346 147 L806 147 L806 1080 L977 1080 L977 147 L1436 147 L1436 1080 L1607 1080 L1607 0 L175 0 Z " />
<glyph glyph-name="afii10091" unicode="&#x449;" horiz-adv-x="1818" d="M175 0 L175 1080 L346 1080 L346 147 L806 147 L806 1080 L977 1080 L977 147 L1436 147 L1436 1080 L1607 1080 L1607 147 L1770 147 L1770 -355 L1647 -355 L1610 0 L175 0 Z " />
<glyph glyph-name="afii10092" unicode="&#x44a;" horiz-adv-x="1352" d="M394 0 L394 933 L15 933 L15 1080 L565 1080 L565 685 L842 685 Q1080 685 1172 617 Q1284 534 1284 343 Q1284 158 1182.5 79 Q1081 0 842 0 L394 0 Z M565 140 L814 140 Q972 140 1032 172 Q1111 214 1111 346 Q1111 464 1049 506.5 Q987 549 814 549 L565 549 L565 140 Z " />
<glyph glyph-name="afii10093" unicode="&#x44b;" horiz-adv-x="1620" d="M175 0 L175 1080 L346 1080 L346 685 L623 685 Q861 685 953 617 Q1065 533 1065 344 Q1065 158 963.5 79 Q862 0 623 0 L175 0 Z M346 140 L595 140 Q753 140 813 172 Q892 214 892 346 Q892 464 830 506.5 Q768 549 595 549 L346 549 L346 140 Z M1274 0 L1274 1080 L1445 1080 L1445 0 L1274 0 Z " />
<glyph glyph-name="afii10094" unicode="&#x44c;" horiz-adv-x="1133" d="M175 0 L175 1080 L346 1080 L346 685 L623 685 Q861 685 953 617 Q1065 533 1065 344 Q1065 158 963.5 79 Q862 0 623 0 L175 0 Z M346 140 L595 140 Q753 140 813 172 Q892 214 892 346 Q892 464 830 506.5 Q768 549 595 549 L346 549 L346 140 Z " />
<glyph glyph-name="afii10095" unicode="&#x44d;" horiz-adv-x="1110" d="M351 489 L351 623 L831 623 Q817 736 786 803 Q708 971 523 971 Q369 971 305 884 Q268 833 260 778 L103 778 Q112 906 187 992 Q294 1113 522 1113 Q757 1113 879 959 Q1009 794 1009 532 Q1009 264 876 107 Q760 -32 529 -32 Q94 -32 89 318 L247 318 Q259 222 303 180 Q378 110 520 110 Q715 110 791 277 Q822 347 834 489 L351 489 Z " />
<glyph glyph-name="afii10096" unicode="&#x44e;" horiz-adv-x="1691" d="M175 0 L175 1080 L346 1080 L346 629 L558 629 Q576 780 647 890 Q715 997 827 1056 Q936 1112 1071 1112 Q1309 1112 1453 948 Q1591 791 1591 540 Q1591 290 1453 132 Q1309 -32 1071 -32 Q885 -32 753 72 Q578 210 554 491 L346 491 L346 0 L175 0 Z M1066 965 Q899 965 804 831 Q725 720 725 540 Q725 360 804 249 Q899 115 1071 115 Q1245 115 1339 249 Q1418 360 1418 538 Q1418 721 1339 831 Q1244 965 1066 965 Z " />
<glyph glyph-name="afii10097" unicode="&#x44f;" horiz-adv-x="1196" d="M849 447 L594 447 Q551 447 529 438.5 Q507 430 487 405 Q462 375 398 250 L271 0 L70 0 L267 344 Q308 416 320.5 433.5 Q333 451 365 478 Q133 546 133 770 Q133 944 258 1025 Q343 1080 529 1080 L1019 1080 L1019 0 L849 0 L849 447 Z M849 581 L849 941 L560 941 Q412 941 360 899 Q306 855 306 766 Q306 671 364 626 Q422 581 544 581 L849 581 Z " />
<glyph glyph-name="uni0450" unicode="&#x450;" horiz-adv-x="1183" d="M1086 496 L274 496 Q286 400 295 363.5 Q304 327 325 288 Q418 116 610 116 Q709 116 793 147.5 Q877 179 976 254 L1058 124 Q846 -32 613 -32 Q365 -32 227 133 Q100 284 100 530 Q100 788 234 949 Q369 1112 598 1112 Q782 1112 907 997 Q1084 836 1086 496 Z M914 629 Q894 758 851 825 Q760 970 596 970 Q334 970 277 629 L914 629 Z M604 1221 L337 1549 L529 1549 L726 1221 L604 1221 Z " />
<glyph glyph-name="afii10071" unicode="&#x451;" horiz-adv-x="1183" d="M1086 496 L274 496 Q286 400 295 363.5 Q304 327 325 288 Q418 116 610 116 Q709 116 793 147.5 Q877 179 976 254 L1058 124 Q846 -32 613 -32 Q365 -32 227 133 Q100 284 100 530 Q100 788 234 949 Q369 1112 598 1112 Q782 1112 907 997 Q1084 836 1086 496 Z M914 629 Q894 758 851 825 Q760 970 596 970 Q334 970 277 629 L914 629 Z M414 1485 Q458 1485 489.5 1454 Q521 1423 521 1379 Q521 1334 489 1303 Q457 1272 412 1272 Q366 1272 334 1303.5 Q302 1335 302 1379 Q302 1424 334.5 1454.5 Q367 1485 414 1485 Z M769 1485 Q813 1485 844.5 1454 Q876 1423 876 1379 Q876 1334 844 1303 Q812 1272 767 1272 Q721 1272 689 1303.5 Q657 1335 657 1379 Q657 1424 689.5 1454.5 Q722 1485 769 1485 Z " />
<glyph glyph-name="afii10099" unicode="&#x452;" horiz-adv-x="1247" d="M181 0 L181 1233 L32 1233 L32 1344 L181 1344 L181 1516 L351 1516 L351 1344 L698 1344 L698 1233 L351 1233 L351 901 Q442 990 500 1029 Q623 1113 758 1113 Q954 1113 1028 969 Q1059 910 1070 837 Q1081 764 1081 627 L1081 30 Q1081 -116 1062 -196 Q1043 -276 994 -332 Q911 -428 731 -439 L731 -291 Q792 -285 822.5 -268.5 Q853 -252 874 -217 Q896 -177 903.5 -127.5 Q911 -78 911 28 L911 636 Q911 779 888 846 Q850 956 717 956 Q627 956 550.5 907 Q474 858 351 722 L351 0 L181 0 Z " />
<glyph glyph-name="afii10100" unicode="&#x453;" horiz-adv-x="955" d="M175 0 L175 1080 L907 1080 L907 933 L346 933 L346 0 L175 0 Z M441 1234 L646 1574 L840 1574 L564 1234 L441 1234 Z " />
<glyph glyph-name="afii10101" unicode="&#x454;" horiz-adv-x="1110" d="M759 489 L276 489 Q291 323 334 248 Q412 110 590 110 Q748 110 819 193 Q852 232 863 318 L1021 318 Q1016 -32 581 -32 Q350 -32 234 107 Q101 264 101 532 Q101 794 231 959 Q353 1113 588 1113 Q836 1113 941 969 Q999 890 1007 778 L849 778 Q837 870 768.5 920.5 Q700 971 587 971 Q390 971 315 782 Q294 730 279 623 L759 623 L759 489 Z " />
<glyph glyph-name="afii10102" unicode="&#x455;" horiz-adv-x="1042" d="M73 332 L231 332 Q242 234 282 189 Q357 108 525 108 Q793 108 793 295 Q793 387 727 427 Q697 446 667 453.5 Q637 461 498 487 Q322 519 243 567 Q126 638 126 792 Q126 946 236 1035 Q333 1112 497 1112 Q616 1112 705.5 1073 Q795 1034 839 962 Q885 888 886 782 L728 782 Q718 867 687 903 Q627 972 492 972 Q397 972 345 929 Q293 886 293 808 Q293 730 341.5 698 Q390 666 552 636 Q668 614 725 596.5 Q782 579 831 550 Q956 476 956 305 Q956 145 845 57 Q731 -32 526 -32 Q80 -32 73 332 Z " />
<glyph glyph-name="afii10103" unicode="&#x456;" horiz-adv-x="537" d="M184 0 L184 1080 L354 1080 L354 0 L184 0 Z M271 1508 Q318 1508 351.5 1474.5 Q385 1441 385 1395 Q385 1348 351 1314.5 Q317 1281 269 1281 Q221 1281 186.5 1314.5 Q152 1348 152 1396 Q152 1443 186.5 1475.5 Q221 1508 271 1508 Z " />
<glyph glyph-name="afii10104" unicode="&#x457;" horiz-adv-x="551" d="M190 0 L190 1080 L360 1080 L360 0 L190 0 Z M95 1502 Q140 1502 172 1470.5 Q204 1439 204 1394 Q204 1349 171.5 1317.5 Q139 1286 93 1286 Q46 1286 13.5 1317.5 Q-19 1349 -19 1395 Q-19 1440 14 1471 Q47 1502 95 1502 Z M461 1502 Q506 1502 538 1470.5 Q570 1439 570 1394 Q570 1349 537.5 1317.5 Q505 1286 459 1286 Q412 1286 379.5 1318 Q347 1350 347 1395 Q347 1440 380 1471 Q413 1502 461 1502 Z " />
<glyph glyph-name="afii10105" unicode="&#x458;" horiz-adv-x="554" d="M201 1080 L371 1080 L371 23 Q371 -121 352 -199.5 Q333 -278 284 -334 Q201 -429 21 -439 L21 -291 Q82 -285 112.5 -269 Q143 -253 164 -218 Q186 -180 193.5 -131.5 Q201 -83 201 21 L201 1080 Z M288 1508 Q335 1508 368.5 1474.5 Q402 1441 402 1395 Q402 1348 368 1314.5 Q334 1281 286 1281 Q237 1281 203 1314.5 Q169 1348 169 1396 Q169 1443 203.5 1475.5 Q238 1508 288 1508 Z " />
<glyph glyph-name="afii10106" unicode="&#x459;" horiz-adv-x="1836" d="M878 0 L878 933 L517 933 Q468 541 384 295 Q330 138 249.5 69 Q169 0 41 0 L7 0 L7 147 L28 147 Q74 147 103 161.5 Q132 176 160 213 Q227 301 285 546.5 Q343 792 366 1080 L1049 1080 L1049 685 L1326 685 Q1565 685 1656 617 Q1768 533 1768 344 Q1768 136 1635 56 Q1541 0 1326 0 L878 0 Z M1049 140 L1298 140 Q1456 140 1516 172 Q1595 214 1595 345 Q1595 464 1533 506.5 Q1471 549 1298 549 L1049 549 L1049 140 Z " />
<glyph glyph-name="afii10107" unicode="&#x45a;" horiz-adv-x="1841" d="M175 0 L175 1080 L346 1080 L346 648 L883 648 L883 1080 L1054 1080 L1054 656 L1330 656 Q1569 656 1661 593 Q1773 516 1773 337 Q1773 135 1640 56 Q1546 0 1330 0 L883 0 L883 510 L346 510 L346 0 L175 0 Z M1054 140 L1303 140 Q1460 140 1521 171 Q1600 212 1600 339 Q1600 446 1538.5 483.5 Q1477 521 1303 521 L1054 521 L1054 140 Z " />
<glyph glyph-name="afii10108" unicode="&#x45b;" horiz-adv-x="1247" d="M181 0 L181 1233 L32 1233 L32 1344 L181 1344 L181 1516 L351 1516 L351 1344 L698 1344 L698 1233 L351 1233 L351 901 Q445 992 500 1029 Q623 1113 758 1113 Q954 1113 1028 969 Q1059 910 1070 837 Q1081 764 1081 627 L1081 0 L911 0 L911 636 Q911 779 888 846 Q850 956 717 956 Q627 956 550.5 907 Q474 858 351 722 L351 0 L181 0 Z " />
<glyph glyph-name="afii10109" unicode="&#x45c;" horiz-adv-x="1182" d="M175 0 L175 1080 L346 1080 L346 627 L527 627 L899 1080 L1099 1080 L662 566 Q706 532 756 465 L1132 0 L916 0 L672 320 Q588 433 555 457 Q503 494 417 494 L346 494 L346 0 L175 0 Z M519 1234 L723 1574 L917 1574 L641 1234 L519 1234 Z " />
<glyph glyph-name="uni045D" unicode="&#x45d;" horiz-adv-x="1237" d="M627 1234 L351 1574 L545 1574 L750 1234 L627 1234 Z M175 0 L175 1080 L342 1080 L342 256 L895 1080 L1062 1080 L1062 0 L895 0 L895 820 L342 0 L175 0 Z " />
<glyph glyph-name="afii10110" unicode="&#x45e;" horiz-adv-x="1016" d="M425 41 L24 1080 L203 1080 L508 246 L812 1080 L992 1080 L541 -86 Q480 -241 450 -290 Q397 -375 330 -406 Q263 -437 125 -439 L125 -291 Q229 -290 268 -264 Q322 -228 365 -115 L425 41 Z M293 1550 Q301 1465 344 1430 Q391 1390 497 1390 Q602 1390 649.5 1426 Q697 1462 705 1550 L838 1550 Q835 1463 819 1419 Q759 1258 499 1258 Q302 1258 224 1344 Q191 1380 177.5 1424.5 Q164 1469 161 1550 L293 1550 Z " />
<glyph glyph-name="afii10193" unicode="&#x45f;" horiz-adv-x="1223" d="M175 0 L175 1080 L346 1080 L346 147 L877 147 L877 1080 L1048 1080 L1048 0 L703 0 L669 -355 L554 -355 L521 0 L175 0 Z " />
<glyph glyph-name="uni0462" unicode="&#x462;" horiz-adv-x="1435" d="M525 1349 L1006 1349 L1006 1202 L525 1202 L525 882 L822 882 Q1348 882 1348 441 Q1348 0 822 0 L349 0 L349 1202 L11 1202 L11 1349 L349 1349 L349 1544 L525 1544 L525 1349 Z M525 147 L783 147 Q971 147 1060 208 Q1168 283 1168 443 Q1168 617 1041 690 Q954 739 783 739 L525 739 L525 147 Z " />
<glyph glyph-name="uni0463" unicode="&#x463;" horiz-adv-x="1278" d="M278 933 L13 933 L13 1080 L278 1080 L278 1417 L449 1417 L449 1080 L883 1080 L883 933 L449 933 L449 685 L725 685 Q963 685 1055 617 Q1167 533 1167 342 Q1167 135 1033 56 Q938 0 725 0 L278 0 L278 933 Z M449 140 L697 140 Q869 140 931 183.5 Q993 227 993 347 Q993 453 943 497 Q885 549 697 549 L449 549 L449 140 Z " />
<glyph glyph-name="afii10050" unicode="&#x490;" horiz-adv-x="1101" d="M184 0 L184 1475 L864 1475 L901 1835 L1046 1835 L1046 1328 L360 1328 L360 0 L184 0 Z " />
<glyph glyph-name="afii10098" unicode="&#x491;" horiz-adv-x="955" d="M175 0 L175 1080 L739 1080 L773 1428 L907 1428 L907 933 L346 933 L346 0 L175 0 Z " />
<glyph glyph-name="uni0492" unicode="&#x492;" horiz-adv-x="1170" d="M253 0 L253 712 L36 712 L36 846 L253 846 L253 1475 L1114 1475 L1114 1328 L429 1328 L429 846 L812 846 L812 712 L429 712 L429 0 L253 0 Z " />
<glyph glyph-name="uni0493" unicode="&#x493;" horiz-adv-x="990" d="M210 0 L210 440 L30 440 L30 561 L210 561 L210 1080 L942 1080 L942 933 L381 933 L381 561 L625 561 L625 440 L381 440 L381 0 L210 0 Z " />
<glyph glyph-name="uni0496" unicode="&#x496;" horiz-adv-x="1873" d="M850 0 L850 704 L761 704 Q632 704 565 628 Q517 573 455 437 L256 0 L41 0 L306 531 Q365 651 404 702 Q443 753 504 790 L33 1475 L228 1475 L654 847 L850 847 L850 1475 L1020 1475 L1020 847 L1216 847 L1642 1475 L1836 1475 L1366 790 Q1426 753 1465 701.5 Q1504 650 1564 531 L1754 148 L1867 148 L1867 -360 L1732 -360 L1699 0 L1614 0 L1415 437 Q1341 600 1281 652 Q1221 704 1109 704 L1020 704 L1020 0 L850 0 Z " />
<glyph glyph-name="uni0497" unicode="&#x497;" horiz-adv-x="1747" d="M791 0 L791 494 L760 494 Q677 494 634 464.5 Q591 435 505 320 L261 0 L50 0 L426 465 Q479 535 520 566 L83 1080 L283 1080 L655 627 L791 627 L791 1080 L955 1080 L955 627 L1090 627 L1463 1080 L1662 1080 L1225 566 Q1266 535 1319 465 L1590 147 L1728 147 L1728 -355 L1604 -355 L1569 0 L1484 0 L1240 320 Q1157 431 1123 456 Q1071 494 985 494 L955 494 L955 0 L791 0 Z " />
<glyph glyph-name="uni0498" unicode="&#x498;" horiz-adv-x="1309" d="M740 -26 L700 -94 Q789 -101 827 -118 Q929 -162 929 -276 Q929 -372 860.5 -424.5 Q792 -477 668 -477 Q530 -477 408 -437 L446 -318 Q566 -357 661 -357 Q785 -357 785 -277 Q785 -200 652 -200 Q624 -200 577 -204 L560 -112 L611 -27 Q100 -11 103 429 L274 429 Q280 289 347 220 Q443 121 647 121 Q1025 121 1025 422 Q1025 571 938 639 Q851 707 661 707 L425 707 L425 850 L616 850 Q784 850 864 907 Q970 980 970 1111 Q970 1227 891 1288 Q807 1354 643 1354 Q320 1354 304 1060 L133 1060 Q143 1504 656 1504 Q891 1504 1020 1411 Q1149 1317 1149 1126 Q1149 1012 1106 935 Q1063 858 970 803 Q1205 727 1205 439 Q1205 10 740 -26 Z " />
<glyph glyph-name="uni0499" unicode="&#x499;" horiz-adv-x="1081" d="M617 -30 L580 -98 Q669 -105 705 -121 Q805 -166 805 -282 Q805 -381 737.5 -434.5 Q670 -488 547 -488 Q410 -488 290 -448 L328 -328 Q445 -367 541 -367 Q661 -367 661 -284 Q661 -204 533 -204 Q509 -204 456 -208 L440 -116 L488 -30 Q317 -20 214 50 Q94 131 90 318 L248 318 Q260 223 301 182 Q377 108 547 108 Q825 108 825 305 Q825 420 749 462 Q700 489 560 489 L360 489 L360 623 L556 623 Q775 623 775 794 Q775 970 531 970 Q402 970 338 924 Q274 878 261 778 L103 778 Q116 1112 543 1112 Q735 1112 838 1041 Q948 967 948 814 Q948 650 813 579 Q885 554 920 522 Q998 453 998 310 Q998 182 941 105.5 Q884 29 763 -6 Q702 -23 617 -30 Z " />
<glyph glyph-name="uni049A" unicode="&#x49a;" horiz-adv-x="1275" d="M184 0 L184 1475 L360 1475 L360 847 L617 847 L1043 1475 L1237 1475 L767 790 Q828 752 866.5 701.5 Q905 651 965 531 L1155 148 L1286 148 L1286 -360 L1150 -360 L1118 0 L1011 0 L812 437 Q737 600 677.5 652 Q618 704 505 704 L360 704 L360 0 L184 0 Z " />
<glyph glyph-name="uni049B" unicode="&#x49b;" horiz-adv-x="1183" d="M175 0 L175 1080 L346 1080 L346 627 L527 627 L899 1080 L1099 1080 L662 566 Q706 532 756 465 L1027 147 L1160 147 L1160 -355 L1037 -355 L999 0 L916 0 L672 320 Q588 432 555 456 Q503 494 417 494 L346 494 L346 0 L175 0 Z " />
<glyph glyph-name="uni049C" unicode="&#x49c;" horiz-adv-x="1276" d="M485 704 L360 704 L360 0 L184 0 L184 1475 L360 1475 L360 847 L485 847 L485 1098 L600 1098 L600 847 L617 847 L1043 1475 L1237 1475 L766 790 Q828 752 866 702 Q904 652 965 531 L1229 0 L1015 0 L816 436 Q756 568 710.5 622 Q665 676 600 694 L600 440 L485 440 L485 704 Z " />
<glyph glyph-name="uni049D" unicode="&#x49d;" horiz-adv-x="1182" d="M427 494 L416 494 L346 494 L346 0 L175 0 L175 1080 L346 1080 L346 627 L427 627 L427 836 L524 836 L524 627 L526 627 L899 1080 L1098 1080 L661 566 Q705 532 755 465 L1131 0 L915 0 L672 319 Q606 406 581.5 432 Q557 458 524 474 L524 280 L427 280 L427 494 Z " />
<glyph glyph-name="uni04A2" unicode="&#x4a2;" horiz-adv-x="1432" d="M184 0 L184 1475 L360 1475 L360 850 L1068 850 L1068 1475 L1244 1475 L1244 148 L1367 148 L1367 -360 L1230 -360 L1198 0 L1068 0 L1068 702 L360 702 L360 0 L184 0 Z " />
<glyph glyph-name="uni04A3" unicode="&#x4a3;" horiz-adv-x="1243" d="M175 0 L175 1080 L346 1080 L346 629 L891 629 L891 1080 L1062 1080 L1062 147 L1176 147 L1176 -355 L1052 -355 L1015 0 L891 0 L891 491 L346 491 L346 0 L175 0 Z " />
<glyph glyph-name="uni04AA" unicode="&#x4aa;" horiz-adv-x="1402" d="M1188 342 L1302 227 Q1124 -21 780 -28 L744 -94 Q828 -101 865 -118 Q962 -162 962 -276 Q962 -372 896 -424.5 Q830 -477 710 -477 Q577 -477 459 -437 L496 -318 Q612 -357 704 -357 Q819 -357 819 -277 Q819 -200 693 -200 Q668 -200 621 -204 L604 -112 L655 -22 Q462 -3 334 109 Q226 205 168 364.5 Q110 524 110 727 Q110 1092 284 1303 Q448 1503 753 1503 Q999 1503 1136 1383.5 Q1273 1264 1278 1046 L1107 1046 Q1101 1164 1037 1239 Q942 1350 754 1350 Q517 1350 399 1170 Q290 1002 290 728 Q290 447 416 281 Q533 126 765 126 Q931 126 1056 211 Q1107 246 1188 342 Z " />
<glyph glyph-name="uni04AB" unicode="&#x4ab;" horiz-adv-x="1096" d="M626 -32 L590 -97 Q678 -104 715 -121 Q814 -166 814 -283 Q814 -381 746.5 -434.5 Q679 -488 556 -488 Q422 -488 300 -448 L338 -328 Q457 -367 548 -367 Q670 -367 670 -284 Q670 -205 542 -205 Q526 -205 467 -208 L450 -115 L501 -25 Q390 -10 305 48 Q100 188 100 524 Q100 787 226 952 Q349 1113 591 1113 Q840 1113 942 947 Q996 859 998 737 L840 737 Q820 965 592 965 Q431 965 349 839 Q273 721 273 532 Q273 324 374 212 Q461 115 607 115 Q781 115 928 260 L1015 136 Q863 -18 626 -32 Z " />
<glyph glyph-name="uni04AE" unicode="&#x4ae;" horiz-adv-x="1130" d="M477 0 L477 577 L-25 1475 L167 1475 L565 751 L962 1475 L1154 1475 L653 577 L653 0 L477 0 Z " />
<glyph glyph-name="uni04AF" unicode="&#x4af;" horiz-adv-x="1016" d="M423 -3 L24 1080 L204 1080 L508 199 L812 1080 L992 1080 L593 -3 L593 -439 L423 -439 L423 -3 Z " />
<glyph glyph-name="uni04B0" unicode="&#x4b0;" horiz-adv-x="1126" d="M475 0 L475 534 L238 534 L238 671 L422 671 L-25 1475 L167 1475 L563 750 L958 1475 L1151 1475 L703 671 L888 671 L888 534 L651 534 L651 0 L475 0 Z " />
<glyph glyph-name="uni04B1" unicode="&#x4b1;" horiz-adv-x="1016" d="M381 111 L24 1080 L203 1080 L508 199 L813 1080 L993 1080 L635 111 L819 111 L819 0 L593 0 L593 -439 L423 -439 L423 0 L197 0 L197 111 L381 111 Z " />
<glyph glyph-name="uni04B2" unicode="&#x4b2;" horiz-adv-x="1210" d="M501 769 L56 1475 L258 1475 L624 896 L955 1475 L1151 1475 L712 755 L1095 148 L1234 148 L1234 -360 L1099 -360 L1067 0 L985 0 L588 628 L215 0 L19 0 L501 769 Z " />
<glyph glyph-name="uni04B3" unicode="&#x4b3;" horiz-adv-x="1011" d="M401 577 L49 1080 L241 1080 L515 692 L775 1080 L957 1080 L593 579 L898 147 L1061 147 L1061 -355 L937 -355 L900 0 L807 0 L480 463 L185 0 L2 0 L401 577 Z " />
<glyph glyph-name="uni04B6" unicode="&#x4b6;" horiz-adv-x="1333" d="M970 0 L970 667 Q952 656 944 651 Q842 586 784 565 Q675 527 547 527 Q265 527 182 708 Q137 807 137 1017 L137 1475 L313 1475 L313 1009 Q313 834 357 771 Q420 680 596 680 Q701 680 784 714 Q867 748 970 834 L970 1475 L1146 1475 L1146 148 L1268 148 L1268 -360 L1133 -360 L1101 0 L970 0 Z " />
<glyph glyph-name="uni04B7" unicode="&#x4b7;" horiz-adv-x="1174" d="M822 0 L822 459 Q680 360 483 360 Q231 360 153 525 Q115 604 115 801 L115 1080 L286 1080 L286 758 Q286 620 339.5 563.5 Q393 507 524 507 Q697 507 822 622 L822 1080 L993 1080 L993 147 L1108 147 L1108 -355 L983 -355 L946 0 L822 0 Z " />
<glyph glyph-name="uni04B8" unicode="&#x4b8;" horiz-adv-x="1330" d="M701 688 Q828 714 970 833 L970 1475 L1146 1475 L1146 0 L970 0 L970 666 Q952 655 944 650 Q860 597 816.5 577.5 Q773 558 701 542 L701 297 L581 297 L581 527 Q568 526 553 526 Q265 526 182 708 Q137 807 137 1016 L137 1475 L313 1475 L313 1008 Q313 891 329 832 Q345 773 386 738 Q448 685 581 679 L581 935 L701 935 L701 688 Z " />
<glyph glyph-name="uni04B9" unicode="&#x4b9;" horiz-adv-x="1168" d="M822 0 L822 459 Q722 389 607 371 L607 172 L501 172 L501 361 Q485 361 478 361 Q231 361 153 526 Q115 605 115 801 L115 1080 L286 1080 L286 758 Q286 604 353 551 Q399 516 501 510 L501 717 L607 717 L607 515 Q728 535 822 622 L822 1080 L993 1080 L993 0 L822 0 Z " />
<glyph glyph-name="uni04BA" unicode="&#x4ba;" horiz-adv-x="1251" d="M183 0 L183 1475 L355 1475 L355 829 Q476 922 569 959.5 Q662 997 774 997 Q986 997 1072 867 Q1106 817 1118.5 751 Q1131 685 1131 561 L1131 0 L961 0 L961 569 Q961 696 934 749 Q887 841 732 841 Q640 841 555.5 800.5 Q471 760 355 659 L355 0 L183 0 Z " />
<glyph glyph-name="uni04BB" unicode="&#x4bb;" horiz-adv-x="1241" d="M175 0 L175 1579 L345 1579 L345 901 Q462 1018 553.5 1065.5 Q645 1113 753 1113 Q947 1113 1022 969 Q1053 910 1064 837.5 Q1075 765 1075 627 L1075 0 L905 0 L905 636 Q905 779 882 846 Q844 956 711 956 Q622 956 540.5 904 Q459 852 345 722 L345 0 L175 0 Z " />
<glyph glyph-name="uni04C0" unicode="&#x4c0;" horiz-adv-x="545" d="M184 0 L184 1475 L360 1475 L360 0 L184 0 Z " />
<glyph glyph-name="uni04C1" unicode="&#x4c1;" horiz-adv-x="1875" d="M850 0 L850 704 L761 704 Q631 704 565 628 Q517 573 455 436 L256 0 L41 0 L306 531 Q366 651 404.5 701.5 Q443 752 504 790 L33 1475 L228 1475 L654 847 L850 847 L850 1475 L1020 1475 L1020 847 L1216 847 L1642 1475 L1837 1475 L1366 790 Q1426 753 1465.5 701.5 Q1505 650 1564 531 L1829 0 L1614 0 L1415 436 Q1341 600 1281 652 Q1221 704 1109 704 L1020 704 L1020 0 L850 0 Z M719 1911 Q727 1826 769 1790 Q816 1751 922 1751 Q1028 1751 1075 1787 Q1122 1823 1131 1911 L1263 1911 Q1260 1824 1244 1780 Q1185 1619 925 1619 Q727 1619 649 1705 Q616 1741 602.5 1785.5 Q589 1830 586 1911 L719 1911 Z " />
<glyph glyph-name="uni04C2" unicode="&#x4c2;" horiz-adv-x="1746" d="M791 0 L791 494 L760 494 Q677 494 634 464.5 Q591 435 505 320 L261 0 L50 0 L426 465 Q479 535 520 566 L83 1080 L283 1080 L655 627 L791 627 L791 1080 L955 1080 L955 627 L1090 627 L1463 1080 L1662 1080 L1225 566 Q1267 535 1319 465 L1695 0 L1484 0 L1240 320 Q1156 432 1123 456 Q1071 494 985 494 L955 494 L955 0 L791 0 Z M656 1550 Q663 1465 706 1430 Q753 1390 859 1390 Q965 1390 1012 1426 Q1059 1462 1068 1550 L1200 1550 Q1197 1463 1181 1419 Q1122 1258 862 1258 Q664 1258 586 1344 Q553 1380 539.5 1424.5 Q526 1469 523 1550 L656 1550 Z " />
<glyph glyph-name="uni04CF" unicode="&#x4cf;" horiz-adv-x="545" d="M184 0 L184 1475 L360 1475 L360 0 L184 0 Z " />
<glyph glyph-name="uni04D4" unicode="&#x4d4;" horiz-adv-x="1989" d="M995 480 L429 480 L119 0 L-73 0 L894 1475 L1859 1475 L1859 1327 L1171 1327 L1171 840 L1738 840 L1738 693 L1171 693 L1171 148 L1875 148 L1875 0 L995 0 L995 480 Z M995 623 L995 1356 L520 623 L995 623 Z " />
<glyph glyph-name="uni04D5" unicode="&#x4d5;" horiz-adv-x="1924" d="M842 643 L842 709 Q842 845 799 900 Q743 971 575 971 Q467 971 417.5 933 Q368 895 346 796 L187 796 Q209 962 301 1037 Q393 1112 576 1112 Q744 1112 833.5 1065 Q923 1018 960 911 Q1089 1112 1340 1112 Q1528 1112 1656 992 Q1827 831 1830 496 L1009 496 Q1021 361 1061 288 Q1155 115 1350 115 Q1451 115 1535 146.5 Q1619 178 1721 254 L1802 124 Q1593 -33 1360 -33 Q1085 -33 942 199 Q880 89 758.5 28.5 Q637 -32 478 -32 Q92 -32 92 304 Q92 520 244 603 Q339 655 557 655 Q614 655 780 646 L842 643 Z M845 508 Q725 522 564 522 Q396 522 338 483 Q263 433 263 312 Q263 210 316 162 Q373 112 502 112 Q715 112 802 232 Q845 292 845 400 L845 508 Z M1655 630 Q1634 759 1592 825 Q1501 969 1334 969 Q1202 969 1120 882.5 Q1038 796 1012 630 L1655 630 Z " />
<glyph glyph-name="uni04D8" unicode="&#x4d8;" horiz-adv-x="1560" d="M110 842 L1264 842 Q1253 1000 1199 1109 Q1133 1242 1019 1300 Q924 1349 782 1349 Q634 1349 541 1301.5 Q448 1254 377 1142 L228 1228 Q296 1332 367 1385 Q523 1504 784 1504 Q1143 1504 1310 1262 Q1450 1059 1450 737 Q1450 415 1310 212 Q1143 -29 789 -29 Q498 -29 337 116 Q231 211 177 347.5 Q123 484 113 683 Q110 732 110 842 Z M294 699 Q301 563 313 500.5 Q325 438 355 376 Q417 246 521 186 Q625 126 786 126 Q1114 126 1223 421 Q1265 536 1268 699 L294 699 Z " />
<glyph glyph-name="afii10846" unicode="&#x4d9;" horiz-adv-x="1226" d="M99 623 L946 623 Q926 748 880 818 Q784 965 604 965 Q418 965 231 830 L143 955 Q358 1112 605 1112 Q843 1112 986 948 Q1125 788 1125 540 Q1125 292 986 133 Q843 -32 612 -32 Q381 -32 237 133 Q98 292 98 551 Q98 578 99 623 Z M275 495 Q291 354 329 287 Q426 115 611 115 Q734 115 820 192 Q879 244 908.5 313.5 Q938 383 949 495 L275 495 Z " />
<glyph glyph-name="uni04E2" unicode="&#x4e2;" horiz-adv-x="1429" d="M184 0 L184 1475 L356 1475 L356 306 L1080 1475 L1238 1475 L1238 0 L1066 0 L1066 1165 L342 0 L184 0 Z M441 1685 L441 1822 L969 1822 L969 1685 L441 1685 Z " />
<glyph glyph-name="uni04E3" unicode="&#x4e3;" horiz-adv-x="1237" d="M175 0 L175 1080 L342 1080 L342 256 L895 1080 L1062 1080 L1062 0 L895 0 L895 820 L342 0 L175 0 Z M346 1329 L346 1466 L874 1466 L874 1329 L346 1329 Z " />
<glyph glyph-name="uni04E8" unicode="&#x4e8;" horiz-adv-x="1560" d="M791 1504 Q1141 1504 1309 1262 Q1449 1060 1449 736 Q1449 415 1309 212 Q1142 -29 780 -29 Q417 -29 250 212 Q110 415 110 734 Q110 1063 250 1262 Q350 1404 501 1459 Q625 1504 791 1504 Z M295 842 L1264 842 Q1221 1349 779 1349 Q469 1349 354 1097 Q309 999 295 842 Z M1267 699 L292 699 Q296 502 358 372 Q424 233 540 174 Q636 126 780 126 Q980 126 1093 225 Q1178 299 1219 411 Q1260 523 1267 699 Z " />
<glyph glyph-name="uni04E9" unicode="&#x4e9;" horiz-adv-x="1240" d="M627 1112 Q856 1112 1001 948 Q1139 791 1139 540 Q1139 290 1001 133 Q857 -32 620 -32 Q382 -32 238 133 Q100 290 100 539 Q100 790 238 948 Q381 1112 627 1112 Z M963 495 L275 495 Q294 352 327 290 Q421 115 619 115 Q747 115 836 193 Q895 245 922.5 310.5 Q950 376 963 495 Z M278 623 L961 623 Q940 741 910 794 Q815 965 619 965 Q522 965 445 918 Q368 871 324 785 Q295 730 278 623 Z " />
<glyph glyph-name="uni04EE" unicode="&#x4ee;" horiz-adv-x="1144" d="M503 438 L12 1475 L201 1475 L589 625 L977 1475 L1158 1475 L483 0 L302 0 L503 438 Z M308 1685 L308 1822 L836 1822 L836 1685 L308 1685 Z " />
<glyph glyph-name="uni04EF" unicode="&#x4ef;" horiz-adv-x="1016" d="M425 41 L24 1080 L203 1080 L508 246 L812 1080 L992 1080 L541 -86 Q480 -241 450 -290 Q397 -375 330 -406 Q263 -437 125 -439 L125 -291 Q229 -290 268 -264 Q322 -228 365 -115 L425 41 Z M231 1329 L231 1466 L759 1466 L759 1329 L231 1329 Z " />
<glyph glyph-name="uni1E1E" unicode="&#x1e1e;" horiz-adv-x="1146" d="M184 0 L184 1475 L1094 1475 L1094 1327 L360 1327 L360 830 L973 830 L973 683 L360 683 L360 0 L184 0 Z M654 1856 Q701 1856 734 1823 Q767 1790 767 1744 Q767 1698 733.5 1665 Q700 1632 652 1632 Q604 1632 570.5 1665 Q537 1698 537 1745 Q537 1792 571 1824 Q605 1856 654 1856 Z " />
<glyph glyph-name="Wdieresis" unicode="&#x1e84;" horiz-adv-x="1888" d="M448 -32 L80 1475 L259 1475 L529 328 L896 1483 L993 1483 L1359 328 L1629 1475 L1809 1475 L1440 -32 L1312 -32 L944 1131 L577 -32 L448 -32 Z M754 1850 Q799 1850 830.5 1819 Q862 1788 862 1744 Q862 1700 830 1668.5 Q798 1637 752 1637 Q706 1637 674 1668.5 Q642 1700 642 1744 Q642 1789 674.5 1819.5 Q707 1850 754 1850 Z M1139 1850 Q1184 1850 1215.5 1819 Q1247 1788 1247 1744 Q1247 1700 1215 1668.5 Q1183 1637 1137 1637 Q1091 1637 1059 1668.5 Q1027 1700 1027 1744 Q1027 1789 1059.5 1819.5 Q1092 1850 1139 1850 Z " />
<glyph glyph-name="wdieresis" unicode="&#x1e85;" horiz-adv-x="1582" d="M377 -25 L55 1080 L228 1080 L452 276 L745 1080 L837 1080 L1130 276 L1354 1080 L1527 1080 L1205 -25 L1088 -25 L791 797 L494 -25 L377 -25 Z M615 1486 Q660 1486 691.5 1455 Q723 1424 723 1380 Q723 1336 691 1304.5 Q659 1273 614 1273 Q568 1273 536 1304.5 Q504 1336 504 1380 Q504 1425 536 1455.5 Q568 1486 615 1486 Z M970 1486 Q1015 1486 1046.5 1455 Q1078 1424 1078 1380 Q1078 1336 1046 1304.5 Q1014 1273 969 1273 Q923 1273 891 1304.5 Q859 1336 859 1380 Q859 1425 891 1455.5 Q923 1486 970 1486 Z " />
<glyph glyph-name="uni2007" unicode="&#x2007;" horiz-adv-x="1303" d="" />
<glyph glyph-name="uni2011" unicode="&#x2011;" horiz-adv-x="805" d="M123 541 L123 689 L683 689 L683 541 L123 541 Z " />
<glyph glyph-name="figuredash" unicode="&#x2012;" horiz-adv-x="911" d="M53 541 L53 689 L858 689 L858 541 L53 541 Z " />
<glyph glyph-name="afii00208" unicode="&#x2015;" horiz-adv-x="1303" d="M-90 541 L-90 689 L1392 689 L1392 541 L-90 541 Z " />
<glyph glyph-name="zerosuperior" unicode="&#x2070;" horiz-adv-x="811" d="M410 1695 Q610 1695 695 1536 Q753 1427 753 1249 Q753 803 405 803 Q57 803 57 1250 Q57 1695 410 1695 Z M401 1572 Q206 1572 206 1249 Q206 1084 254.5 1005 Q303 926 404 926 Q529 926 574 1046 Q603 1122 603 1250 Q603 1416 554 1494 Q505 1572 401 1572 Z " />
<glyph glyph-name="foursuperior" unicode="&#x2074;" horiz-adv-x="812" d="M493 819 L493 998 L56 998 L56 1096 L336 1679 L499 1679 L227 1119 L493 1119 L493 1437 L637 1437 L637 1119 L779 1119 L779 998 L637 998 L637 819 L493 819 Z " />
<glyph glyph-name="fivesuperior" unicode="&#x2075;" horiz-adv-x="811" d="M103 1224 L136 1679 L682 1679 L682 1557 L274 1557 L254 1338 Q336 1372 422 1372 Q557 1372 639 1311 Q741 1236 741 1089 Q741 952 653 879 Q563 803 392 803 Q222 803 142 866 Q62 929 47 1075 L193 1075 Q204 995 252 960 Q300 925 396 925 Q590 925 590 1086 Q590 1255 404 1255 Q301 1255 197 1178 L103 1224 Z " />
<glyph glyph-name="sixsuperior" unicode="&#x2076;" horiz-adv-x="810" d="M231 1310 Q314 1369 426 1369 Q554 1369 638 1310 Q739 1239 739 1097 Q739 955 644 879 Q555 807 409 807 Q243 807 162 895 Q81 983 81 1163 Q81 1438 165 1564.5 Q249 1691 432 1691 Q568 1691 636.5 1633.5 Q705 1576 717 1451 L579 1451 Q570 1507 550 1533 Q515 1577 430 1577 Q333 1577 291 1520 Q249 1463 231 1310 Z M407 1259 Q224 1259 224 1092 Q224 921 410 921 Q597 921 597 1091 Q597 1259 407 1259 Z " />
<glyph glyph-name="sevensuperior" unicode="&#x2077;" horiz-adv-x="635" d="M458 1557 L0 1557 L0 1679 L597 1679 L597 1574 L257 819 L87 819 L458 1557 Z " />
<glyph glyph-name="eightsuperior" unicode="&#x2078;" horiz-adv-x="812" d="M184 1276 Q126 1317 106 1353.5 Q86 1390 86 1454 Q86 1568 169.5 1631.5 Q253 1695 404 1695 Q556 1695 639.5 1631.5 Q723 1568 723 1453 Q723 1390 701.5 1351 Q680 1312 626 1276 Q697 1237 728 1188.5 Q759 1140 759 1065 Q759 942 664.5 872.5 Q570 803 403 803 Q233 803 138 877 Q51 946 51 1065 Q51 1140 80.5 1187 Q110 1234 184 1276 Z M402 1579 Q228 1579 228 1453 Q228 1327 405 1327 Q581 1327 581 1453 Q581 1579 402 1579 Z M401 1214 Q299 1214 249 1180 Q198 1146 198 1068 Q198 991 246.5 957 Q295 923 405 923 Q511 923 561 957 Q612 991 612 1068 Q612 1146 563 1180 Q514 1214 401 1214 Z " />
<glyph glyph-name="ninesuperior" unicode="&#x2079;" horiz-adv-x="809" d="M561 1205 Q482 1145 377 1145 Q255 1145 176 1203 Q80 1273 80 1409 Q80 1547 171 1621 Q256 1691 397 1691 Q558 1691 635 1603.5 Q712 1516 712 1333 Q712 1073 649 951 Q574 807 375 807 Q232 807 161 868 Q90 929 76 1064 L214 1064 Q224 998 246 970 Q285 921 377 921 Q500 921 535 1027 Q554 1083 561 1205 Z M393 1577 Q222 1577 222 1415 Q222 1255 393 1255 Q569 1255 569 1415 Q569 1577 393 1577 Z " />
<glyph glyph-name="zeroinferior" unicode="&#x2080;" horiz-adv-x="811" d="M410 671 Q610 671 695 512 Q753 403 753 225 Q753 -221 405 -221 Q57 -221 57 226 Q57 671 410 671 Z M401 548 Q206 548 206 225 Q206 60 254.5 -19 Q303 -98 404 -98 Q529 -98 574 22 Q603 98 603 226 Q603 392 554 470 Q505 548 401 548 Z " />
<glyph glyph-name="oneinferior" unicode="&#x2081;" horiz-adv-x="559" d="M244 -205 L244 510 L15 434 L15 562 L288 655 L392 655 L392 -205 L244 -205 Z " />
<glyph glyph-name="twoinferior" unicode="&#x2082;" horiz-adv-x="811" d="M45 -205 Q57 -114 94 -60 Q145 16 287 128 Q454 259 503 313.5 Q552 368 552 424 Q552 482 509 516 Q466 550 392 550 Q307 550 259 506 Q211 462 195 369 L50 369 Q72 515 129 577 Q217 671 391 671 Q537 671 622 608 Q706 545 706 427 Q706 331 656.5 267 Q607 203 439 80 Q344 11 313 -16 Q282 -43 250 -84 L730 -84 L730 -205 L45 -205 Z " />
<glyph glyph-name="threeinferior" unicode="&#x2083;" horiz-adv-x="811" d="M264 188 L264 302 L315 302 L335 302 Q454 302 502.5 331.5 Q551 361 551 434 Q551 550 396 550 Q245 550 213 424 L68 424 Q85 534 144 592 Q224 671 390 671 Q540 671 623 607 Q701 547 701 436 Q701 317 595 254 Q734 188 734 42 Q734 -99 633 -164 Q544 -221 393 -221 Q190 -221 104 -126 Q57 -72 44 51 L190 51 Q213 -99 396 -99 Q583 -99 583 36 Q583 152 479 177 Q435 188 315 188 Q298 188 264 188 Z " />
<glyph glyph-name="fourinferior" unicode="&#x2084;" horiz-adv-x="812" d="M493 -205 L493 -26 L56 -26 L56 72 L336 655 L499 655 L227 95 L493 95 L493 413 L637 413 L637 95 L779 95 L779 -26 L637 -26 L637 -205 L493 -205 Z " />
<glyph glyph-name="fiveinferior" unicode="&#x2085;" horiz-adv-x="811" d="M103 200 L136 655 L682 655 L682 533 L274 533 L254 314 Q336 348 422 348 Q557 348 639 287 Q741 212 741 65 Q741 -72 653 -145 Q563 -221 392 -221 Q222 -221 142 -158 Q62 -95 47 51 L193 51 Q204 -29 252 -64 Q300 -99 396 -99 Q590 -99 590 62 Q590 231 404 231 Q301 231 197 154 L103 200 Z " />
<glyph glyph-name="sixinferior" unicode="&#x2086;" horiz-adv-x="810" d="M231 286 Q314 345 426 345 Q554 345 638 286 Q739 215 739 73 Q739 -69 644 -145 Q555 -217 409 -217 Q243 -217 162 -129 Q81 -41 81 139 Q81 414 165 540.5 Q249 667 432 667 Q568 667 636.5 609.5 Q705 552 717 427 L579 427 Q570 483 550 509 Q515 553 430 553 Q333 553 291 496 Q249 439 231 286 Z M407 235 Q224 235 224 68 Q224 -103 410 -103 Q597 -103 597 67 Q597 235 407 235 Z " />
<glyph glyph-name="seveninferior" unicode="&#x2087;" horiz-adv-x="635" d="M458 533 L0 533 L0 655 L597 655 L597 550 L257 -205 L87 -205 L458 533 Z " />
<glyph glyph-name="eightinferior" unicode="&#x2088;" horiz-adv-x="812" d="M184 252 Q126 293 106 329.5 Q86 366 86 430 Q86 544 169.5 607.5 Q253 671 404 671 Q556 671 639.5 607.5 Q723 544 723 429 Q723 366 701.5 327 Q680 288 626 252 Q697 213 728 164.5 Q759 116 759 41 Q759 -82 664.5 -151.5 Q570 -221 403 -221 Q233 -221 138 -147 Q51 -78 51 41 Q51 116 80.5 163 Q110 210 184 252 Z M402 555 Q228 555 228 429 Q228 303 405 303 Q581 303 581 429 Q581 555 402 555 Z M401 190 Q299 190 249 156 Q198 122 198 44 Q198 -33 246.5 -67 Q295 -101 405 -101 Q511 -101 561 -67 Q612 -33 612 44 Q612 122 563 156 Q514 190 401 190 Z " />
<glyph glyph-name="nineinferior" unicode="&#x2089;" horiz-adv-x="809" d="M561 181 Q482 121 377 121 Q255 121 176 179 Q80 249 80 385 Q80 523 171 597 Q256 667 397 667 Q558 667 635 579.5 Q712 492 712 309 Q712 49 649 -73 Q574 -217 375 -217 Q232 -217 161 -156 Q90 -95 76 40 L214 40 Q224 -26 246 -54 Q285 -103 377 -103 Q500 -103 535 3 Q554 59 561 181 Z M393 553 Q222 553 222 391 Q222 231 393 231 Q569 231 569 391 Q569 553 393 553 Z " />
<glyph glyph-name="afii61289" unicode="&#x2113;" horiz-adv-x="983" d="M465 592 Q440 460 420 318 Q400 176 400 133 Q400 79 438 79 Q471 79 505 122.5 Q539 166 559 234 L629 203 Q544 -40 395 -40 Q321 -40 278.5 13 Q236 66 236 158 Q236 230 255 433 L133 325 L96 386 Q105 392 148 437 Q223 514 272 570 Q351 992 450 1240 Q559 1510 715 1510 Q781 1510 822 1460 Q863 1410 863 1328 Q863 1132 720 903 Q643 778 465 592 Z M485 718 Q587 830 646 931 Q701 1024 737 1136.5 Q773 1249 773 1326 Q773 1362 757.5 1385 Q742 1408 717 1408 Q657 1408 618 1306 Q558 1147 485 718 Z " />
<glyph glyph-name="afii61352" unicode="&#x2116;" horiz-adv-x="2432" d="M184 0 L184 1475 L354 1475 L1071 371 L1071 1475 L1244 1475 L1244 -19 L1127 -19 L357 1180 L357 0 L184 0 Z M1863 1216 Q2051 1216 2166 1086 Q2272 965 2272 750 Q2272 535 2166 413 Q2051 282 1857 282 Q1662 282 1547 414 Q1441 536 1441 748 Q1441 967 1547 1086 Q1663 1216 1863 1216 Z M1852 1077 Q1726 1077 1667 971 Q1615 878 1615 751 Q1615 622 1666 528 Q1723 421 1856 421 Q1991 421 2047 528 Q2098 623 2098 749 Q2098 905 2033.5 991 Q1969 1077 1852 1077 Z M1460 0 L1460 143 L2266 143 L2266 0 L1460 0 Z " />
<glyph glyph-name="estimated" unicode="&#x212e;" horiz-adv-x="1501" d="M1336 607 L393 607 L393 356 Q413 287 433 250.5 Q453 214 486 184 Q580 100 748 100 Q900 100 997 162 Q1094 224 1151 357 L1287 357 Q1181 -24 748 -24 Q467 -24 314 154 Q164 327 164 625 Q164 942 329 1120 Q489 1292 755 1292 Q975 1292 1127 1179 Q1313 1040 1332 758 Q1334 728 1336 607 Z M1114 709 L1114 928 Q1094 985 1060 1025 Q995 1101 921 1134.5 Q847 1168 744 1168 Q580 1168 487 1069 Q444 1023 399 928 L399 709 L1114 709 Z " />
</font>
</svg>
