<?xml version="1.0" encoding="UTF-8"?>
<svg xmlns="http://www.w3.org/2000/svg" xmlns:xlink="http://www.w3.org/1999/xlink" version="1.2" >
<font id="A1 Sans Condensed Bold">
<font-face  font-family="A1 Sans Condensed" units-per-em="2048" ascent="1536" descent="-512" font-style="normal" font-weight="700" font-stretch="normal" cap-height="1475" x-height="1102" underline-position="-317" underline-thickness="209" />
<missing-glyph  horiz-adv-x="410" d="M41 0 L41 1475 L369 1475 L369 0 L41 0 Z M328 41 L328 1434 L82 1434 L82 41 L328 41 Z " />
<glyph glyph-name="space" unicode="&#x20;" horiz-adv-x="410" d="" />
<glyph glyph-name="exclam" unicode="&#x21;" horiz-adv-x="736" d="M261 442 L231 1475 L507 1475 L476 442 L261 442 Z M370 290 Q435 290 482 243 Q529 196 529 131 Q529 59 476 12 Q430 -29 368 -29 Q300 -29 253 18 Q206 65 206 132 Q206 198 254 244 Q302 290 370 290 Z " />
<glyph glyph-name="quotedbl" unicode="&#x22;" horiz-adv-x="666" d="M92 895 L92 1475 L264 1475 L264 895 L92 895 Z M403 895 L403 1475 L575 1475 L575 895 L403 895 Z " />
<glyph glyph-name="numbersign" unicode="&#x23;" horiz-adv-x="1061" d="M212 434 L62 434 L87 616 L232 616 L258 834 L110 834 L134 1016 L279 1016 L333 1468 L530 1468 L477 1016 L653 1016 L706 1468 L904 1468 L850 1016 L999 1016 L975 834 L830 834 L804 616 L952 616 L927 434 L783 434 L731 0 L534 0 L585 434 L409 434 L358 0 L160 0 L212 434 Z M430 616 L606 616 L632 834 L456 834 L430 616 Z " />
<glyph glyph-name="dollar" unicode="&#x24;" horiz-adv-x="1061" d="M74 449 L306 449 Q313 319 356 260 Q392 213 462 193 L462 683 Q435 693 336 726 Q94 808 94 1086 Q94 1322 265 1427 Q333 1470 462 1482 L462 1642 L615 1642 L615 1478 Q680 1467 720 1454 Q834 1416 892.5 1311.5 Q951 1207 951 1040 L738 1040 Q733 1145 705 1200 Q677 1255 615 1282 L615 866 Q791 815 875 741 Q1013 620 1013 417 Q1013 232 910.5 122.5 Q808 13 615 -6 L615 -180 L462 -180 L462 -6 Q67 38 74 449 Z M615 624 L615 189 Q789 228 789 395 Q789 477 750.5 527.5 Q712 578 615 624 Z M462 918 L462 1296 Q395 1285 356.5 1234 Q318 1183 318 1106 Q318 977 462 918 Z " />
<glyph glyph-name="percent" unicode="&#x25;" horiz-adv-x="1547" d="M392 1506 Q558 1506 642 1387 Q718 1280 718 1098 Q718 918 642 810 Q558 691 387 691 Q215 691 132 810 Q56 919 56 1097 Q56 1280 132 1387 Q216 1506 392 1506 Z M385 1320 Q269 1320 269 1098 Q269 877 387 877 Q505 877 505 1097 Q505 1320 385 1320 Z M1207 786 Q1303 786 1378 739 Q1532 645 1532 378 Q1532 198 1456 90 Q1373 -29 1202 -29 Q1030 -29 947 90 Q871 199 871 377 Q871 560 947 667 Q1032 786 1207 786 Z M1200 600 Q1084 600 1084 378 Q1084 157 1202 157 Q1319 157 1319 377 Q1319 600 1200 600 Z M322 0 L1054 1475 L1260 1475 L529 0 L322 0 Z " />
<glyph glyph-name="ampersand" unicode="&#x26;" horiz-adv-x="1287" d="M383 813 Q362 842 351 856 Q281 950 260 994 Q220 1075 220 1168 Q220 1317 315 1409 Q415 1506 584 1506 Q757 1506 857 1400 Q942 1309 942 1183 Q942 1049 814 911 L670 779 L905 461 Q939 579 958 784 L1174 784 Q1156 477 1038 272 L1235 0 L963 0 L898 86 Q771 -33 558 -33 Q362 -33 243 69 Q120 175 120 375 Q120 508 174.5 599.5 Q229 691 383 813 Z M556 939 Q647 1020 682.5 1073.5 Q718 1127 718 1181 Q718 1244 681 1281.5 Q644 1319 582 1319 Q519 1319 481.5 1280.5 Q444 1242 444 1177 Q444 1111 498 1021 L556 939 Z M496 651 Q438 596 414 560 Q362 481 362 395 Q362 291 426 229.5 Q490 168 597 168 Q711 168 786 247 L496 651 Z " />
<glyph glyph-name="quotesingle" unicode="&#x27;" horiz-adv-x="356" d="M92 895 L92 1475 L264 1475 L264 895 L92 895 Z " />
<glyph glyph-name="parenleft" unicode="&#x28;" horiz-adv-x="778" d="M711 -356 L524 -356 Q379 -144 308 27 Q199 290 199 610 Q199 878 273 1097.5 Q347 1317 524 1573 L711 1573 Q581 1333 524 1164 Q441 919 441 611 Q441 342 498 138.5 Q555 -65 711 -356 Z " />
<glyph glyph-name="parenright" unicode="&#x29;" horiz-adv-x="778" d="M67 1573 L254 1573 Q399 1362 470 1190 Q579 926 579 607 Q579 339 505 119.5 Q431 -100 254 -356 L67 -356 Q197 -115 254 53 Q337 299 337 606 Q337 875 280 1079 Q223 1283 67 1573 Z " />
<glyph glyph-name="asterisk" unicode="&#x2a;" horiz-adv-x="1033" d="M135 1146 L213 1346 L419 1252 L413 1507 L620 1507 L614 1252 L820 1346 L898 1146 L680 1070 L845 869 L671 744 L517 960 L363 744 L188 869 L353 1070 L135 1146 Z " />
<glyph glyph-name="plus" unicode="&#x2b;" horiz-adv-x="1061" d="M135 629 L135 838 L422 838 L422 1161 L635 1161 L635 838 L924 838 L924 629 L635 629 L635 309 L422 309 L422 629 L135 629 Z " />
<glyph glyph-name="comma" unicode="&#x2c;" horiz-adv-x="607" d="M82 -289 L244 283 L521 283 L284 -289 L82 -289 Z " />
<glyph glyph-name="hyphen" unicode="&#x2d;" horiz-adv-x="697" d="M116 510 L116 719 L580 719 L580 510 L116 510 Z " />
<glyph glyph-name="period" unicode="&#x2e;" horiz-adv-x="606" d="M306 290 Q371 290 418 243 Q465 196 465 131 Q465 59 412 12 Q366 -29 304 -29 Q236 -29 189 18 Q142 65 142 132 Q142 198 190 244 Q238 290 306 290 Z " />
<glyph glyph-name="slash" unicode="&#x2f;" horiz-adv-x="765" d="M-10 -184 L475 1475 L703 1475 L218 -184 L-10 -184 Z " />
<glyph glyph-name="zero" unicode="0" horiz-adv-x="1061" d="M536 1504 Q770 1504 879 1301 Q978 1118 978 738 Q978 320 859 139 Q748 -29 530 -29 Q291 -29 182 174 Q83 356 83 739 Q83 1157 202 1336 Q314 1504 536 1504 Z M528 1287 Q421 1287 373 1144 Q325 1003 325 738 Q325 447 382 308 Q430 188 531 188 Q639 188 688 331 Q736 472 736 739 Q736 1029 680 1168 Q631 1287 528 1287 Z " />
<glyph glyph-name="one" unicode="1" horiz-adv-x="1061" d="M403 0 L403 1233 L113 1103 L113 1306 L482 1475 L645 1475 L645 0 L403 0 Z " />
<glyph glyph-name="two" unicode="2" horiz-adv-x="1061" d="M69 0 Q76 168 155.5 310 Q235 452 447 672 Q591 823 640 903 Q694 990 694 1086 Q694 1295 523 1295 Q428 1295 380.5 1228 Q333 1161 317 1006 L92 1006 Q105 1142 123 1212.5 Q141 1283 177 1338 Q234 1425 317.5 1464.5 Q401 1504 527 1504 Q724 1504 828 1399 Q936 1290 936 1091 Q936 976 904 890 Q872 804 797 716 Q741 651 528 440 Q401 314 354 209 L962 209 L962 0 L69 0 Z " />
<glyph glyph-name="three" unicode="3" horiz-adv-x="1061" d="M369 672 L369 856 Q488 856 527 863 Q662 885 662 1084 Q662 1295 495 1295 Q343 1295 315 1094 L95 1094 Q106 1266 172 1360 Q273 1504 498 1504 Q904 1504 904 1099 Q904 885 785 775 Q958 678 958 420 Q958 203 830 81 Q715 -29 512 -29 Q233 -29 130 149 Q81 233 72 424 L300 424 Q309 315 343 262 Q395 180 505 180 Q603 180 654 239 Q716 312 716 428 Q716 515 683.5 575.5 Q651 636 594 656 Q547 672 424 672 Q406 672 369 672 Z " />
<glyph glyph-name="four" unicode="4" horiz-adv-x="1061" d="M649 0 L649 305 L76 305 L76 490 L432 1475 L670 1475 L326 514 L649 514 L649 1028 L871 1028 L871 514 L1035 514 L1035 305 L871 305 L871 0 L649 0 Z " />
<glyph glyph-name="five" unicode="5" horiz-adv-x="1061" d="M124 728 L174 1475 L891 1475 L891 1266 L385 1266 L360 911 Q429 942 472.5 952.5 Q516 963 580 963 Q754 963 842 864 Q960 730 960 477 Q960 226 834 91 Q722 -29 517 -29 Q238 -29 135 149 Q86 232 76 424 L304 424 Q313 316 348 262 Q401 180 511 180 Q609 180 658 249 Q718 335 718 473 Q718 610 669.5 682 Q621 754 528 754 Q400 754 291 622 L124 728 Z " />
<glyph glyph-name="six" unicode="6" horiz-adv-x="1061" d="M349 869 Q462 963 605 963 Q801 963 889 836 Q980 705 980 469 Q980 249 884 121 Q833 54 757 17 Q663 -29 552 -29 Q308 -29 189 174 Q102 323 102 661 Q102 1057 196 1272 Q298 1504 560 1504 Q894 1504 932 1112 L705 1112 Q688 1196 670 1227 Q633 1295 559 1295 Q461 1295 415.5 1202 Q370 1109 349 869 Z M543 754 Q448 754 396 679.5 Q344 605 344 467 Q344 341 390 264 Q441 180 542 180 Q635 180 686.5 254.5 Q738 329 738 465 Q738 754 543 754 Z " />
<glyph glyph-name="seven" unicode="7" horiz-adv-x="1061" d="M670 1266 L91 1266 L91 1475 L910 1475 L910 1294 L460 0 L197 0 L670 1266 Z " />
<glyph glyph-name="eight" unicode="8" horiz-adv-x="1061" d="M253 784 Q114 891 114 1094 Q114 1281 229 1392 Q344 1504 531 1504 Q734 1504 851 1373 Q948 1265 948 1094 Q948 891 807 784 Q1000 668 1000 420 Q1000 218 869 93 Q740 -29 523 -29 Q295 -29 171 111 Q61 234 61 419 Q61 665 253 784 Z M529 1303 Q438 1303 388 1246 Q338 1189 338 1086 Q338 987 388.5 932 Q439 877 531 877 Q623 877 673.5 932 Q724 987 724 1086 Q724 1190 673.5 1246.5 Q623 1303 529 1303 Z M528 676 Q421 676 362 611 Q303 546 303 429 Q303 307 365 242 Q424 180 530 180 Q638 180 698 246 Q758 312 758 430 Q758 548 698 612 Q638 676 528 676 Z " />
<glyph glyph-name="nine" unicode="9" horiz-adv-x="1061" d="M699 615 Q594 540 470 540 Q273 540 182 663 Q90 786 90 1007 Q90 1223 188 1358 Q293 1504 514 1504 Q666 1504 771 1430 Q884 1350 922 1151 Q946 1024 946 826 Q946 415 854 203 Q753 -29 489 -29 Q155 -29 117 362 L344 362 Q362 278 379 248 Q417 180 492 180 Q619 180 665 359 Q693 467 699 615 Z M509 1295 Q424 1295 378 1224 Q332 1153 332 1022 Q332 749 509 749 Q601 749 652.5 820.5 Q704 892 704 1020 Q704 1152 653.5 1223.5 Q603 1295 509 1295 Z " />
<glyph glyph-name="colon" unicode="&#x3a;" horiz-adv-x="604" d="M346 290 Q411 290 458 243 Q505 196 505 131 Q505 59 452 12 Q406 -29 344 -29 Q276 -29 229 18 Q182 65 182 132 Q182 198 230 244 Q278 290 346 290 Z M346 960 Q415 960 463 907 Q505 862 505 801 Q505 729 452 682 Q406 641 344 641 Q276 641 229 687.5 Q182 734 182 802 Q182 868 229.5 914 Q277 960 346 960 Z " />
<glyph glyph-name="semicolon" unicode="&#x3b;" horiz-adv-x="599" d="M108 -289 L270 283 L547 283 L310 -289 L108 -289 Z M407 960 Q476 960 524 907 Q566 862 566 801 Q566 729 512 682 Q466 641 405 641 Q337 641 290 688 Q243 735 243 802 Q243 868 290.5 914 Q338 960 407 960 Z " />
<glyph glyph-name="less" unicode="&#x3c;" horiz-adv-x="1061" d="M405 736 L888 444 L888 211 L167 658 L167 814 L888 1261 L888 1029 L405 736 Z " />
<glyph glyph-name="equal" unicode="&#x3d;" horiz-adv-x="1061" d="M135 455 L135 664 L924 664 L924 455 L135 455 Z M135 803 L135 1012 L924 1012 L924 803 L135 803 Z " />
<glyph glyph-name="greater" unicode="&#x3e;" horiz-adv-x="1061" d="M656 736 L173 1029 L173 1261 L894 814 L894 658 L173 211 L173 444 L656 736 Z " />
<glyph glyph-name="question" unicode="&#x3f;" horiz-adv-x="909" d="M324 444 L324 494 Q324 632 359.5 704.5 Q395 777 509 869 Q578 925 604 973.5 Q630 1022 630 1094 Q630 1187 584.5 1243 Q539 1299 464 1299 Q417 1299 378 1271.5 Q339 1244 320 1196 Q298 1144 294 1038 L74 1038 Q77 1210 132 1316 Q179 1407 269.5 1457.5 Q360 1508 475 1508 Q657 1508 765 1393 Q872 1280 872 1088 Q872 961 826 868 Q808 831 782 803.5 Q756 776 693 727 Q588 645 569 613 Q545 573 545 495 L545 444 L324 444 Z M434 290 Q499 290 546 243 Q593 196 593 131 Q593 59 540 12 Q493 -29 432 -29 Q364 -29 317 18 Q270 65 270 132 Q270 198 318 244 Q366 290 434 290 Z " />
<glyph glyph-name="at" unicode="&#x40;" horiz-adv-x="1921" d="M1150 323 Q1113 276 1101 265 Q1068 232 1014.5 212 Q961 192 907 192 Q763 192 668 307 Q576 417 576 612 Q576 816 671 933 Q759 1042 913 1042 Q987 1042 1034.5 1020 Q1082 998 1124 944 L1131 1036 L1317 1036 L1317 530 Q1317 440 1336.5 407 Q1356 374 1410 374 Q1493 374 1529 471 Q1563 563 1563 712 Q1563 998 1404 1160 Q1245 1320 983 1320 Q659 1320 493 1071 Q358 868 358 575 Q358 287 493 131 Q666 -68 1023 -68 Q1186 -68 1321 -41 Q1456 -14 1599 48 L1668 -136 Q1507 -207 1355.5 -238 Q1204 -269 1017 -269 Q609 -269 367 -53 Q116 170 116 578 Q116 960 324 1219 Q566 1521 982 1521 Q1304 1521 1523 1344 Q1676 1220 1750 1030 Q1805 887 1805 722 Q1805 479 1701 340 Q1649 269 1566 228.5 Q1483 188 1392 188 Q1216 188 1150 323 Z M945 856 Q878 856 839 791.5 Q800 727 800 617 Q800 506 839.5 442 Q879 378 947 378 Q1017 378 1060 443.5 Q1103 509 1103 616 Q1103 725 1060 790.5 Q1017 856 945 856 Z " />
<glyph glyph-name="A" unicode="A" horiz-adv-x="1171" d="M822 379 L352 379 L244 0 L-5 0 L475 1475 L699 1475 L1179 0 L930 0 L822 379 Z M762 588 L587 1202 L412 588 L762 588 Z " />
<glyph glyph-name="B" unicode="B" horiz-adv-x="1196" d="M162 0 L162 1475 L645 1475 Q1052 1475 1052 1104 Q1052 994 1018 922 Q984 850 906 796 Q1106 707 1106 446 Q1106 201 941 85 Q820 0 619 0 L162 0 Z M404 887 L595 887 Q703 887 748 921 Q810 968 810 1072 Q810 1180 764 1223 Q718 1266 603 1266 L404 1266 L404 887 Z M404 205 L567 205 Q653 205 698 214.5 Q743 224 778 249 Q854 303 854 446 Q854 686 606 686 L404 686 L404 205 Z " />
<glyph glyph-name="C" unicode="C" horiz-adv-x="1120" d="M790 449 L1033 449 Q1031 247 956 137 Q844 -29 586 -29 Q328 -29 207 156 Q155 236 125 390 Q95 544 95 736 Q95 1183 230 1351 Q352 1502 580 1502 Q860 1502 965 1302 Q1018 1202 1020 1026 L781 1026 Q775 1135 746 1189 Q695 1285 585 1285 Q461 1285 408 1161 Q347 1022 347 737 Q347 426 420 289 Q474 188 591 188 Q777 188 790 449 Z " />
<glyph glyph-name="D" unicode="D" horiz-adv-x="1284" d="M162 0 L162 1475 L571 1475 Q750 1475 870 1416 Q1040 1331 1119 1137 Q1189 965 1189 738 Q1189 367 1021 175 Q942 84 833 42 Q724 0 569 0 L162 0 Z M408 209 L562 209 Q752 209 837 325 Q937 462 937 734 Q937 1005 845 1135.5 Q753 1266 561 1266 L408 1266 L408 209 Z " />
<glyph glyph-name="E" unicode="E" horiz-adv-x="1072" d="M162 0 L162 1475 L989 1475 L989 1266 L408 1266 L408 874 L873 874 L873 665 L408 665 L408 209 L1002 209 L1002 0 L162 0 Z " />
<glyph glyph-name="F" unicode="F" horiz-adv-x="1028" d="M162 0 L162 1475 L987 1475 L987 1266 L408 1266 L408 854 L873 854 L873 645 L408 645 L408 0 L162 0 Z " />
<glyph glyph-name="G" unicode="G" horiz-adv-x="1227" d="M630 555 L630 756 L1096 756 L1096 62 Q999 20 868.5 -4.5 Q738 -29 612 -29 Q287 -29 180 200 Q95 383 95 728 Q95 1143 213 1316 Q339 1502 598 1502 Q886 1502 1000 1303 Q1058 1203 1060 1026 L818 1026 Q811 1136 780 1190 Q724 1285 606 1285 Q466 1285 407 1148 Q347 1008 347 733 Q347 443 417 305 Q477 188 621 188 Q729 188 854 241 L854 555 L630 555 Z " />
<glyph glyph-name="H" unicode="H" horiz-adv-x="1296" d="M162 0 L162 1475 L408 1475 L408 879 L888 879 L888 1475 L1134 1475 L1134 0 L888 0 L888 670 L408 670 L408 0 L162 0 Z " />
<glyph glyph-name="I" unicode="I" horiz-adv-x="569" d="M162 0 L162 1475 L408 1475 L408 0 L162 0 Z " />
<glyph glyph-name="J" unicode="J" horiz-adv-x="578" d="M170 1475 L416 1475 L416 177 Q416 7 395 -84.5 Q374 -176 322 -233 Q274 -287 202 -311.5 Q130 -336 9 -341 L9 -131 Q60 -127 82.5 -118 Q105 -109 124 -85 Q170 -26 170 140 L170 1475 Z " />
<glyph glyph-name="K" unicode="K" horiz-adv-x="1107" d="M162 0 L162 1475 L408 1475 L408 804 L842 1475 L1119 1475 L660 792 L1176 0 L880 0 L408 758 L408 0 L162 0 Z " />
<glyph glyph-name="L" unicode="L" horiz-adv-x="968" d="M162 0 L162 1475 L408 1475 L408 209 L934 209 L934 0 L162 0 Z " />
<glyph glyph-name="M" unicode="M" horiz-adv-x="1595" d="M90 0 L232 1475 L482 1475 L797 423 L1113 1475 L1362 1475 L1504 0 L1265 0 L1181 1026 L873 0 L722 0 L414 1026 L329 0 L90 0 Z " />
<glyph glyph-name="N" unicode="N" horiz-adv-x="1280" d="M162 0 L162 1475 L410 1475 L887 520 L887 1475 L1119 1475 L1119 -18 L924 -18 L394 1049 L394 0 L162 0 Z " />
<glyph glyph-name="O" unicode="O" horiz-adv-x="1238" d="M628 1504 Q841 1504 973 1376 Q1142 1211 1142 737 Q1142 423 1065 236 Q1010 100 883 33 Q767 -29 618 -29 Q394 -29 264 98 Q95 263 95 734 Q95 1056 171 1239 Q229 1375 353 1442 Q469 1504 628 1504 Z M614 1287 Q467 1287 410 1154 Q347 1007 347 737 Q347 468 410 321 Q467 188 619 188 Q770 188 827 321 Q890 469 890 733 Q890 1027 825 1157 Q760 1287 614 1287 Z " />
<glyph glyph-name="P" unicode="P" horiz-adv-x="1130" d="M162 0 L162 1475 L525 1475 Q681 1475 764.5 1455.5 Q848 1436 911 1385 Q985 1325 1025.5 1226.5 Q1066 1128 1066 1007 Q1066 773 933 659 Q800 545 527 545 L408 545 L408 0 L162 0 Z M408 750 L537 750 Q620 750 662.5 760.5 Q705 771 739 799 Q814 861 814 1013 Q814 1151 753 1212 Q698 1266 547 1266 L408 1266 L408 750 Z " />
<glyph glyph-name="Q" unicode="Q" horiz-adv-x="1240" d="M1131 -138 L1175 -347 Q1071 -403 976 -403 Q923 -403 878.5 -386.5 Q834 -370 696 -299 Q610 -254 546 -254 Q485 -254 429 -276.5 Q373 -299 290 -357 L234 -148 Q415 -45 551 -45 Q671 -45 894 -157 Q953 -186 1000 -186 Q1049 -186 1131 -138 Z M629 1504 Q841 1504 973 1376 Q1142 1211 1142 737 Q1142 423 1065 236 Q1010 100 883 33 Q767 -29 619 -29 Q394 -29 264 98 Q95 263 95 733 Q95 1056 171 1239 Q228 1375 353 1442 Q469 1504 629 1504 Z M614 1287 Q467 1287 410 1153 Q347 1007 347 737 Q347 468 410 321 Q467 188 619 188 Q770 188 827 321 Q890 469 890 733 Q890 1026 825 1156.5 Q760 1287 614 1287 Z " />
<glyph glyph-name="R" unicode="R" horiz-adv-x="1162" d="M157 0 L157 1475 L574 1475 Q812 1475 916 1402 Q984 1354 1023 1260.5 Q1062 1167 1062 1050 Q1062 867 982 764 Q946 717 870 671 Q919 645 944 596 Q969 547 1000 415 L1097 0 L837 0 L782 271 Q745 451 710 507 Q683 550 637 567.5 Q591 585 506 585 L403 585 L403 0 L157 0 Z M403 788 L567 788 Q701 788 751 837 Q810 896 810 1031 Q810 1172 740 1227 Q690 1266 566 1266 L403 1266 L403 788 Z " />
<glyph glyph-name="S" unicode="S" horiz-adv-x="1078" d="M76 449 L315 449 Q320 333 353 280 Q408 188 542 188 Q651 188 706 249 Q758 307 758 404 Q758 499 706 554 Q674 587 630.5 608.5 Q587 630 465 671 Q286 732 215 794 Q108 888 108 1084 Q108 1260 193 1372 Q294 1504 506 1504 Q781 1504 883 1313 Q934 1217 935 1040 L696 1040 Q689 1155 664 1200 Q614 1287 507 1287 Q350 1287 350 1117 Q350 1014 412 965 Q444 940 481.5 923.5 Q519 907 611 879 Q736 839 806 798.5 Q876 758 921 696 Q1000 590 1000 424 Q1000 223 891 102 Q773 -29 541 -29 Q246 -29 134 168 Q77 269 76 449 Z " />
<glyph glyph-name="T" unicode="T" horiz-adv-x="958" d="M355 0 L355 1266 L33 1266 L33 1475 L924 1475 L924 1266 L601 1266 L601 0 L355 0 Z " />
<glyph glyph-name="U" unicode="U" horiz-adv-x="1241" d="M154 1475 L400 1475 L400 480 Q400 351 424 291 Q465 186 621 186 Q777 186 818 291 Q842 351 842 480 L842 1475 L1088 1475 L1088 524 Q1088 343 1068 256 Q1001 -31 621 -31 Q330 -31 226 133 Q183 199 168.5 279 Q154 359 154 524 L154 1475 Z " />
<glyph glyph-name="V" unicode="V" horiz-adv-x="1075" d="M446 -31 L16 1475 L270 1475 L538 411 L806 1475 L1060 1475 L629 -31 L446 -31 Z " />
<glyph glyph-name="W" unicode="W" horiz-adv-x="1667" d="M382 -31 L81 1475 L335 1475 L502 443 L767 1479 L901 1479 L1166 443 L1333 1475 L1587 1475 L1286 -31 L1092 -31 L834 995 L575 -31 L382 -31 Z " />
<glyph glyph-name="X" unicode="X" horiz-adv-x="1073" d="M398 768 L29 1475 L295 1475 L565 965 L766 1475 L1043 1475 L673 750 L1064 0 L798 0 L505 554 L276 0 L0 0 L398 768 Z " />
<glyph glyph-name="Y" unicode="Y" horiz-adv-x="1037" d="M395 0 L395 565 L-29 1475 L239 1475 L518 800 L797 1475 L1065 1475 L641 565 L641 0 L395 0 Z " />
<glyph glyph-name="Z" unicode="Z" horiz-adv-x="958" d="M19 0 L19 191 L606 1266 L72 1266 L72 1475 L884 1475 L884 1312 L297 209 L924 209 L924 0 L19 0 Z " />
<glyph glyph-name="bracketleft" unicode="&#x5b;" horiz-adv-x="778" d="M274 -356 L274 1573 L706 1573 L706 1391 L516 1391 L516 -161 L706 -161 L706 -356 L274 -356 Z " />
<glyph glyph-name="backslash" unicode="&#x5c;" horiz-adv-x="765" d="M774 -184 L546 -184 L61 1475 L289 1475 L774 -184 Z " />
<glyph glyph-name="bracketright" unicode="&#x5d;" horiz-adv-x="778" d="M510 1573 L510 -356 L68 -356 L68 -174 L268 -174 L268 1378 L68 1378 L68 1573 L510 1573 Z " />
<glyph glyph-name="asciicircum" unicode="&#x5e;" horiz-adv-x="1061" d="M530 1286 L300 893 L51 893 L448 1475 L612 1475 L1009 893 L760 893 L530 1286 Z " />
<glyph glyph-name="underscore" unicode="&#x5f;" horiz-adv-x="843" d="M-18 -422 L-18 -213 L860 -213 L860 -422 L-18 -422 Z " />
<glyph glyph-name="grave" unicode="&#x60;" horiz-adv-x="1024" d="M482 1216 L244 1558 L480 1558 L637 1216 L482 1216 Z " />
<glyph glyph-name="a" unicode="a" horiz-adv-x="1033" d="M694 130 Q657 53 581 10.5 Q505 -32 403 -32 Q252 -32 168 61 Q84 154 84 321 Q84 501 170.5 582.5 Q257 664 447 664 Q530 664 669 652 L669 725 Q669 843 633 891 Q597 939 509 939 Q441 939 412.5 909 Q384 879 372 795 L149 795 Q160 933 205 1002 Q288 1132 513 1132 Q722 1132 809.5 1044.5 Q897 957 897 747 L897 0 L694 0 L694 130 Z M675 483 Q560 494 477 494 Q395 494 362 460 Q324 420 324 328 Q324 160 471 160 Q588 160 639 249 Q675 311 675 403 L675 483 Z " />
<glyph glyph-name="b" unicode="b" horiz-adv-x="1063" d="M150 0 L150 1516 L388 1516 L388 1053 Q479 1134 609 1134 Q727 1134 816 1067 Q978 945 978 551 Q978 265 892 120 Q851 49 775 8.5 Q699 -32 608 -32 Q445 -32 360 80 L357 0 L150 0 Z M560 927 Q465 927 426.5 843 Q388 759 388 551 Q388 372 416 284 Q450 175 564 175 Q660 175 698 257.5 Q736 340 736 547 Q736 733 709 818 Q673 927 560 927 Z " />
<glyph glyph-name="c" unicode="c" horiz-adv-x="930" d="M760 280 L889 101 Q838 60 806 41 Q683 -32 517 -32 Q285 -32 183 120 Q85 265 85 551 Q85 1134 501 1134 Q738 1134 828 951 Q870 866 872 724 L642 724 Q629 927 502 927 Q455 927 415.5 898.5 Q376 870 359 822 Q327 734 327 546 Q327 333 368.5 254 Q410 175 520 175 Q593 175 645 198 Q697 221 760 280 Z " />
<glyph glyph-name="d" unicode="d" horiz-adv-x="1063" d="M706 0 L703 80 Q618 -32 456 -32 Q337 -32 247 35 Q85 157 85 551 Q85 835 171 982 Q220 1065 313 1106 Q379 1134 455 1134 Q591 1134 676 1053 L676 1516 L913 1516 L913 0 L706 0 Z M496 927 Q402 927 364.5 843 Q327 759 327 551 Q327 372 354 284 Q388 175 500 175 Q598 175 637 257.5 Q676 340 676 547 Q676 733 648 819 Q612 927 496 927 Z " />
<glyph glyph-name="e" unicode="e" horiz-adv-x="1018" d="M930 478 L316 478 Q325 303 371 239 Q417 175 535 175 Q617 175 670.5 197 Q724 219 790 281 L918 101 Q867 61 833 42 Q706 -32 531 -32 Q289 -32 184 120 Q85 266 85 552 Q85 838 182 982 Q283 1134 509 1134 Q933 1134 933 574 Q933 537 930 478 Z M703 653 Q697 761 680 811 Q657 877 617 905 Q577 933 505 933 Q439 933 400 903.5 Q361 874 341 808 Q326 759 317 653 L703 653 Z " />
<glyph glyph-name="f" unicode="f" horiz-adv-x="679" d="M189 0 L189 895 L67 895 L67 1102 L189 1102 L189 1165 Q189 1360 262.5 1446 Q336 1532 503 1532 Q588 1532 682 1515 L669 1319 Q596 1331 559 1331 Q480 1331 453.5 1293 Q427 1255 427 1142 L427 1102 L650 1102 L650 895 L427 895 L427 0 L189 0 Z " />
<glyph glyph-name="g" unicode="g" horiz-adv-x="1063" d="M675 73 Q590 -6 454 -6 Q336 -6 247 59 Q85 179 85 564 Q85 843 171 986 Q213 1055 288.5 1094.5 Q364 1134 454 1134 Q535 1134 586 1112.5 Q637 1091 699 1030 L699 1102 L913 1102 L913 174 Q913 -2 898.5 -98 Q884 -194 845 -272 Q798 -367 708 -418 Q618 -469 496 -469 Q317 -469 203 -415 Q193 -411 100 -358 L201 -167 Q305 -232 354 -250 Q403 -268 474 -268 Q549 -268 592.5 -237.5 Q636 -207 654 -140 Q675 -61 675 58 L675 73 Z M496 927 Q402 927 364.5 846 Q327 765 327 563 Q327 392 354 306 Q388 201 499 201 Q611 201 648 306 Q663 350 667 393 Q671 436 671 551 Q671 688 667 733.5 Q663 779 647 822 Q609 927 496 927 Z " />
<glyph glyph-name="h" unicode="h" horiz-adv-x="1099" d="M150 0 L150 1516 L388 1516 L388 1006 Q494 1087 546 1110.5 Q598 1134 673 1134 Q826 1134 890.5 1040 Q955 946 955 725 L955 0 L718 0 L718 708 Q718 808 702 851 Q678 917 605 917 Q554 917 508.5 888.5 Q463 860 388 782 L388 0 L150 0 Z " />
<glyph glyph-name="i" unicode="i" horiz-adv-x="538" d="M152 0 L152 1102 L389 1102 L389 0 L152 0 Z M274 1523 Q334 1523 377.5 1478.5 Q421 1434 421 1373 Q421 1306 372 1261 Q329 1222 272 1222 Q209 1222 164.5 1266.5 Q120 1311 120 1374 Q120 1436 165 1479.5 Q210 1523 274 1523 Z " />
<glyph glyph-name="j" unicode="j" horiz-adv-x="553" d="M167 1102 L405 1102 L405 47 Q405 -116 385.5 -201.5 Q366 -287 318 -339 Q233 -430 38 -442 L38 -236 Q77 -232 95.5 -222 Q114 -212 130 -186 Q152 -151 159.5 -108.5 Q167 -66 167 21 L167 1102 Z M289 1523 Q349 1523 392.5 1478.5 Q436 1434 436 1373 Q436 1306 387 1261 Q344 1222 286 1222 Q224 1222 179.5 1266.5 Q135 1311 135 1374 Q135 1436 180 1479.5 Q225 1523 289 1523 Z " />
<glyph glyph-name="k" unicode="k" horiz-adv-x="958" d="M150 0 L150 1516 L388 1516 L388 655 L684 1102 L953 1102 L629 633 L997 0 L722 0 L388 612 L388 0 L150 0 Z " />
<glyph glyph-name="l" unicode="l" horiz-adv-x="537" d="M150 0 L150 1516 L388 1516 L388 0 L150 0 Z " />
<glyph glyph-name="m" unicode="m" horiz-adv-x="1581" d="M150 0 L150 1102 L388 1102 L388 1006 Q403 1018 410 1024 Q488 1089 537 1111.5 Q586 1134 650 1134 Q830 1134 881 979 Q988 1073 1045 1103.5 Q1102 1134 1174 1134 Q1317 1134 1377 1040.5 Q1437 947 1437 725 L1437 0 L1199 0 L1199 708 Q1199 808 1186 850 Q1166 917 1107 917 Q1061 917 1018.5 887 Q976 857 912 781 L912 0 L675 0 L675 718 Q675 826 654 871.5 Q633 917 583 917 Q537 917 494.5 887 Q452 857 388 781 L388 0 L150 0 Z " />
<glyph glyph-name="n" unicode="n" horiz-adv-x="1099" d="M150 0 L150 1102 L388 1102 L388 1006 Q493 1087 544.5 1110.5 Q596 1134 672 1134 Q825 1134 890 1040.5 Q955 947 955 725 L955 0 L718 0 L718 708 Q718 807 702 851 Q678 917 606 917 Q554 917 507 887.5 Q460 858 388 781 L388 0 L150 0 Z " />
<glyph glyph-name="o" unicode="o" horiz-adv-x="1027" d="M520 1134 Q655 1134 755 1068 Q942 946 942 551 Q942 265 844 120 Q786 35 682 -3 Q603 -32 513 -32 Q286 -32 183 120 Q85 265 85 548 Q85 839 183 982 Q287 1134 520 1134 Z M511 927 Q408 927 367.5 844.5 Q327 762 327 551 Q327 319 375 243 Q417 175 513 175 Q619 175 659.5 257 Q700 339 700 553 Q700 765 659 846 Q618 927 511 927 Z " />
<glyph glyph-name="p" unicode="p" horiz-adv-x="1063" d="M150 -439 L150 1102 L362 1102 L362 1028 Q459 1134 609 1134 Q728 1134 816 1067 Q978 945 978 551 Q978 265 892 120 Q851 49 775 8.5 Q699 -32 610 -32 Q471 -32 388 50 L388 -439 L150 -439 Z M559 927 Q465 927 426.5 843 Q388 759 388 551 Q388 372 416 284 Q450 175 564 175 Q660 175 698 257.5 Q736 340 736 547 Q736 733 709 818 Q674 927 559 927 Z " />
<glyph glyph-name="q" unicode="q" horiz-adv-x="1063" d="M676 -439 L676 50 Q591 -32 455 -32 Q337 -32 247 35 Q85 157 85 551 Q85 835 171 982 Q220 1065 313 1106 Q378 1134 455 1134 Q615 1134 699 1028 L699 1102 L913 1102 L913 -439 L676 -439 Z M496 927 Q402 927 364.5 843 Q327 759 327 551 Q327 371 355 283 Q389 175 500 175 Q598 175 637 257.5 Q676 340 676 547 Q676 733 648 819 Q612 927 496 927 Z " />
<glyph glyph-name="r" unicode="r" horiz-adv-x="712" d="M150 0 L150 1102 L376 1102 L376 983 Q503 1116 652 1117 L677 1117 L677 886 L650 886 Q555 886 502 860 Q449 834 388 758 L388 0 L150 0 Z " />
<glyph glyph-name="s" unicode="s" horiz-adv-x="906" d="M55 351 L270 351 Q277 270 300 235 Q349 161 454 161 Q537 161 576 196 Q615 231 615 305 Q615 389 563 419 Q532 437 422 464 Q258 503 186 561 Q84 642 84 794 Q84 951 176.5 1042.5 Q269 1134 429 1134 Q659 1134 752 970 Q796 893 800 773 L585 773 Q578 864 545.5 903 Q513 942 444 942 Q326 942 326 816 Q326 734 387 704 Q416 690 518 662 Q611 636 653.5 618 Q696 600 732 572 Q839 487 839 317 Q839 144 733 54 Q632 -32 456 -32 Q199 -32 102 135 Q56 213 55 351 Z " />
<glyph glyph-name="t" unicode="t" horiz-adv-x="694" d="M179 895 L57 895 L57 1102 L184 1102 L197 1424 L417 1424 L417 1102 L640 1102 L640 895 L417 895 L417 344 Q417 254 436 229.5 Q455 205 523 205 L663 205 L663 0 L569 0 Q440 0 383.5 10.5 Q327 21 279 54 Q220 94 199.5 153 Q179 212 179 340 L179 895 Z " />
<glyph glyph-name="u" unicode="u" horiz-adv-x="1069" d="M144 1102 L382 1102 L382 394 Q382 293 396 251 Q417 185 481 185 Q573 185 681 321 L681 1102 L919 1102 L919 0 L681 0 L681 96 Q606 24 547.5 -4 Q489 -32 414 -32 Q267 -32 205.5 61.5 Q144 155 144 377 L144 1102 Z " />
<glyph glyph-name="v" unicode="v" horiz-adv-x="882" d="M336 -22 L8 1102 L263 1102 L442 310 L621 1102 L875 1102 L547 -22 L336 -22 Z " />
<glyph glyph-name="w" unicode="w" horiz-adv-x="1367" d="M276 -22 L31 1102 L270 1102 L409 349 L611 1102 L756 1102 L958 349 L1097 1102 L1336 1102 L1091 -22 L881 -22 L684 720 L486 -22 L276 -22 Z " />
<glyph glyph-name="x" unicode="x" horiz-adv-x="874" d="M297 582 L5 1102 L260 1102 L463 743 L615 1102 L859 1102 L559 571 L879 0 L625 0 L397 403 L237 0 L-8 0 L297 582 Z " />
<glyph glyph-name="y" unicode="y" horiz-adv-x="882" d="M331 -3 L8 1102 L262 1102 L441 309 L620 1102 L875 1102 L587 51 Q502 -259 406 -356 Q361 -402 299 -420.5 Q237 -439 122 -440 L122 -234 Q196 -234 228 -210 Q276 -179 319 -44 L331 -3 Z " />
<glyph glyph-name="z" unicode="z" horiz-adv-x="799" d="M29 0 L29 193 L455 895 L68 895 L68 1102 L727 1102 L727 921 L286 207 L741 207 L741 0 L29 0 Z " />
<glyph glyph-name="braceleft" unicode="&#x7b;" horiz-adv-x="778" d="M367 645 Q438 608 463 537.5 Q488 467 488 301 L488 40 Q488 -95 520 -137 Q548 -174 620 -174 L675 -174 L675 -356 L589 -356 Q483 -356 430.5 -344.5 Q378 -333 336 -300 Q286 -260 266 -192 Q246 -124 246 10 L246 285 Q246 374 236.5 421.5 Q227 469 202 504 Q182 531 165.5 539.5 Q149 548 106 553 L106 737 Q154 741 175 753.5 Q196 766 214 800 Q246 860 246 1006 L246 1208 Q246 1342 263 1408.5 Q280 1475 324 1511 Q365 1545 422 1558 Q479 1571 589 1571 L675 1571 L675 1391 L619 1391 Q540 1391 514 1348 Q488 1305 488 1177 L488 972 Q488 820 463 752.5 Q438 685 367 645 Z " />
<glyph glyph-name="bar" unicode="&#x7c;" horiz-adv-x="677" d="M216 -438 L216 1567 L461 1567 L461 -438 L216 -438 Z " />
<glyph glyph-name="braceright" unicode="&#x7d;" horiz-adv-x="778" d="M419 645 Q348 685 325 749 Q298 823 298 972 L298 1177 Q298 1305 270.5 1348 Q243 1391 162 1391 L103 1391 L103 1571 L193 1571 Q313 1571 374 1555.5 Q435 1540 475 1500 Q511 1464 525.5 1398.5 Q540 1333 540 1208 L540 1006 Q540 860 570 800 Q587 766 607 753.5 Q627 741 672 737 L672 553 Q631 548 615.5 539.5 Q600 531 582 504 Q558 468 549 421.5 Q540 375 540 285 L540 10 Q540 -130 518 -199.5 Q496 -269 438 -308 Q397 -336 347 -346 Q297 -356 193 -356 L103 -356 L103 -174 L160 -174 Q242 -174 270 -130.5 Q298 -87 298 40 L298 301 Q298 466 323 537 Q348 608 419 645 Z " />
<glyph glyph-name="asciitilde" unicode="&#x7e;" horiz-adv-x="1061" d="M212 563 L72 703 Q224 918 371 918 Q455 918 543 856 Q622 801 640 791.5 Q658 782 687 782 Q723 782 757 809 Q791 836 848 911 L990 773 Q827 555 694 555 Q619 555 529 615 Q450 668 426.5 679.5 Q403 691 373 691 Q315 691 265 629 L212 563 Z " />
<glyph glyph-name="Adieresis" unicode="&#xc4;" horiz-adv-x="1171" d="M822 379 L352 379 L244 0 L-5 0 L475 1475 L699 1475 L1179 0 L930 0 L822 379 Z M762 588 L587 1202 L412 588 L762 588 Z M400 1884 Q456 1884 495.5 1843.5 Q535 1803 535 1746 Q535 1689 495 1648.5 Q455 1608 398 1608 Q341 1608 300 1649 Q259 1690 259 1747 Q259 1804 300 1844 Q341 1884 400 1884 Z M777 1884 Q833 1884 872.5 1843.5 Q912 1803 912 1746 Q912 1689 872 1648.5 Q832 1608 775 1608 Q718 1608 677 1649 Q636 1690 636 1747 Q636 1804 677 1844 Q718 1884 777 1884 Z " />
<glyph glyph-name="Aring" unicode="&#xc5;" horiz-adv-x="1171" d="M822 379 L352 379 L244 0 L-5 0 L475 1475 L699 1475 L1179 0 L930 0 L822 379 Z M762 588 L587 1202 L412 588 L762 588 Z M590 2036 Q697 2036 759.5 1974.5 Q822 1913 822 1809 Q822 1704 759 1643.5 Q696 1583 587 1583 Q470 1583 407 1652 Q351 1713 351 1809 Q351 1916 414.5 1976 Q478 2036 590 2036 Z M585 1907 Q492 1907 492 1809 Q492 1712 587 1712 Q681 1712 681 1809 Q681 1907 585 1907 Z " />
<glyph glyph-name="Ccedilla" unicode="&#xc7;" horiz-adv-x="1120" d="M790 449 L1033 449 Q1038 33 679 -21 L653 -86 Q818 -104 818 -280 Q818 -396 743 -453 Q686 -496 587 -496 Q476 -496 363 -455 L410 -302 Q508 -336 575 -336 Q609 -336 623.5 -321.5 Q638 -307 638 -273 Q638 -243 623 -231 Q608 -219 572 -219 Q546 -219 493 -223 L466 -107 L504 -23 Q361 -2 274 78 Q202 143 169 231 Q95 427 95 736 Q95 1183 230 1351 Q352 1502 580 1502 Q860 1502 965 1302 Q1018 1202 1020 1026 L781 1026 Q775 1135 746 1189 Q695 1285 585 1285 Q462 1285 408 1161 Q347 1022 347 738 Q347 426 420 290 Q474 189 591 189 Q777 189 790 449 Z " />
<glyph glyph-name="Eacute" unicode="&#xc9;" horiz-adv-x="1072" d="M162 0 L162 1475 L989 1475 L989 1266 L408 1266 L408 874 L873 874 L873 665 L408 665 L408 209 L1002 209 L1002 0 L162 0 Z M475 1604 L632 1946 L868 1946 L631 1604 L475 1604 Z " />
<glyph glyph-name="Ntilde" unicode="&#xd1;" horiz-adv-x="1280" d="M162 0 L162 1475 L410 1475 L887 520 L887 1475 L1119 1475 L1119 -18 L924 -18 L394 1049 L394 0 L162 0 Z M505 1634 L373 1634 Q382 1733 408 1783 Q454 1870 553 1870 Q604 1870 663 1830 Q718 1794 742 1794 Q786 1794 787 1870 L920 1870 Q910 1761 879 1709 Q832 1628 730 1628 Q698 1628 679.5 1636 Q661 1644 596 1685 Q567 1704 548 1704 Q516 1704 505 1634 Z " />
<glyph glyph-name="Odieresis" unicode="&#xd6;" horiz-adv-x="1238" d="M628 1504 Q841 1504 973 1376 Q1142 1211 1142 737 Q1142 423 1065 236 Q1010 100 883 33 Q767 -29 618 -29 Q394 -29 264 98 Q95 263 95 734 Q95 1056 171 1239 Q229 1375 353 1442 Q469 1504 628 1504 Z M614 1287 Q467 1287 410 1154 Q347 1007 347 737 Q347 468 410 321 Q467 188 619 188 Q770 188 827 321 Q890 469 890 733 Q890 1027 825 1157 Q760 1287 614 1287 Z M433 1884 Q489 1884 528.5 1843.5 Q568 1803 568 1746 Q568 1689 528 1648.5 Q488 1608 431 1608 Q374 1608 333 1649 Q292 1690 292 1747 Q292 1804 333 1844 Q374 1884 433 1884 Z M810 1884 Q866 1884 905.5 1843.5 Q945 1803 945 1746 Q945 1689 905 1648.5 Q865 1608 808 1608 Q751 1608 710 1649 Q669 1690 669 1747 Q669 1804 710 1844 Q751 1884 810 1884 Z " />
<glyph glyph-name="Udieresis" unicode="&#xdc;" horiz-adv-x="1241" d="M154 1475 L400 1475 L400 480 Q400 351 424 291 Q465 186 621 186 Q777 186 818 291 Q842 351 842 480 L842 1475 L1088 1475 L1088 524 Q1088 343 1068 256 Q1001 -31 621 -31 Q330 -31 226 133 Q183 199 168.5 279 Q154 359 154 524 L154 1475 Z M435 1884 Q491 1884 530.5 1843.5 Q570 1803 570 1746 Q570 1689 530 1648.5 Q490 1608 433 1608 Q376 1608 335 1649 Q294 1690 294 1747 Q294 1804 335 1844 Q376 1884 435 1884 Z M812 1884 Q868 1884 907.5 1843.5 Q947 1803 947 1746 Q947 1689 907 1648.5 Q867 1608 810 1608 Q753 1608 712 1649 Q671 1690 671 1747 Q671 1804 712 1844 Q753 1884 812 1884 Z " />
<glyph glyph-name="aacute" unicode="&#xe1;" horiz-adv-x="1033" d="M694 130 Q657 53 581 10.5 Q505 -32 403 -32 Q252 -32 168 61 Q84 154 84 321 Q84 501 170.5 582.5 Q257 664 447 664 Q530 664 669 652 L669 725 Q669 843 633 891 Q597 939 509 939 Q441 939 412.5 909 Q384 879 372 795 L149 795 Q160 933 205 1002 Q288 1132 513 1132 Q722 1132 809.5 1044.5 Q897 957 897 747 L897 0 L694 0 L694 130 Z M675 483 Q560 494 477 494 Q395 494 362 460 Q324 420 324 328 Q324 160 471 160 Q588 160 639 249 Q675 311 675 403 L675 483 Z M398 1216 L555 1558 L791 1558 L554 1216 L398 1216 Z " />
<glyph glyph-name="agrave" unicode="&#xe0;" horiz-adv-x="1033" d="M694 130 Q657 53 581 10.5 Q505 -32 403 -32 Q252 -32 168 61 Q84 154 84 321 Q84 501 170.5 582.5 Q257 664 447 664 Q530 664 669 652 L669 725 Q669 843 633 891 Q597 939 509 939 Q441 939 412.5 909 Q384 879 372 795 L149 795 Q160 933 205 1002 Q288 1132 513 1132 Q722 1132 809.5 1044.5 Q897 957 897 747 L897 0 L694 0 L694 130 Z M675 483 Q560 494 477 494 Q395 494 362 460 Q324 420 324 328 Q324 160 471 160 Q588 160 639 249 Q675 311 675 403 L675 483 Z M477 1216 L239 1558 L475 1558 L632 1216 L477 1216 Z " />
<glyph glyph-name="acircumflex" unicode="&#xe2;" horiz-adv-x="1033" d="M694 130 Q657 53 581 10.5 Q505 -32 403 -32 Q252 -32 168 61 Q84 154 84 321 Q84 501 170.5 582.5 Q257 664 447 664 Q530 664 669 652 L669 725 Q669 843 633 891 Q597 939 509 939 Q441 939 412.5 909 Q384 879 372 795 L149 795 Q160 933 205 1002 Q288 1132 513 1132 Q722 1132 809.5 1044.5 Q897 957 897 747 L897 0 L694 0 L694 130 Z M675 483 Q560 494 477 494 Q395 494 362 460 Q324 420 324 328 Q324 160 471 160 Q588 160 639 249 Q675 311 675 403 L675 483 Z M520 1408 L405 1216 L190 1216 L447 1558 L593 1558 L850 1216 L635 1216 L520 1408 Z " />
<glyph glyph-name="adieresis" unicode="&#xe4;" horiz-adv-x="1033" d="M694 130 Q657 53 581 10.5 Q505 -32 403 -32 Q252 -32 168 61 Q84 154 84 321 Q84 501 170.5 582.5 Q257 664 447 664 Q530 664 669 652 L669 725 Q669 843 633 891 Q597 939 509 939 Q441 939 412.5 909 Q384 879 372 795 L149 795 Q160 933 205 1002 Q288 1132 513 1132 Q722 1132 809.5 1044.5 Q897 957 897 747 L897 0 L694 0 L694 130 Z M675 483 Q560 494 477 494 Q395 494 362 460 Q324 420 324 328 Q324 160 471 160 Q588 160 639 249 Q675 311 675 403 L675 483 Z M344 1511 Q400 1511 439.5 1470.5 Q479 1430 479 1373 Q479 1316 439 1275.5 Q399 1235 342 1235 Q285 1235 244 1276 Q203 1317 203 1374 Q203 1431 244 1471 Q285 1511 344 1511 Z M692 1511 Q748 1511 787.5 1470.5 Q827 1430 827 1373 Q827 1316 787 1275.5 Q747 1235 690 1235 Q633 1235 592 1276 Q551 1317 551 1374 Q551 1431 592 1471 Q633 1511 692 1511 Z " />
<glyph glyph-name="atilde" unicode="&#xe3;" horiz-adv-x="1033" d="M694 130 Q657 53 581 10.5 Q505 -32 403 -32 Q252 -32 168 61 Q84 154 84 321 Q84 501 170.5 582.5 Q257 664 447 664 Q530 664 669 652 L669 725 Q669 843 633 891 Q597 939 509 939 Q441 939 412.5 909 Q384 879 372 795 L149 795 Q160 933 205 1002 Q288 1132 513 1132 Q722 1132 809.5 1044.5 Q897 957 897 747 L897 0 L694 0 L694 130 Z M675 483 Q560 494 477 494 Q395 494 362 460 Q324 420 324 328 Q324 160 471 160 Q588 160 639 249 Q675 311 675 403 L675 483 Z M374 1261 L242 1261 Q251 1360 277 1410 Q323 1497 422 1497 Q471 1497 532 1457 Q587 1421 611 1421 Q655 1421 656 1497 L789 1497 Q779 1388 748 1336 Q701 1255 599 1255 Q567 1255 548.5 1263 Q530 1271 465 1312 Q436 1331 417 1331 Q385 1331 374 1261 Z " />
<glyph glyph-name="aring" unicode="&#xe5;" horiz-adv-x="1033" d="M694 130 Q657 53 581 10.5 Q505 -32 403 -32 Q252 -32 168 61 Q84 154 84 321 Q84 501 170.5 582.5 Q257 664 447 664 Q530 664 669 652 L669 725 Q669 843 633 891 Q597 939 509 939 Q441 939 412.5 909 Q384 879 372 795 L149 795 Q160 933 205 1002 Q288 1132 513 1132 Q722 1132 809.5 1044.5 Q897 957 897 747 L897 0 L694 0 L694 130 Z M675 483 Q560 494 477 494 Q395 494 362 460 Q324 420 324 328 Q324 160 471 160 Q588 160 639 249 Q675 311 675 403 L675 483 Z M519 1663 Q626 1663 688.5 1601.5 Q751 1540 751 1436 Q751 1330 688 1269 Q625 1208 516 1208 Q399 1208 336 1277 Q280 1339 280 1435 Q280 1542 343.5 1602.5 Q407 1663 519 1663 Z M514 1534 Q421 1534 421 1435 Q421 1337 516 1337 Q610 1337 610 1435 Q610 1534 514 1534 Z " />
<glyph glyph-name="ccedilla" unicode="&#xe7;" horiz-adv-x="930" d="M589 -28 L565 -86 Q730 -104 730 -280 Q730 -396 655 -453 Q598 -496 499 -496 Q386 -496 275 -455 L322 -302 Q422 -336 486 -336 Q520 -336 535 -321.5 Q550 -307 550 -273 Q550 -243 535 -231 Q520 -219 483 -219 Q456 -219 405 -224 L378 -108 L416 -23 Q308 -1 238 58 Q85 188 85 551 Q85 1134 501 1134 Q738 1134 828 951 Q870 866 872 724 L642 724 Q629 927 502 927 Q455 927 415.5 898.5 Q376 870 359 822 Q327 734 327 546 Q327 333 368.5 254 Q410 175 520 175 Q593 175 645 198 Q697 221 760 280 L889 101 Q812 40 747 12 Q682 -16 589 -28 Z " />
<glyph glyph-name="eacute" unicode="&#xe9;" horiz-adv-x="1018" d="M930 478 L316 478 Q325 303 371 239 Q417 175 535 175 Q617 175 670.5 197 Q724 219 790 281 L918 101 Q867 61 833 42 Q706 -32 531 -32 Q289 -32 184 120 Q85 266 85 552 Q85 838 182 982 Q283 1134 509 1134 Q933 1134 933 574 Q933 537 930 478 Z M703 653 Q697 761 680 811 Q657 877 617 905 Q577 933 505 933 Q439 933 400 903.5 Q361 874 341 808 Q326 759 317 653 L703 653 Z M400 1216 L557 1558 L793 1558 L556 1216 L400 1216 Z " />
<glyph glyph-name="egrave" unicode="&#xe8;" horiz-adv-x="1018" d="M930 478 L316 478 Q325 303 371 239 Q417 175 535 175 Q617 175 670.5 197 Q724 219 790 281 L918 101 Q867 61 833 42 Q706 -32 531 -32 Q289 -32 184 120 Q85 266 85 552 Q85 838 182 982 Q283 1134 509 1134 Q933 1134 933 574 Q933 537 930 478 Z M703 653 Q697 761 680 811 Q657 877 617 905 Q577 933 505 933 Q439 933 400 903.5 Q361 874 341 808 Q326 759 317 653 L703 653 Z M478 1216 L240 1558 L476 1558 L633 1216 L478 1216 Z " />
<glyph glyph-name="ecircumflex" unicode="&#xea;" horiz-adv-x="1018" d="M930 478 L316 478 Q325 303 371 239 Q417 175 535 175 Q617 175 670.5 197 Q724 219 790 281 L918 101 Q867 61 833 42 Q706 -32 531 -32 Q289 -32 184 120 Q85 266 85 552 Q85 838 182 982 Q283 1134 509 1134 Q933 1134 933 574 Q933 537 930 478 Z M703 653 Q697 761 680 811 Q657 877 617 905 Q577 933 505 933 Q439 933 400 903.5 Q361 874 341 808 Q326 759 317 653 L703 653 Z M525 1408 L410 1216 L195 1216 L452 1558 L598 1558 L855 1216 L640 1216 L525 1408 Z " />
<glyph glyph-name="edieresis" unicode="&#xeb;" horiz-adv-x="1018" d="M930 478 L316 478 Q325 303 371 239 Q417 175 535 175 Q617 175 670.5 197 Q724 219 790 281 L918 101 Q867 61 833 42 Q706 -32 531 -32 Q289 -32 184 120 Q85 266 85 552 Q85 838 182 982 Q283 1134 509 1134 Q933 1134 933 574 Q933 537 930 478 Z M703 653 Q697 761 680 811 Q657 877 617 905 Q577 933 505 933 Q439 933 400 903.5 Q361 874 341 808 Q326 759 317 653 L703 653 Z M354 1511 Q410 1511 449.5 1470.5 Q489 1430 489 1373 Q489 1316 449 1275.5 Q409 1235 352 1235 Q295 1235 254 1276 Q213 1317 213 1374 Q213 1431 254 1471 Q295 1511 354 1511 Z M702 1511 Q758 1511 797.5 1470.5 Q837 1430 837 1373 Q837 1316 797 1275.5 Q757 1235 700 1235 Q643 1235 602 1276 Q561 1317 561 1374 Q561 1431 602 1471 Q643 1511 702 1511 Z " />
<glyph glyph-name="iacute" unicode="&#xed;" horiz-adv-x="538" d="M150 0 L150 1102 L388 1102 L388 0 L150 0 Z M144 1216 L301 1558 L537 1558 L300 1216 L144 1216 Z " />
<glyph glyph-name="igrave" unicode="&#xec;" horiz-adv-x="538" d="M150 0 L150 1102 L388 1102 L388 0 L150 0 Z M238 1216 L0 1558 L236 1558 L393 1216 L238 1216 Z " />
<glyph glyph-name="icircumflex" unicode="&#xee;" horiz-adv-x="537" d="M150 0 L150 1102 L388 1102 L388 0 L150 0 Z M269 1408 L154 1216 L-61 1216 L196 1558 L342 1558 L599 1216 L384 1216 L269 1408 Z " />
<glyph glyph-name="idieresis" unicode="&#xef;" horiz-adv-x="537" d="M150 0 L150 1102 L388 1102 L388 0 L150 0 Z M97 1511 Q153 1511 192.5 1470.5 Q232 1430 232 1373 Q232 1316 192 1275.5 Q152 1235 95 1235 Q38 1235 -3 1276 Q-44 1317 -44 1374 Q-44 1431 -3 1471 Q38 1511 97 1511 Z M445 1511 Q501 1511 540.5 1470.5 Q580 1430 580 1373 Q580 1316 540 1275.5 Q500 1235 443 1235 Q386 1235 345 1276 Q304 1317 304 1374 Q304 1431 345 1471 Q386 1511 445 1511 Z " />
<glyph glyph-name="ntilde" unicode="&#xf1;" horiz-adv-x="1099" d="M150 0 L150 1102 L388 1102 L388 1006 Q493 1087 544.5 1110.5 Q596 1134 672 1134 Q825 1134 890 1040.5 Q955 947 955 725 L955 0 L718 0 L718 708 Q718 807 702 851 Q678 917 606 917 Q554 917 507 887.5 Q460 858 388 781 L388 0 L150 0 Z M408 1261 L276 1261 Q285 1360 311 1410 Q357 1497 456 1497 Q505 1497 566 1457 Q621 1421 645 1421 Q689 1421 690 1497 L823 1497 Q813 1388 782 1336 Q735 1255 633 1255 Q601 1255 582.5 1263 Q564 1271 499 1312 Q470 1331 451 1331 Q419 1331 408 1261 Z " />
<glyph glyph-name="oacute" unicode="&#xf3;" horiz-adv-x="1027" d="M520 1134 Q655 1134 755 1068 Q942 946 942 551 Q942 265 844 120 Q786 35 682 -3 Q603 -32 513 -32 Q286 -32 183 120 Q85 265 85 548 Q85 839 183 982 Q287 1134 520 1134 Z M511 927 Q408 927 367.5 844.5 Q327 762 327 551 Q327 319 375 243 Q417 175 513 175 Q619 175 659.5 257 Q700 339 700 553 Q700 765 659 846 Q618 927 511 927 Z M388 1216 L545 1558 L781 1558 L544 1216 L388 1216 Z " />
<glyph glyph-name="ograve" unicode="&#xf2;" horiz-adv-x="1027" d="M520 1134 Q655 1134 755 1068 Q942 946 942 551 Q942 265 844 120 Q786 35 682 -3 Q603 -32 513 -32 Q286 -32 183 120 Q85 265 85 548 Q85 839 183 982 Q287 1134 520 1134 Z M511 927 Q408 927 367.5 844.5 Q327 762 327 551 Q327 319 375 243 Q417 175 513 175 Q619 175 659.5 257 Q700 339 700 553 Q700 765 659 846 Q618 927 511 927 Z M483 1216 L245 1558 L481 1558 L638 1216 L483 1216 Z " />
<glyph glyph-name="ocircumflex" unicode="&#xf4;" horiz-adv-x="1027" d="M520 1134 Q655 1134 755 1068 Q942 946 942 551 Q942 265 844 120 Q786 35 682 -3 Q603 -32 513 -32 Q286 -32 183 120 Q85 265 85 548 Q85 839 183 982 Q287 1134 520 1134 Z M511 927 Q408 927 367.5 844.5 Q327 762 327 551 Q327 319 375 243 Q417 175 513 175 Q619 175 659.5 257 Q700 339 700 553 Q700 765 659 846 Q618 927 511 927 Z M514 1408 L399 1216 L184 1216 L441 1558 L587 1558 L844 1216 L629 1216 L514 1408 Z " />
<glyph glyph-name="odieresis" unicode="&#xf6;" horiz-adv-x="1027" d="M520 1134 Q655 1134 755 1068 Q942 946 942 551 Q942 265 844 120 Q786 35 682 -3 Q603 -32 513 -32 Q286 -32 183 120 Q85 265 85 548 Q85 839 183 982 Q287 1134 520 1134 Z M511 927 Q408 927 367.5 844.5 Q327 762 327 551 Q327 319 375 243 Q417 175 513 175 Q619 175 659.5 257 Q700 339 700 553 Q700 765 659 846 Q618 927 511 927 Z M342 1511 Q398 1511 437.5 1470.5 Q477 1430 477 1373 Q477 1316 437 1275.5 Q397 1235 340 1235 Q283 1235 242 1276 Q201 1317 201 1374 Q201 1431 242 1471 Q283 1511 342 1511 Z M690 1511 Q746 1511 785.5 1470.5 Q825 1430 825 1373 Q825 1316 785 1275.5 Q745 1235 688 1235 Q631 1235 590 1276 Q549 1317 549 1374 Q549 1431 590 1471 Q631 1511 690 1511 Z " />
<glyph glyph-name="otilde" unicode="&#xf5;" horiz-adv-x="1027" d="M520 1134 Q655 1134 755 1068 Q942 946 942 551 Q942 265 844 120 Q786 35 682 -3 Q603 -32 513 -32 Q286 -32 183 120 Q85 265 85 548 Q85 839 183 982 Q287 1134 520 1134 Z M511 927 Q408 927 367.5 844.5 Q327 762 327 551 Q327 319 375 243 Q417 175 513 175 Q619 175 659.5 257 Q700 339 700 553 Q700 765 659 846 Q618 927 511 927 Z M372 1261 L240 1261 Q249 1360 275 1410 Q321 1497 420 1497 Q469 1497 530 1457 Q585 1421 609 1421 Q653 1421 654 1497 L787 1497 Q777 1388 746 1336 Q699 1255 597 1255 Q565 1255 546.5 1263 Q528 1271 463 1312 Q434 1331 415 1331 Q383 1331 372 1261 Z " />
<glyph glyph-name="uacute" unicode="&#xfa;" horiz-adv-x="1069" d="M144 1102 L382 1102 L382 394 Q382 293 396 251 Q417 185 481 185 Q573 185 681 321 L681 1102 L919 1102 L919 0 L681 0 L681 96 Q606 24 547.5 -4 Q489 -32 414 -32 Q267 -32 205.5 61.5 Q144 155 144 377 L144 1102 Z M430 1216 L587 1558 L823 1558 L586 1216 L430 1216 Z " />
<glyph glyph-name="ugrave" unicode="&#xf9;" horiz-adv-x="1069" d="M144 1102 L382 1102 L382 394 Q382 293 396 251 Q417 185 481 185 Q573 185 681 321 L681 1102 L919 1102 L919 0 L681 0 L681 96 Q606 24 547.5 -4 Q489 -32 414 -32 Q267 -32 205.5 61.5 Q144 155 144 377 L144 1102 Z M504 1216 L266 1558 L502 1558 L659 1216 L504 1216 Z " />
<glyph glyph-name="ucircumflex" unicode="&#xfb;" horiz-adv-x="1069" d="M144 1102 L382 1102 L382 394 Q382 293 396 251 Q417 185 481 185 Q573 185 681 321 L681 1102 L919 1102 L919 0 L681 0 L681 96 Q606 24 547.5 -4 Q489 -32 414 -32 Q267 -32 205.5 61.5 Q144 155 144 377 L144 1102 Z M535 1408 L420 1216 L205 1216 L462 1558 L608 1558 L865 1216 L650 1216 L535 1408 Z " />
<glyph glyph-name="udieresis" unicode="&#xfc;" horiz-adv-x="1069" d="M144 1102 L382 1102 L382 394 Q382 293 396 251 Q417 185 481 185 Q573 185 681 321 L681 1102 L919 1102 L919 0 L681 0 L681 96 Q606 24 547.5 -4 Q489 -32 414 -32 Q267 -32 205.5 61.5 Q144 155 144 377 L144 1102 Z M364 1511 Q420 1511 459.5 1470.5 Q499 1430 499 1373 Q499 1316 459 1275.5 Q419 1235 362 1235 Q305 1235 264 1276 Q223 1317 223 1374 Q223 1431 264 1471 Q305 1511 364 1511 Z M712 1511 Q768 1511 807.5 1470.5 Q847 1430 847 1373 Q847 1316 807 1275.5 Q767 1235 710 1235 Q653 1235 612 1276 Q571 1317 571 1374 Q571 1431 612 1471 Q653 1511 712 1511 Z " />
<glyph glyph-name="dagger" unicode="&#x2020;" horiz-adv-x="990" d="M390 911 L116 911 L116 1112 L390 1112 L390 1516 L603 1516 L603 1112 L874 1112 L874 911 L603 911 L603 -201 L390 -201 L390 911 Z " />
<glyph glyph-name="degree" unicode="&#xb0;" horiz-adv-x="684" d="M347 1542 Q501 1542 592 1441 Q672 1352 672 1215 Q672 1078 592 989 Q501 888 342 888 Q182 888 91 989 Q11 1078 11 1214 Q11 1365 101.5 1453.5 Q192 1542 347 1542 Z M338 1401 Q257 1401 212 1352.5 Q167 1304 167 1215 Q167 1126 211.5 1077.5 Q256 1029 338 1029 Q432 1029 477 1085 Q516 1134 516 1214 Q516 1306 470.5 1353.5 Q425 1401 338 1401 Z " />
<glyph glyph-name="cent" unicode="&#xa2;" horiz-adv-x="1061" d="M493 -29 L493 299 Q359 318 281 374 Q118 492 118 818 Q118 1157 302 1273 Q380 1323 493 1338 L493 1618 L646 1618 L646 1339 Q982 1296 977 956 L758 956 Q749 1085 646 1121 L646 507 Q765 519 865 593 L1003 417 Q904 354 828 328 Q752 302 646 295 L646 -29 L493 -29 Z M493 514 L493 1120 Q436 1098 410 1065 Q360 1001 360 816 Q360 673 391.5 602 Q423 531 493 514 Z " />
<glyph glyph-name="sterling" unicode="&#xa3;" horiz-adv-x="1061" d="M63 637 L63 819 L213 819 Q173 965 173 1092 Q173 1291 284 1401 Q388 1504 577 1504 Q844 1504 945 1303 Q992 1210 993 1026 L767 1026 Q762 1137 737 1195 Q691 1295 583 1295 Q415 1295 415 1099 Q415 1009 452 819 L707 819 L707 637 L482 637 Q490 537 490 482 Q490 367 455 271 Q466 266 513 239 Q585 199 673 199 Q753 199 793.5 248 Q834 297 846 408 L1073 408 Q1025 -29 686 -29 Q598 -29 521.5 -1 Q445 27 354 92 Q249 -27 63 -26 L63 216 Q166 245 207 311 Q248 377 248 517 Q248 561 242 637 L63 637 Z " />
<glyph glyph-name="section" unicode="&#xa7;" horiz-adv-x="984" d="M235 933 Q157 1007 157 1158 Q157 1317 247 1413 Q332 1504 492 1504 Q663 1504 752.5 1414.5 Q842 1325 843 1153 L629 1153 Q624 1234 595.5 1270.5 Q567 1307 508 1307 Q457 1307 428 1274 Q399 1241 399 1182 Q399 1112 432 1082.5 Q465 1053 584 1017 Q740 968 801 899 Q867 823 867 694 Q867 537 766 447 Q838 368 838 218 Q838 35 740 -67 Q652 -158 471 -158 Q232 -158 143 -3 Q99 73 99 217 L313 217 Q318 139 338 105 Q375 43 468 43 Q534 43 565 78.5 Q596 114 596 191 Q596 271 560 305.5 Q524 340 397 383 Q237 437 178 503 Q115 574 115 690 Q115 848 235 933 Z M383 856 Q361 836 354 827 Q329 790 329 733 Q329 678 364 638 Q378 623 394.5 615 Q411 607 497 573 L617 526 Q653 572 653 650 Q653 717 618 754 Q601 771 584.5 779 Q568 787 486 818 L383 856 Z " />
<glyph glyph-name="bullet" unicode="&#x2022;" horiz-adv-x="1068" d="M540 1040 Q677 1040 771 940 Q852 853 852 730 Q852 589 748 498 Q658 420 533 420 Q389 420 296 520 Q215 608 215 733 Q215 870 319 962 Q408 1040 540 1040 Z " />
<glyph glyph-name="paragraph" unicode="&#xb6;" horiz-adv-x="1196" d="M587 1268 L587 -422 L380 -422 L380 623 Q302 631 257 649.5 Q212 668 169 710 Q46 826 46 1052 Q46 1250 145 1365 Q201 1430 265.5 1452.5 Q330 1475 461 1475 L933 1475 L933 -422 L726 -422 L726 1268 L587 1268 Z " />
<glyph glyph-name="germandbls" unicode="&#xdf;" horiz-adv-x="1118" d="M150 0 L150 1024 Q150 1179 167.5 1264.5 Q185 1350 227 1407 Q333 1547 546 1547 Q747 1547 853 1442 Q946 1350 946 1190 Q946 990 779 898 Q892 858 943 791 Q1034 670 1034 441 Q1034 241 964 120 Q875 -32 675 -32 Q589 -32 512 -17 L527 192 Q593 175 639 175 Q792 175 792 449 Q792 669 706 736 Q675 760 638 767.5 Q601 775 508 777 L508 967 Q722 973 722 1160 Q722 1354 550 1354 Q457 1354 422.5 1293 Q388 1232 388 1070 L388 0 L150 0 Z " />
<glyph glyph-name="registered" unicode="&#xae;" horiz-adv-x="1374" d="M516 928 L516 1475 L708 1475 Q797 1475 834 1448 Q894 1403 894 1312 Q894 1229 835 1181 Q856 1152 866 1112 L912 928 L771 928 L756 1031 Q747 1093 729.5 1113 Q712 1133 668 1133 L649 1133 L649 928 L516 928 Z M649 1237 L683 1237 Q727 1237 744 1252 Q761 1267 761 1306 Q761 1337 745.5 1349.5 Q730 1362 693 1362 L649 1362 L649 1237 Z M694 1782 Q934 1782 1104 1608 Q1271 1439 1271 1195 Q1271 952 1104 782 Q934 608 686 608 Q439 608 269 782 Q102 952 102 1194 Q102 1443 269 1608 Q443 1782 694 1782 Z M681 1643 Q503 1643 377 1508 Q262 1384 262 1194 Q262 1006 377 881 Q502 747 686 747 Q871 747 995 881 Q1111 1007 1111 1194 Q1111 1387 995 1508 Q867 1643 681 1643 Z " />
<glyph glyph-name="copyright" unicode="&#xa9;" horiz-adv-x="1816" d="M1181 850 L1023 850 Q1013 971 923 971 Q859 971 820.5 906 Q782 841 782 730 Q782 623 828 555 Q870 494 935 494 Q1028 494 1107 573 L1191 460 Q1134 397 1074 370.5 Q1014 344 931 344 Q776 344 691 454 Q611 557 611 734 Q611 908 692 1018 Q767 1120 920 1120 Q1053 1120 1115 1056 Q1177 992 1181 850 Z M919 1536 Q1138 1536 1328 1418 Q1522 1296 1619 1087 Q1693 925 1693 737 Q1693 403 1473 175 Q1363 61 1217 0 Q1071 -61 908 -61 Q677 -61 488 57 Q295 178 198 388 Q123 550 123 736 Q123 960 227 1145 Q337 1342 543 1449 Q711 1536 919 1536 Z M901 1350 Q736 1350 594 1258 Q443 1159 374 996 Q326 883 326 737 Q326 479 484 309 Q655 125 908 125 Q1162 125 1333 309 Q1491 479 1491 736 Q1491 1000 1333 1166 Q1157 1350 901 1350 Z " />
<glyph glyph-name="trademark" unicode="&#x2122;" horiz-adv-x="1370" d="M378 1336 L378 770 L216 770 L216 1336 L40 1336 L40 1475 L547 1475 L547 1336 L378 1336 Z M755 1234 L727 770 L573 770 L628 1475 L822 1475 L916 1045 L1010 1475 L1206 1475 L1260 770 L1106 770 L1077 1234 L967 770 L865 770 L755 1234 Z " />
<glyph glyph-name="acute" unicode="&#xb4;" horiz-adv-x="1024" d="M387 1216 L544 1558 L780 1558 L543 1216 L387 1216 Z " />
<glyph glyph-name="dieresis" unicode="&#xa8;" horiz-adv-x="1024" d="M341 1511 Q397 1511 436.5 1470.5 Q476 1430 476 1373 Q476 1316 436 1275.5 Q396 1235 339 1235 Q282 1235 241 1276 Q200 1317 200 1374 Q200 1431 241 1471 Q282 1511 341 1511 Z M689 1511 Q745 1511 784.5 1470.5 Q824 1430 824 1373 Q824 1316 784 1275.5 Q744 1235 687 1235 Q630 1235 589 1276 Q548 1317 548 1374 Q548 1431 589 1471 Q630 1511 689 1511 Z " />
<glyph glyph-name="notequal" unicode="&#x2260;" horiz-adv-x="1061" d="M137 455 L137 664 L396 664 L454 803 L137 803 L137 1012 L539 1012 L647 1269 L834 1199 L755 1012 L926 1012 L926 803 L671 803 L612 664 L926 664 L926 455 L527 455 L430 223 L242 292 L311 455 L137 455 Z " />
<glyph glyph-name="AE" unicode="&#xc6;" horiz-adv-x="1709" d="M787 452 L364 452 L144 0 L-122 0 L639 1475 L1609 1475 L1609 1266 L1033 1266 L1033 874 L1496 874 L1496 665 L1033 665 L1033 209 L1624 209 L1624 0 L787 0 L787 452 Z M787 653 L787 1306 L481 653 L787 653 Z " />
<glyph glyph-name="Oslash" unicode="&#xd8;" horiz-adv-x="1242" d="M191 199 Q147 284 122 425.5 Q97 567 97 729 Q97 1053 174 1239 Q229 1375 356 1442 Q470 1503 621 1503 Q804 1503 929 1416 L986 1509 L1205 1509 L1057 1266 Q1145 1073 1145 744 Q1145 423 1068 236 Q1013 100 886 33 Q771 -29 620 -29 Q449 -29 321 54 L255 -55 L36 -55 L191 199 Z M366 489 L801 1205 Q735 1287 623 1287 Q469 1287 412 1154 Q349 1006 349 736 Q349 594 366 489 Z M878 971 L448 262 Q509 188 620 188 Q773 188 830 321 Q893 469 893 745 Q893 848 878 971 Z " />
<glyph glyph-name="infinity" unicode="&#x221e;" horiz-adv-x="1415" d="M707 578 Q695 560 688 551 Q626 458 558.5 417.5 Q491 377 399 377 Q253 377 177 477 Q106 571 106 715 Q106 862 178 953 Q256 1053 401 1053 Q531 1053 629 956 Q642 943 707 850 Q720 868 726 877 Q762 931 778 949 Q794 967 826 991 Q911 1053 1013 1053 Q1158 1053 1237 953 Q1309 863 1309 715 Q1309 569 1237 477 Q1159 377 1016 377 Q883 377 784 475 Q769 490 707 578 Z M624 714 L609 733 Q551 812 529 833 Q471 887 419 887 Q360 887 323.5 839 Q287 791 287 715 Q287 639 323.5 591 Q360 543 419 543 Q479 543 535 600 L607 693 L624 714 Z M790 714 L807 693 Q863 618 885 597 Q919 566 942 554.5 Q965 543 996 543 Q1054 543 1091 591 Q1128 639 1128 715 Q1128 791 1091 839 Q1054 887 995 887 Q941 887 882 831 Q861 811 805 733 L790 714 Z " />
<glyph glyph-name="plusminus" unicode="&#xb1;" horiz-adv-x="1061" d="M135 629 L135 838 L422 838 L422 1161 L635 1161 L635 838 L924 838 L924 629 L635 629 L635 309 L422 309 L422 629 L135 629 Z M136 0 L136 209 L923 209 L923 0 L136 0 Z " />
<glyph glyph-name="lessequal" unicode="&#x2264;" horiz-adv-x="1061" d="M405 786 L888 523 L888 291 L167 708 L167 863 L888 1281 L888 1048 L405 786 Z M173 0 L173 209 L888 209 L888 0 L173 0 Z " />
<glyph glyph-name="greaterequal" unicode="&#x2265;" horiz-adv-x="1061" d="M656 786 L173 1048 L173 1281 L894 863 L894 708 L173 291 L173 523 L656 786 Z M173 0 L173 209 L888 209 L888 0 L173 0 Z " />
<glyph glyph-name="yen" unicode="&#xa5;" horiz-adv-x="1061" d="M407 0 L407 305 L114 305 L114 465 L407 465 L407 575 L114 575 L114 735 L336 735 L-17 1475 L251 1475 L530 812 L809 1475 L1077 1475 L724 735 L946 735 L946 575 L653 575 L653 465 L946 465 L946 305 L653 305 L653 0 L407 0 Z " />
<glyph glyph-name="mu" unicode="&#xb5;" horiz-adv-x="1061" d="M153 1098 L395 1098 L395 450 Q395 334 406 277 Q422 200 486 200 Q530 200 565 230 Q600 260 666 356 L666 1098 L908 1098 L908 0 L666 0 L666 132 Q652 117 613 68 Q544 -17 455 -17 Q424 -17 395 3 L395 -439 L153 -439 L153 1098 Z " />
<glyph glyph-name="partialdiff" unicode="&#x2202;" horiz-adv-x="1061" d="M597 1074 Q547 1165 497.5 1225 Q448 1285 312 1423 L447 1545 Q476 1517 569 1431 Q959 1070 959 536 Q959 252 861 114 Q759 -31 530 -31 Q302 -31 200 114 Q102 252 102 530 Q102 800 196 944 Q250 1027 347 1064 Q411 1089 486 1089 Q551 1089 597 1074 Z M528 880 Q424 880 384 803.5 Q344 727 344 529 Q344 309 392 240 Q435 178 530 178 Q636 178 676.5 254 Q717 330 717 530 Q717 729 676.5 804.5 Q636 880 528 880 Z " />
<glyph glyph-name="summation" unicode="&#x2211;" horiz-adv-x="1066" d="M991 1573 L991 1372 L359 1372 L725 646 L340 -155 L1010 -155 L1010 -356 L67 -356 L67 -157 L448 645 L82 1379 L82 1573 L991 1573 Z " />
<glyph glyph-name="product" unicode="&#x220f;" horiz-adv-x="1260" d="M842 1372 L418 1372 L418 -356 L176 -356 L176 1573 L1084 1573 L1084 -356 L842 -356 L842 1372 Z " />
<glyph glyph-name="integral" unicode="&#x222b;" horiz-adv-x="733" d="M56 -335 L98 -140 Q140 -159 173 -159 Q229 -159 246 -98 Q256 -63 256 105 L256 1053 Q256 1214 260 1281 Q264 1348 276 1397 Q297 1483 357.5 1530 Q418 1577 509 1577 Q585 1577 678 1550 L635 1356 Q594 1376 559 1376 Q504 1376 488 1314 Q478 1279 478 1136 L478 164 Q478 -14 472 -84.5 Q466 -155 447 -210 Q422 -282 360 -321 Q298 -360 210 -360 Q132 -360 56 -335 Z " />
<glyph glyph-name="ordfeminine" unicode="&#xaa;" horiz-adv-x="701" d="M422 823 L422 887 Q375 840 338 822.5 Q301 805 247 805 Q150 805 98.5 859 Q47 913 47 1015 Q47 1124 99.5 1172 Q152 1220 271 1220 Q299 1220 391 1215 L391 1238 Q391 1300 368 1323 Q345 1346 283 1346 Q220 1346 137 1314 L93 1468 Q197 1506 297 1506 Q497 1506 550 1396 Q576 1341 576 1207 L576 823 L422 823 Z M391 1084 Q339 1091 293 1091 Q239 1091 239 1015 Q239 944 295 944 Q338 944 364.5 971.5 Q391 999 391 1044 L391 1084 Z " />
<glyph glyph-name="ordmasculine" unicode="&#xba;" horiz-adv-x="692" d="M350 1506 Q491 1506 576 1416 Q664 1324 664 1157 Q664 993 576 899 Q493 809 346 809 Q199 809 115 899 Q28 993 28 1156 Q28 1324 115 1416 Q201 1506 350 1506 Z M344 1342 Q278 1342 246 1286 Q216 1233 216 1158 Q216 1071 250.5 1022 Q285 973 346 973 Q414 973 446 1029 Q476 1082 476 1157 Q476 1245 441.5 1293.5 Q407 1342 344 1342 Z " />
<glyph glyph-name="Omega" unicode="&#x2126;" horiz-adv-x="1335" d="M79 0 L79 182 L281 182 Q199 240 154 354 Q82 532 82 757 Q82 1048 185 1240 Q264 1386 418 1455 Q528 1504 663 1504 Q873 1504 1017 1388 Q1158 1275 1212 1047 Q1244 914 1244 758 Q1244 554 1191 401.5 Q1138 249 1045 182 L1247 182 L1247 0 L735 0 L735 214 Q815 237 856.5 268.5 Q898 300 927 361 Q992 499 992 749 Q992 1005 901 1154 Q820 1287 663 1287 Q506 1287 425 1154 Q334 1005 334 748 Q334 474 412 337 Q439 289 478 262 Q517 235 591 214 L591 0 L79 0 Z " />
<glyph glyph-name="ae" unicode="&#xe6;" horiz-adv-x="1569" d="M630 661 L630 725 Q630 836 611 877 Q583 939 483 939 Q423 939 397 909 Q371 879 357 795 L139 795 Q153 929 200 1006 Q278 1132 484 1132 Q596 1132 657.5 1104.5 Q719 1077 765 1008 Q866 1134 1066 1134 Q1483 1134 1483 559 Q1483 537 1482 478 L870 478 Q875 371 892 313 Q912 241 953 210 Q1000 175 1095 175 Q1171 175 1224.5 198 Q1278 221 1342 281 L1470 101 Q1419 61 1385 42 Q1258 -32 1087 -32 Q844 -32 740 134 Q581 -32 391 -32 Q249 -32 166 48 Q73 138 73 316 Q73 517 173 610 Q241 673 417 673 Q513 673 630 661 Z M636 481 Q550 492 437 492 Q365 492 342 454 Q315 409 315 327 Q315 249 348 204 Q374 169 438 169 Q554 169 606 256 Q636 306 636 395 L636 481 Z M1251 653 Q1245 761 1228 811 Q1206 877 1167 905 Q1128 933 1057 933 Q991 933 953 903.5 Q915 874 895 807 Q879 755 872 653 L1251 653 Z " />
<glyph glyph-name="oslash" unicode="&#xf8;" horiz-adv-x="1030" d="M171 140 Q86 286 86 550 Q86 838 184 982 Q242 1067 347 1106 Q424 1135 510 1135 Q653 1135 746 1075 L786 1141 L970 1141 L859 960 Q943 813 943 554 Q943 265 845 120 Q787 36 683 -3 Q605 -32 519 -32 Q379 -32 285 26 L244 -41 L60 -41 L171 140 Z M334 405 L631 888 Q588 928 515 928 Q412 928 371 851 Q328 772 328 551 Q328 480 334 405 Z M695 694 L400 213 Q442 175 514 175 Q617 175 658 252 Q701 331 701 549 Q701 617 695 694 Z " />
<glyph glyph-name="questiondown" unicode="&#xbf;" horiz-adv-x="909" d="M571 958 L571 908 Q571 772 535.5 700 Q500 628 386 537 Q318 482 291.5 433.5 Q265 385 265 314 Q265 221 310 166 Q355 111 431 111 Q478 111 517 138 Q556 165 575 211 Q597 264 601 365 L821 365 Q817 187 763 86 Q714 -5 624.5 -55.5 Q535 -106 420 -106 Q238 -106 129 9 Q23 122 23 316 Q23 444 69 534 Q87 572 112.5 599 Q138 626 202 676 Q307 759 326 789 Q350 829 350 908 L350 958 L571 958 Z M464 1442 Q529 1442 576 1395 Q623 1348 623 1282 Q623 1210 570 1163 Q524 1122 461 1122 Q389 1122 342 1175 Q300 1221 300 1283 Q300 1349 348 1395.5 Q396 1442 464 1442 Z " />
<glyph glyph-name="exclamdown" unicode="&#xa1;" horiz-adv-x="736" d="M476 958 L507 -74 L231 -74 L261 958 L476 958 Z M370 1442 Q435 1442 482 1395 Q529 1348 529 1282 Q529 1210 476 1163 Q430 1122 367 1122 Q295 1122 247 1175 Q206 1221 206 1283 Q206 1350 254 1396 Q302 1442 370 1442 Z " />
<glyph glyph-name="logicalnot" unicode="&#xac;" horiz-adv-x="1061" d="M85 633 L85 842 L902 842 L902 281 L695 281 L695 633 L85 633 Z " />
<glyph glyph-name="radical" unicode="&#x221a;" horiz-adv-x="1061" d="M355 0 L215 581 L101 581 L101 780 L391 780 L493 272 L853 1825 L1344 1825 L1344 1624 L1029 1624 L634 0 L355 0 Z " />
<glyph glyph-name="florin" unicode="&#x192;" horiz-adv-x="1061" d="M210 700 L210 895 L416 895 L439 1109 Q462 1323 535 1411 Q613 1506 744 1506 Q834 1506 929 1456 L891 1268 Q878 1274 872 1277 Q815 1305 778 1305 Q695 1305 672 1108 L648 895 L805 895 L805 700 L617 700 L551 180 Q531 22 517 -43 Q503 -108 476 -169 Q406 -328 227 -328 Q175 -328 143 -320.5 Q111 -313 42 -285 L77 -83 Q143 -119 186 -119 Q245 -119 281 -29 Q306 32 331 239 L386 700 L210 700 Z " />
<glyph glyph-name="approxequal" unicode="&#x2248;" horiz-adv-x="1061" d="M231 756 L91 884 Q244 1099 389 1099 Q473 1099 562 1038 Q641 984 659 975 Q677 966 706 966 Q742 966 776.5 993 Q811 1020 867 1093 L1008 967 Q849 749 712 749 Q638 749 547 808 Q470 859 445.5 870.5 Q421 882 391 882 Q334 882 283 821 L231 756 Z M231 381 L91 509 Q244 723 390 723 Q473 723 562 663 Q641 610 659 601 Q677 592 706 592 Q770 592 867 718 L1008 592 Q848 375 712 375 Q637 375 547 433 Q469 484 445 495 Q421 506 391 506 Q334 506 283 446 L231 381 Z " />
<glyph glyph-name="increment" unicode="&#x2206;" horiz-adv-x="1061" d="M1122 0 L-62 0 L418 1475 L642 1475 L1122 0 Z M804 209 L530 1201 L256 209 L804 209 Z " />
<glyph glyph-name="guillemotleft" unicode="&#xab;" horiz-adv-x="883" d="M673 574 L867 190 L670 190 L449 574 L670 958 L867 958 L673 574 Z M286 574 L481 190 L283 190 L62 574 L283 958 L481 958 L286 574 Z " />
<glyph glyph-name="guillemotright" unicode="&#xbb;" horiz-adv-x="883" d="M210 574 L16 958 L213 958 L435 574 L213 190 L16 190 L210 574 Z M597 574 L403 958 L600 958 L821 574 L600 190 L403 190 L597 574 Z " />
<glyph glyph-name="ellipsis" unicode="&#x2026;" horiz-adv-x="1843" d="M306 290 Q371 290 418 243 Q465 196 465 131 Q465 59 412 12 Q366 -29 304 -29 Q236 -29 189 18 Q142 65 142 132 Q142 198 190 244 Q238 290 306 290 Z M926 290 Q991 290 1038 243 Q1085 196 1085 131 Q1085 59 1032 12 Q986 -29 924 -29 Q856 -29 809 18 Q762 65 762 132 Q762 198 810 244 Q858 290 926 290 Z M1543 290 Q1608 290 1655 243 Q1702 196 1702 131 Q1702 59 1649 12 Q1603 -29 1541 -29 Q1473 -29 1426 18 Q1379 65 1379 132 Q1379 198 1427 244 Q1475 290 1543 290 Z " />
<glyph glyph-name="Agrave" unicode="&#xc0;" horiz-adv-x="1171" d="M822 379 L352 379 L244 0 L-5 0 L475 1475 L699 1475 L1179 0 L930 0 L822 379 Z M762 588 L587 1202 L412 588 L762 588 Z M535 1604 L297 1946 L533 1946 L690 1604 L535 1604 Z " />
<glyph glyph-name="Atilde" unicode="&#xc3;" horiz-adv-x="1171" d="M822 379 L352 379 L244 0 L-5 0 L475 1475 L699 1475 L1179 0 L930 0 L822 379 Z M762 588 L587 1202 L412 588 L762 588 Z M444 1634 L312 1634 Q321 1733 347 1783 Q393 1870 492 1870 Q543 1870 602 1830 Q657 1794 681 1794 Q725 1794 726 1870 L859 1870 Q849 1761 818 1709 Q771 1628 669 1628 Q637 1628 618.5 1636 Q600 1644 535 1685 Q506 1704 487 1704 Q455 1704 444 1634 Z " />
<glyph glyph-name="Otilde" unicode="&#xd5;" horiz-adv-x="1238" d="M628 1504 Q841 1504 973 1376 Q1142 1211 1142 737 Q1142 423 1065 236 Q1010 100 883 33 Q767 -29 618 -29 Q394 -29 264 98 Q95 263 95 734 Q95 1056 171 1239 Q229 1375 353 1442 Q469 1504 628 1504 Z M614 1287 Q467 1287 410 1154 Q347 1007 347 737 Q347 468 410 321 Q467 188 619 188 Q770 188 827 321 Q890 469 890 733 Q890 1027 825 1157 Q760 1287 614 1287 Z M477 1634 L345 1634 Q354 1733 380 1783 Q426 1870 525 1870 Q576 1870 635 1830 Q690 1794 714 1794 Q758 1794 759 1870 L892 1870 Q882 1761 851 1709 Q804 1628 702 1628 Q670 1628 651.5 1636 Q633 1644 568 1685 Q539 1704 520 1704 Q488 1704 477 1634 Z " />
<glyph glyph-name="OE" unicode="&#x152;" horiz-adv-x="1744" d="M1069 209 L1659 209 L1659 0 L1051 0 Q1000 0 888 -8 Q740 -18 671 -18 Q355 -18 217 203 Q95 399 95 737 Q95 1106 238 1302 Q377 1493 673 1493 Q742 1493 888 1483 Q999 1475 1052 1475 L1644 1475 L1644 1266 L1069 1266 L1069 874 L1531 874 L1531 665 L1069 665 L1069 209 Z M823 209 L823 1266 Q739 1284 668 1284 Q347 1284 347 729 Q347 456 432 321 Q514 191 669 191 Q737 191 823 209 Z " />
<glyph glyph-name="oe" unicode="&#x153;" horiz-adv-x="1631" d="M820 113 Q714 -32 507 -32 Q372 -32 271 34 Q85 157 85 552 Q85 838 183 982 Q240 1067 345 1106 Q421 1134 506 1134 Q713 1134 819 991 Q867 1060 947 1097 Q1027 1134 1128 1134 Q1261 1134 1361 1068 Q1545 947 1545 569 Q1545 532 1542 478 L931 478 Q941 298 986 236.5 Q1031 175 1153 175 Q1231 175 1284 197.5 Q1337 220 1402 281 L1530 101 Q1478 61 1445 42 Q1318 -32 1149 -32 Q923 -32 820 113 Z M509 927 Q397 927 361 830 Q327 741 327 546 Q327 319 374 243 Q417 175 513 175 Q616 175 658 253 Q700 331 700 542 Q700 763 659.5 845 Q619 927 509 927 Z M1312 653 Q1306 762 1289 811 Q1266 877 1227 905 Q1188 933 1117 933 Q1052 933 1013.5 903.5 Q975 874 955 808 Q940 759 932 653 L1312 653 Z " />
<glyph glyph-name="endash" unicode="&#x2013;" horiz-adv-x="835" d="M63 510 L63 719 L774 719 L774 510 L63 510 Z " />
<glyph glyph-name="emdash" unicode="&#x2014;" horiz-adv-x="1061" d="M-63 510 L-63 719 L1125 719 L1125 510 L-63 510 Z " />
<glyph glyph-name="quotedblleft" unicode="&#x201c;" horiz-adv-x="892" d="M52 965 L263 1475 L443 1475 L314 965 L52 965 Z M427 965 L638 1475 L818 1475 L689 965 L427 965 Z " />
<glyph glyph-name="quotedblright" unicode="&#x201d;" horiz-adv-x="890" d="M77 965 L206 1475 L468 1475 L257 965 L77 965 Z M452 965 L581 1475 L843 1475 L632 965 L452 965 Z " />
<glyph glyph-name="quoteleft" unicode="&#x2018;" horiz-adv-x="515" d="M50 965 L261 1475 L441 1475 L312 965 L50 965 Z " />
<glyph glyph-name="quoteright" unicode="&#x2019;" horiz-adv-x="515" d="M77 965 L206 1475 L468 1475 L257 965 L77 965 Z " />
<glyph glyph-name="divide" unicode="&#xf7;" horiz-adv-x="1061" d="M135 629 L135 838 L924 838 L924 629 L135 629 Z M534 1237 Q594 1237 636.5 1194 Q679 1151 679 1092 Q679 1031 636 988.5 Q593 946 532 946 Q471 946 428 988.5 Q385 1031 385 1093 Q385 1153 428.5 1195 Q472 1237 534 1237 Z M534 518 Q594 518 636.5 475 Q679 432 679 373 Q679 312 636 269.5 Q593 227 532 227 Q471 227 428 269.5 Q385 312 385 374 Q385 434 428.5 476 Q472 518 534 518 Z " />
<glyph glyph-name="lozenge" unicode="&#x25ca;" horiz-adv-x="1056" d="M2 704 L527 1454 L1052 704 L527 -46 L2 704 Z M250 704 L527 315 L803 704 L527 1093 L250 704 Z " />
<glyph glyph-name="ydieresis" unicode="&#xff;" horiz-adv-x="882" d="M331 -3 L8 1102 L262 1102 L441 309 L620 1102 L875 1102 L587 51 Q502 -259 406 -356 Q361 -402 299 -420.5 Q237 -439 122 -440 L122 -234 Q196 -234 228 -210 Q276 -179 319 -44 L331 -3 Z M270 1511 Q326 1511 365.5 1470.5 Q405 1430 405 1373 Q405 1316 365 1275.5 Q325 1235 268 1235 Q211 1235 170 1276 Q129 1317 129 1374 Q129 1431 170 1471 Q211 1511 270 1511 Z M618 1511 Q674 1511 713.5 1470.5 Q753 1430 753 1373 Q753 1316 713 1275.5 Q673 1235 616 1235 Q559 1235 518 1276 Q477 1317 477 1374 Q477 1431 518 1471 Q559 1511 618 1511 Z " />
<glyph glyph-name="Ydieresis" unicode="&#x178;" horiz-adv-x="1037" d="M395 0 L395 565 L-29 1475 L239 1475 L518 800 L797 1475 L1065 1475 L641 565 L641 0 L395 0 Z M333 1884 Q389 1884 428.5 1843.5 Q468 1803 468 1746 Q468 1689 428 1648.5 Q388 1608 331 1608 Q274 1608 233 1649 Q192 1690 192 1747 Q192 1804 233 1844 Q274 1884 333 1884 Z M710 1884 Q766 1884 805.5 1843.5 Q845 1803 845 1746 Q845 1689 805 1648.5 Q765 1608 708 1608 Q651 1608 610 1649 Q569 1690 569 1747 Q569 1804 610 1844 Q651 1884 710 1884 Z " />
<glyph glyph-name="fraction" unicode="&#x2044;" horiz-adv-x="193" d="M-306 0 L315 1475 L499 1475 L-122 0 L-306 0 Z " />
<glyph glyph-name="Euro" unicode="&#x20ac;" horiz-adv-x="1061" d="M-1 489 L49 649 L162 649 Q160 677 160 721 Q160 747 161 766 L-1 766 L49 926 L168 926 Q180 1057 205 1160 Q291 1502 627 1502 Q885 1502 987 1315 Q1038 1221 1040 1055 L801 1055 Q789 1285 630 1285 Q506 1285 455 1122 Q435 1056 420 926 L873 926 L823 766 L413 766 Q412 751 412 733 Q412 705 414 649 L794 649 L744 489 L425 489 Q439 373 467 303 Q512 188 643 188 Q728 188 793.5 224.5 Q859 261 933 350 L1094 192 Q1008 90 926 41 Q806 -29 645 -29 Q484 -29 374 36 Q258 104 212 261 Q187 348 172 489 L-1 489 Z " />
<glyph glyph-name="guilsinglleft" unicode="&#x2039;" horiz-adv-x="496" d="M286 574 L481 190 L283 190 L62 574 L283 958 L481 958 L286 574 Z " />
<glyph glyph-name="guilsinglright" unicode="&#x203a;" horiz-adv-x="496" d="M210 574 L16 958 L213 958 L435 574 L213 190 L16 190 L210 574 Z " />
<glyph glyph-name="fi" unicode="&#xfb01;" horiz-adv-x="1176" d="M189 0 L189 895 L67 895 L67 1102 L189 1102 L189 1165 Q189 1360 262.5 1446 Q336 1532 503 1532 Q588 1532 682 1515 L669 1319 Q596 1331 559 1331 Q480 1331 453.5 1293 Q427 1255 427 1142 L427 1102 L650 1102 L650 895 L427 895 L427 0 L189 0 Z M790 0 L790 1102 L1027 1102 L1027 0 L790 0 Z M912 1523 Q972 1523 1015.5 1478.5 Q1059 1434 1059 1373 Q1059 1306 1010 1261 Q967 1222 910 1222 Q847 1222 802.5 1266.5 Q758 1311 758 1374 Q758 1436 803 1479.5 Q848 1523 912 1523 Z " />
<glyph glyph-name="fl" unicode="&#xfb02;" horiz-adv-x="1175" d="M189 0 L189 895 L67 895 L67 1102 L189 1102 L189 1165 Q189 1360 262.5 1446 Q336 1532 503 1532 Q588 1532 682 1515 L669 1319 Q596 1331 559 1331 Q480 1331 453.5 1293 Q427 1255 427 1142 L427 1102 L650 1102 L650 895 L427 895 L427 0 L189 0 Z M788 0 L788 1516 L1026 1516 L1026 0 L788 0 Z " />
<glyph glyph-name="daggerdbl" unicode="&#x2021;" horiz-adv-x="990" d="M390 913 L116 913 L116 1114 L390 1114 L390 1516 L603 1516 L603 1114 L874 1114 L874 913 L603 913 L603 424 L874 424 L874 223 L603 223 L603 -170 L390 -170 L390 225 L116 225 L116 426 L390 426 L390 913 Z " />
<glyph glyph-name="periodcentered" unicode="&#xb7;" horiz-adv-x="606" d="M306 776 Q371 776 418 729 Q465 682 465 616 Q465 545 412 498 Q365 457 304 457 Q236 457 189 504 Q142 551 142 618 Q142 684 190 730 Q238 776 306 776 Z " />
<glyph glyph-name="quotesinglbase" unicode="&#x201a;" horiz-adv-x="517" d="M55 -231 L184 281 L446 281 L235 -231 L55 -231 Z " />
<glyph glyph-name="quotedblbase" unicode="&#x201e;" horiz-adv-x="892" d="M75 -229 L204 283 L466 283 L255 -229 L75 -229 Z M450 -229 L579 283 L841 283 L630 -229 L450 -229 Z " />
<glyph glyph-name="perthousand" unicode="&#x2030;" horiz-adv-x="2311" d="M392 1506 Q558 1506 642 1387 Q718 1280 718 1098 Q718 918 642 810 Q558 691 387 691 Q215 691 132 810 Q56 919 56 1097 Q56 1280 132 1387 Q216 1506 392 1506 Z M385 1320 Q269 1320 269 1098 Q269 877 387 877 Q505 877 505 1097 Q505 1320 385 1320 Z M1207 786 Q1303 786 1378 739 Q1532 645 1532 378 Q1532 198 1456 90 Q1373 -29 1202 -29 Q1030 -29 947 90 Q871 199 871 377 Q871 560 947 667 Q1032 786 1207 786 Z M1200 600 Q1084 600 1084 378 Q1084 157 1202 157 Q1319 157 1319 377 Q1319 600 1200 600 Z M1929 786 Q2095 786 2179 667 Q2255 559 2255 378 Q2255 199 2179 90 Q2096 -29 1924 -29 Q1752 -29 1669 90 Q1593 198 1593 377 Q1593 561 1669 667 Q1754 786 1929 786 Z M1922 600 Q1806 600 1806 378 Q1806 157 1924 157 Q2042 157 2042 377 Q2042 600 1922 600 Z M322 0 L1054 1475 L1260 1475 L529 0 L322 0 Z " />
<glyph glyph-name="Acircumflex" unicode="&#xc2;" horiz-adv-x="1171" d="M822 379 L352 379 L244 0 L-5 0 L475 1475 L699 1475 L1179 0 L930 0 L822 379 Z M762 588 L587 1202 L412 588 L762 588 Z M586 1795 L471 1604 L256 1604 L513 1946 L659 1946 L916 1604 L701 1604 L586 1795 Z " />
<glyph glyph-name="Ecircumflex" unicode="&#xca;" horiz-adv-x="1072" d="M162 0 L162 1475 L989 1475 L989 1266 L408 1266 L408 874 L873 874 L873 665 L408 665 L408 209 L1002 209 L1002 0 L162 0 Z M587 1795 L472 1604 L257 1604 L514 1946 L660 1946 L917 1604 L702 1604 L587 1795 Z " />
<glyph glyph-name="Aacute" unicode="&#xc1;" horiz-adv-x="1171" d="M822 379 L352 379 L244 0 L-5 0 L475 1475 L699 1475 L1179 0 L930 0 L822 379 Z M762 588 L587 1202 L412 588 L762 588 Z M475 1604 L632 1946 L868 1946 L631 1604 L475 1604 Z " />
<glyph glyph-name="Edieresis" unicode="&#xcb;" horiz-adv-x="1072" d="M162 0 L162 1475 L989 1475 L989 1266 L408 1266 L408 874 L873 874 L873 665 L408 665 L408 209 L1002 209 L1002 0 L162 0 Z M387 1884 Q443 1884 482.5 1843.5 Q522 1803 522 1746 Q522 1689 482 1648.5 Q442 1608 385 1608 Q328 1608 287 1649 Q246 1690 246 1747 Q246 1804 287 1844 Q328 1884 387 1884 Z M764 1884 Q820 1884 859.5 1843.5 Q899 1803 899 1746 Q899 1689 859 1648.5 Q819 1608 762 1608 Q705 1608 664 1649 Q623 1690 623 1747 Q623 1804 664 1844 Q705 1884 764 1884 Z " />
<glyph glyph-name="Egrave" unicode="&#xc8;" horiz-adv-x="1072" d="M162 0 L162 1475 L989 1475 L989 1266 L408 1266 L408 874 L873 874 L873 665 L408 665 L408 209 L1002 209 L1002 0 L162 0 Z M577 1604 L339 1946 L575 1946 L732 1604 L577 1604 Z " />
<glyph glyph-name="Iacute" unicode="&#xcd;" horiz-adv-x="570" d="M162 0 L162 1475 L408 1475 L408 0 L162 0 Z M194 1604 L351 1946 L587 1946 L350 1604 L194 1604 Z " />
<glyph glyph-name="Icircumflex" unicode="&#xce;" horiz-adv-x="569" d="M162 0 L162 1475 L408 1475 L408 0 L162 0 Z M285 1795 L170 1604 L-45 1604 L212 1946 L358 1946 L615 1604 L400 1604 L285 1795 Z " />
<glyph glyph-name="Idieresis" unicode="&#xcf;" horiz-adv-x="569" d="M162 0 L162 1475 L408 1475 L408 0 L162 0 Z M99 1884 Q155 1884 194.5 1843.5 Q234 1803 234 1746 Q234 1689 194 1648.5 Q154 1608 97 1608 Q40 1608 -1 1649 Q-42 1690 -42 1747 Q-42 1804 -1 1844 Q40 1884 99 1884 Z M476 1884 Q532 1884 571.5 1843.5 Q611 1803 611 1746 Q611 1689 571 1648.5 Q531 1608 474 1608 Q417 1608 376 1649 Q335 1690 335 1747 Q335 1804 376 1844 Q417 1884 476 1884 Z " />
<glyph glyph-name="Igrave" unicode="&#xcc;" horiz-adv-x="570" d="M162 0 L162 1475 L408 1475 L408 0 L162 0 Z M220 1604 L-18 1946 L218 1946 L375 1604 L220 1604 Z " />
<glyph glyph-name="Oacute" unicode="&#xd3;" horiz-adv-x="1238" d="M628 1504 Q841 1504 973 1376 Q1142 1211 1142 737 Q1142 423 1065 236 Q1010 100 883 33 Q767 -29 618 -29 Q394 -29 264 98 Q95 263 95 734 Q95 1056 171 1239 Q229 1375 353 1442 Q469 1504 628 1504 Z M614 1287 Q467 1287 410 1154 Q347 1007 347 737 Q347 468 410 321 Q467 188 619 188 Q770 188 827 321 Q890 469 890 733 Q890 1027 825 1157 Q760 1287 614 1287 Z M494 1604 L651 1946 L887 1946 L650 1604 L494 1604 Z " />
<glyph glyph-name="Ocircumflex" unicode="&#xd4;" horiz-adv-x="1238" d="M628 1504 Q841 1504 973 1376 Q1142 1211 1142 737 Q1142 423 1065 236 Q1010 100 883 33 Q767 -29 618 -29 Q394 -29 264 98 Q95 263 95 734 Q95 1056 171 1239 Q229 1375 353 1442 Q469 1504 628 1504 Z M614 1287 Q467 1287 410 1154 Q347 1007 347 737 Q347 468 410 321 Q467 188 619 188 Q770 188 827 321 Q890 469 890 733 Q890 1027 825 1157 Q760 1287 614 1287 Z M619 1795 L504 1604 L289 1604 L546 1946 L692 1946 L949 1604 L734 1604 L619 1795 Z " />
<glyph glyph-name="Ograve" unicode="&#xd2;" horiz-adv-x="1238" d="M628 1504 Q841 1504 973 1376 Q1142 1211 1142 737 Q1142 423 1065 236 Q1010 100 883 33 Q767 -29 618 -29 Q394 -29 264 98 Q95 263 95 734 Q95 1056 171 1239 Q229 1375 353 1442 Q469 1504 628 1504 Z M614 1287 Q467 1287 410 1154 Q347 1007 347 737 Q347 468 410 321 Q467 188 619 188 Q770 188 827 321 Q890 469 890 733 Q890 1027 825 1157 Q760 1287 614 1287 Z M588 1604 L350 1946 L586 1946 L743 1604 L588 1604 Z " />
<glyph glyph-name="Uacute" unicode="&#xda;" horiz-adv-x="1241" d="M154 1475 L400 1475 L400 480 Q400 351 424 291 Q465 186 621 186 Q777 186 818 291 Q842 351 842 480 L842 1475 L1088 1475 L1088 524 Q1088 343 1068 256 Q1001 -31 621 -31 Q330 -31 226 133 Q183 199 168.5 279 Q154 359 154 524 L154 1475 Z M516 1604 L673 1946 L909 1946 L672 1604 L516 1604 Z " />
<glyph glyph-name="Ucircumflex" unicode="&#xdb;" horiz-adv-x="1241" d="M154 1475 L400 1475 L400 480 Q400 351 424 291 Q465 186 621 186 Q777 186 818 291 Q842 351 842 480 L842 1475 L1088 1475 L1088 524 Q1088 343 1068 256 Q1001 -31 621 -31 Q330 -31 226 133 Q183 199 168.5 279 Q154 359 154 524 L154 1475 Z M621 1795 L506 1604 L291 1604 L548 1946 L694 1946 L951 1604 L736 1604 L621 1795 Z " />
<glyph glyph-name="Ugrave" unicode="&#xd9;" horiz-adv-x="1241" d="M154 1475 L400 1475 L400 480 Q400 351 424 291 Q465 186 621 186 Q777 186 818 291 Q842 351 842 480 L842 1475 L1088 1475 L1088 524 Q1088 343 1068 256 Q1001 -31 621 -31 Q330 -31 226 133 Q183 199 168.5 279 Q154 359 154 524 L154 1475 Z M591 1604 L353 1946 L589 1946 L746 1604 L591 1604 Z " />
<glyph glyph-name="dotlessi" unicode="&#x131;" horiz-adv-x="538" d="M150 0 L150 1102 L388 1102 L388 0 L150 0 Z " />
<glyph glyph-name="circumflex" unicode="&#x2c6;" horiz-adv-x="1024" d="M512 1408 L397 1216 L182 1216 L439 1558 L585 1558 L842 1216 L627 1216 L512 1408 Z " />
<glyph glyph-name="tilde" unicode="&#x2dc;" horiz-adv-x="1024" d="M370 1261 L238 1261 Q247 1360 273 1410 Q319 1497 418 1497 Q467 1497 528 1457 Q583 1421 607 1421 Q651 1421 652 1497 L785 1497 Q775 1388 744 1336 Q697 1255 595 1255 Q563 1255 544.5 1263 Q526 1271 461 1312 Q432 1331 413 1331 Q381 1331 370 1261 Z " />
<glyph glyph-name="overscore" unicode="&#xaf;" horiz-adv-x="1024" d="M271 1292 L271 1464 L750 1464 L750 1292 L271 1292 Z " />
<glyph glyph-name="breve" unicode="&#x2d8;" horiz-adv-x="1024" d="M256 1540 L391 1540 Q395 1468 410 1445 Q438 1397 511 1397 Q593 1397 619 1453 Q630 1476 633 1540 L768 1540 Q767 1395 736 1337 Q679 1231 511 1231 Q376 1231 316 1297 Q256 1363 256 1512 Q256 1523 256 1540 Z " />
<glyph glyph-name="dotaccent" unicode="&#x2d9;" horiz-adv-x="1024" d="M515 1523 Q575 1523 618.5 1478.5 Q662 1434 662 1373 Q662 1306 613 1261 Q570 1222 513 1222 Q450 1222 405.5 1266.5 Q361 1311 361 1374 Q361 1436 406 1479.5 Q451 1523 515 1523 Z " />
<glyph glyph-name="ring" unicode="&#x2da;" horiz-adv-x="1024" d="M515 1663 Q622 1663 684.5 1601.5 Q747 1540 747 1436 Q747 1330 684 1269 Q621 1208 512 1208 Q395 1208 332 1277 Q276 1339 276 1435 Q276 1542 339.5 1602.5 Q403 1663 515 1663 Z M510 1534 Q417 1534 417 1435 Q417 1337 512 1337 Q606 1337 606 1435 Q606 1534 510 1534 Z " />
<glyph glyph-name="cedilla" unicode="&#xb8;" horiz-adv-x="1024" d="M446 0 L619 0 L585 -86 Q750 -105 750 -280 Q750 -395 675 -453 Q618 -496 519 -496 Q408 -496 295 -455 L341 -302 Q440 -336 507 -336 Q541 -336 555.5 -321.5 Q570 -307 570 -273 Q570 -243 555 -231 Q540 -219 504 -219 Q478 -219 425 -223 L398 -108 L446 0 Z " />
<glyph glyph-name="hungarumlaut" unicode="&#x2dd;" horiz-adv-x="1024" d="M322 1216 L435 1558 L639 1558 L451 1216 L322 1216 Z M574 1216 L713 1558 L926 1558 L705 1216 L574 1216 Z " />
<glyph glyph-name="ogonek" unicode="&#x2db;" horiz-adv-x="1024" d="M537 0 L683 0 Q607 -70 576 -120.5 Q545 -171 545 -224 Q545 -299 605 -299 L703 -299 L703 -455 L591 -455 Q471 -455 420 -413 Q365 -368 365 -275 Q365 -207 399 -151 Q437 -89 491 -42 Q525 -12 537 0 Z " />
<glyph glyph-name="caron" unicode="&#x2c7;" horiz-adv-x="1024" d="M512 1366 L627 1558 L842 1558 L585 1216 L439 1216 L182 1558 L397 1558 L512 1366 Z " />
<glyph glyph-name="nbspace" unicode="&#xa0;" horiz-adv-x="410" d="" />
<glyph glyph-name="currency" unicode="&#xa4;" horiz-adv-x="1061" d="M216 305 L70 431 L209 580 Q168 674 168 807 Q168 942 209 1035 L70 1184 L216 1310 L337 1179 Q417 1223 530 1223 Q644 1223 723 1179 L845 1310 L991 1184 L852 1035 Q894 939 894 808 Q894 674 852 580 L991 431 L845 305 L723 436 Q643 393 530 393 Q418 393 337 436 L216 305 Z M528 1037 Q368 1037 368 812 Q368 696 404 640 Q443 579 531 579 Q617 579 655.5 634 Q694 689 694 810 Q694 929 654.5 983 Q615 1037 528 1037 Z " />
<glyph glyph-name="brokenbar" unicode="&#xa6;" horiz-adv-x="676" d="M227 854 L227 1475 L448 1475 L448 854 L227 854 Z M227 0 L227 621 L448 621 L448 0 L227 0 Z " />
<glyph glyph-name="uni00AD" unicode="&#xad;" horiz-adv-x="697" d="M116 510 L116 719 L580 719 L580 510 L116 510 Z " />
<glyph glyph-name="twosuperior" unicode="&#xb2;" horiz-adv-x="698" d="M30 817 Q37 942 81 1017 Q125 1092 269 1229 Q365 1318 391.5 1355 Q418 1392 418 1434 Q418 1529 327 1529 Q271 1529 246 1495 Q221 1461 212 1376 L30 1376 Q43 1522 92 1590 Q167 1695 333 1695 Q467 1695 538.5 1629 Q610 1563 610 1440 Q610 1343 558 1258 Q539 1227 524 1210.5 Q509 1194 440 1124 Q355 1039 344 1026.5 Q333 1014 306 977 L625 977 L625 817 L30 817 Z " />
<glyph glyph-name="threesuperior" unicode="&#xb3;" horiz-adv-x="699" d="M223 1191 L223 1337 Q308 1337 342 1343 Q413 1356 413 1439 Q413 1486 392.5 1507 Q372 1528 327 1528 Q282 1528 261.5 1508.5 Q241 1489 230 1436 L52 1436 Q68 1558 113 1613 Q178 1694 340 1694 Q605 1694 605 1454 Q605 1333 527 1280 Q639 1223 639 1072 Q639 940 562 871 Q485 802 338 802 Q152 802 82 901 Q45 952 35 1087 L216 1087 Q226 1017 251.5 992.5 Q277 968 340 968 Q447 968 447 1074 Q447 1163 385 1179 Q365 1185 275 1189 L223 1191 Z " />
<glyph glyph-name="onesuperior" unicode="&#xb9;" horiz-adv-x="511" d="M159 819 L159 1489 L-19 1417 L-19 1582 L219 1679 L351 1679 L351 819 L159 819 Z " />
<glyph glyph-name="onequarter" unicode="&#xbc;" horiz-adv-x="1566" d="M262 614 L262 1285 L84 1213 L84 1378 L322 1475 L454 1475 L454 614 L262 614 Z M1175 0 L1175 168 L832 168 L832 306 L1042 860 L1248 860 L1039 330 L1175 330 L1175 614 L1359 614 L1359 330 L1458 330 L1458 168 L1359 168 L1359 0 L1175 0 Z M293 0 L914 1475 L1098 1475 L477 0 L293 0 Z " />
<glyph glyph-name="onehalf" unicode="&#xbd;" horiz-adv-x="1563" d="M269 614 L269 1285 L91 1213 L91 1378 L329 1475 L461 1475 L461 614 L269 614 Z M816 0 Q823 125 866.5 199.5 Q910 274 1055 410 Q1151 500 1177.5 536.5 Q1204 573 1204 614 Q1204 710 1113 710 Q1057 710 1032 676.5 Q1007 643 998 557 L816 557 Q829 704 878 771 Q953 876 1119 876 Q1253 876 1324.5 810 Q1396 744 1396 620 Q1396 530 1362 467 Q1328 404 1226 306 Q1131 215 1093 160 L1411 160 L1411 0 L816 0 Z M271 0 L892 1475 L1076 1475 L455 0 L271 0 Z " />
<glyph glyph-name="threequarters" unicode="&#xbe;" horiz-adv-x="1563" d="M255 987 L255 1133 Q340 1133 374 1139 Q445 1152 445 1234 Q445 1281 424.5 1302 Q404 1323 359 1323 Q314 1323 293.5 1303.5 Q273 1284 262 1231 L84 1231 Q100 1353 145 1408 Q210 1489 372 1489 Q637 1489 637 1249 Q637 1129 559 1076 Q671 1019 671 868 Q671 736 594 667 Q517 598 371 598 Q184 598 114 697 Q77 749 67 883 L248 883 Q258 813 283.5 788.5 Q309 764 372 764 Q479 764 479 870 Q479 959 417 975 Q397 980 307 984 L255 987 Z M1261 0 L1261 168 L918 168 L918 306 L1127 860 L1334 860 L1124 330 L1261 330 L1261 614 L1445 614 L1445 330 L1544 330 L1544 168 L1445 168 L1445 0 L1261 0 Z M419 0 L1040 1475 L1224 1475 L603 0 L419 0 Z " />
<glyph glyph-name="Eth" unicode="&#xd0;" horiz-adv-x="1260" d="M168 874 L168 1475 L576 1475 Q756 1475 875 1416 Q1046 1331 1125 1137 Q1195 964 1195 738 Q1195 511 1125 338 Q1055 165 920.5 82.5 Q786 0 575 0 L168 0 L168 692 L-6 692 L-6 874 L168 874 Z M414 874 L683 874 L683 692 L414 692 L414 209 L568 209 Q758 209 843 325 Q943 463 943 734 Q943 1005 851 1135.5 Q759 1266 567 1266 L414 1266 L414 874 Z " />
<glyph glyph-name="multiply" unicode="&#xd7;" horiz-adv-x="1061" d="M385 735 L134 974 L279 1119 L530 880 L782 1119 L927 974 L675 735 L927 495 L782 351 L530 590 L279 351 L134 495 L385 735 Z " />
<glyph glyph-name="Yacute" unicode="&#xdd;" horiz-adv-x="1037" d="M395 0 L395 565 L-29 1475 L239 1475 L518 800 L797 1475 L1065 1475 L641 565 L641 0 L395 0 Z M420 1604 L577 1946 L813 1946 L576 1604 L420 1604 Z " />
<glyph glyph-name="Thorn" unicode="&#xde;" horiz-adv-x="1130" d="M162 0 L162 1475 L408 1475 L408 1205 L525 1205 Q681 1205 764.5 1185.5 Q848 1166 911 1115 Q985 1055 1025.5 956.5 Q1066 858 1066 737 Q1066 504 933 390 Q800 276 527 276 L408 276 L408 0 L162 0 Z M408 481 L537 481 Q620 481 662.5 491.5 Q705 502 739 530 Q814 592 814 743 Q814 882 753 942 Q698 996 547 996 L408 996 L408 481 Z " />
<glyph glyph-name="eth" unicode="&#xf0;" horiz-adv-x="1027" d="M580 1118 Q544 1187 478 1278 L302 1151 L223 1254 L395 1378 Q339 1441 295 1486 L430 1608 L472 1568 Q526 1515 551 1489 L718 1609 L796 1507 L640 1394 Q796 1211 869 1008.5 Q942 806 942 557 Q942 264 844 120 Q741 -32 513 -32 Q286 -32 183 120 Q85 264 85 551 Q85 831 179 982 Q233 1068 330 1108 Q395 1134 471 1134 Q529 1134 580 1118 Z M511 927 Q408 927 367.5 844.5 Q327 762 327 551 Q327 319 375 243 Q417 175 513 175 Q619 175 659.5 257 Q700 339 700 553 Q700 765 659 846 Q618 927 511 927 Z " />
<glyph glyph-name="yacute" unicode="&#xfd;" horiz-adv-x="882" d="M331 -3 L8 1102 L262 1102 L441 309 L620 1102 L875 1102 L587 51 Q502 -259 406 -356 Q361 -402 299 -420.5 Q237 -439 122 -440 L122 -234 Q196 -234 228 -210 Q276 -179 319 -44 L331 -3 Z M357 1216 L514 1558 L750 1558 L513 1216 L357 1216 Z " />
<glyph glyph-name="thorn" unicode="&#xfe;" horiz-adv-x="1063" d="M150 -439 L150 1516 L388 1516 L388 1053 Q470 1134 609 1134 Q727 1134 816 1067 Q978 945 978 551 Q978 265 892 120 Q851 49 775 8.5 Q699 -32 608 -32 Q472 -32 388 50 L388 -439 L150 -439 Z M559 927 Q465 927 426.5 843 Q388 759 388 551 Q388 372 416 284 Q450 175 564 175 Q660 175 698 257.5 Q736 340 736 547 Q736 733 709 818 Q674 927 559 927 Z " />
<glyph glyph-name="Amacron" unicode="&#x100;" horiz-adv-x="1171" d="M822 379 L352 379 L244 0 L-5 0 L475 1475 L699 1475 L1179 0 L930 0 L822 379 Z M762 588 L587 1202 L412 588 L762 588 Z M345 1677 L345 1849 L824 1849 L824 1677 L345 1677 Z " />
<glyph glyph-name="amacron" unicode="&#x101;" horiz-adv-x="1033" d="M694 130 Q657 53 581 10.5 Q505 -32 403 -32 Q252 -32 168 61 Q84 154 84 321 Q84 501 170.5 582.5 Q257 664 447 664 Q530 664 669 652 L669 725 Q669 843 633 891 Q597 939 509 939 Q441 939 412.5 909 Q384 879 372 795 L149 795 Q160 933 205 1002 Q288 1132 513 1132 Q722 1132 809.5 1044.5 Q897 957 897 747 L897 0 L694 0 L694 130 Z M675 483 Q560 494 477 494 Q395 494 362 460 Q324 420 324 328 Q324 160 471 160 Q588 160 639 249 Q675 311 675 403 L675 483 Z M272 1292 L272 1464 L751 1464 L751 1292 L272 1292 Z " />
<glyph glyph-name="Abreve" unicode="&#x102;" horiz-adv-x="1171" d="M822 379 L352 379 L244 0 L-5 0 L475 1475 L699 1475 L1179 0 L930 0 L822 379 Z M762 588 L587 1202 L412 588 L762 588 Z M330 1913 L465 1913 Q469 1841 484 1817 Q513 1770 585 1770 Q667 1770 693 1826 Q704 1849 707 1913 L842 1913 Q841 1768 810 1710 Q753 1604 585 1604 Q450 1604 390 1670 Q330 1736 330 1885 Q330 1896 330 1913 Z " />
<glyph glyph-name="abreve" unicode="&#x103;" horiz-adv-x="1033" d="M694 130 Q657 53 581 10.5 Q505 -32 403 -32 Q252 -32 168 61 Q84 154 84 321 Q84 501 170.5 582.5 Q257 664 447 664 Q530 664 669 652 L669 725 Q669 843 633 891 Q597 939 509 939 Q441 939 412.5 909 Q384 879 372 795 L149 795 Q160 933 205 1002 Q288 1132 513 1132 Q722 1132 809.5 1044.5 Q897 957 897 747 L897 0 L694 0 L694 130 Z M675 483 Q560 494 477 494 Q395 494 362 460 Q324 420 324 328 Q324 160 471 160 Q588 160 639 249 Q675 311 675 403 L675 483 Z M263 1540 L398 1540 Q402 1468 417 1445 Q445 1397 518 1397 Q600 1397 626 1453 Q637 1476 640 1540 L775 1540 Q774 1395 743 1337 Q686 1231 518 1231 Q383 1231 323 1297 Q263 1363 263 1512 Q263 1523 263 1540 Z " />
<glyph glyph-name="Aogonek" unicode="&#x104;" horiz-adv-x="1171" d="M822 379 L352 379 L244 0 L-5 0 L475 1475 L699 1475 L1179 0 Q1103 -70 1072 -120 Q1041 -170 1041 -224 Q1041 -299 1100 -299 L1199 -299 L1199 -455 L1086 -455 Q967 -455 916 -413 Q861 -368 861 -275 Q861 -199 894 -145.5 Q927 -92 1033 0 L930 0 L822 379 Z M762 588 L587 1202 L412 588 L762 588 Z " />
<glyph glyph-name="aogonek" unicode="&#x105;" horiz-adv-x="1053" d="M897 0 Q893 -4 882 -14 Q758 -126 758 -224 Q758 -299 818 -299 L917 -299 L917 -455 L804 -455 Q684 -455 633 -413 Q578 -368 578 -275 Q578 -219 597 -176 Q616 -133 662 -82 Q688 -53 743 -7 L751 0 L694 0 L694 130 Q657 53 581 10.5 Q505 -32 403 -32 Q252 -32 168 61 Q84 154 84 321 Q84 501 170.5 582.5 Q257 664 447 664 Q530 664 669 652 L669 725 Q669 843 633 891 Q597 939 509 939 Q441 939 412.5 909 Q384 879 372 795 L149 795 Q160 933 205 1002 Q288 1132 513 1132 Q722 1132 809.5 1044.5 Q897 957 897 747 L897 0 Z M675 483 Q560 494 477 494 Q395 494 362 460 Q324 420 324 328 Q324 160 471 160 Q588 160 639 249 Q675 311 675 403 L675 483 Z " />
<glyph glyph-name="Cacute" unicode="&#x106;" horiz-adv-x="1120" d="M790 449 L1033 449 Q1031 247 956 137 Q844 -29 586 -29 Q328 -29 207 156 Q155 236 125 390 Q95 544 95 736 Q95 1183 230 1351 Q352 1502 580 1502 Q860 1502 965 1302 Q1018 1202 1020 1026 L781 1026 Q775 1135 746 1189 Q695 1285 585 1285 Q461 1285 408 1161 Q347 1022 347 737 Q347 426 420 289 Q474 188 591 188 Q777 188 790 449 Z M435 1604 L592 1946 L828 1946 L591 1604 L435 1604 Z " />
<glyph glyph-name="cacute" unicode="&#x107;" horiz-adv-x="930" d="M760 280 L889 101 Q838 60 806 41 Q683 -32 517 -32 Q285 -32 183 120 Q85 265 85 551 Q85 1134 501 1134 Q738 1134 828 951 Q870 866 872 724 L642 724 Q629 927 502 927 Q455 927 415.5 898.5 Q376 870 359 822 Q327 734 327 546 Q327 333 368.5 254 Q410 175 520 175 Q593 175 645 198 Q697 221 760 280 Z M367 1216 L524 1558 L760 1558 L523 1216 L367 1216 Z " />
<glyph glyph-name="Ccircumflex" unicode="&#x108;" horiz-adv-x="1120" d="M790 449 L1033 449 Q1031 247 956 137 Q844 -29 586 -29 Q328 -29 207 156 Q155 236 125 390 Q95 544 95 736 Q95 1183 230 1351 Q352 1502 580 1502 Q860 1502 965 1302 Q1018 1202 1020 1026 L781 1026 Q775 1135 746 1189 Q695 1285 585 1285 Q461 1285 408 1161 Q347 1022 347 737 Q347 426 420 289 Q474 188 591 188 Q777 188 790 449 Z M581 1795 L466 1604 L251 1604 L508 1946 L654 1946 L911 1604 L696 1604 L581 1795 Z " />
<glyph glyph-name="ccircumflex" unicode="&#x109;" horiz-adv-x="930" d="M760 280 L889 101 Q838 60 806 41 Q683 -32 517 -32 Q285 -32 183 120 Q85 265 85 551 Q85 1134 501 1134 Q738 1134 828 951 Q870 866 872 724 L642 724 Q629 927 502 927 Q455 927 415.5 898.5 Q376 870 359 822 Q327 734 327 546 Q327 333 368.5 254 Q410 175 520 175 Q593 175 645 198 Q697 221 760 280 Z M486 1408 L371 1216 L156 1216 L413 1558 L559 1558 L816 1216 L601 1216 L486 1408 Z " />
<glyph glyph-name="Cdotaccent" unicode="&#x10a;" horiz-adv-x="1120" d="M790 449 L1033 449 Q1031 247 956 137 Q844 -29 586 -29 Q328 -29 207 156 Q155 236 125 390 Q95 544 95 736 Q95 1183 230 1351 Q352 1502 580 1502 Q860 1502 965 1302 Q1018 1202 1020 1026 L781 1026 Q775 1135 746 1189 Q695 1285 585 1285 Q461 1285 408 1161 Q347 1022 347 737 Q347 426 420 289 Q474 188 591 188 Q777 188 790 449 Z M584 1896 Q644 1896 687.5 1852 Q731 1808 731 1746 Q731 1679 682 1634 Q639 1595 582 1595 Q519 1595 474.5 1639.5 Q430 1684 430 1747 Q430 1809 475 1852.5 Q520 1896 584 1896 Z " />
<glyph glyph-name="cdotaccent" unicode="&#x10b;" horiz-adv-x="930" d="M760 280 L889 101 Q838 60 806 41 Q683 -32 517 -32 Q285 -32 183 120 Q85 265 85 551 Q85 1134 501 1134 Q738 1134 828 951 Q870 866 872 724 L642 724 Q629 927 502 927 Q455 927 415.5 898.5 Q376 870 359 822 Q327 734 327 546 Q327 333 368.5 254 Q410 175 520 175 Q593 175 645 198 Q697 221 760 280 Z M509 1523 Q569 1523 612.5 1478.5 Q656 1434 656 1373 Q656 1306 607 1261 Q564 1222 507 1222 Q444 1222 399.5 1266.5 Q355 1311 355 1374 Q355 1436 400 1479.5 Q445 1523 509 1523 Z " />
<glyph glyph-name="Ccaron" unicode="&#x10c;" horiz-adv-x="1120" d="M790 449 L1033 449 Q1031 247 956 137 Q844 -29 586 -29 Q328 -29 207 156 Q155 236 125 390 Q95 544 95 736 Q95 1183 230 1351 Q352 1502 580 1502 Q860 1502 965 1302 Q1018 1202 1020 1026 L781 1026 Q775 1135 746 1189 Q695 1285 585 1285 Q461 1285 408 1161 Q347 1022 347 737 Q347 426 420 289 Q474 188 591 188 Q777 188 790 449 Z M587 1755 L702 1946 L917 1946 L660 1604 L514 1604 L257 1946 L472 1946 L587 1755 Z " />
<glyph glyph-name="ccaron" unicode="&#x10d;" horiz-adv-x="930" d="M760 280 L889 101 Q838 60 806 41 Q683 -32 517 -32 Q285 -32 183 120 Q85 265 85 551 Q85 1134 501 1134 Q738 1134 828 951 Q870 866 872 724 L642 724 Q629 927 502 927 Q455 927 415.5 898.5 Q376 870 359 822 Q327 734 327 546 Q327 333 368.5 254 Q410 175 520 175 Q593 175 645 198 Q697 221 760 280 Z M506 1366 L621 1558 L836 1558 L579 1216 L433 1216 L176 1558 L391 1558 L506 1366 Z " />
<glyph glyph-name="Dcaron" unicode="&#x10e;" horiz-adv-x="1284" d="M162 0 L162 1475 L571 1475 Q750 1475 870 1416 Q1040 1331 1119 1137 Q1189 965 1189 738 Q1189 367 1021 175 Q942 84 833 42 Q724 0 569 0 L162 0 Z M408 209 L562 209 Q752 209 837 325 Q937 462 937 734 Q937 1005 845 1135.5 Q753 1266 561 1266 L408 1266 L408 209 Z M547 1755 L662 1946 L877 1946 L620 1604 L474 1604 L217 1946 L432 1946 L547 1755 Z " />
<glyph glyph-name="dcaron" unicode="&#x10f;" horiz-adv-x="1329" d="M706 0 L703 80 Q618 -32 456 -32 Q337 -32 247 35 Q85 157 85 551 Q85 835 171 982 Q220 1065 313 1106 Q379 1134 455 1134 Q591 1134 676 1053 L676 1516 L913 1516 L913 0 L706 0 Z M496 927 Q402 927 364.5 843 Q327 759 327 551 Q327 372 354 284 Q388 175 500 175 Q598 175 637 257.5 Q676 340 676 547 Q676 733 648 819 Q612 927 496 927 Z M1016 1044 L1123 1548 L1376 1548 L1192 1044 L1016 1044 Z " />
<glyph glyph-name="Dcroat" unicode="&#x110;" horiz-adv-x="1260" d="M168 874 L168 1475 L576 1475 Q756 1475 875 1416 Q1046 1331 1125 1137 Q1195 964 1195 738 Q1195 511 1125 338 Q1055 165 920.5 82.5 Q786 0 575 0 L168 0 L168 692 L-6 692 L-6 874 L168 874 Z M414 874 L683 874 L683 692 L414 692 L414 209 L568 209 Q758 209 843 325 Q943 463 943 734 Q943 1005 851 1135.5 Q759 1266 567 1266 L414 1266 L414 874 Z " />
<glyph glyph-name="dcroat" unicode="&#x111;" horiz-adv-x="1069" d="M702 0 L699 80 Q608 -32 454 -32 Q337 -32 247 35 Q85 157 85 552 Q85 836 171 983 Q219 1066 313 1106 Q377 1134 452 1134 Q586 1134 671 1053 L671 1271 L429 1271 L429 1412 L671 1412 L671 1578 L913 1578 L913 1412 L1070 1412 L1070 1271 L913 1271 L913 0 L702 0 Z M495 927 Q402 927 364.5 843 Q327 759 327 551 Q327 372 354 284 Q388 175 498 175 Q594 175 632.5 257 Q671 339 671 546 Q671 734 644 819 Q608 927 495 927 Z " />
<glyph glyph-name="Emacron" unicode="&#x112;" horiz-adv-x="1072" d="M162 0 L162 1475 L989 1475 L989 1266 L408 1266 L408 874 L873 874 L873 665 L408 665 L408 209 L1002 209 L1002 0 L162 0 Z M336 1677 L336 1849 L815 1849 L815 1677 L336 1677 Z " />
<glyph glyph-name="emacron" unicode="&#x113;" horiz-adv-x="1018" d="M930 478 L316 478 Q325 303 371 239 Q417 175 535 175 Q617 175 670.5 197 Q724 219 790 281 L918 101 Q867 61 833 42 Q706 -32 531 -32 Q289 -32 184 120 Q85 266 85 552 Q85 838 182 982 Q283 1134 509 1134 Q933 1134 933 574 Q933 537 930 478 Z M703 653 Q697 761 680 811 Q657 877 617 905 Q577 933 505 933 Q439 933 400 903.5 Q361 874 341 808 Q326 759 317 653 L703 653 Z M268 1292 L268 1464 L747 1464 L747 1292 L268 1292 Z " />
<glyph glyph-name="Ebreve" unicode="&#x114;" horiz-adv-x="1072" d="M162 0 L162 1475 L989 1475 L989 1266 L408 1266 L408 874 L873 874 L873 665 L408 665 L408 209 L1002 209 L1002 0 L162 0 Z M321 1913 L456 1913 Q460 1841 475 1817 Q504 1770 576 1770 Q658 1770 684 1826 Q695 1849 698 1913 L833 1913 Q832 1768 801 1710 Q744 1604 576 1604 Q441 1604 381 1670 Q321 1736 321 1885 Q321 1896 321 1913 Z " />
<glyph glyph-name="ebreve" unicode="&#x115;" horiz-adv-x="1018" d="M930 478 L316 478 Q325 303 371 239 Q417 175 535 175 Q617 175 670.5 197 Q724 219 790 281 L918 101 Q867 61 833 42 Q706 -32 531 -32 Q289 -32 184 120 Q85 266 85 552 Q85 838 182 982 Q283 1134 509 1134 Q933 1134 933 574 Q933 537 930 478 Z M703 653 Q697 761 680 811 Q657 877 617 905 Q577 933 505 933 Q439 933 400 903.5 Q361 874 341 808 Q326 759 317 653 L703 653 Z M253 1540 L388 1540 Q392 1468 407 1445 Q435 1397 508 1397 Q590 1397 616 1453 Q627 1476 630 1540 L765 1540 Q764 1395 733 1337 Q676 1231 508 1231 Q373 1231 313 1297 Q253 1363 253 1512 Q253 1523 253 1540 Z " />
<glyph glyph-name="Edotaccent" unicode="&#x116;" horiz-adv-x="1072" d="M162 0 L162 1475 L989 1475 L989 1266 L408 1266 L408 874 L873 874 L873 665 L408 665 L408 209 L1002 209 L1002 0 L162 0 Z M614 1896 Q674 1896 717.5 1852 Q761 1808 761 1746 Q761 1679 712 1634 Q669 1595 612 1595 Q549 1595 504.5 1639.5 Q460 1684 460 1747 Q460 1809 505 1852.5 Q550 1896 614 1896 Z " />
<glyph glyph-name="edotaccent" unicode="&#x117;" horiz-adv-x="1018" d="M930 478 L316 478 Q325 303 371 239 Q417 175 535 175 Q617 175 670.5 197 Q724 219 790 281 L918 101 Q867 61 833 42 Q706 -32 531 -32 Q289 -32 184 120 Q85 266 85 552 Q85 838 182 982 Q283 1134 509 1134 Q933 1134 933 574 Q933 537 930 478 Z M703 653 Q697 761 680 811 Q657 877 617 905 Q577 933 505 933 Q439 933 400 903.5 Q361 874 341 808 Q326 759 317 653 L703 653 Z M529 1523 Q589 1523 632.5 1478.5 Q676 1434 676 1373 Q676 1306 627 1261 Q584 1222 527 1222 Q464 1222 419.5 1266.5 Q375 1311 375 1374 Q375 1436 420 1479.5 Q465 1523 529 1523 Z " />
<glyph glyph-name="Eogonek" unicode="&#x118;" horiz-adv-x="1072" d="M1002 0 Q863 -126 863 -224 Q863 -299 923 -299 L1021 -299 L1021 -455 L909 -455 Q789 -455 738 -413 Q683 -368 683 -275 Q683 -228 694 -197 Q705 -166 738 -119 Q759 -89 772 -76 Q785 -63 841 -14 Q843 -13 855 0 L162 0 L162 1475 L989 1475 L989 1266 L408 1266 L408 874 L873 874 L873 665 L408 665 L408 209 L1002 209 L1002 0 Z " />
<glyph glyph-name="eogonek" unicode="&#x119;" horiz-adv-x="1018" d="M929 478 L316 478 Q324 303 370 239 Q416 175 534 175 Q617 175 670.5 197 Q724 219 789 281 L916 104 Q785 5 734.5 -63 Q684 -131 684 -205 Q684 -299 760 -299 L842 -299 L842 -455 L729 -455 Q610 -455 559 -408 Q504 -357 504 -255 Q504 -130 605 -28 Q555 -32 522 -32 Q289 -32 184 120 Q85 265 85 552 Q85 838 182 982 Q283 1134 509 1134 Q933 1134 933 576 Q933 537 929 478 Z M703 653 Q697 761 679 811 Q656 877 616 905 Q576 933 505 933 Q439 933 400 903.5 Q361 874 340 808 Q325 759 317 653 L703 653 Z " />
<glyph glyph-name="Ecaron" unicode="&#x11a;" horiz-adv-x="1072" d="M162 0 L162 1475 L989 1475 L989 1266 L408 1266 L408 874 L873 874 L873 665 L408 665 L408 209 L1002 209 L1002 0 L162 0 Z M600 1755 L715 1946 L930 1946 L673 1604 L527 1604 L270 1946 L485 1946 L600 1755 Z " />
<glyph glyph-name="ecaron" unicode="&#x11b;" horiz-adv-x="1018" d="M930 478 L316 478 Q325 303 371 239 Q417 175 535 175 Q617 175 670.5 197 Q724 219 790 281 L918 101 Q867 61 833 42 Q706 -32 531 -32 Q289 -32 184 120 Q85 266 85 552 Q85 838 182 982 Q283 1134 509 1134 Q933 1134 933 574 Q933 537 930 478 Z M703 653 Q697 761 680 811 Q657 877 617 905 Q577 933 505 933 Q439 933 400 903.5 Q361 874 341 808 Q326 759 317 653 L703 653 Z M525 1366 L640 1558 L855 1558 L598 1216 L452 1216 L195 1558 L410 1558 L525 1366 Z " />
<glyph glyph-name="Gcircumflex" unicode="&#x11c;" horiz-adv-x="1227" d="M630 555 L630 756 L1096 756 L1096 62 Q999 20 868.5 -4.5 Q738 -29 612 -29 Q287 -29 180 200 Q95 383 95 728 Q95 1143 213 1316 Q339 1502 598 1502 Q886 1502 1000 1303 Q1058 1203 1060 1026 L818 1026 Q811 1136 780 1190 Q724 1285 606 1285 Q466 1285 407 1148 Q347 1008 347 733 Q347 443 417 305 Q477 188 621 188 Q729 188 854 241 L854 555 L630 555 Z M606 1795 L491 1604 L276 1604 L533 1946 L679 1946 L936 1604 L721 1604 L606 1795 Z " />
<glyph glyph-name="gcircumflex" unicode="&#x11d;" horiz-adv-x="1063" d="M675 73 Q590 -6 454 -6 Q336 -6 247 59 Q85 179 85 564 Q85 843 171 986 Q213 1055 288.5 1094.5 Q364 1134 454 1134 Q535 1134 586 1112.5 Q637 1091 699 1030 L699 1102 L913 1102 L913 174 Q913 -2 898.5 -98 Q884 -194 845 -272 Q798 -367 708 -418 Q618 -469 496 -469 Q317 -469 203 -415 Q193 -411 100 -358 L201 -167 Q305 -232 354 -250 Q403 -268 474 -268 Q549 -268 592.5 -237.5 Q636 -207 654 -140 Q675 -61 675 58 L675 73 Z M496 927 Q402 927 364.5 846 Q327 765 327 563 Q327 392 354 306 Q388 201 499 201 Q611 201 648 306 Q663 350 667 393 Q671 436 671 551 Q671 688 667 733.5 Q663 779 647 822 Q609 927 496 927 Z M532 1408 L417 1216 L202 1216 L459 1558 L605 1558 L862 1216 L647 1216 L532 1408 Z " />
<glyph glyph-name="Gbreve" unicode="&#x11e;" horiz-adv-x="1227" d="M630 555 L630 756 L1096 756 L1096 62 Q999 20 868.5 -4.5 Q738 -29 612 -29 Q287 -29 180 200 Q95 383 95 728 Q95 1143 213 1316 Q339 1502 598 1502 Q886 1502 1000 1303 Q1058 1203 1060 1026 L818 1026 Q811 1136 780 1190 Q724 1285 606 1285 Q466 1285 407 1148 Q347 1008 347 733 Q347 443 417 305 Q477 188 621 188 Q729 188 854 241 L854 555 L630 555 Z M357 1913 L492 1913 Q496 1841 511 1817 Q540 1770 612 1770 Q694 1770 720 1826 Q731 1849 734 1913 L869 1913 Q868 1768 837 1710 Q780 1604 612 1604 Q477 1604 417 1670 Q357 1736 357 1885 Q357 1896 357 1913 Z " />
<glyph glyph-name="gbreve" unicode="&#x11f;" horiz-adv-x="1063" d="M675 73 Q590 -6 454 -6 Q336 -6 247 59 Q85 179 85 564 Q85 843 171 986 Q213 1055 288.5 1094.5 Q364 1134 454 1134 Q535 1134 586 1112.5 Q637 1091 699 1030 L699 1102 L913 1102 L913 174 Q913 -2 898.5 -98 Q884 -194 845 -272 Q798 -367 708 -418 Q618 -469 496 -469 Q317 -469 203 -415 Q193 -411 100 -358 L201 -167 Q305 -232 354 -250 Q403 -268 474 -268 Q549 -268 592.5 -237.5 Q636 -207 654 -140 Q675 -61 675 58 L675 73 Z M496 927 Q402 927 364.5 846 Q327 765 327 563 Q327 392 354 306 Q388 201 499 201 Q611 201 648 306 Q663 350 667 393 Q671 436 671 551 Q671 688 667 733.5 Q663 779 647 822 Q609 927 496 927 Z M289 1540 L424 1540 Q428 1468 443 1445 Q471 1397 544 1397 Q626 1397 652 1453 Q663 1476 666 1540 L801 1540 Q800 1395 769 1337 Q712 1231 544 1231 Q409 1231 349 1297 Q289 1363 289 1512 Q289 1523 289 1540 Z " />
<glyph glyph-name="Gdotaccent" unicode="&#x120;" horiz-adv-x="1227" d="M630 555 L630 756 L1096 756 L1096 62 Q999 20 868.5 -4.5 Q738 -29 612 -29 Q287 -29 180 200 Q95 383 95 728 Q95 1143 213 1316 Q339 1502 598 1502 Q886 1502 1000 1303 Q1058 1203 1060 1026 L818 1026 Q811 1136 780 1190 Q724 1285 606 1285 Q466 1285 407 1148 Q347 1008 347 733 Q347 443 417 305 Q477 188 621 188 Q729 188 854 241 L854 555 L630 555 Z M617 1896 Q677 1896 720.5 1852 Q764 1808 764 1746 Q764 1679 715 1634 Q672 1595 615 1595 Q552 1595 507.5 1639.5 Q463 1684 463 1747 Q463 1809 508 1852.5 Q553 1896 617 1896 Z " />
<glyph glyph-name="gdotaccent" unicode="&#x121;" horiz-adv-x="1063" d="M675 73 Q590 -6 454 -6 Q336 -6 247 59 Q85 179 85 564 Q85 843 171 986 Q213 1055 288.5 1094.5 Q364 1134 454 1134 Q535 1134 586 1112.5 Q637 1091 699 1030 L699 1102 L913 1102 L913 174 Q913 -2 898.5 -98 Q884 -194 845 -272 Q798 -367 708 -418 Q618 -469 496 -469 Q317 -469 203 -415 Q193 -411 100 -358 L201 -167 Q305 -232 354 -250 Q403 -268 474 -268 Q549 -268 592.5 -237.5 Q636 -207 654 -140 Q675 -61 675 58 L675 73 Z M496 927 Q402 927 364.5 846 Q327 765 327 563 Q327 392 354 306 Q388 201 499 201 Q611 201 648 306 Q663 350 667 393 Q671 436 671 551 Q671 688 667 733.5 Q663 779 647 822 Q609 927 496 927 Z M542 1523 Q602 1523 645.5 1478.5 Q689 1434 689 1373 Q689 1306 640 1261 Q597 1222 540 1222 Q477 1222 432.5 1266.5 Q388 1311 388 1374 Q388 1436 433 1479.5 Q478 1523 542 1523 Z " />
<glyph glyph-name="Gcommaaccent" unicode="&#x122;" horiz-adv-x="1227" d="M630 555 L630 756 L1096 756 L1096 62 Q999 20 868.5 -4.5 Q738 -29 612 -29 Q287 -29 180 200 Q95 383 95 728 Q95 1143 213 1316 Q339 1502 598 1502 Q886 1502 1000 1303 Q1058 1203 1060 1026 L818 1026 Q811 1136 780 1190 Q724 1285 606 1285 Q466 1285 407 1148 Q347 1008 347 733 Q347 443 417 305 Q477 188 621 188 Q729 188 854 241 L854 555 L630 555 Z M410 -489 L528 -149 L765 -149 L566 -489 L410 -489 Z " />
<glyph glyph-name="gcommaaccent" unicode="&#x123;" horiz-adv-x="1063" d="M675 73 Q590 -6 454 -6 Q336 -6 247 59 Q85 179 85 564 Q85 843 171 986 Q213 1055 288.5 1094.5 Q364 1134 454 1134 Q535 1134 586 1112.5 Q637 1091 699 1030 L699 1102 L913 1102 L913 174 Q913 -2 898.5 -98 Q884 -194 845 -272 Q798 -367 708 -418 Q618 -469 496 -469 Q317 -469 203 -415 Q193 -411 100 -358 L201 -167 Q305 -232 354 -250 Q403 -268 474 -268 Q549 -268 592.5 -237.5 Q636 -207 654 -140 Q675 -61 675 58 L675 73 Z M496 927 Q402 927 364.5 846 Q327 765 327 563 Q327 392 354 306 Q388 201 499 201 Q611 201 648 306 Q663 350 667 393 Q671 436 671 551 Q671 688 667 733.5 Q663 779 647 822 Q609 927 496 927 Z M803 1558 L646 1216 L410 1216 L648 1558 L803 1558 Z " />
<glyph glyph-name="Hcircumflex" unicode="&#x124;" horiz-adv-x="1296" d="M162 0 L162 1475 L408 1475 L408 879 L888 879 L888 1475 L1134 1475 L1134 0 L888 0 L888 670 L408 670 L408 0 L162 0 Z M648 1795 L533 1604 L318 1604 L575 1946 L721 1946 L978 1604 L763 1604 L648 1795 Z " />
<glyph glyph-name="hcircumflex" unicode="&#x125;" horiz-adv-x="1099" d="M150 0 L150 1516 L388 1516 L388 1006 Q494 1087 546 1110.5 Q598 1134 673 1134 Q826 1134 890.5 1040 Q955 946 955 725 L955 0 L718 0 L718 708 Q718 808 702 851 Q678 917 605 917 Q554 917 508.5 888.5 Q463 860 388 782 L388 0 L150 0 Z M325 1795 L210 1604 L-5 1604 L252 1946 L398 1946 L655 1604 L440 1604 L325 1795 Z " />
<glyph glyph-name="Hbar" unicode="&#x126;" horiz-adv-x="1223" d="M134 0 L134 1045 L0 1045 L0 1184 L134 1184 L134 1475 L380 1475 L380 1184 L843 1184 L843 1475 L1089 1475 L1089 1184 L1223 1184 L1223 1045 L1089 1045 L1089 0 L843 0 L843 670 L380 670 L380 0 L134 0 Z M380 879 L843 879 L843 1045 L380 1045 L380 879 Z " />
<glyph glyph-name="hbar" unicode="&#x127;" horiz-adv-x="1105" d="M155 0 L155 1237 L-1 1237 L-1 1378 L155 1378 L155 1516 L393 1516 L393 1378 L640 1378 L640 1237 L393 1237 L393 1006 Q405 1014 455 1054 Q559 1134 678 1134 Q831 1134 896 1040.5 Q961 947 961 725 L961 0 L723 0 L723 708 Q723 809 707 854 Q683 921 612 921 Q559 921 516 893.5 Q473 866 393 782 L393 0 L155 0 Z " />
<glyph glyph-name="Itilde" unicode="&#x128;" horiz-adv-x="570" d="M162 0 L162 1475 L408 1475 L408 0 L162 0 Z M143 1634 L11 1634 Q20 1733 46 1783 Q92 1870 191 1870 Q242 1870 301 1830 Q356 1794 380 1794 Q424 1794 425 1870 L558 1870 Q548 1761 517 1709 Q470 1628 368 1628 Q336 1628 317.5 1636 Q299 1644 234 1685 Q205 1704 186 1704 Q154 1704 143 1634 Z " />
<glyph glyph-name="itilde" unicode="&#x129;" horiz-adv-x="537" d="M150 0 L150 1102 L388 1102 L388 0 L150 0 Z M127 1261 L-5 1261 Q4 1360 30 1410 Q76 1497 175 1497 Q224 1497 285 1457 Q340 1421 364 1421 Q408 1421 409 1497 L542 1497 Q532 1388 501 1336 Q454 1255 352 1255 Q320 1255 301.5 1263 Q283 1271 218 1312 Q189 1331 170 1331 Q138 1331 127 1261 Z " />
<glyph glyph-name="Imacron" unicode="&#x12a;" horiz-adv-x="570" d="M162 0 L162 1475 L408 1475 L408 0 L162 0 Z M44 1677 L44 1849 L523 1849 L523 1677 L44 1677 Z " />
<glyph glyph-name="imacron" unicode="&#x12b;" horiz-adv-x="538" d="M150 0 L150 1102 L388 1102 L388 0 L150 0 Z M28 1292 L28 1464 L507 1464 L507 1292 L28 1292 Z " />
<glyph glyph-name="Ibreve" unicode="&#x12c;" horiz-adv-x="570" d="M162 0 L162 1475 L408 1475 L408 0 L162 0 Z M29 1913 L164 1913 Q168 1841 183 1817 Q212 1770 284 1770 Q366 1770 392 1826 Q403 1849 406 1913 L541 1913 Q540 1768 509 1710 Q452 1604 284 1604 Q149 1604 89 1670 Q29 1736 29 1885 Q29 1896 29 1913 Z " />
<glyph glyph-name="ibreve" unicode="&#x12d;" horiz-adv-x="538" d="M150 0 L150 1102 L388 1102 L388 0 L150 0 Z M13 1540 L148 1540 Q152 1468 167 1445 Q195 1397 268 1397 Q350 1397 376 1453 Q387 1476 390 1540 L525 1540 Q524 1395 493 1337 Q436 1231 268 1231 Q133 1231 73 1297 Q13 1363 13 1512 Q13 1523 13 1540 Z " />
<glyph glyph-name="Iogonek" unicode="&#x12e;" horiz-adv-x="570" d="M408 0 Q270 -126 270 -224 Q270 -299 329 -299 L428 -299 L428 -455 L315 -455 Q196 -455 145 -413 Q90 -368 90 -275 Q90 -228 101 -197 Q112 -166 145 -119 Q166 -89 179 -76 Q192 -63 248 -14 Q249 -13 262 0 L162 0 L162 1475 L408 1475 L408 0 Z " />
<glyph glyph-name="iogonek" unicode="&#x12f;" horiz-adv-x="538" d="M152 0 L152 1102 L389 1102 L389 0 Q251 -126 251 -224 Q251 -299 310 -299 L409 -299 L409 -455 L296 -455 Q177 -455 126 -413 Q71 -368 71 -276 Q71 -197 103 -146.5 Q135 -96 243 0 L152 0 Z M274 1523 Q334 1523 377.5 1479 Q421 1435 421 1373 Q421 1305 372 1261 Q329 1222 272 1222 Q209 1222 164.5 1266.5 Q120 1311 120 1374 Q120 1436 165 1479.5 Q210 1523 274 1523 Z " />
<glyph glyph-name="Idot" unicode="&#x130;" horiz-adv-x="570" d="M162 0 L162 1475 L408 1475 L408 0 L162 0 Z M288 1896 Q348 1896 391.5 1852 Q435 1808 435 1746 Q435 1679 386 1634 Q343 1595 286 1595 Q223 1595 178.5 1639.5 Q134 1684 134 1747 Q134 1809 179 1852.5 Q224 1896 288 1896 Z " />
<glyph glyph-name="IJ" unicode="&#x132;" horiz-adv-x="1147" d="M162 0 L162 1475 L408 1475 L408 0 L162 0 Z M740 1475 L986 1475 L986 177 Q986 7 965 -84.5 Q944 -176 892 -233 Q844 -287 772 -311.5 Q700 -336 579 -341 L579 -131 Q630 -127 652.5 -118 Q675 -109 694 -85 Q740 -26 740 140 L740 1475 Z " />
<glyph glyph-name="ij" unicode="&#x133;" horiz-adv-x="1091" d="M152 0 L152 1102 L389 1102 L389 0 L152 0 Z M274 1523 Q334 1523 377.5 1478.5 Q421 1434 421 1373 Q421 1306 372 1261 Q329 1222 272 1222 Q209 1222 164.5 1266.5 Q120 1311 120 1374 Q120 1436 165 1479.5 Q210 1523 274 1523 Z M705 1102 L943 1102 L943 47 Q943 -116 923.5 -201.5 Q904 -287 856 -339 Q771 -430 576 -442 L576 -236 Q615 -232 633.5 -222 Q652 -212 668 -186 Q690 -151 697.5 -108.5 Q705 -66 705 21 L705 1102 Z M827 1523 Q887 1523 930.5 1478.5 Q974 1434 974 1373 Q974 1306 925 1261 Q882 1222 824 1222 Q762 1222 717.5 1266.5 Q673 1311 673 1374 Q673 1436 718 1479.5 Q763 1523 827 1523 Z " />
<glyph glyph-name="Jcircumflex" unicode="&#x134;" horiz-adv-x="578" d="M170 1475 L416 1475 L416 177 Q416 7 395 -84.5 Q374 -176 322 -233 Q274 -287 202 -311.5 Q130 -336 9 -341 L9 -131 Q60 -127 82.5 -118 Q105 -109 124 -85 Q170 -26 170 140 L170 1475 Z M289 1795 L174 1604 L-41 1604 L216 1946 L362 1946 L619 1604 L404 1604 L289 1795 Z " />
<glyph glyph-name="jcircumflex" unicode="&#x135;" horiz-adv-x="553" d="M167 1102 L405 1102 L405 47 Q405 -116 385.5 -201.5 Q366 -287 318 -339 Q233 -430 38 -442 L38 -236 Q77 -232 95.5 -222 Q114 -212 130 -186 Q152 -151 159.5 -108.5 Q167 -66 167 21 L167 1102 Z M277 1408 L162 1216 L-53 1216 L204 1558 L350 1558 L607 1216 L392 1216 L277 1408 Z " />
<glyph glyph-name="Kcommaaccent" unicode="&#x136;" horiz-adv-x="1107" d="M162 0 L162 1475 L408 1475 L408 804 L842 1475 L1119 1475 L660 792 L1176 0 L880 0 L408 758 L408 0 L162 0 Z M391 -489 L509 -149 L746 -149 L547 -489 L391 -489 Z " />
<glyph glyph-name="kcommaaccent" unicode="&#x137;" horiz-adv-x="958" d="M150 0 L150 1516 L388 1516 L388 655 L684 1102 L953 1102 L629 633 L997 0 L722 0 L388 612 L388 0 L150 0 Z M296 -489 L414 -149 L651 -149 L452 -489 L296 -489 Z " />
<glyph glyph-name="kgreenlandic" unicode="&#x138;" horiz-adv-x="958" d="M150 0 L150 1102 L388 1102 L388 652 L684 1102 L953 1102 L629 630 L998 0 L722 0 L388 609 L388 0 L150 0 Z " />
<glyph glyph-name="Lacute" unicode="&#x139;" horiz-adv-x="968" d="M162 0 L162 1475 L408 1475 L408 209 L934 209 L934 0 L162 0 Z M209 1604 L366 1946 L602 1946 L365 1604 L209 1604 Z " />
<glyph glyph-name="lacute" unicode="&#x13a;" horiz-adv-x="537" d="M150 0 L150 1516 L388 1516 L388 0 L150 0 Z M174 1624 L331 1966 L567 1966 L330 1624 L174 1624 Z " />
<glyph glyph-name="Lcommaaccent" unicode="&#x13b;" horiz-adv-x="968" d="M162 0 L162 1475 L408 1475 L408 209 L934 209 L934 0 L162 0 Z M328 -489 L446 -149 L683 -149 L484 -489 L328 -489 Z " />
<glyph glyph-name="lcommaaccent" unicode="&#x13c;" horiz-adv-x="537" d="M150 0 L150 1516 L388 1516 L388 0 L150 0 Z M32 -489 L150 -149 L387 -149 L188 -489 L32 -489 Z " />
<glyph glyph-name="Lcaron" unicode="&#x13d;" horiz-adv-x="968" d="M162 0 L162 1475 L408 1475 L408 209 L934 209 L934 0 L162 0 Z M522 971 L629 1475 L882 1475 L698 971 L522 971 Z " />
<glyph glyph-name="lcaron" unicode="&#x13e;" horiz-adv-x="804" d="M150 0 L150 1516 L388 1516 L388 0 L150 0 Z M490 1044 L597 1548 L850 1548 L666 1044 L490 1044 Z " />
<glyph glyph-name="Ldot" unicode="&#x13f;" horiz-adv-x="967" d="M162 0 L162 1475 L408 1475 L408 209 L934 209 L934 0 L162 0 Z M768 914 Q833 914 880 867 Q927 820 927 754 Q927 683 874 636 Q827 595 766 595 Q698 595 651 642 Q604 689 604 756 Q604 822 652 868 Q700 914 768 914 Z " />
<glyph glyph-name="ldot" unicode="&#x140;" horiz-adv-x="733" d="M150 0 L150 1516 L388 1516 L388 0 L150 0 Z M638 884 Q703 884 750 837 Q797 790 797 724 Q797 653 744 606 Q697 565 636 565 Q568 565 521 612 Q474 659 474 726 Q474 792 522 838 Q570 884 638 884 Z " />
<glyph glyph-name="Lslash" unicode="&#x141;" horiz-adv-x="970" d="M162 0 L162 527 L-2 408 L-2 632 L162 751 L162 1475 L408 1475 L408 936 L621 1089 L621 865 L408 712 L408 209 L936 209 L936 0 L162 0 Z " />
<glyph glyph-name="lslash" unicode="&#x142;" horiz-adv-x="519" d="M141 0 L141 610 L-20 479 L-20 665 L141 795 L141 1517 L379 1517 L379 987 L539 1117 L539 931 L379 801 L379 0 L141 0 Z " />
<glyph glyph-name="Nacute" unicode="&#x143;" horiz-adv-x="1280" d="M162 0 L162 1475 L410 1475 L887 520 L887 1475 L1119 1475 L1119 -18 L924 -18 L394 1049 L394 0 L162 0 Z M549 1604 L706 1946 L942 1946 L705 1604 L549 1604 Z " />
<glyph glyph-name="nacute" unicode="&#x144;" horiz-adv-x="1099" d="M150 0 L150 1102 L388 1102 L388 1006 Q493 1087 544.5 1110.5 Q596 1134 672 1134 Q825 1134 890 1040.5 Q955 947 955 725 L955 0 L718 0 L718 708 Q718 807 702 851 Q678 917 606 917 Q554 917 507 887.5 Q460 858 388 781 L388 0 L150 0 Z M452 1216 L609 1558 L845 1558 L608 1216 L452 1216 Z " />
<glyph glyph-name="Ncommaaccent" unicode="&#x145;" horiz-adv-x="1280" d="M162 0 L162 1475 L410 1475 L887 520 L887 1475 L1119 1475 L1119 -18 L924 -18 L394 1049 L394 0 L162 0 Z M444 -489 L562 -149 L799 -149 L600 -489 L444 -489 Z " />
<glyph glyph-name="ncommaaccent" unicode="&#x146;" horiz-adv-x="1099" d="M150 0 L150 1102 L388 1102 L388 1006 Q493 1087 544.5 1110.5 Q596 1134 672 1134 Q825 1134 890 1040.5 Q955 947 955 725 L955 0 L718 0 L718 708 Q718 807 702 851 Q678 917 606 917 Q554 917 507 887.5 Q460 858 388 781 L388 0 L150 0 Z M353 -489 L471 -149 L708 -149 L509 -489 L353 -489 Z " />
<glyph glyph-name="Ncaron" unicode="&#x147;" horiz-adv-x="1280" d="M162 0 L162 1475 L410 1475 L887 520 L887 1475 L1119 1475 L1119 -18 L924 -18 L394 1049 L394 0 L162 0 Z M661 1755 L776 1946 L991 1946 L734 1604 L588 1604 L331 1946 L546 1946 L661 1755 Z " />
<glyph glyph-name="ncaron" unicode="&#x148;" horiz-adv-x="1099" d="M150 0 L150 1102 L388 1102 L388 1006 Q493 1087 544.5 1110.5 Q596 1134 672 1134 Q825 1134 890 1040.5 Q955 947 955 725 L955 0 L718 0 L718 708 Q718 807 702 851 Q678 917 606 917 Q554 917 507 887.5 Q460 858 388 781 L388 0 L150 0 Z M550 1366 L665 1558 L880 1558 L623 1216 L477 1216 L220 1558 L435 1558 L550 1366 Z " />
<glyph glyph-name="napostrophe" unicode="&#x149;" horiz-adv-x="1142" d="M193 0 L193 1102 L431 1102 L431 1006 Q536 1087 587.5 1110.5 Q639 1134 715 1134 Q868 1134 933 1040.5 Q998 947 998 725 L998 0 L761 0 L761 708 Q761 807 745 851 Q721 917 649 917 Q597 917 550 887.5 Q503 858 431 781 L431 0 L193 0 Z M-44 1039 L63 1543 L316 1543 L132 1039 L-44 1039 Z " />
<glyph glyph-name="Eng" unicode="&#x14a;" horiz-adv-x="1280" d="M162 0 L162 1475 L410 1475 L887 520 L887 1475 L1119 1475 L1119 22 Q1119 -125 1099.5 -203 Q1080 -281 1031 -330 Q986 -373 922.5 -394 Q859 -415 752 -422 L752 -212 Q794 -209 812.5 -201.5 Q831 -194 848 -173 Q887 -127 887 -4 L887 56 L394 1049 L394 0 L162 0 Z " />
<glyph glyph-name="eng" unicode="&#x14b;" horiz-adv-x="1099" d="M150 0 L150 1102 L388 1102 L388 1006 Q492 1087 544 1110.5 Q596 1134 672 1134 Q825 1134 890 1040.5 Q955 947 955 725 L955 48 Q955 -114 936 -199 Q917 -284 868 -336 Q823 -384 759 -407.5 Q695 -431 589 -439 L589 -233 Q628 -229 646.5 -219 Q665 -209 681 -183 Q703 -148 710.5 -105.5 Q718 -63 718 23 L718 708 Q718 807 702 851 Q678 917 606 917 Q554 917 507 888 Q460 859 388 781 L388 0 L150 0 Z " />
<glyph glyph-name="Omacron" unicode="&#x14c;" horiz-adv-x="1238" d="M628 1504 Q841 1504 973 1376 Q1142 1211 1142 737 Q1142 423 1065 236 Q1010 100 883 33 Q767 -29 618 -29 Q394 -29 264 98 Q95 263 95 734 Q95 1056 171 1239 Q229 1375 353 1442 Q469 1504 628 1504 Z M614 1287 Q467 1287 410 1154 Q347 1007 347 737 Q347 468 410 321 Q467 188 619 188 Q770 188 827 321 Q890 469 890 733 Q890 1027 825 1157 Q760 1287 614 1287 Z M378 1677 L378 1849 L857 1849 L857 1677 L378 1677 Z " />
<glyph glyph-name="omacron" unicode="&#x14d;" horiz-adv-x="1027" d="M520 1134 Q655 1134 755 1068 Q942 946 942 551 Q942 265 844 120 Q786 35 682 -3 Q603 -32 513 -32 Q286 -32 183 120 Q85 265 85 548 Q85 839 183 982 Q287 1134 520 1134 Z M511 927 Q408 927 367.5 844.5 Q327 762 327 551 Q327 319 375 243 Q417 175 513 175 Q619 175 659.5 257 Q700 339 700 553 Q700 765 659 846 Q618 927 511 927 Z M273 1292 L273 1464 L752 1464 L752 1292 L273 1292 Z " />
<glyph glyph-name="Obreve" unicode="&#x14e;" horiz-adv-x="1238" d="M628 1504 Q841 1504 973 1376 Q1142 1211 1142 737 Q1142 423 1065 236 Q1010 100 883 33 Q767 -29 618 -29 Q394 -29 264 98 Q95 263 95 734 Q95 1056 171 1239 Q229 1375 353 1442 Q469 1504 628 1504 Z M614 1287 Q467 1287 410 1154 Q347 1007 347 737 Q347 468 410 321 Q467 188 619 188 Q770 188 827 321 Q890 469 890 733 Q890 1027 825 1157 Q760 1287 614 1287 Z M363 1913 L498 1913 Q502 1841 517 1817 Q546 1770 618 1770 Q700 1770 726 1826 Q737 1849 740 1913 L875 1913 Q874 1768 843 1710 Q786 1604 618 1604 Q483 1604 423 1670 Q363 1736 363 1885 Q363 1896 363 1913 Z " />
<glyph glyph-name="obreve" unicode="&#x14f;" horiz-adv-x="1027" d="M520 1134 Q655 1134 755 1068 Q942 946 942 551 Q942 265 844 120 Q786 35 682 -3 Q603 -32 513 -32 Q286 -32 183 120 Q85 265 85 548 Q85 839 183 982 Q287 1134 520 1134 Z M511 927 Q408 927 367.5 844.5 Q327 762 327 551 Q327 319 375 243 Q417 175 513 175 Q619 175 659.5 257 Q700 339 700 553 Q700 765 659 846 Q618 927 511 927 Z M257 1540 L392 1540 Q396 1468 411 1445 Q439 1397 512 1397 Q594 1397 620 1453 Q631 1476 634 1540 L769 1540 Q768 1395 737 1337 Q680 1231 512 1231 Q377 1231 317 1297 Q257 1363 257 1512 Q257 1523 257 1540 Z " />
<glyph glyph-name="Ohungarumlaut" unicode="&#x150;" horiz-adv-x="1238" d="M628 1504 Q841 1504 973 1376 Q1142 1211 1142 737 Q1142 423 1065 236 Q1010 100 883 33 Q767 -29 618 -29 Q394 -29 264 98 Q95 263 95 734 Q95 1056 171 1239 Q229 1375 353 1442 Q469 1504 628 1504 Z M614 1287 Q467 1287 410 1154 Q347 1007 347 737 Q347 468 410 321 Q467 188 619 188 Q770 188 827 321 Q890 469 890 733 Q890 1027 825 1157 Q760 1287 614 1287 Z M415 1604 L528 1946 L732 1946 L544 1604 L415 1604 Z M667 1604 L806 1946 L1019 1946 L798 1604 L667 1604 Z " />
<glyph glyph-name="ohungarumlaut" unicode="&#x151;" horiz-adv-x="1027" d="M520 1134 Q655 1134 755 1068 Q942 946 942 551 Q942 265 844 120 Q786 35 682 -3 Q603 -32 513 -32 Q286 -32 183 120 Q85 265 85 548 Q85 839 183 982 Q287 1134 520 1134 Z M511 927 Q408 927 367.5 844.5 Q327 762 327 551 Q327 319 375 243 Q417 175 513 175 Q619 175 659.5 257 Q700 339 700 553 Q700 765 659 846 Q618 927 511 927 Z M282 1216 L395 1558 L599 1558 L411 1216 L282 1216 Z M534 1216 L673 1558 L886 1558 L665 1216 L534 1216 Z " />
<glyph glyph-name="Racute" unicode="&#x154;" horiz-adv-x="1162" d="M157 0 L157 1475 L574 1475 Q812 1475 916 1402 Q984 1354 1023 1260.5 Q1062 1167 1062 1050 Q1062 867 982 764 Q946 717 870 671 Q919 645 944 596 Q969 547 1000 415 L1097 0 L837 0 L782 271 Q745 451 710 507 Q683 550 637 567.5 Q591 585 506 585 L403 585 L403 0 L157 0 Z M403 788 L567 788 Q701 788 751 837 Q810 896 810 1031 Q810 1172 740 1227 Q690 1266 566 1266 L403 1266 L403 788 Z M456 1604 L613 1946 L849 1946 L612 1604 L456 1604 Z " />
<glyph glyph-name="racute" unicode="&#x155;" horiz-adv-x="712" d="M150 0 L150 1102 L376 1102 L376 983 Q503 1116 652 1117 L677 1117 L677 886 L650 886 Q555 886 502 860 Q449 834 388 758 L388 0 L150 0 Z M312 1216 L469 1558 L705 1558 L468 1216 L312 1216 Z " />
<glyph glyph-name="Rcommaaccent" unicode="&#x156;" horiz-adv-x="1162" d="M157 0 L157 1475 L574 1475 Q812 1475 916 1402 Q984 1354 1023 1260.5 Q1062 1167 1062 1050 Q1062 867 982 764 Q946 717 870 671 Q919 645 944 596 Q969 547 1000 415 L1097 0 L837 0 L782 271 Q745 451 710 507 Q683 550 637 567.5 Q591 585 506 585 L403 585 L403 0 L157 0 Z M403 788 L567 788 Q701 788 751 837 Q810 896 810 1031 Q810 1172 740 1227 Q690 1266 566 1266 L403 1266 L403 788 Z M384 -489 L502 -149 L739 -149 L540 -489 L384 -489 Z " />
<glyph glyph-name="rcommaaccent" unicode="&#x157;" horiz-adv-x="712" d="M150 0 L150 1102 L376 1102 L376 983 Q503 1116 652 1117 L677 1117 L677 886 L650 886 Q555 886 502 860 Q449 834 388 758 L388 0 L150 0 Z M32 -489 L150 -149 L387 -149 L188 -489 L32 -489 Z " />
<glyph glyph-name="Rcaron" unicode="&#x158;" horiz-adv-x="1162" d="M157 0 L157 1475 L574 1475 Q812 1475 916 1402 Q984 1354 1023 1260.5 Q1062 1167 1062 1050 Q1062 867 982 764 Q946 717 870 671 Q919 645 944 596 Q969 547 1000 415 L1097 0 L837 0 L782 271 Q745 451 710 507 Q683 550 637 567.5 Q591 585 506 585 L403 585 L403 0 L157 0 Z M403 788 L567 788 Q701 788 751 837 Q810 896 810 1031 Q810 1172 740 1227 Q690 1266 566 1266 L403 1266 L403 788 Z M561 1755 L676 1946 L891 1946 L634 1604 L488 1604 L231 1946 L446 1946 L561 1755 Z " />
<glyph glyph-name="rcaron" unicode="&#x159;" horiz-adv-x="712" d="M149 0 L149 1102 L375 1102 L375 983 Q502 1116 651 1117 L676 1117 L676 886 L649 886 Q554 886 501 860 Q448 834 387 758 L387 0 L149 0 Z M410 1366 L525 1558 L740 1558 L483 1216 L337 1216 L80 1558 L295 1558 L410 1366 Z " />
<glyph glyph-name="Sacute" unicode="&#x15a;" horiz-adv-x="1078" d="M76 449 L315 449 Q320 333 353 280 Q408 188 542 188 Q651 188 706 249 Q758 307 758 404 Q758 499 706 554 Q674 587 630.5 608.5 Q587 630 465 671 Q286 732 215 794 Q108 888 108 1084 Q108 1260 193 1372 Q294 1504 506 1504 Q781 1504 883 1313 Q934 1217 935 1040 L696 1040 Q689 1155 664 1200 Q614 1287 507 1287 Q350 1287 350 1117 Q350 1014 412 965 Q444 940 481.5 923.5 Q519 907 611 879 Q736 839 806 798.5 Q876 758 921 696 Q1000 590 1000 424 Q1000 223 891 102 Q773 -29 541 -29 Q246 -29 134 168 Q77 269 76 449 Z M394 1604 L551 1946 L787 1946 L550 1604 L394 1604 Z " />
<glyph glyph-name="sacute" unicode="&#x15b;" horiz-adv-x="906" d="M55 351 L270 351 Q277 270 300 235 Q349 161 454 161 Q537 161 576 196 Q615 231 615 305 Q615 389 563 419 Q532 437 422 464 Q258 503 186 561 Q84 642 84 794 Q84 951 176.5 1042.5 Q269 1134 429 1134 Q659 1134 752 970 Q796 893 800 773 L585 773 Q578 864 545.5 903 Q513 942 444 942 Q326 942 326 816 Q326 734 387 704 Q416 690 518 662 Q611 636 653.5 618 Q696 600 732 572 Q839 487 839 317 Q839 144 733 54 Q632 -32 456 -32 Q199 -32 102 135 Q56 213 55 351 Z M328 1216 L485 1558 L721 1558 L484 1216 L328 1216 Z " />
<glyph glyph-name="Scircumflex" unicode="&#x15c;" horiz-adv-x="1078" d="M76 449 L315 449 Q320 333 353 280 Q408 188 542 188 Q651 188 706 249 Q758 307 758 404 Q758 499 706 554 Q674 587 630.5 608.5 Q587 630 465 671 Q286 732 215 794 Q108 888 108 1084 Q108 1260 193 1372 Q294 1504 506 1504 Q781 1504 883 1313 Q934 1217 935 1040 L696 1040 Q689 1155 664 1200 Q614 1287 507 1287 Q350 1287 350 1117 Q350 1014 412 965 Q444 940 481.5 923.5 Q519 907 611 879 Q736 839 806 798.5 Q876 758 921 696 Q1000 590 1000 424 Q1000 223 891 102 Q773 -29 541 -29 Q246 -29 134 168 Q77 269 76 449 Z M526 1795 L411 1604 L196 1604 L453 1946 L599 1946 L856 1604 L641 1604 L526 1795 Z " />
<glyph glyph-name="scircumflex" unicode="&#x15d;" horiz-adv-x="906" d="M55 351 L270 351 Q277 270 300 235 Q349 161 454 161 Q537 161 576 196 Q615 231 615 305 Q615 389 563 419 Q532 437 422 464 Q258 503 186 561 Q84 642 84 794 Q84 951 176.5 1042.5 Q269 1134 429 1134 Q659 1134 752 970 Q796 893 800 773 L585 773 Q578 864 545.5 903 Q513 942 444 942 Q326 942 326 816 Q326 734 387 704 Q416 690 518 662 Q611 636 653.5 618 Q696 600 732 572 Q839 487 839 317 Q839 144 733 54 Q632 -32 456 -32 Q199 -32 102 135 Q56 213 55 351 Z M446 1408 L331 1216 L116 1216 L373 1558 L519 1558 L776 1216 L561 1216 L446 1408 Z " />
<glyph glyph-name="Scedilla" unicode="&#x15e;" horiz-adv-x="1078" d="M632 -23 L607 -86 Q771 -104 771 -280 Q771 -396 696 -453 Q639 -496 540 -496 Q430 -496 317 -455 L363 -302 Q462 -336 528 -336 Q562 -336 576.5 -321.5 Q591 -307 591 -273 Q591 -243 576 -231 Q561 -219 525 -219 Q499 -219 447 -223 L420 -107 L457 -22 Q76 27 84 449 L323 449 Q328 333 361 280 Q416 189 550 189 Q658 189 714 250 Q766 307 766 405 Q766 500 714 554 Q682 588 638.5 609 Q595 630 473 672 Q294 733 223 795 Q116 889 116 1084 Q116 1260 201 1372 Q302 1504 514 1504 Q789 1504 891 1313 Q942 1217 943 1040 L704 1040 Q697 1155 672 1200 Q622 1287 515 1287 Q358 1287 358 1118 Q358 1014 420 965 Q452 940 489.5 923.5 Q527 907 619 879 Q744 840 814 799 Q884 758 929 696 Q1008 590 1008 424 Q1008 150 816 34 Q749 -6 632 -23 Z " />
<glyph glyph-name="scedilla" unicode="&#x15f;" horiz-adv-x="906" d="M567 -22 L542 -86 Q706 -104 706 -279 Q706 -396 631 -453 Q575 -496 475 -496 Q365 -496 252 -455 L298 -302 Q399 -336 462 -336 Q496 -336 511 -321.5 Q526 -307 526 -273 Q526 -243 511 -231 Q496 -219 460 -219 Q434 -219 382 -223 L355 -108 L390 -28 Q253 -15 168 58 Q55 156 57 351 L272 351 Q279 270 302 235 Q351 161 456 161 Q539 161 578 196 Q617 231 617 305 Q617 389 565 419 Q534 437 424 464 Q260 503 188 561 Q86 642 86 794 Q86 951 178.5 1042.5 Q271 1134 431 1134 Q661 1134 754 970 Q798 893 802 773 L587 773 Q580 864 547.5 903 Q515 942 446 942 Q328 942 328 816 Q328 734 389 704 Q417 690 520 662 Q613 636 655.5 618 Q698 600 734 572 Q841 487 841 317 Q841 84 653 3 Q619 -12 567 -22 Z " />
<glyph glyph-name="Scaron" unicode="&#x160;" horiz-adv-x="1078" d="M76 449 L315 449 Q320 333 353 280 Q408 188 542 188 Q651 188 706 249 Q758 307 758 404 Q758 499 706 554 Q674 587 630.5 608.5 Q587 630 465 671 Q286 732 215 794 Q108 888 108 1084 Q108 1260 193 1372 Q294 1504 506 1504 Q781 1504 883 1313 Q934 1217 935 1040 L696 1040 Q689 1155 664 1200 Q614 1287 507 1287 Q350 1287 350 1117 Q350 1014 412 965 Q444 940 481.5 923.5 Q519 907 611 879 Q736 839 806 798.5 Q876 758 921 696 Q1000 590 1000 424 Q1000 223 891 102 Q773 -29 541 -29 Q246 -29 134 168 Q77 269 76 449 Z M512 1755 L627 1946 L842 1946 L585 1604 L439 1604 L182 1946 L397 1946 L512 1755 Z " />
<glyph glyph-name="scaron" unicode="&#x161;" horiz-adv-x="906" d="M55 351 L270 351 Q277 270 300 235 Q349 161 454 161 Q537 161 576 196 Q615 231 615 305 Q615 389 563 419 Q532 437 422 464 Q258 503 186 561 Q84 642 84 794 Q84 951 176.5 1042.5 Q269 1134 429 1134 Q659 1134 752 970 Q796 893 800 773 L585 773 Q578 864 545.5 903 Q513 942 444 942 Q326 942 326 816 Q326 734 387 704 Q416 690 518 662 Q611 636 653.5 618 Q696 600 732 572 Q839 487 839 317 Q839 144 733 54 Q632 -32 456 -32 Q199 -32 102 135 Q56 213 55 351 Z M446 1366 L561 1558 L776 1558 L519 1216 L373 1216 L116 1558 L331 1558 L446 1366 Z " />
<glyph glyph-name="Tcommaaccent" unicode="&#x162;" horiz-adv-x="958" d="M355 0 L355 1266 L33 1266 L33 1475 L924 1475 L924 1266 L601 1266 L601 0 L355 0 Z M236 -489 L354 -149 L591 -149 L392 -489 L236 -489 Z " />
<glyph glyph-name="tcommaaccent" unicode="&#x163;" horiz-adv-x="694" d="M179 895 L57 895 L57 1102 L184 1102 L197 1424 L417 1424 L417 1102 L640 1102 L640 895 L417 895 L417 344 Q417 254 436 229.5 Q455 205 523 205 L663 205 L663 0 L569 0 Q440 0 383.5 10.5 Q327 21 279 54 Q220 94 199.5 153 Q179 212 179 340 L179 895 Z M150 -489 L268 -149 L505 -149 L306 -489 L150 -489 Z " />
<glyph glyph-name="Tcaron" unicode="&#x164;" horiz-adv-x="958" d="M355 0 L355 1266 L33 1266 L33 1475 L924 1475 L924 1266 L601 1266 L601 0 L355 0 Z M479 1755 L594 1946 L809 1946 L552 1604 L406 1604 L149 1946 L364 1946 L479 1755 Z " />
<glyph glyph-name="tcaron" unicode="&#x165;" horiz-adv-x="884" d="M179 895 L57 895 L57 1102 L184 1102 L197 1424 L417 1424 L417 1102 L640 1102 L640 895 L417 895 L417 344 Q417 254 436 229.5 Q455 205 523 205 L663 205 L663 0 L569 0 Q440 0 383.5 10.5 Q327 21 279 54 Q220 94 199.5 153 Q179 212 179 340 L179 895 Z M585 1208 L678 1678 L932 1678 L762 1208 L585 1208 Z " />
<glyph glyph-name="Tbar" unicode="&#x166;" horiz-adv-x="958" d="M355 0 L355 692 L134 692 L134 874 L355 874 L355 1266 L33 1266 L33 1475 L924 1475 L924 1266 L601 1266 L601 874 L823 874 L823 692 L601 692 L601 0 L355 0 Z " />
<glyph glyph-name="tbar" unicode="&#x167;" horiz-adv-x="696" d="M182 895 L60 895 L60 1102 L187 1102 L200 1424 L420 1424 L420 1102 L643 1102 L643 895 L420 895 L420 718 L643 718 L643 577 L420 577 L420 343 Q420 254 439 229.5 Q458 205 526 205 L666 205 L666 0 L571 0 Q443 0 386.5 10.5 Q330 21 282 54 Q223 94 202.5 152.5 Q182 211 182 339 L182 577 L60 577 L60 718 L182 718 L182 895 Z " />
<glyph glyph-name="Utilde" unicode="&#x168;" horiz-adv-x="1241" d="M154 1475 L400 1475 L400 480 Q400 351 424 291 Q465 186 621 186 Q777 186 818 291 Q842 351 842 480 L842 1475 L1088 1475 L1088 524 Q1088 343 1068 256 Q1001 -31 621 -31 Q330 -31 226 133 Q183 199 168.5 279 Q154 359 154 524 L154 1475 Z M479 1634 L347 1634 Q356 1733 382 1783 Q428 1870 527 1870 Q578 1870 637 1830 Q692 1794 716 1794 Q760 1794 761 1870 L894 1870 Q884 1761 853 1709 Q806 1628 704 1628 Q672 1628 653.5 1636 Q635 1644 570 1685 Q541 1704 522 1704 Q490 1704 479 1634 Z " />
<glyph glyph-name="utilde" unicode="&#x169;" horiz-adv-x="1069" d="M144 1102 L382 1102 L382 394 Q382 293 396 251 Q417 185 481 185 Q573 185 681 321 L681 1102 L919 1102 L919 0 L681 0 L681 96 Q606 24 547.5 -4 Q489 -32 414 -32 Q267 -32 205.5 61.5 Q144 155 144 377 L144 1102 Z M393 1261 L261 1261 Q270 1360 296 1410 Q342 1497 441 1497 Q490 1497 551 1457 Q606 1421 630 1421 Q674 1421 675 1497 L808 1497 Q798 1388 767 1336 Q720 1255 618 1255 Q586 1255 567.5 1263 Q549 1271 484 1312 Q455 1331 436 1331 Q404 1331 393 1261 Z " />
<glyph glyph-name="Umacron" unicode="&#x16a;" horiz-adv-x="1241" d="M154 1475 L400 1475 L400 480 Q400 351 424 291 Q465 186 621 186 Q777 186 818 291 Q842 351 842 480 L842 1475 L1088 1475 L1088 524 Q1088 343 1068 256 Q1001 -31 621 -31 Q330 -31 226 133 Q183 199 168.5 279 Q154 359 154 524 L154 1475 Z M380 1677 L380 1849 L859 1849 L859 1677 L380 1677 Z " />
<glyph glyph-name="umacron" unicode="&#x16b;" horiz-adv-x="1069" d="M144 1102 L382 1102 L382 394 Q382 293 396 251 Q417 185 481 185 Q573 185 681 321 L681 1102 L919 1102 L919 0 L681 0 L681 96 Q606 24 547.5 -4 Q489 -32 414 -32 Q267 -32 205.5 61.5 Q144 155 144 377 L144 1102 Z M294 1292 L294 1464 L773 1464 L773 1292 L294 1292 Z " />
<glyph glyph-name="Ubreve" unicode="&#x16c;" horiz-adv-x="1241" d="M154 1475 L400 1475 L400 480 Q400 351 424 291 Q465 186 621 186 Q777 186 818 291 Q842 351 842 480 L842 1475 L1088 1475 L1088 524 Q1088 343 1068 256 Q1001 -31 621 -31 Q330 -31 226 133 Q183 199 168.5 279 Q154 359 154 524 L154 1475 Z M365 1913 L500 1913 Q504 1841 519 1817 Q548 1770 620 1770 Q702 1770 728 1826 Q739 1849 742 1913 L877 1913 Q876 1768 845 1710 Q788 1604 620 1604 Q485 1604 425 1670 Q365 1736 365 1885 Q365 1896 365 1913 Z " />
<glyph glyph-name="ubreve" unicode="&#x16d;" horiz-adv-x="1069" d="M144 1102 L382 1102 L382 394 Q382 293 396 251 Q417 185 481 185 Q573 185 681 321 L681 1102 L919 1102 L919 0 L681 0 L681 96 Q606 24 547.5 -4 Q489 -32 414 -32 Q267 -32 205.5 61.5 Q144 155 144 377 L144 1102 Z M279 1540 L414 1540 Q418 1468 433 1445 Q461 1397 534 1397 Q616 1397 642 1453 Q653 1476 656 1540 L791 1540 Q790 1395 759 1337 Q702 1231 534 1231 Q399 1231 339 1297 Q279 1363 279 1512 Q279 1523 279 1540 Z " />
<glyph glyph-name="Uring" unicode="&#x16e;" horiz-adv-x="1241" d="M154 1475 L400 1475 L400 480 Q400 351 424 291 Q465 186 621 186 Q777 186 818 291 Q842 351 842 480 L842 1475 L1088 1475 L1088 524 Q1088 343 1068 256 Q1001 -31 621 -31 Q330 -31 226 133 Q183 199 168.5 279 Q154 359 154 524 L154 1475 Z M624 2036 Q731 2036 793.5 1974.5 Q856 1913 856 1809 Q856 1704 793 1643.5 Q730 1583 621 1583 Q504 1583 441 1652 Q385 1713 385 1809 Q385 1916 448.5 1976 Q512 2036 624 2036 Z M619 1907 Q526 1907 526 1809 Q526 1712 621 1712 Q715 1712 715 1809 Q715 1907 619 1907 Z " />
<glyph glyph-name="uring" unicode="&#x16f;" horiz-adv-x="1069" d="M144 1102 L382 1102 L382 394 Q382 293 396 251 Q417 185 481 185 Q573 185 681 321 L681 1102 L919 1102 L919 0 L681 0 L681 96 Q606 24 547.5 -4 Q489 -32 414 -32 Q267 -32 205.5 61.5 Q144 155 144 377 L144 1102 Z M538 1663 Q645 1663 707.5 1601.5 Q770 1540 770 1436 Q770 1330 707 1269 Q644 1208 535 1208 Q418 1208 355 1277 Q299 1339 299 1435 Q299 1542 362.5 1602.5 Q426 1663 538 1663 Z M533 1534 Q440 1534 440 1435 Q440 1337 535 1337 Q629 1337 629 1435 Q629 1534 533 1534 Z " />
<glyph glyph-name="Uhungarumlaut" unicode="&#x170;" horiz-adv-x="1241" d="M154 1475 L400 1475 L400 480 Q400 351 424 291 Q465 186 621 186 Q777 186 818 291 Q842 351 842 480 L842 1475 L1088 1475 L1088 524 Q1088 343 1068 256 Q1001 -31 621 -31 Q330 -31 226 133 Q183 199 168.5 279 Q154 359 154 524 L154 1475 Z M430 1604 L543 1946 L747 1946 L559 1604 L430 1604 Z M682 1604 L821 1946 L1034 1946 L813 1604 L682 1604 Z " />
<glyph glyph-name="uhungarumlaut" unicode="&#x171;" horiz-adv-x="1069" d="M144 1102 L382 1102 L382 394 Q382 293 396 251 Q417 185 481 185 Q573 185 681 321 L681 1102 L919 1102 L919 0 L681 0 L681 96 Q606 24 547.5 -4 Q489 -32 414 -32 Q267 -32 205.5 61.5 Q144 155 144 377 L144 1102 Z M344 1216 L457 1558 L661 1558 L473 1216 L344 1216 Z M596 1216 L735 1558 L948 1558 L727 1216 L596 1216 Z " />
<glyph glyph-name="Uogonek" unicode="&#x172;" horiz-adv-x="1241" d="M154 1475 L400 1475 L400 480 Q400 351 424 291 Q465 186 621 186 Q777 186 818 291 Q842 351 842 480 L842 1475 L1088 1475 L1088 524 Q1088 361 1073 279 Q1058 197 1016 133 Q954 37 822 -3 Q688 -127 688 -224 Q688 -299 747 -299 L845 -299 L845 -455 L733 -455 Q614 -455 563 -413 Q508 -368 508 -275 Q508 -202 536.5 -152 Q565 -102 647 -30 Q623 -31 612 -31 Q478 -31 376.5 12 Q275 55 226 133 Q183 199 168.5 279 Q154 359 154 524 L154 1475 Z " />
<glyph glyph-name="uogonek" unicode="&#x173;" horiz-adv-x="1069" d="M919 0 Q843 -69 812 -120 Q781 -171 781 -225 Q781 -299 840 -299 L939 -299 L939 -455 L826 -455 Q707 -455 656 -413 Q601 -368 601 -276 Q601 -228 612 -197 Q623 -166 655 -119 Q677 -89 689.5 -76 Q702 -63 758 -14 Q760 -13 772 0 L681 0 L681 96 Q606 24 547.5 -4 Q489 -32 414 -32 Q267 -32 205.5 61.5 Q144 155 144 377 L144 1102 L382 1102 L382 394 Q382 293 396 251 Q417 185 481 185 Q573 185 681 321 L681 1102 L919 1102 L919 0 Z " />
<glyph glyph-name="Wcircumflex" unicode="&#x174;" horiz-adv-x="1667" d="M382 -31 L81 1475 L335 1475 L502 443 L767 1479 L901 1479 L1166 443 L1333 1475 L1587 1475 L1286 -31 L1092 -31 L834 995 L575 -31 L382 -31 Z M834 1795 L719 1604 L504 1604 L761 1946 L907 1946 L1164 1604 L949 1604 L834 1795 Z " />
<glyph glyph-name="wcircumflex" unicode="&#x175;" horiz-adv-x="1367" d="M276 -22 L31 1102 L270 1102 L409 349 L611 1102 L756 1102 L958 349 L1097 1102 L1336 1102 L1091 -22 L881 -22 L684 720 L486 -22 L276 -22 Z M684 1408 L569 1216 L354 1216 L611 1558 L757 1558 L1014 1216 L799 1216 L684 1408 Z " />
<glyph glyph-name="Ycircumflex" unicode="&#x176;" horiz-adv-x="1037" d="M395 0 L395 565 L-29 1475 L239 1475 L518 800 L797 1475 L1065 1475 L641 565 L641 0 L395 0 Z M518 1795 L403 1604 L188 1604 L445 1946 L591 1946 L848 1604 L633 1604 L518 1795 Z " />
<glyph glyph-name="ycircumflex" unicode="&#x177;" horiz-adv-x="882" d="M331 -3 L8 1102 L262 1102 L441 309 L620 1102 L875 1102 L587 51 Q502 -259 406 -356 Q361 -402 299 -420.5 Q237 -439 122 -440 L122 -234 Q196 -234 228 -210 Q276 -179 319 -44 L331 -3 Z M441 1408 L326 1216 L111 1216 L368 1558 L514 1558 L771 1216 L556 1216 L441 1408 Z " />
<glyph glyph-name="Zacute" unicode="&#x179;" horiz-adv-x="958" d="M19 0 L19 191 L606 1266 L72 1266 L72 1475 L884 1475 L884 1312 L297 209 L924 209 L924 0 L19 0 Z M395 1604 L552 1946 L788 1946 L551 1604 L395 1604 Z " />
<glyph glyph-name="zacute" unicode="&#x17a;" horiz-adv-x="799" d="M29 0 L29 193 L455 895 L68 895 L68 1102 L727 1102 L727 921 L286 207 L741 207 L741 0 L29 0 Z M322 1216 L479 1558 L715 1558 L478 1216 L322 1216 Z " />
<glyph glyph-name="Zdotaccent" unicode="&#x17b;" horiz-adv-x="958" d="M19 0 L19 191 L606 1266 L72 1266 L72 1475 L884 1475 L884 1312 L297 209 L924 209 L924 0 L19 0 Z M510 1896 Q570 1896 613.5 1852 Q657 1808 657 1746 Q657 1679 608 1634 Q565 1595 508 1595 Q445 1595 400.5 1639.5 Q356 1684 356 1747 Q356 1809 401 1852.5 Q446 1896 510 1896 Z " />
<glyph glyph-name="zdotaccent" unicode="&#x17c;" horiz-adv-x="799" d="M29 0 L29 193 L455 895 L68 895 L68 1102 L727 1102 L727 921 L286 207 L741 207 L741 0 L29 0 Z M416 1523 Q476 1523 519.5 1478.5 Q563 1434 563 1373 Q563 1306 514 1261 Q471 1222 414 1222 Q351 1222 306.5 1266.5 Q262 1311 262 1374 Q262 1436 307 1479.5 Q352 1523 416 1523 Z " />
<glyph glyph-name="Zcaron" unicode="&#x17d;" horiz-adv-x="958" d="M19 0 L19 191 L606 1266 L72 1266 L72 1475 L884 1475 L884 1312 L297 209 L924 209 L924 0 L19 0 Z M513 1755 L628 1946 L843 1946 L586 1604 L440 1604 L183 1946 L398 1946 L513 1755 Z " />
<glyph glyph-name="zcaron" unicode="&#x17e;" horiz-adv-x="799" d="M29 0 L29 193 L455 895 L68 895 L68 1102 L727 1102 L727 921 L286 207 L741 207 L741 0 L29 0 Z M420 1366 L535 1558 L750 1558 L493 1216 L347 1216 L90 1558 L305 1558 L420 1366 Z " />
<glyph glyph-name="uni018F" unicode="&#x18f;" horiz-adv-x="1247" d="M95 862 L895 862 Q887 1004 857 1095 Q825 1196 769 1241.5 Q713 1287 620 1287 Q538 1287 486.5 1249 Q435 1211 400 1126 L167 1226 Q287 1504 625 1504 Q848 1504 979 1377 Q1151 1210 1151 736 Q1151 423 1073 235 Q1016 99 889 33 Q773 -29 623 -29 Q367 -29 239 132 Q128 272 105 568 Q95 696 95 862 Z M350 661 Q357 491 383 401 Q414 289 471 238.5 Q528 188 623 188 Q724 188 782.5 245 Q841 302 871 429 Q892 519 898 661 L350 661 Z " />
<glyph glyph-name="uni01CD" unicode="&#x1cd;" horiz-adv-x="1171" d="M822 379 L352 379 L244 0 L-5 0 L475 1475 L699 1475 L1179 0 L930 0 L822 379 Z M762 588 L587 1202 L412 588 L762 588 Z M586 1755 L701 1946 L916 1946 L659 1604 L513 1604 L256 1946 L471 1946 L586 1755 Z " />
<glyph glyph-name="uni01CE" unicode="&#x1ce;" horiz-adv-x="1033" d="M694 130 Q657 53 581 10.5 Q505 -32 403 -32 Q252 -32 168 61 Q84 154 84 321 Q84 501 170.5 582.5 Q257 664 447 664 Q530 664 669 652 L669 725 Q669 843 633 891 Q597 939 509 939 Q441 939 412.5 909 Q384 879 372 795 L149 795 Q160 933 205 1002 Q288 1132 513 1132 Q722 1132 809.5 1044.5 Q897 957 897 747 L897 0 L694 0 L694 130 Z M675 483 Q560 494 477 494 Q395 494 362 460 Q324 420 324 328 Q324 160 471 160 Q588 160 639 249 Q675 311 675 403 L675 483 Z M520 1366 L635 1558 L850 1558 L593 1216 L447 1216 L190 1558 L405 1558 L520 1366 Z " />
<glyph glyph-name="uni01D3" unicode="&#x1d3;" horiz-adv-x="1241" d="M154 1475 L400 1475 L400 480 Q400 351 424 291 Q465 186 621 186 Q777 186 818 291 Q842 351 842 480 L842 1475 L1088 1475 L1088 524 Q1088 343 1068 256 Q1001 -31 621 -31 Q330 -31 226 133 Q183 199 168.5 279 Q154 359 154 524 L154 1475 Z M621 1755 L736 1946 L951 1946 L694 1604 L548 1604 L291 1946 L506 1946 L621 1755 Z " />
<glyph glyph-name="uni01D4" unicode="&#x1d4;" horiz-adv-x="1069" d="M144 1102 L382 1102 L382 394 Q382 293 396 251 Q417 185 481 185 Q573 185 681 321 L681 1102 L919 1102 L919 0 L681 0 L681 96 Q606 24 547.5 -4 Q489 -32 414 -32 Q267 -32 205.5 61.5 Q144 155 144 377 L144 1102 Z M535 1366 L650 1558 L865 1558 L608 1216 L462 1216 L205 1558 L420 1558 L535 1366 Z " />
<glyph glyph-name="uni01DD" unicode="&#x1dd;" horiz-adv-x="1027" d="M85 646 L698 646 Q689 800 648.5 861.5 Q608 923 513 923 Q450 923 414 897.5 Q378 872 355 812 L145 913 Q255 1130 516 1130 Q656 1130 756 1065 Q942 943 942 548 Q942 263 844 119 Q786 34 682 -4 Q603 -32 516 -32 Q298 -32 190 111 Q133 187 110 303.5 Q87 420 85 646 Z M330 479 Q336 357 346 315 Q365 241 405 208 Q445 175 517 175 Q612 175 652.5 243 Q693 311 699 479 L330 479 Z " />
<glyph glyph-name="Gcaron" unicode="&#x1e6;" horiz-adv-x="1227" d="M630 555 L630 756 L1096 756 L1096 62 Q999 20 868.5 -4.5 Q738 -29 612 -29 Q287 -29 180 200 Q95 383 95 728 Q95 1143 213 1316 Q339 1502 598 1502 Q886 1502 1000 1303 Q1058 1203 1060 1026 L818 1026 Q811 1136 780 1190 Q724 1285 606 1285 Q466 1285 407 1148 Q347 1008 347 733 Q347 443 417 305 Q477 188 621 188 Q729 188 854 241 L854 555 L630 555 Z M613 1755 L728 1946 L943 1946 L686 1604 L540 1604 L283 1946 L498 1946 L613 1755 Z " />
<glyph glyph-name="gcaron" unicode="&#x1e7;" horiz-adv-x="1063" d="M675 73 Q590 -6 454 -6 Q336 -6 247 59 Q85 179 85 564 Q85 843 171 986 Q213 1055 288.5 1094.5 Q364 1134 454 1134 Q535 1134 586 1112.5 Q637 1091 699 1030 L699 1102 L913 1102 L913 174 Q913 -2 898.5 -98 Q884 -194 845 -272 Q798 -367 708 -418 Q618 -469 496 -469 Q317 -469 203 -415 Q193 -411 100 -358 L201 -167 Q305 -232 354 -250 Q403 -268 474 -268 Q549 -268 592.5 -237.5 Q636 -207 654 -140 Q675 -61 675 58 L675 73 Z M496 927 Q402 927 364.5 846 Q327 765 327 563 Q327 392 354 306 Q388 201 499 201 Q611 201 648 306 Q663 350 667 393 Q671 436 671 551 Q671 688 667 733.5 Q663 779 647 822 Q609 927 496 927 Z M552 1366 L667 1558 L882 1558 L625 1216 L479 1216 L222 1558 L437 1558 L552 1366 Z " />
<glyph glyph-name="uni01F4" unicode="&#x1f4;" horiz-adv-x="1227" d="M630 555 L630 756 L1096 756 L1096 62 Q999 20 868.5 -4.5 Q738 -29 612 -29 Q287 -29 180 200 Q95 383 95 728 Q95 1143 213 1316 Q339 1502 598 1502 Q886 1502 1000 1303 Q1058 1203 1060 1026 L818 1026 Q811 1136 780 1190 Q724 1285 606 1285 Q466 1285 407 1148 Q347 1008 347 733 Q347 443 417 305 Q477 188 621 188 Q729 188 854 241 L854 555 L630 555 Z M488 1604 L645 1946 L881 1946 L644 1604 L488 1604 Z " />
<glyph glyph-name="uni01F5" unicode="&#x1f5;" horiz-adv-x="1063" d="M675 73 Q590 -6 454 -6 Q336 -6 247 59 Q85 179 85 564 Q85 843 171 986 Q213 1055 288.5 1094.5 Q364 1134 454 1134 Q535 1134 586 1112.5 Q637 1091 699 1030 L699 1102 L913 1102 L913 174 Q913 -2 898.5 -98 Q884 -194 845 -272 Q798 -367 708 -418 Q618 -469 496 -469 Q317 -469 203 -415 Q193 -411 100 -358 L201 -167 Q305 -232 354 -250 Q403 -268 474 -268 Q549 -268 592.5 -237.5 Q636 -207 654 -140 Q675 -61 675 58 L675 73 Z M496 927 Q402 927 364.5 846 Q327 765 327 563 Q327 392 354 306 Q388 201 499 201 Q611 201 648 306 Q663 350 667 393 Q671 436 671 551 Q671 688 667 733.5 Q663 779 647 822 Q609 927 496 927 Z M434 1216 L591 1558 L827 1558 L590 1216 L434 1216 Z " />
<glyph glyph-name="Scommaaccent" unicode="&#x218;" horiz-adv-x="1078" d="M76 449 L315 449 Q320 333 353 280 Q408 188 542 188 Q651 188 706 249 Q758 307 758 404 Q758 499 706 554 Q674 587 630.5 608.5 Q587 630 465 671 Q286 732 215 794 Q108 888 108 1084 Q108 1260 193 1372 Q294 1504 506 1504 Q781 1504 883 1313 Q934 1217 935 1040 L696 1040 Q689 1155 664 1200 Q614 1287 507 1287 Q350 1287 350 1117 Q350 1014 412 965 Q444 940 481.5 923.5 Q519 907 611 879 Q736 839 806 798.5 Q876 758 921 696 Q1000 590 1000 424 Q1000 223 891 102 Q773 -29 541 -29 Q246 -29 134 168 Q77 269 76 449 Z M322 -489 L440 -149 L677 -149 L478 -489 L322 -489 Z " />
<glyph glyph-name="scommaaccent" unicode="&#x219;" horiz-adv-x="906" d="M55 351 L270 351 Q277 270 300 235 Q349 161 454 161 Q537 161 576 196 Q615 231 615 305 Q615 389 563 419 Q532 437 422 464 Q258 503 186 561 Q84 642 84 794 Q84 951 176.5 1042.5 Q269 1134 429 1134 Q659 1134 752 970 Q796 893 800 773 L585 773 Q578 864 545.5 903 Q513 942 444 942 Q326 942 326 816 Q326 734 387 704 Q416 690 518 662 Q611 636 653.5 618 Q696 600 732 572 Q839 487 839 317 Q839 144 733 54 Q632 -32 456 -32 Q199 -32 102 135 Q56 213 55 351 Z M229 -489 L347 -149 L584 -149 L385 -489 L229 -489 Z " />
<glyph glyph-name="uni021A" unicode="&#x21a;" horiz-adv-x="958" d="M355 0 L355 1266 L33 1266 L33 1475 L924 1475 L924 1266 L601 1266 L601 0 L355 0 Z M236 -489 L354 -149 L591 -149 L392 -489 L236 -489 Z " />
<glyph glyph-name="uni021B" unicode="&#x21b;" horiz-adv-x="694" d="M179 895 L57 895 L57 1102 L184 1102 L197 1424 L417 1424 L417 1102 L640 1102 L640 895 L417 895 L417 344 Q417 254 436 229.5 Q455 205 523 205 L663 205 L663 0 L569 0 Q440 0 383.5 10.5 Q327 21 279 54 Q220 94 199.5 153 Q179 212 179 340 L179 895 Z M150 -489 L268 -149 L505 -149 L306 -489 L150 -489 Z " />
<glyph glyph-name="uni0226" unicode="&#x226;" horiz-adv-x="1171" d="M822 379 L352 379 L244 0 L-5 0 L475 1475 L699 1475 L1179 0 L930 0 L822 379 Z M762 588 L587 1202 L412 588 L762 588 Z M589 1896 Q649 1896 692.5 1852 Q736 1808 736 1746 Q736 1679 687 1634 Q644 1595 587 1595 Q524 1595 479.5 1639.5 Q435 1684 435 1747 Q435 1809 480 1852.5 Q525 1896 589 1896 Z " />
<glyph glyph-name="uni0227" unicode="&#x227;" horiz-adv-x="1033" d="M694 130 Q657 53 581 10.5 Q505 -32 403 -32 Q252 -32 168 61 Q84 154 84 321 Q84 501 170.5 582.5 Q257 664 447 664 Q530 664 669 652 L669 725 Q669 843 633 891 Q597 939 509 939 Q441 939 412.5 909 Q384 879 372 795 L149 795 Q160 933 205 1002 Q288 1132 513 1132 Q722 1132 809.5 1044.5 Q897 957 897 747 L897 0 L694 0 L694 130 Z M675 483 Q560 494 477 494 Q395 494 362 460 Q324 420 324 328 Q324 160 471 160 Q588 160 639 249 Q675 311 675 403 L675 483 Z M517 1523 Q577 1523 620.5 1478.5 Q664 1434 664 1373 Q664 1306 615 1261 Q572 1222 515 1222 Q452 1222 407.5 1266.5 Q363 1311 363 1374 Q363 1436 408 1479.5 Q453 1523 517 1523 Z " />
<glyph glyph-name="uni0237" unicode="&#x237;" horiz-adv-x="553" d="M167 1102 L405 1102 L405 47 Q405 -116 385.5 -201.5 Q366 -287 318 -339 Q233 -430 38 -442 L38 -236 Q77 -232 95.5 -222 Q114 -212 130 -186 Q152 -151 159.5 -108.5 Q167 -66 167 21 L167 1102 Z " />
<glyph glyph-name="uni0259" unicode="&#x259;" horiz-adv-x="1027" d="M85 646 L698 646 Q689 800 648.5 861.5 Q608 923 513 923 Q450 923 414 897.5 Q378 872 355 812 L145 913 Q255 1130 516 1130 Q656 1130 756 1065 Q942 943 942 548 Q942 263 844 119 Q786 34 682 -4 Q603 -32 516 -32 Q298 -32 190 111 Q133 187 110 303.5 Q87 420 85 646 Z M330 479 Q336 357 346 315 Q365 241 405 208 Q445 175 517 175 Q612 175 652.5 243 Q693 311 699 479 L330 479 Z " />
<glyph glyph-name="uni02C9" unicode="&#x2c9;" horiz-adv-x="1024" d="M271 1292 L271 1464 L750 1464 L750 1292 L271 1292 Z " />
<glyph glyph-name="uni0312" unicode="&#x312;" horiz-adv-x="1024" d="M764 1558 L607 1216 L371 1216 L609 1558 L764 1558 Z " />
<glyph glyph-name="uni0313" unicode="&#x313;" horiz-adv-x="266" d="M-47 1044 L60 1548 L313 1548 L129 1044 L-47 1044 Z " />
<glyph glyph-name="uni031B" unicode="&#x31b;" horiz-adv-x="266" d="M-47 1044 L60 1548 L313 1548 L129 1044 L-47 1044 Z " />
<glyph glyph-name="commaaccent" unicode="&#x326;" horiz-adv-x="1024" d="M315 -489 L433 -149 L670 -149 L471 -489 L315 -489 Z " />
<glyph glyph-name="uni037E" unicode="&#x37e;" horiz-adv-x="599" d="M108 -289 L270 283 L547 283 L310 -289 L108 -289 Z M407 960 Q476 960 524 907 Q566 862 566 801 Q566 729 512 682 Q466 641 405 641 Q337 641 290 688 Q243 735 243 802 Q243 868 290.5 914 Q338 960 407 960 Z " />
<glyph glyph-name="uni0387" unicode="&#x387;" horiz-adv-x="606" d="M306 776 Q371 776 418 729 Q465 682 465 616 Q465 545 412 498 Q365 457 304 457 Q236 457 189 504 Q142 551 142 618 Q142 684 190 730 Q238 776 306 776 Z " />
<glyph glyph-name="uni0400" unicode="&#x400;" horiz-adv-x="1072" d="M162 0 L162 1475 L989 1475 L989 1266 L408 1266 L408 874 L873 874 L873 665 L408 665 L408 209 L1002 209 L1002 0 L162 0 Z M577 1604 L339 1946 L575 1946 L732 1604 L577 1604 Z " />
<glyph glyph-name="afii10023" unicode="&#x401;" horiz-adv-x="1072" d="M162 0 L162 1475 L989 1475 L989 1266 L408 1266 L408 874 L873 874 L873 665 L408 665 L408 209 L1002 209 L1002 0 L162 0 Z M387 1884 Q443 1884 482.5 1843.5 Q522 1803 522 1746 Q522 1689 482 1648.5 Q442 1608 385 1608 Q328 1608 287 1649 Q246 1690 246 1747 Q246 1804 287 1844 Q328 1884 387 1884 Z M764 1884 Q820 1884 859.5 1843.5 Q899 1803 899 1746 Q899 1689 859 1648.5 Q819 1608 762 1608 Q705 1608 664 1649 Q623 1690 623 1747 Q623 1804 664 1844 Q705 1884 764 1884 Z " />
<glyph glyph-name="afii10051" unicode="&#x402;" horiz-adv-x="1333" d="M325 0 L325 1266 L23 1266 L23 1475 L967 1475 L967 1266 L571 1266 L571 883 Q652 938 681 953 Q780 1002 903 1002 Q1094 1002 1165 877 Q1214 789 1214 569 L1214 5 Q1214 -144 1194.5 -222.5 Q1175 -301 1126 -350 Q1082 -394 1018 -415 Q954 -436 844 -443 L844 -233 Q883 -230 899.5 -223 Q916 -216 932 -197 Q968 -153 968 -37 L968 566 Q968 682 934.5 733.5 Q901 785 826 785 Q711 785 571 638 L571 0 L325 0 Z " />
<glyph glyph-name="afii10052" unicode="&#x403;" horiz-adv-x="969" d="M162 0 L162 1475 L928 1475 L928 1266 L408 1266 L408 0 L162 0 Z M443 1604 L600 1946 L836 1946 L599 1604 L443 1604 Z " />
<glyph glyph-name="afii10053" unicode="&#x404;" horiz-adv-x="1164" d="M772 671 L346 671 Q350 507 385 385 Q416 276 469 228 Q522 180 611 180 Q678 180 731 208 Q784 236 810 286 Q835 334 841 449 L1080 449 Q1076 324 1058 255.5 Q1040 187 996 131 Q938 56 836 13.5 Q734 -29 614 -29 Q406 -29 274 94 Q95 261 95 737 Q95 1504 614 1504 Q886 1504 998 1319 Q1055 1224 1056 1059 L818 1059 Q811 1182 762.5 1238.5 Q714 1295 617 1295 Q522 1295 469 1247.5 Q416 1200 386 1088 Q363 1003 351 872 L772 872 L772 671 Z " />
<glyph glyph-name="afii10054" unicode="&#x405;" horiz-adv-x="1078" d="M76 449 L315 449 Q320 333 353 280 Q408 188 542 188 Q651 188 706 249 Q758 307 758 404 Q758 499 706 554 Q674 587 630.5 608.5 Q587 630 465 671 Q286 732 215 794 Q108 888 108 1084 Q108 1260 193 1372 Q294 1504 506 1504 Q781 1504 883 1313 Q934 1217 935 1040 L696 1040 Q689 1155 664 1200 Q614 1287 507 1287 Q350 1287 350 1117 Q350 1014 412 965 Q444 940 481.5 923.5 Q519 907 611 879 Q736 839 806 798.5 Q876 758 921 696 Q1000 590 1000 424 Q1000 223 891 102 Q773 -29 541 -29 Q246 -29 134 168 Q77 269 76 449 Z " />
<glyph glyph-name="afii10055" unicode="&#x406;" horiz-adv-x="569" d="M162 0 L162 1475 L408 1475 L408 0 L162 0 Z " />
<glyph glyph-name="afii10056" unicode="&#x407;" horiz-adv-x="586" d="M170 0 L170 1475 L416 1475 L416 0 L170 0 Z M102 1884 Q159 1884 199 1843.5 Q239 1803 239 1746 Q239 1689 198.5 1648.5 Q158 1608 100 1608 Q42 1608 0.5 1649 Q-41 1690 -41 1747 Q-41 1804 1 1844 Q43 1884 102 1884 Z M490 1884 Q546 1884 586.5 1843.5 Q627 1803 627 1746 Q627 1689 586.5 1648.5 Q546 1608 488 1608 Q430 1608 388.5 1649 Q347 1690 347 1747 Q347 1804 389 1844 Q431 1884 490 1884 Z " />
<glyph glyph-name="afii10057" unicode="&#x408;" horiz-adv-x="578" d="M170 1475 L416 1475 L416 177 Q416 7 395 -84.5 Q374 -176 322 -233 Q274 -287 202 -311.5 Q130 -336 9 -341 L9 -131 Q60 -127 82.5 -118 Q105 -109 124 -85 Q170 -26 170 140 L170 1475 Z " />
<glyph glyph-name="afii10058" unicode="&#x409;" horiz-adv-x="1833" d="M839 0 L839 1266 L501 1266 Q495 1198 483 1041 Q439 436 348 200 Q305 90 226 45 Q147 0 -3 0 L-25 0 L-25 209 L-8 209 Q44 209 74 230.5 Q104 252 129 308 Q175 410 211.5 709.5 Q248 1009 272 1475 L1085 1475 L1085 895 L1300 895 Q1521 895 1626 809 Q1761 698 1761 447 Q1761 214 1651 107 Q1541 0 1300 0 L839 0 Z M1085 209 L1246 209 Q1388 209 1439 250 Q1509 306 1509 447 Q1509 603 1425 655 Q1374 686 1246 686 L1085 686 L1085 209 Z " />
<glyph glyph-name="afii10059" unicode="&#x40a;" horiz-adv-x="1845" d="M162 0 L162 1475 L408 1475 L408 879 L849 879 L849 1475 L1095 1475 L1095 893 L1311 893 Q1531 893 1637 807 Q1772 697 1772 448 Q1772 214 1662 107 Q1552 0 1311 0 L849 0 L849 670 L408 670 L408 0 L162 0 Z M1095 209 L1257 209 Q1399 209 1450 250 Q1520 307 1520 448 Q1520 603 1436 655 Q1390 684 1257 684 L1095 684 L1095 209 Z " />
<glyph glyph-name="afii10060" unicode="&#x40b;" horiz-adv-x="1333" d="M325 0 L325 1266 L23 1266 L23 1475 L967 1475 L967 1266 L571 1266 L571 883 Q584 892 591 897 Q678 957 744.5 979.5 Q811 1002 902 1002 Q1094 1002 1165 877 Q1214 789 1214 569 L1214 0 L968 0 L968 566 Q968 682 934.5 733.5 Q901 785 825 785 Q711 785 571 638 L571 0 L325 0 Z " />
<glyph glyph-name="afii10061" unicode="&#x40c;" horiz-adv-x="1162" d="M162 0 L162 1475 L408 1475 L408 866 L591 866 L887 1475 L1139 1475 L794 787 Q865 728 935 543 L1140 0 L864 0 L731 407 Q680 564 640 615 Q598 667 514 667 L408 667 L408 0 L162 0 Z M546 1604 L703 1946 L939 1946 L702 1604 L546 1604 Z " />
<glyph glyph-name="uni040D" unicode="&#x40d;" horiz-adv-x="1295" d="M162 0 L162 1475 L394 1475 L394 458 L916 1475 L1133 1475 L1133 0 L901 0 L901 1000 L379 0 L162 0 Z M592 1604 L354 1946 L590 1946 L747 1604 L592 1604 Z " />
<glyph glyph-name="afii10062" unicode="&#x40e;" horiz-adv-x="984" d="M384 464 L-19 1475 L248 1475 L504 732 L757 1475 L1015 1475 L462 0 L203 0 L384 464 Z M221 1913 L371 1913 Q377 1829 406 1793.5 Q435 1758 496 1758 Q559 1758 589.5 1793.5 Q620 1829 627 1913 L777 1913 Q769 1773 729 1708 Q665 1606 500 1606 Q356 1606 291.5 1677 Q227 1748 221 1913 Z " />
<glyph glyph-name="afii10145" unicode="&#x40f;" horiz-adv-x="1235" d="M162 0 L162 1475 L408 1475 L408 209 L827 209 L827 1475 L1073 1475 L1073 0 L739 0 L709 -360 L526 -360 L496 0 L162 0 Z " />
<glyph glyph-name="afii10017" unicode="&#x410;" horiz-adv-x="1171" d="M822 379 L352 379 L244 0 L-5 0 L475 1475 L699 1475 L1179 0 L930 0 L822 379 Z M762 588 L587 1202 L412 588 L762 588 Z " />
<glyph glyph-name="afii10018" unicode="&#x411;" horiz-adv-x="1150" d="M162 0 L162 1475 L991 1475 L991 1266 L404 1266 L404 895 L617 895 Q836 895 940 809 Q1075 698 1075 446 Q1075 214 965 107 Q855 0 617 0 L162 0 Z M404 209 L566 209 Q707 209 758 250 Q827 306 827 447 Q827 603 744 655 Q694 686 566 686 L404 686 L404 209 Z " />
<glyph glyph-name="afii10019" unicode="&#x412;" horiz-adv-x="1196" d="M162 0 L162 1475 L645 1475 Q1052 1475 1052 1104 Q1052 994 1018 922 Q984 850 906 796 Q1106 707 1106 446 Q1106 201 941 85 Q820 0 619 0 L162 0 Z M404 887 L595 887 Q703 887 748 921 Q810 968 810 1072 Q810 1180 764 1223 Q718 1266 603 1266 L404 1266 L404 887 Z M404 205 L567 205 Q653 205 698 214.5 Q743 224 778 249 Q854 303 854 446 Q854 686 606 686 L404 686 L404 205 Z " />
<glyph glyph-name="afii10020" unicode="&#x413;" horiz-adv-x="969" d="M162 0 L162 1475 L928 1475 L928 1266 L408 1266 L408 0 L162 0 Z " />
<glyph glyph-name="afii10021" unicode="&#x414;" horiz-adv-x="1242" d="M966 0 L192 0 L150 -360 L-34 -360 L-39 209 L65 209 Q228 508 264 1475 L1077 1475 L1077 209 L1191 209 L1191 -360 L1007 -360 L966 0 Z M831 209 L831 1266 L493 1266 L484 1151 Q452 739 420.5 550 Q389 361 325 209 L831 209 Z " />
<glyph glyph-name="afii10022" unicode="&#x415;" horiz-adv-x="1072" d="M162 0 L162 1475 L989 1475 L989 1266 L408 1266 L408 874 L873 874 L873 665 L408 665 L408 209 L1002 209 L1002 0 L162 0 Z " />
<glyph glyph-name="afii10024" unicode="&#x416;" horiz-adv-x="1619" d="M690 0 L690 667 L652 667 Q570 667 528.5 617.5 Q487 568 435 407 L303 0 L26 0 L231 543 Q301 727 372 787 L27 1475 L272 1475 L576 866 L690 866 L690 1475 L922 1475 L922 866 L1036 866 L1340 1475 L1584 1475 L1239 787 Q1311 727 1380 543 L1586 0 L1309 0 L1177 407 Q1125 565 1085 616 Q1043 667 959 667 L922 667 L922 0 L690 0 Z " />
<glyph glyph-name="afii10025" unicode="&#x417;" horiz-adv-x="1118" d="M348 671 L348 872 L482 872 Q608 872 666 919 Q736 974 736 1095 Q736 1192 686 1243.5 Q636 1295 543 1295 Q417 1295 372 1194 Q350 1147 345 1059 L107 1059 Q108 1251 183 1352 Q295 1504 559 1504 Q984 1504 984 1116 Q984 1014 951.5 932 Q919 850 861 808 Q1028 712 1028 435 Q1028 194 905 73 Q800 -29 583 -29 Q256 -29 143 164 Q88 257 84 449 L322 449 Q329 325 362 274 Q422 180 555 180 Q674 180 727 247 Q780 316 780 437 Q780 564 718 617.5 Q656 671 508 671 L348 671 Z " />
<glyph glyph-name="afii10026" unicode="&#x418;" horiz-adv-x="1295" d="M162 0 L162 1475 L394 1475 L394 458 L916 1475 L1133 1475 L1133 0 L901 0 L901 1000 L379 0 L162 0 Z " />
<glyph glyph-name="afii10027" unicode="&#x419;" horiz-adv-x="1295" d="M370 1913 L519 1913 Q526 1829 554.5 1793.5 Q583 1758 645 1758 Q708 1758 738 1793.5 Q768 1829 776 1913 L925 1913 Q918 1773 877 1708 Q814 1606 648 1606 Q504 1606 439.5 1677 Q375 1748 370 1913 Z M162 0 L162 1475 L394 1475 L394 458 L916 1475 L1133 1475 L1133 0 L901 0 L901 1000 L379 0 L162 0 Z " />
<glyph glyph-name="afii10028" unicode="&#x41a;" horiz-adv-x="1162" d="M162 0 L162 1475 L408 1475 L408 866 L591 866 L887 1475 L1139 1475 L794 787 Q865 728 935 543 L1140 0 L864 0 L731 407 Q680 564 640 615 Q598 667 514 667 L408 667 L408 0 L162 0 Z " />
<glyph glyph-name="afii10029" unicode="&#x41b;" horiz-adv-x="1266" d="M839 0 L839 1266 L501 1266 Q495 1198 483 1040 Q439 436 348 199 Q306 90 226.5 45 Q147 0 -3 0 L-25 0 L-25 209 L-8 209 Q45 209 74.5 230.5 Q104 252 129 309 Q175 411 211.5 710 Q248 1009 272 1475 L1085 1475 L1085 0 L839 0 Z " />
<glyph glyph-name="afii10030" unicode="&#x41c;" horiz-adv-x="1548" d="M108 0 L222 1475 L471 1475 L774 423 L1078 1475 L1327 1475 L1441 0 L1201 0 L1137 1014 L850 0 L699 0 L412 1014 L347 0 L108 0 Z " />
<glyph glyph-name="afii10031" unicode="&#x41d;" horiz-adv-x="1296" d="M162 0 L162 1475 L408 1475 L408 879 L888 879 L888 1475 L1134 1475 L1134 0 L888 0 L888 670 L408 670 L408 0 L162 0 Z " />
<glyph glyph-name="afii10032" unicode="&#x41e;" horiz-adv-x="1238" d="M628 1504 Q841 1504 973 1376 Q1142 1211 1142 737 Q1142 423 1065 236 Q1010 100 883 33 Q767 -29 618 -29 Q394 -29 264 98 Q95 263 95 734 Q95 1056 171 1239 Q229 1375 353 1442 Q469 1504 628 1504 Z M614 1287 Q467 1287 410 1154 Q347 1007 347 737 Q347 468 410 321 Q467 188 619 188 Q770 188 827 321 Q890 469 890 733 Q890 1027 825 1157 Q760 1287 614 1287 Z " />
<glyph glyph-name="afii10033" unicode="&#x41f;" horiz-adv-x="1292" d="M162 0 L162 1475 L1130 1475 L1130 0 L884 0 L884 1266 L408 1266 L408 0 L162 0 Z " />
<glyph glyph-name="afii10034" unicode="&#x420;" horiz-adv-x="1130" d="M162 0 L162 1475 L525 1475 Q681 1475 764.5 1455.5 Q848 1436 911 1385 Q985 1325 1025.5 1226.5 Q1066 1128 1066 1007 Q1066 773 933 659 Q800 545 527 545 L408 545 L408 0 L162 0 Z M408 750 L537 750 Q620 750 662.5 760.5 Q705 771 739 799 Q814 861 814 1013 Q814 1151 753 1212 Q698 1266 547 1266 L408 1266 L408 750 Z " />
<glyph glyph-name="afii10035" unicode="&#x421;" horiz-adv-x="1120" d="M790 449 L1033 449 Q1031 247 956 137 Q844 -29 586 -29 Q328 -29 207 156 Q155 236 125 390 Q95 544 95 736 Q95 1183 230 1351 Q352 1502 580 1502 Q860 1502 965 1302 Q1018 1202 1020 1026 L781 1026 Q775 1135 746 1189 Q695 1285 585 1285 Q461 1285 408 1161 Q347 1022 347 737 Q347 426 420 289 Q474 188 591 188 Q777 188 790 449 Z " />
<glyph glyph-name="afii10036" unicode="&#x422;" horiz-adv-x="958" d="M355 0 L355 1266 L33 1266 L33 1475 L924 1475 L924 1266 L601 1266 L601 0 L355 0 Z " />
<glyph glyph-name="afii10037" unicode="&#x423;" horiz-adv-x="984" d="M384 464 L-19 1475 L248 1475 L504 732 L757 1475 L1015 1475 L462 0 L203 0 L384 464 Z " />
<glyph glyph-name="afii10038" unicode="&#x424;" horiz-adv-x="1528" d="M652 -41 L652 166 Q424 190 316 258 Q85 405 85 737 Q85 950 185 1092 Q257 1194 359.5 1241.5 Q462 1289 652 1309 L652 1516 L874 1516 L874 1309 Q1107 1283 1212 1217 Q1332 1141 1391 1006 Q1443 888 1443 737 Q1443 525 1343 383 Q1270 280 1169.5 233.5 Q1069 187 874 166 L874 -41 L652 -41 Z M652 365 L652 1109 Q515 1098 451 1047 Q337 955 337 737 Q337 499 471 414 Q531 375 652 365 Z M874 365 Q1014 377 1077 428 Q1191 520 1191 738 Q1191 975 1057 1061 Q999 1099 874 1109 L874 365 Z " />
<glyph glyph-name="afii10039" unicode="&#x425;" horiz-adv-x="1073" d="M398 768 L29 1475 L295 1475 L565 965 L766 1475 L1043 1475 L673 750 L1064 0 L798 0 L505 554 L276 0 L0 0 L398 768 Z " />
<glyph glyph-name="afii10040" unicode="&#x426;" horiz-adv-x="1240" d="M162 0 L162 1475 L408 1475 L408 209 L827 209 L827 1475 L1073 1475 L1073 209 L1188 209 L1188 -360 L1004 -360 L962 0 L162 0 Z " />
<glyph glyph-name="afii10041" unicode="&#x427;" horiz-adv-x="1216" d="M808 0 L808 611 Q726 575 716 572 Q592 524 444 524 Q329 524 262 570 Q189 620 155.5 709 Q122 798 122 944 L122 1475 L368 1475 L368 980 Q368 858 390 810 Q421 741 527 741 Q662 741 808 838 L808 1475 L1054 1475 L1054 0 L808 0 Z " />
<glyph glyph-name="afii10042" unicode="&#x428;" horiz-adv-x="1791" d="M162 0 L162 1475 L408 1475 L408 209 L772 209 L772 1475 L1018 1475 L1018 209 L1383 209 L1383 1475 L1629 1475 L1629 0 L162 0 Z " />
<glyph glyph-name="afii10043" unicode="&#x429;" horiz-adv-x="1795" d="M162 0 L162 1475 L408 1475 L408 209 L772 209 L772 1475 L1018 1475 L1018 209 L1383 209 L1383 1475 L1629 1475 L1629 209 L1744 209 L1744 -360 L1560 -360 L1518 0 L162 0 Z " />
<glyph glyph-name="afii10044" unicode="&#x42a;" horiz-adv-x="1327" d="M332 0 L332 1266 L-34 1266 L-34 1475 L578 1475 L578 895 L793 895 Q1014 895 1119 809 Q1254 698 1254 446 Q1254 214 1143.5 107 Q1033 0 793 0 L332 0 Z M578 209 L739 209 Q881 209 932 250 Q1002 306 1002 447 Q1002 603 918 655 Q868 686 739 686 L578 686 L578 209 Z " />
<glyph glyph-name="afii10045" unicode="&#x42b;" horiz-adv-x="1633" d="M162 0 L162 1475 L408 1475 L408 895 L623 895 Q843 895 949 809 Q1084 698 1084 446 Q1084 214 973.5 107 Q863 0 623 0 L162 0 Z M408 209 L569 209 Q711 209 762 250 Q832 306 832 447 Q832 603 748 655 Q698 686 569 686 L408 686 L408 209 Z M1225 0 L1225 1475 L1471 1475 L1471 0 L1225 0 Z " />
<glyph glyph-name="afii10046" unicode="&#x42c;" horiz-adv-x="1156" d="M162 0 L162 1475 L408 1475 L408 895 L623 895 Q843 895 949 809 Q1084 698 1084 446 Q1084 214 973.5 107 Q863 0 623 0 L162 0 Z M408 209 L569 209 Q711 209 762 250 Q832 306 832 447 Q832 603 748 655 Q698 686 569 686 L408 686 L408 209 Z " />
<glyph glyph-name="afii10047" unicode="&#x42d;" horiz-adv-x="1164" d="M391 671 L391 872 L811 872 Q797 1030 769 1117 Q738 1213 687 1254 Q636 1295 548 1295 Q420 1295 372 1194 Q350 1146 344 1059 L106 1059 Q107 1247 188 1352 Q305 1504 550 1504 Q1068 1504 1068 737 Q1068 381 957 181 Q898 74 780 19 Q677 -29 551 -29 Q401 -29 285 33 Q127 117 95 301 Q86 352 83 449 L321 449 Q329 320 363 268 Q422 180 551 180 Q646 180 701 236 Q756 292 787 420 Q813 529 816 671 L391 671 Z " />
<glyph glyph-name="afii10048" unicode="&#x42e;" horiz-adv-x="1811" d="M162 0 L162 1475 L408 1475 L408 879 L664 879 Q679 1069 711 1168 Q817 1504 1193 1504 Q1412 1504 1544 1377 Q1716 1211 1716 738 Q1716 425 1638 236 Q1582 100 1454 33 Q1337 -29 1188 -29 Q925 -29 794 140 Q677 289 660 670 L408 670 L408 0 L162 0 Z M1183 1287 Q1035 1287 976 1153 Q912 1007 912 738 Q912 469 976 322 Q1035 188 1188 188 Q1341 188 1400 322 Q1464 469 1464 733 Q1464 1011 1400 1153 Q1339 1287 1183 1287 Z " />
<glyph glyph-name="afii10049" unicode="&#x42f;" horiz-adv-x="1174" d="M766 585 L655 585 Q570 585 524 567.5 Q478 550 451 507 Q416 452 379 271 L324 0 L64 0 L161 415 Q192 548 217 597 Q242 646 291 671 Q205 723 167 780 Q100 882 100 1050 Q100 1166 139 1260 Q178 1354 246 1402 Q349 1475 587 1475 L1012 1475 L1012 0 L766 0 L766 585 Z M766 788 L766 1266 L596 1266 Q460 1266 411 1217 Q352 1158 352 1031 Q352 881 423 827 Q474 788 595 788 L766 788 Z " />
<glyph glyph-name="afii10065" unicode="&#x430;" horiz-adv-x="1033" d="M694 130 Q657 53 581 10.5 Q505 -32 403 -32 Q252 -32 168 61 Q84 154 84 321 Q84 501 170.5 582.5 Q257 664 447 664 Q530 664 669 652 L669 725 Q669 843 633 891 Q597 939 509 939 Q441 939 412.5 909 Q384 879 372 795 L149 795 Q160 933 205 1002 Q288 1132 513 1132 Q722 1132 809.5 1044.5 Q897 957 897 747 L897 0 L694 0 L694 130 Z M675 483 Q560 494 477 494 Q395 494 362 460 Q324 420 324 328 Q324 160 471 160 Q588 160 639 249 Q675 311 675 403 L675 483 Z " />
<glyph glyph-name="afii10066" unicode="&#x431;" horiz-adv-x="1059" d="M332 841 Q386 923 447.5 958 Q509 993 600 993 Q816 993 919 813 Q991 688 991 500 Q991 216 838 73 Q730 -29 565 -29 Q271 -29 172 242 Q115 400 115 667 Q115 1134 323 1295 Q402 1356 573 1399 Q668 1423 699.5 1445.5 Q731 1468 739 1516 L936 1516 Q933 1378 914 1330.5 Q895 1283 833 1257 Q784 1240 704 1219 Q568 1184 503.5 1149.5 Q439 1115 397 1055 Q348 986 332 841 Z M564 776 Q475 776 426.5 699 Q378 622 378 481 Q378 353 420 279 Q469 193 565 193 Q748 193 748 486 Q748 776 564 776 Z " />
<glyph glyph-name="afii10067" unicode="&#x432;" horiz-adv-x="1059" d="M150 0 L150 1102 L615 1102 Q798 1102 871 1045 Q954 979 954 825 Q954 732 928 677 Q902 622 839 580 Q901 554 932 509 Q979 440 979 315 Q979 150 891 75 Q803 0 610 0 L150 0 Z M388 654 L537 654 Q632 654 664 675 Q712 707 712 797 Q712 864 680.5 889.5 Q649 915 566 915 L388 915 L388 654 Z M388 191 L549 191 Q654 191 695.5 222.5 Q737 254 737 333 Q737 420 691.5 450.5 Q646 481 515 481 L388 481 L388 191 Z " />
<glyph glyph-name="afii10068" unicode="&#x433;" horiz-adv-x="813" d="M150 0 L150 1102 L784 1102 L784 895 L388 895 L388 0 L150 0 Z " />
<glyph glyph-name="afii10069" unicode="&#x434;" horiz-adv-x="1046" d="M779 0 L181 0 L136 -363 L-37 -363 L-37 209 L52 209 Q112 332 153 550.5 Q194 769 221 1102 L891 1102 L891 209 L998 209 L998 -363 L823 -363 L779 0 Z M654 209 L654 895 L428 895 L418 808 Q375 400 300 209 L654 209 Z " />
<glyph glyph-name="afii10070" unicode="&#x435;" horiz-adv-x="1018" d="M930 478 L316 478 Q325 303 371 239 Q417 175 535 175 Q617 175 670.5 197 Q724 219 790 281 L918 101 Q867 61 833 42 Q706 -32 531 -32 Q289 -32 184 120 Q85 266 85 552 Q85 838 182 982 Q283 1134 509 1134 Q933 1134 933 574 Q933 537 930 478 Z M703 653 Q697 761 680 811 Q657 877 617 905 Q577 933 505 933 Q439 933 400 903.5 Q361 874 341 808 Q326 759 317 653 L703 653 Z " />
<glyph glyph-name="afii10072" unicode="&#x436;" horiz-adv-x="1394" d="M586 0 L586 475 L560 475 Q495 475 454.5 429.5 Q414 384 385 280 L309 0 L34 0 L214 444 Q256 546 322 585 L47 1102 L299 1102 L513 658 L586 658 L586 1102 L808 1102 L808 658 L881 658 L1096 1102 L1347 1102 L1072 585 Q1139 546 1180 444 L1361 0 L1085 0 L1009 280 Q981 384 940 429.5 Q899 475 834 475 L808 475 L808 0 L586 0 Z " />
<glyph glyph-name="afii10073" unicode="&#x437;" horiz-adv-x="906" d="M288 469 L288 646 L431 646 Q493 646 521.5 679.5 Q550 713 550 787 Q550 941 423 941 Q358 941 325 904 Q292 867 286 785 L72 785 Q77 933 131 1008 Q221 1134 448 1134 Q607 1134 693 1065 Q792 986 792 827 Q792 657 696 595 Q753 568 777 533 Q828 461 828 321 Q828 141 736 54.5 Q644 -32 453 -32 Q139 -32 82 177 Q66 236 66 323 L280 323 Q284 254 307 219 Q346 161 444 161 Q516 161 551 201.5 Q586 242 586 326 Q586 408 554.5 438.5 Q523 469 439 469 L288 469 Z " />
<glyph glyph-name="afii10074" unicode="&#x438;" horiz-adv-x="1090" d="M150 0 L150 1102 L373 1102 L373 366 L709 1102 L940 1102 L940 0 L717 0 L717 736 L381 0 L150 0 Z " />
<glyph glyph-name="afii10075" unicode="&#x439;" horiz-adv-x="1090" d="M150 0 L150 1102 L373 1102 L373 366 L709 1102 L940 1102 L940 0 L717 0 L717 736 L381 0 L150 0 Z M262 1575 L412 1575 Q418 1491 447 1455.5 Q476 1420 537 1420 Q600 1420 630.5 1455.5 Q661 1491 668 1575 L818 1575 Q810 1435 770 1370 Q706 1268 541 1268 Q397 1268 332.5 1339 Q268 1410 262 1575 Z " />
<glyph glyph-name="afii10076" unicode="&#x43a;" horiz-adv-x="1026" d="M152 0 L152 1102 L390 1102 L390 658 L514 658 L728 1102 L980 1102 L705 585 Q771 547 813 444 L993 0 L717 0 L641 280 Q613 384 572.5 429.5 Q532 475 467 475 L390 475 L390 0 L152 0 Z " />
<glyph glyph-name="afii10077" unicode="&#x43b;" horiz-adv-x="1058" d="M671 0 L671 895 L451 895 Q411 476 363 287 Q317 106 221 42 Q159 0 70 0 L11 0 L11 209 L37 209 Q77 209 94 221 Q111 233 127 272 Q171 378 213 726 Q225 824 245 1102 L909 1102 L909 0 L671 0 Z " />
<glyph glyph-name="afii10078" unicode="&#x43c;" horiz-adv-x="1304" d="M85 0 L174 1102 L419 1102 L653 378 L887 1102 L1132 1102 L1221 0 L989 0 L948 720 L724 0 L581 0 L358 720 L317 0 L85 0 Z " />
<glyph glyph-name="afii10079" unicode="&#x43d;" horiz-adv-x="1102" d="M150 0 L150 1102 L388 1102 L388 674 L714 674 L714 1102 L952 1102 L952 0 L714 0 L714 467 L388 467 L388 0 L150 0 Z " />
<glyph glyph-name="afii10080" unicode="&#x43e;" horiz-adv-x="1027" d="M520 1134 Q655 1134 755 1068 Q942 946 942 551 Q942 265 844 120 Q786 35 682 -3 Q603 -32 513 -32 Q286 -32 183 120 Q85 265 85 548 Q85 839 183 982 Q287 1134 520 1134 Z M511 927 Q408 927 367.5 844.5 Q327 762 327 551 Q327 319 375 243 Q417 175 513 175 Q619 175 659.5 257 Q700 339 700 553 Q700 765 659 846 Q618 927 511 927 Z " />
<glyph glyph-name="afii10081" unicode="&#x43f;" horiz-adv-x="1086" d="M150 0 L150 1102 L936 1102 L936 0 L698 0 L698 893 L388 893 L388 0 L150 0 Z " />
<glyph glyph-name="afii10082" unicode="&#x440;" horiz-adv-x="1063" d="M150 -439 L150 1102 L362 1102 L362 1028 Q459 1134 609 1134 Q728 1134 816 1067 Q978 945 978 551 Q978 265 892 120 Q851 49 775 8.5 Q699 -32 610 -32 Q471 -32 388 50 L388 -439 L150 -439 Z M559 927 Q465 927 426.5 843 Q388 759 388 551 Q388 372 416 284 Q450 175 564 175 Q660 175 698 257.5 Q736 340 736 547 Q736 733 709 818 Q674 927 559 927 Z " />
<glyph glyph-name="afii10083" unicode="&#x441;" horiz-adv-x="930" d="M760 280 L889 101 Q838 60 806 41 Q683 -32 517 -32 Q285 -32 183 120 Q85 265 85 551 Q85 1134 501 1134 Q738 1134 828 951 Q870 866 872 724 L642 724 Q629 927 502 927 Q455 927 415.5 898.5 Q376 870 359 822 Q327 734 327 546 Q327 333 368.5 254 Q410 175 520 175 Q593 175 645 198 Q697 221 760 280 Z " />
<glyph glyph-name="afii10084" unicode="&#x442;" horiz-adv-x="867" d="M315 0 L315 899 L34 899 L34 1102 L833 1102 L833 899 L552 899 L552 0 L315 0 Z " />
<glyph glyph-name="afii10085" unicode="&#x443;" horiz-adv-x="882" d="M331 -3 L8 1102 L262 1102 L441 309 L620 1102 L875 1102 L587 51 Q502 -259 406 -356 Q361 -402 299 -420.5 Q237 -439 122 -440 L122 -234 Q196 -234 228 -210 Q276 -179 319 -44 L331 -3 Z " />
<glyph glyph-name="afii10086" unicode="&#x444;" horiz-adv-x="1377" d="M587 -439 L587 55 Q523 -32 404 -32 Q230 -32 156 131 Q85 284 85 552 Q85 818 155 971 Q230 1134 405 1134 Q523 1134 587 1047 L587 1516 L788 1516 L788 1047 Q818 1082 832 1092 Q884 1134 972 1134 Q1146 1134 1221 971 Q1292 818 1292 551 Q1292 283 1221 131 Q1146 -32 973 -32 Q853 -32 790 54 L790 -439 L587 -439 Z M587 496 L587 606 Q587 749 553 854 Q524 941 447 941 Q380 941 349 868 Q308 775 308 551 Q308 346 341.5 253.5 Q375 161 449 161 Q524 161 553 248 Q587 352 587 496 Z M788 606 L788 496 Q788 443 799 365.5 Q810 288 824 248 Q853 161 929 161 Q997 161 1029 234 Q1069 326 1069 551 Q1069 756 1035.5 848.5 Q1002 941 928 941 Q853 941 824 854 Q810 814 799 736.5 Q788 659 788 606 Z " />
<glyph glyph-name="afii10087" unicode="&#x445;" horiz-adv-x="874" d="M297 582 L5 1102 L260 1102 L463 743 L615 1102 L859 1102 L559 571 L879 0 L625 0 L397 403 L237 0 L-8 0 L297 582 Z " />
<glyph glyph-name="afii10088" unicode="&#x446;" horiz-adv-x="1090" d="M150 0 L150 1102 L388 1102 L388 209 L699 209 L699 1102 L936 1102 L936 209 L1042 209 L1042 -363 L869 -363 L824 0 L150 0 Z " />
<glyph glyph-name="afii10089" unicode="&#x447;" horiz-adv-x="1028" d="M640 0 L640 429 Q520 356 397 356 Q187 356 122 527 Q92 607 92 816 L92 1102 L330 1102 L330 771 Q330 653 358 608 Q386 563 461 563 Q557 563 640 642 L640 1102 L878 1102 L878 0 L640 0 Z " />
<glyph glyph-name="afii10090" unicode="&#x448;" horiz-adv-x="1545" d="M150 0 L150 1102 L388 1102 L388 209 L654 209 L654 1102 L892 1102 L892 209 L1157 209 L1157 1102 L1395 1102 L1395 0 L150 0 Z " />
<glyph glyph-name="afii10091" unicode="&#x449;" horiz-adv-x="1549" d="M150 0 L150 1102 L388 1102 L388 209 L654 209 L654 1102 L892 1102 L892 209 L1157 209 L1157 1102 L1395 1102 L1395 209 L1501 209 L1501 -363 L1327 -363 L1283 0 L150 0 Z " />
<glyph glyph-name="afii10092" unicode="&#x44a;" horiz-adv-x="1116" d="M270 0 L270 893 L6 893 L6 1102 L507 1102 L507 716 L695 716 Q887 716 967 643 Q1066 552 1066 356 Q1066 168 978.5 84 Q891 0 695 0 L270 0 Z M507 195 L683 195 Q764 195 794 231 Q824 267 824 363 Q824 459 794 495 Q764 531 683 531 L507 531 L507 195 Z " />
<glyph glyph-name="afii10093" unicode="&#x44b;" horiz-adv-x="1466" d="M152 0 L152 1102 L390 1102 L390 716 L578 716 Q770 716 851 643 Q949 553 949 356 Q949 168 861.5 84 Q774 0 578 0 L152 0 Z M390 195 L566 195 Q647 195 677 231 Q707 267 707 363 Q707 459 677 495 Q647 531 566 531 L390 531 L390 195 Z M1077 0 L1077 1102 L1314 1102 L1314 0 L1077 0 Z " />
<glyph glyph-name="afii10094" unicode="&#x44c;" horiz-adv-x="997" d="M152 0 L152 1102 L390 1102 L390 716 L578 716 Q770 716 851 643 Q949 553 949 356 Q949 168 861.5 84 Q774 0 578 0 L152 0 Z M390 195 L566 195 Q647 195 677 231 Q707 267 707 363 Q707 459 677 495 Q647 531 566 531 L390 531 L390 195 Z " />
<glyph glyph-name="afii10095" unicode="&#x44d;" horiz-adv-x="929" d="M304 469 L304 644 L599 644 Q594 733 581 787 Q546 923 427 923 Q297 923 285 785 L55 785 Q58 924 119 1003 Q217 1130 429 1130 Q844 1130 844 550 Q844 -32 423 -32 Q242 -32 145.5 59.5 Q49 151 49 323 L279 323 Q291 175 420 175 Q510 175 551 242.5 Q592 310 600 469 L304 469 Z " />
<glyph glyph-name="afii10096" unicode="&#x44e;" horiz-adv-x="1492" d="M152 0 L152 1102 L390 1102 L390 664 L555 664 Q573 834 612 917 Q713 1130 979 1130 Q1206 1130 1309 979 Q1407 835 1407 550 Q1407 264 1309 120 Q1206 -32 979 -32 Q680 -32 591 239 Q561 329 553 475 L390 475 L390 0 L152 0 Z M975 923 Q872 923 832 840.5 Q792 758 792 547 Q792 337 832.5 256 Q873 175 978 175 Q1081 175 1123 252 Q1165 330 1165 550 Q1165 762 1124 842.5 Q1083 923 975 923 Z " />
<glyph glyph-name="afii10097" unicode="&#x44f;" horiz-adv-x="1041" d="M653 417 L605 417 Q538 417 503 377 Q468 337 409 195 L329 0 L54 0 L242 338 Q284 414 315 441 Q203 472 155 525 Q77 610 77 756 Q77 956 186 1041 Q263 1102 438 1102 L890 1102 L890 0 L653 0 L653 417 Z M653 594 L653 911 L466 911 Q384 911 352 873 Q319 835 319 759 Q319 673 358 633.5 Q397 594 481 594 L653 594 Z " />
<glyph glyph-name="uni0450" unicode="&#x450;" horiz-adv-x="1018" d="M930 478 L316 478 Q325 303 371 239 Q417 175 535 175 Q617 175 670.5 197 Q724 219 790 281 L918 101 Q867 61 833 42 Q706 -32 531 -32 Q289 -32 184 120 Q85 266 85 552 Q85 838 182 982 Q283 1134 509 1134 Q933 1134 933 574 Q933 537 930 478 Z M703 653 Q697 761 680 811 Q657 877 617 905 Q577 933 505 933 Q439 933 400 903.5 Q361 874 341 808 Q326 759 317 653 L703 653 Z M481 1252 L236 1606 L474 1606 L637 1252 L481 1252 Z " />
<glyph glyph-name="afii10071" unicode="&#x451;" horiz-adv-x="1018" d="M930 478 L316 478 Q325 303 371 239 Q417 175 535 175 Q617 175 670.5 197 Q724 219 790 281 L918 101 Q867 61 833 42 Q706 -32 531 -32 Q289 -32 184 120 Q85 266 85 552 Q85 838 182 982 Q283 1134 509 1134 Q933 1134 933 574 Q933 537 930 478 Z M703 653 Q697 761 680 811 Q657 877 617 905 Q577 933 505 933 Q439 933 400 903.5 Q361 874 341 808 Q326 759 317 653 L703 653 Z M332 1551 Q388 1551 427.5 1510.5 Q467 1470 467 1413 Q467 1356 427 1315.5 Q387 1275 330 1275 Q273 1275 232 1316 Q191 1357 191 1414 Q191 1471 232 1511 Q273 1551 332 1551 Z M680 1551 Q736 1551 775.5 1510.5 Q815 1470 815 1413 Q815 1356 775 1315.5 Q735 1275 678 1275 Q621 1275 580 1316 Q539 1357 539 1414 Q539 1471 580 1511 Q621 1551 680 1551 Z " />
<glyph glyph-name="afii10099" unicode="&#x452;" horiz-adv-x="1105" d="M155 0 L155 1237 L-1 1237 L-1 1378 L155 1378 L155 1516 L393 1516 L393 1378 L640 1378 L640 1237 L393 1237 L393 1002 Q408 1013 456 1050 Q560 1130 677 1130 Q831 1130 896 1036.5 Q961 943 961 722 L961 53 Q961 -111 942 -196.5 Q923 -282 875 -334 Q830 -384 769.5 -406.5 Q709 -429 599 -439 L599 -229 Q639 -224 655.5 -214.5 Q672 -205 688 -179 Q708 -144 715.5 -101.5 Q723 -59 723 28 L723 705 Q723 806 707 851 Q683 917 612 917 Q558 917 514.5 889.5 Q471 862 393 778 L393 0 L155 0 Z " />
<glyph glyph-name="afii10100" unicode="&#x453;" horiz-adv-x="813" d="M150 0 L150 1102 L784 1102 L784 895 L388 895 L388 0 L150 0 Z M276 1252 L439 1606 L677 1606 L432 1252 L276 1252 Z " />
<glyph glyph-name="afii10101" unicode="&#x454;" horiz-adv-x="930" d="M625 469 L330 469 Q333 375 349 313 Q385 175 509 175 Q641 175 651 323 L881 323 Q879 179 818 98 Q720 -32 506 -32 Q85 -32 85 550 Q85 1130 500 1130 Q626 1130 720 1079 Q870 997 874 785 L644 785 Q632 923 502 923 Q417 923 377 858 Q337 793 330 644 L625 644 L625 469 Z " />
<glyph glyph-name="afii10102" unicode="&#x455;" horiz-adv-x="906" d="M55 351 L270 351 Q277 270 300 235 Q349 161 454 161 Q537 161 576 196 Q615 231 615 305 Q615 389 563 419 Q532 437 422 464 Q258 503 186 561 Q84 642 84 794 Q84 951 176.5 1042.5 Q269 1134 429 1134 Q659 1134 752 970 Q796 893 800 773 L585 773 Q578 864 545.5 903 Q513 942 444 942 Q326 942 326 816 Q326 734 387 704 Q416 690 518 662 Q611 636 653.5 618 Q696 600 732 572 Q839 487 839 317 Q839 144 733 54 Q632 -32 456 -32 Q199 -32 102 135 Q56 213 55 351 Z " />
<glyph glyph-name="afii10103" unicode="&#x456;" horiz-adv-x="538" d="M151 0 L151 1102 L388 1102 L388 0 L151 0 Z M272 1567 Q333 1567 377 1522.5 Q421 1478 421 1415 Q421 1347 371 1302 Q328 1263 270 1263 Q207 1263 162 1308 Q117 1353 117 1416 Q117 1479 162.5 1523 Q208 1567 272 1567 Z " />
<glyph glyph-name="afii10104" unicode="&#x457;" horiz-adv-x="553" d="M158 0 L158 1102 L395 1102 L395 0 L158 0 Z M101 1555 Q157 1555 197 1514 Q237 1473 237 1415 Q237 1357 196.5 1316 Q156 1275 98 1275 Q40 1275 -1 1316.5 Q-42 1358 -42 1416 Q-42 1474 -0.5 1514.5 Q41 1555 101 1555 Z M458 1555 Q514 1555 554 1514 Q594 1473 594 1415 Q594 1357 553.5 1316 Q513 1275 455 1275 Q397 1275 356 1316.5 Q315 1358 315 1416 Q315 1474 356.5 1514.5 Q398 1555 458 1555 Z " />
<glyph glyph-name="afii10105" unicode="&#x458;" horiz-adv-x="553" d="M167 1102 L405 1102 L405 47 Q405 -116 385.5 -201.5 Q366 -287 318 -339 Q233 -430 38 -442 L38 -236 Q77 -232 95.5 -222 Q114 -212 130 -186 Q152 -151 159.5 -108.5 Q167 -66 167 21 L167 1102 Z M288 1567 Q349 1567 393 1522.5 Q437 1478 437 1415 Q437 1348 387 1302 Q344 1263 286 1263 Q223 1263 178 1308 Q133 1353 133 1416 Q133 1479 178.5 1523 Q224 1567 288 1567 Z " />
<glyph glyph-name="afii10106" unicode="&#x459;" horiz-adv-x="1518" d="M673 0 L673 893 L446 893 Q398 449 357 287 Q311 107 214 42 Q152 0 63 0 L4 0 L4 209 L30 209 Q70 209 87.5 221 Q105 233 120 272 Q157 361 190 592.5 Q223 824 238 1102 L910 1102 L910 716 L1098 716 Q1290 716 1370 643 Q1469 552 1469 357 Q1469 147 1353 60 Q1273 0 1098 0 L673 0 Z M910 195 L1086 195 Q1168 195 1197.5 230 Q1227 265 1227 362 Q1227 459 1197 495 Q1167 531 1086 531 L910 531 L910 195 Z " />
<glyph glyph-name="afii10107" unicode="&#x45a;" horiz-adv-x="1560" d="M150 0 L150 1102 L388 1102 L388 672 L715 672 L715 1102 L953 1102 L953 690 L1141 690 Q1333 690 1413 621 Q1512 538 1512 347 Q1512 166 1423.5 83 Q1335 0 1141 0 L715 0 L715 481 L388 481 L388 0 L150 0 Z M953 195 L1129 195 Q1209 195 1239.5 229.5 Q1270 264 1270 357 Q1270 441 1238.5 475 Q1207 509 1129 509 L953 509 L953 195 Z " />
<glyph glyph-name="afii10108" unicode="&#x45b;" horiz-adv-x="1105" d="M155 0 L155 1237 L-1 1237 L-1 1378 L155 1378 L155 1516 L393 1516 L393 1378 L640 1378 L640 1237 L393 1237 L393 1002 Q408 1013 456 1050 Q560 1130 677 1130 Q831 1130 896 1036.5 Q961 943 961 722 L961 0 L723 0 L723 705 Q723 806 707 851 Q684 917 612 917 Q559 917 514.5 889 Q470 861 393 778 L393 0 L155 0 Z " />
<glyph glyph-name="afii10109" unicode="&#x45c;" horiz-adv-x="1026" d="M152 0 L152 1102 L390 1102 L390 658 L514 658 L728 1102 L980 1102 L705 585 Q771 547 813 444 L993 0 L717 0 L641 280 Q613 384 572.5 429.5 Q532 475 467 475 L390 475 L390 0 L152 0 Z M383 1252 L546 1606 L784 1606 L539 1252 L383 1252 Z " />
<glyph glyph-name="uni045D" unicode="&#x45d;" horiz-adv-x="1090" d="M517 1252 L272 1606 L510 1606 L673 1252 L517 1252 Z M150 0 L150 1102 L373 1102 L373 366 L709 1102 L940 1102 L940 0 L717 0 L717 736 L381 0 L150 0 Z " />
<glyph glyph-name="afii10110" unicode="&#x45e;" horiz-adv-x="882" d="M331 -3 L8 1102 L262 1102 L441 309 L620 1102 L875 1102 L587 51 Q502 -259 406 -356 Q361 -402 299 -420.5 Q237 -439 122 -440 L122 -234 Q196 -234 228 -210 Q276 -179 319 -44 L331 -3 Z M154 1575 L304 1575 Q311 1491 339.5 1455.5 Q368 1420 429 1420 Q492 1420 522.5 1455.5 Q553 1491 560 1575 L710 1575 Q702 1435 662 1370 Q598 1268 433 1268 Q289 1268 224.5 1339 Q160 1410 154 1575 Z " />
<glyph glyph-name="afii10193" unicode="&#x45f;" horiz-adv-x="1086" d="M150 0 L150 1102 L388 1102 L388 209 L699 209 L699 1102 L936 1102 L936 0 L658 0 L625 -363 L462 -363 L429 0 L150 0 Z " />
<glyph glyph-name="uni0462" unicode="&#x462;" horiz-adv-x="1271" d="M520 1355 L917 1355 L917 1146 L520 1146 L520 895 L736 895 Q957 895 1062 809 Q1198 698 1198 447 Q1198 214 1087 107 Q976 0 736 0 L274 0 L274 1146 L25 1146 L25 1355 L274 1355 L274 1540 L520 1540 L520 1355 Z M520 209 L681 209 Q824 209 876 250 Q946 306 946 446 Q946 601 861 653 Q811 684 681 684 L520 684 L520 209 Z " />
<glyph glyph-name="uni0463" unicode="&#x463;" horiz-adv-x="1115" d="M229 914 L5 914 L5 1102 L229 1102 L229 1420 L467 1420 L467 1102 L818 1102 L818 914 L467 914 L467 716 L655 716 Q863 716 949 621 Q1025 537 1025 358 Q1025 163 931 78 Q843 0 655 0 L229 0 L229 914 Z M467 195 L643 195 Q723 195 753.5 231.5 Q784 268 784 363 Q784 459 753.5 495 Q723 531 643 531 L467 531 L467 195 Z " />
<glyph glyph-name="afii10050" unicode="&#x490;" horiz-adv-x="969" d="M162 0 L162 1475 L685 1475 L721 1835 L928 1835 L928 1266 L408 1266 L408 0 L162 0 Z " />
<glyph glyph-name="afii10098" unicode="&#x491;" horiz-adv-x="814" d="M152 0 L152 1102 L552 1102 L590 1463 L786 1463 L786 895 L390 895 L390 0 L152 0 Z " />
<glyph glyph-name="uni0492" unicode="&#x492;" horiz-adv-x="990" d="M183 0 L183 692 L16 692 L16 874 L183 874 L183 1475 L948 1475 L948 1266 L429 1266 L429 874 L649 874 L649 692 L429 692 L429 0 L183 0 Z " />
<glyph glyph-name="uni0493" unicode="&#x493;" horiz-adv-x="830" d="M167 0 L167 448 L19 448 L19 598 L167 598 L167 1102 L801 1102 L801 893 L405 893 L405 598 L613 598 L613 448 L405 448 L405 0 L167 0 Z " />
<glyph glyph-name="uni0496" unicode="&#x496;" horiz-adv-x="1617" d="M690 0 L690 668 L652 668 Q570 668 528.5 618 Q487 568 435 407 L303 0 L26 0 L231 543 Q301 727 372 787 L27 1475 L272 1475 L576 866 L690 866 L690 1475 L922 1475 L922 866 L1036 866 L1340 1475 L1584 1475 L1239 787 Q1311 727 1380 543 L1507 209 L1589 209 L1589 -360 L1405 -360 L1366 0 L1309 0 L1177 407 Q1125 565 1085 616 Q1043 668 959 668 L922 668 L922 0 L690 0 Z " />
<glyph glyph-name="uni0497" unicode="&#x497;" horiz-adv-x="1393" d="M586 0 L586 475 L560 475 Q495 475 454.5 429.5 Q414 384 385 280 L309 0 L34 0 L214 444 Q256 547 322 585 L47 1102 L299 1102 L513 658 L586 658 L586 1102 L808 1102 L808 658 L881 658 L1096 1102 L1347 1102 L1072 585 Q1138 547 1180 444 L1276 209 L1405 209 L1405 -363 L1232 -363 L1191 0 L1085 0 L1009 280 Q981 384 940 429.5 Q899 475 834 475 L808 475 L808 0 L586 0 Z " />
<glyph glyph-name="uni0498" unicode="&#x498;" horiz-adv-x="1118" d="M671 -24 L646 -86 Q810 -104 810 -279 Q810 -396 735 -453 Q679 -496 579 -496 Q468 -496 356 -455 L402 -302 Q500 -336 567 -336 Q601 -336 615.5 -321.5 Q630 -307 630 -273 Q630 -243 615 -231 Q600 -219 564 -219 Q538 -219 486 -223 L459 -107 L496 -24 Q320 -6 224 71 Q150 130 118.5 215 Q87 300 84 449 L322 449 Q329 325 362 274 Q422 181 556 181 Q674 181 727 248 Q780 317 780 437 Q780 564 718 617.5 Q656 671 508 671 L348 671 L348 872 L482 872 Q608 872 666 919 Q736 974 736 1095 Q736 1192 686 1243.5 Q636 1295 543 1295 Q417 1295 372 1194 Q350 1147 345 1059 L107 1059 Q108 1251 183 1352 Q295 1504 559 1504 Q984 1504 984 1116 Q984 1014 951.5 932 Q919 850 861 808 Q1028 712 1028 435 Q1028 225 939.5 111 Q851 -3 671 -24 Z " />
<glyph glyph-name="uni0499" unicode="&#x499;" horiz-adv-x="906" d="M552 -25 L525 -91 Q589 -98 624 -121 Q697 -168 697 -291 Q697 -410 620 -469 Q562 -513 460 -513 Q345 -513 230 -471 L277 -316 Q378 -352 448 -352 Q516 -352 516 -284 Q516 -252 499.5 -238.5 Q483 -225 445 -225 Q421 -225 365 -230 L338 -113 L376 -28 Q175 -6 106 119 Q66 190 66 323 L280 323 Q284 254 307 219 Q346 161 444 161 Q516 161 551 201.5 Q586 242 586 326 Q586 408 554.5 438.5 Q523 469 439 469 L288 469 L288 646 L431 646 Q493 646 521.5 679.5 Q550 713 550 787 Q550 941 423 941 Q358 941 325 904 Q292 867 286 785 L72 785 Q77 933 131 1008 Q221 1134 448 1134 Q607 1134 693 1065 Q792 986 792 827 Q792 657 696 595 Q753 568 777 533 Q828 461 828 321 Q828 14 552 -25 Z " />
<glyph glyph-name="uni049A" unicode="&#x49a;" horiz-adv-x="1163" d="M162 0 L162 1475 L408 1475 L408 866 L591 866 L886 1475 L1138 1475 L794 787 Q865 728 935 543 L1061 209 L1168 209 L1168 -360 L984 -360 L946 0 L863 0 L731 407 Q680 564 639 615 Q598 667 514 667 L408 667 L408 0 L162 0 Z " />
<glyph glyph-name="uni049B" unicode="&#x49b;" horiz-adv-x="1026" d="M152 0 L152 1102 L390 1102 L390 658 L514 658 L728 1102 L980 1102 L705 585 Q771 547 813 444 L908 209 L1011 209 L1011 -363 L837 -363 L788 0 L717 0 L641 280 Q613 384 572.5 429.5 Q532 475 467 475 L390 475 L390 0 L152 0 Z " />
<glyph glyph-name="uni049C" unicode="&#x49c;" horiz-adv-x="1162" d="M162 0 L162 1475 L408 1475 L408 867 L465 867 L465 1092 L598 1092 L598 882 L886 1475 L1139 1475 L794 788 Q834 754 864.5 701 Q895 648 935 544 L1140 0 L863 0 L731 408 Q693 524 664 577 Q635 630 598 650 L598 410 L465 410 L465 668 L408 668 L408 0 L162 0 Z " />
<glyph glyph-name="uni049D" unicode="&#x49d;" horiz-adv-x="1026" d="M443 475 L390 475 L390 0 L152 0 L152 1102 L390 1102 L390 658 L443 658 L443 879 L531 879 L531 658 L542 658 L732 1102 L979 1102 L704 584 Q770 546 812 443 L992 0 L717 0 L641 280 Q601 428 531 461 L531 252 L443 252 L443 475 Z " />
<glyph glyph-name="uni04A2" unicode="&#x4a2;" horiz-adv-x="1301" d="M162 0 L162 1475 L408 1475 L408 879 L888 879 L888 1475 L1134 1475 L1134 209 L1249 209 L1249 -360 L1063 -360 L1025 0 L888 0 L888 670 L408 670 L408 0 L162 0 Z " />
<glyph glyph-name="uni04A3" unicode="&#x4a3;" horiz-adv-x="1106" d="M150 0 L150 1102 L388 1102 L388 674 L714 674 L714 1102 L952 1102 L952 209 L1059 209 L1059 -363 L884 -363 L836 0 L714 0 L714 467 L388 467 L388 0 L150 0 Z " />
<glyph glyph-name="uni04AA" unicode="&#x4aa;" horiz-adv-x="1120" d="M790 449 L1033 449 Q1038 33 679 -21 L653 -86 Q818 -104 818 -280 Q818 -396 743 -453 Q686 -496 587 -496 Q476 -496 363 -455 L410 -302 Q508 -336 575 -336 Q609 -336 623.5 -321.5 Q638 -307 638 -273 Q638 -243 623 -231 Q608 -219 572 -219 Q546 -219 493 -223 L466 -107 L504 -23 Q361 -2 274 78 Q202 143 169 231 Q95 427 95 736 Q95 1183 230 1351 Q352 1502 580 1502 Q860 1502 965 1302 Q1018 1202 1020 1026 L781 1026 Q775 1135 746 1189 Q695 1285 585 1285 Q462 1285 408 1161 Q347 1022 347 738 Q347 426 420 290 Q474 189 591 189 Q777 189 790 449 Z " />
<glyph glyph-name="uni04AB" unicode="&#x4ab;" horiz-adv-x="930" d="M561 -30 L537 -91 Q600 -98 635 -121 Q708 -169 708 -291 Q708 -410 630 -469 Q573 -513 471 -513 Q355 -513 241 -471 L288 -316 Q390 -352 458 -352 Q494 -352 510 -336 Q526 -320 526 -284 Q526 -252 510 -238.5 Q494 -225 456 -225 Q430 -225 376 -230 L349 -113 L392 -17 Q299 6 238 58 Q85 189 85 551 Q85 1134 501 1134 Q738 1134 828 951 Q870 866 872 724 L642 724 Q629 927 502 927 Q455 927 415.5 898.5 Q376 870 359 822 Q327 734 327 546 Q327 333 368.5 254 Q410 175 520 175 Q593 175 645 198 Q697 221 760 280 L889 101 Q808 36 735 6.5 Q662 -23 561 -30 Z " />
<glyph glyph-name="uni04AE" unicode="&#x4ae;" horiz-adv-x="1037" d="M395 0 L395 565 L-29 1475 L239 1475 L518 800 L797 1475 L1065 1475 L641 565 L641 0 L395 0 Z " />
<glyph glyph-name="uni04AF" unicode="&#x4af;" horiz-adv-x="866" d="M314 -5 L8 1102 L261 1102 L433 277 L604 1102 L858 1102 L551 -5 L551 -439 L314 -439 L314 -5 Z " />
<glyph glyph-name="uni04B0" unicode="&#x4b0;" horiz-adv-x="1013" d="M385 0 L385 488 L188 488 L188 674 L332 674 L-29 1475 L239 1475 L508 801 L775 1475 L1042 1475 L683 674 L826 674 L826 488 L631 488 L631 0 L385 0 Z " />
<glyph glyph-name="uni04B1" unicode="&#x4b1;" horiz-adv-x="864" d="M264 147 L8 1102 L261 1102 L432 279 L603 1102 L856 1102 L599 147 L762 147 L762 0 L551 0 L551 -439 L313 -439 L313 0 L102 0 L102 147 L264 147 Z " />
<glyph glyph-name="uni04B2" unicode="&#x4b2;" horiz-adv-x="1072" d="M398 768 L29 1475 L295 1475 L565 965 L766 1475 L1043 1475 L673 750 L955 209 L1072 209 L1072 -360 L888 -360 L850 0 L798 0 L505 554 L276 0 L0 0 L398 768 Z " />
<glyph glyph-name="uni04B3" unicode="&#x4b3;" horiz-adv-x="873" d="M295 580 L3 1098 L258 1098 L461 741 L614 1098 L858 1098 L558 569 L761 209 L879 209 L879 -363 L705 -363 L657 0 L623 0 L396 401 L235 0 L-10 0 L295 580 Z " />
<glyph glyph-name="uni04B6" unicode="&#x4b6;" horiz-adv-x="1220" d="M808 0 L808 611 Q690 559 617 541.5 Q544 524 444 524 Q329 524 262 570 Q188 620 155 709 Q122 798 122 944 L122 1475 L368 1475 L368 980 Q368 858 390 810 Q421 741 526 741 Q660 741 808 838 L808 1475 L1054 1475 L1054 209 L1169 209 L1169 -360 L985 -360 L947 0 L808 0 Z " />
<glyph glyph-name="uni04B7" unicode="&#x4b7;" horiz-adv-x="1032" d="M640 0 L640 429 Q519 356 397 356 Q187 356 122 527 Q92 607 92 816 L92 1102 L330 1102 L330 772 Q330 653 358 608 Q386 563 461 563 Q557 563 640 642 L640 1102 L878 1102 L878 209 L984 209 L984 -363 L810 -363 L762 0 L640 0 Z " />
<glyph glyph-name="uni04B8" unicode="&#x4b8;" horiz-adv-x="1216" d="M656 762 Q734 789 808 838 L808 1475 L1054 1475 L1054 0 L808 0 L808 611 Q696 563 656 552 L656 311 L523 311 L523 528 Q480 524 443 524 Q252 524 172 671 Q122 764 122 944 L122 1475 L368 1475 L368 980 Q368 833 405 785 Q437 743 523 742 L523 1004 L656 1004 L656 762 Z " />
<glyph glyph-name="uni04B9" unicode="&#x4b9;" horiz-adv-x="1028" d="M640 0 L640 429 Q584 395 542 380 L542 165 L432 165 L432 357 Q404 356 388 356 Q293 356 222.5 401 Q152 446 122 527 Q92 608 92 816 L92 1102 L330 1102 L330 772 Q330 663 352 619 Q374 575 432 565 L432 755 L542 755 L542 577 Q589 594 640 642 L640 1102 L878 1102 L878 0 L640 0 Z " />
<glyph glyph-name="uni04BA" unicode="&#x4ba;" horiz-adv-x="1170" d="M162 0 L162 1475 L408 1475 L408 883 Q421 892 428 896 Q515 957 581.5 979.5 Q648 1002 739 1002 Q931 1002 1002 876 Q1051 788 1051 567 L1051 0 L805 0 L805 567 Q805 684 772 734.5 Q739 785 662 785 Q547 785 408 638 L408 0 L162 0 Z " />
<glyph glyph-name="uni04BB" unicode="&#x4bb;" horiz-adv-x="1099" d="M150 0 L150 1578 L388 1578 L388 1006 Q493 1087 545 1110.5 Q597 1134 673 1134 Q826 1134 890.5 1040 Q955 946 955 725 L955 0 L718 0 L718 708 Q718 808 702 851 Q678 917 605 917 Q554 917 508.5 888.5 Q463 860 388 782 L388 0 L150 0 Z " />
<glyph glyph-name="uni04C0" unicode="&#x4c0;" horiz-adv-x="569" d="M162 0 L162 1475 L408 1475 L408 0 L162 0 Z " />
<glyph glyph-name="uni04C1" unicode="&#x4c1;" horiz-adv-x="1619" d="M690 0 L690 667 L652 667 Q570 667 528.5 617.5 Q487 568 435 407 L303 0 L26 0 L231 543 Q301 727 372 787 L27 1475 L272 1475 L576 866 L690 866 L690 1475 L922 1475 L922 866 L1036 866 L1340 1475 L1584 1475 L1239 787 Q1311 727 1380 543 L1586 0 L1309 0 L1177 407 Q1125 565 1085 616 Q1043 667 959 667 L922 667 L922 0 L690 0 Z M524 1913 L674 1913 Q680 1829 709 1793.5 Q738 1758 799 1758 Q862 1758 892.5 1793.5 Q923 1829 930 1913 L1080 1913 Q1072 1773 1032 1708 Q968 1606 803 1606 Q659 1606 594.5 1677 Q530 1748 524 1913 Z " />
<glyph glyph-name="uni04C2" unicode="&#x4c2;" horiz-adv-x="1394" d="M586 0 L586 475 L560 475 Q495 475 454.5 429.5 Q414 384 385 280 L309 0 L34 0 L214 444 Q256 546 322 585 L47 1102 L299 1102 L513 658 L586 658 L586 1102 L808 1102 L808 658 L881 658 L1096 1102 L1347 1102 L1072 585 Q1139 546 1180 444 L1361 0 L1085 0 L1009 280 Q981 384 940 429.5 Q899 475 834 475 L808 475 L808 0 L586 0 Z M412 1575 L562 1575 Q569 1491 597.5 1455.5 Q626 1420 687 1420 Q750 1420 780.5 1455.5 Q811 1491 818 1575 L968 1575 Q960 1435 920 1370 Q856 1268 691 1268 Q547 1268 482.5 1339 Q418 1410 412 1575 Z " />
<glyph glyph-name="uni04CF" unicode="&#x4cf;" horiz-adv-x="569" d="M162 0 L162 1475 L408 1475 L408 0 L162 0 Z " />
<glyph glyph-name="uni04D4" unicode="&#x4d4;" horiz-adv-x="1709" d="M787 452 L364 452 L144 0 L-122 0 L639 1475 L1609 1475 L1609 1266 L1033 1266 L1033 874 L1496 874 L1496 665 L1033 665 L1033 209 L1624 209 L1624 0 L787 0 L787 452 Z M787 653 L787 1306 L481 653 L787 653 Z " />
<glyph glyph-name="uni04D5" unicode="&#x4d5;" horiz-adv-x="1569" d="M630 661 L630 725 Q630 836 611 877 Q583 939 483 939 Q423 939 397 909 Q371 879 357 795 L139 795 Q153 929 200 1006 Q278 1132 484 1132 Q596 1132 657.5 1104.5 Q719 1077 765 1008 Q866 1134 1066 1134 Q1483 1134 1483 559 Q1483 537 1482 478 L870 478 Q875 371 892 313 Q912 241 953 210 Q1000 175 1095 175 Q1171 175 1224.5 198 Q1278 221 1342 281 L1470 101 Q1419 61 1385 42 Q1258 -32 1087 -32 Q844 -32 740 134 Q581 -32 391 -32 Q249 -32 166 48 Q73 138 73 316 Q73 517 173 610 Q241 673 417 673 Q513 673 630 661 Z M636 481 Q550 492 437 492 Q365 492 342 454 Q315 409 315 327 Q315 249 348 204 Q374 169 438 169 Q554 169 606 256 Q636 306 636 395 L636 481 Z M1251 653 Q1245 761 1228 811 Q1206 877 1167 905 Q1128 933 1057 933 Q991 933 953 903.5 Q915 874 895 807 Q879 755 872 653 L1251 653 Z " />
<glyph glyph-name="uni04D8" unicode="&#x4d8;" horiz-adv-x="1247" d="M95 862 L895 862 Q887 1004 857 1095 Q825 1196 769 1241.5 Q713 1287 620 1287 Q538 1287 486.5 1249 Q435 1211 400 1126 L167 1226 Q287 1504 625 1504 Q848 1504 979 1377 Q1151 1210 1151 736 Q1151 423 1073 235 Q1016 99 889 33 Q773 -29 623 -29 Q367 -29 239 132 Q128 272 105 568 Q95 696 95 862 Z M350 661 Q357 491 383 401 Q414 289 471 238.5 Q528 188 623 188 Q724 188 782.5 245 Q841 302 871 429 Q892 519 898 661 L350 661 Z " />
<glyph glyph-name="afii10846" unicode="&#x4d9;" horiz-adv-x="1027" d="M85 646 L698 646 Q689 800 648.5 861.5 Q608 923 513 923 Q450 923 414 897.5 Q378 872 355 812 L145 913 Q255 1130 516 1130 Q656 1130 756 1065 Q942 943 942 548 Q942 263 844 119 Q786 34 682 -4 Q603 -32 516 -32 Q298 -32 190 111 Q133 187 110 303.5 Q87 420 85 646 Z M330 479 Q336 357 346 315 Q365 241 405 208 Q445 175 517 175 Q612 175 652.5 243 Q693 311 699 479 L330 479 Z " />
<glyph glyph-name="uni04E2" unicode="&#x4e2;" horiz-adv-x="1295" d="M162 0 L162 1475 L394 1475 L394 458 L916 1475 L1133 1475 L1133 0 L901 0 L901 1000 L379 0 L162 0 Z M400 1677 L400 1849 L879 1849 L879 1677 L400 1677 Z " />
<glyph glyph-name="uni04E3" unicode="&#x4e3;" horiz-adv-x="1090" d="M150 0 L150 1102 L373 1102 L373 366 L709 1102 L940 1102 L940 0 L717 0 L717 736 L381 0 L150 0 Z M298 1333 L298 1505 L777 1505 L777 1333 L298 1333 Z " />
<glyph glyph-name="uni04E8" unicode="&#x4e8;" horiz-adv-x="1247" d="M633 1504 Q846 1504 979 1376 Q1151 1210 1151 736 Q1151 423 1073 235 Q1016 100 889 33 Q772 -29 623 -29 Q398 -29 266 98 Q95 263 95 732 Q95 1055 173 1239 Q231 1375 357 1442 Q473 1504 633 1504 Z M351 862 L895 862 Q886 1001 858 1090 Q827 1193 771 1240 Q715 1287 623 1287 Q527 1287 470 1235.5 Q413 1184 382 1069 Q357 976 351 862 Z M898 661 L348 661 Q355 501 383 401 Q416 280 479 232 Q536 188 623 188 Q726 188 785 247.5 Q844 307 873 442 Q893 534 898 661 Z " />
<glyph glyph-name="uni04E9" unicode="&#x4e9;" horiz-adv-x="1027" d="M520 1130 Q655 1130 755 1064 Q942 942 942 548 Q942 263 844 119 Q741 -32 513 -32 Q286 -32 183 119 Q85 263 85 544 Q85 836 183 978 Q287 1130 520 1130 Z M329 646 L697 646 Q691 761 667 825 Q630 923 513 923 Q419 923 379 863 Q339 803 329 646 Z M328 479 Q334 342 360 272 Q395 175 513 175 Q611 175 651 241 Q691 307 698 479 L328 479 Z " />
<glyph glyph-name="uni04EE" unicode="&#x4ee;" horiz-adv-x="984" d="M384 464 L-19 1475 L248 1475 L504 732 L757 1475 L1015 1475 L462 0 L203 0 L384 464 Z M244 1677 L244 1849 L723 1849 L723 1677 L244 1677 Z " />
<glyph glyph-name="uni04EF" unicode="&#x4ef;" horiz-adv-x="882" d="M331 -3 L8 1102 L262 1102 L441 309 L620 1102 L875 1102 L587 51 Q502 -259 406 -356 Q361 -402 299 -420.5 Q237 -439 122 -440 L122 -234 Q196 -234 228 -210 Q276 -179 319 -44 L331 -3 Z M194 1333 L194 1505 L673 1505 L673 1333 L194 1333 Z " />
<glyph glyph-name="uni1E1E" unicode="&#x1e1e;" horiz-adv-x="1028" d="M162 0 L162 1475 L987 1475 L987 1266 L408 1266 L408 854 L873 854 L873 645 L408 645 L408 0 L162 0 Z M599 1896 Q659 1896 702.5 1852 Q746 1808 746 1746 Q746 1679 697 1634 Q654 1595 597 1595 Q534 1595 489.5 1639.5 Q445 1684 445 1747 Q445 1809 490 1852.5 Q535 1896 599 1896 Z " />
<glyph glyph-name="Wdieresis" unicode="&#x1e84;" horiz-adv-x="1667" d="M382 -31 L81 1475 L335 1475 L502 443 L767 1479 L901 1479 L1166 443 L1333 1475 L1587 1475 L1286 -31 L1092 -31 L834 995 L575 -31 L382 -31 Z M648 1884 Q704 1884 743.5 1843.5 Q783 1803 783 1746 Q783 1689 743 1648.5 Q703 1608 646 1608 Q589 1608 548 1649 Q507 1690 507 1747 Q507 1804 548 1844 Q589 1884 648 1884 Z M1025 1884 Q1081 1884 1120.5 1843.5 Q1160 1803 1160 1746 Q1160 1689 1120 1648.5 Q1080 1608 1023 1608 Q966 1608 925 1649 Q884 1690 884 1747 Q884 1804 925 1844 Q966 1884 1025 1884 Z " />
<glyph glyph-name="wdieresis" unicode="&#x1e85;" horiz-adv-x="1367" d="M276 -22 L31 1102 L270 1102 L409 349 L611 1102 L756 1102 L958 349 L1097 1102 L1336 1102 L1091 -22 L881 -22 L684 720 L486 -22 L276 -22 Z M512 1511 Q568 1511 607.5 1470.5 Q647 1430 647 1373 Q647 1316 607 1275.5 Q567 1235 510 1235 Q453 1235 412 1276 Q371 1317 371 1374 Q371 1431 412 1471 Q453 1511 512 1511 Z M860 1511 Q916 1511 955.5 1470.5 Q995 1430 995 1373 Q995 1316 955 1275.5 Q915 1235 858 1235 Q801 1235 760 1276 Q719 1317 719 1374 Q719 1431 760 1471 Q801 1511 860 1511 Z " />
<glyph glyph-name="uni2007" unicode="&#x2007;" horiz-adv-x="1061" d="" />
<glyph glyph-name="uni2011" unicode="&#x2011;" horiz-adv-x="697" d="M116 510 L116 719 L580 719 L580 510 L116 510 Z " />
<glyph glyph-name="figuredash" unicode="&#x2012;" horiz-adv-x="835" d="M63 510 L63 719 L774 719 L774 510 L63 510 Z " />
<glyph glyph-name="afii00208" unicode="&#x2015;" horiz-adv-x="1061" d="M-63 510 L-63 719 L1125 719 L1125 510 L-63 510 Z " />
<glyph glyph-name="zerosuperior" unicode="&#x2070;" horiz-adv-x="696" d="M353 1696 Q503 1696 576 1586 Q649 1476 649 1250 Q649 1053 593 941 Q523 803 348 803 Q161 803 93 964 Q47 1073 47 1250 Q47 1447 103 1558 Q173 1696 353 1696 Z M346 1530 Q278 1530 255 1431 Q239 1360 239 1249 Q239 1102 265 1035.5 Q291 969 348 969 Q386 969 407 991.5 Q428 1014 441 1068 Q457 1138 457 1250 Q457 1374 437 1445 Q414 1530 346 1530 Z " />
<glyph glyph-name="foursuperior" unicode="&#x2074;" horiz-adv-x="693" d="M391 819 L391 987 L49 987 L49 1125 L258 1679 L464 1679 L255 1149 L391 1149 L391 1434 L575 1434 L575 1149 L674 1149 L674 987 L575 987 L575 819 L391 819 Z " />
<glyph glyph-name="fivesuperior" unicode="&#x2075;" horiz-adv-x="701" d="M73 1228 L106 1679 L598 1679 L598 1519 L274 1519 L263 1361 Q333 1382 387 1382 Q516 1382 576 1321 Q643 1252 643 1108 Q643 959 564 880.5 Q485 802 334 802 Q179 802 106 871 Q33 940 32 1087 L213 1087 Q220 1021 246 994.5 Q272 968 331 968 Q451 968 451 1100 Q451 1233 336 1233 Q269 1233 196 1167 L73 1228 Z " />
<glyph glyph-name="sixsuperior" unicode="&#x2076;" horiz-adv-x="697" d="M246 1317 Q284 1351 315 1362.5 Q346 1374 400 1374 Q515 1374 571 1306 Q634 1230 634 1101 Q634 974 570 896 Q501 813 359 813 Q212 813 144.5 907 Q77 1001 77 1207 Q77 1457 148.5 1572.5 Q220 1688 374 1688 Q493 1688 548.5 1632 Q604 1576 617 1444 L454 1444 Q448 1549 369 1549 Q307 1549 282.5 1502.5 Q258 1456 246 1317 Z M353 1235 Q249 1235 249 1093 Q249 1019 274.5 985.5 Q300 952 356 952 Q462 952 462 1093 Q462 1167 436 1201 Q410 1235 353 1235 Z " />
<glyph glyph-name="sevensuperior" unicode="&#x2077;" horiz-adv-x="549" d="M343 1519 L-14 1519 L-14 1679 L525 1679 L525 1545 L246 819 L32 819 L343 1519 Z " />
<glyph glyph-name="eightsuperior" unicode="&#x2078;" horiz-adv-x="697" d="M159 1278 Q73 1329 73 1455 Q73 1568 146 1632 Q219 1696 349 1696 Q490 1696 561 1621 Q624 1556 624 1456 Q624 1389 603.5 1347 Q583 1305 538 1278 Q656 1216 656 1068 Q656 943 575 873 Q494 803 349 803 Q191 803 112 883 Q41 955 41 1068 Q41 1216 159 1278 Z M347 1546 Q245 1546 245 1442 Q245 1339 348 1339 Q452 1339 452 1443 Q452 1546 347 1546 Z M347 1200 Q223 1200 223 1081 Q223 963 348 963 Q474 963 474 1081 Q474 1143 443.5 1171.5 Q413 1200 347 1200 Z " />
<glyph glyph-name="ninesuperior" unicode="&#x2079;" horiz-adv-x="704" d="M451 1189 Q407 1154 379.5 1143 Q352 1132 305 1132 Q75 1132 75 1391 Q75 1528 137 1604 Q205 1687 343 1687 Q496 1687 567 1573 Q619 1489 619 1291 Q619 1063 563 944 Q501 813 323 813 Q204 813 147 871 Q90 929 79 1063 L242 1063 Q256 992 271.5 972 Q287 952 328 952 Q402 952 428 1035 Q440 1075 451 1189 Z M345 1537 Q247 1537 247 1404 Q247 1335 270.5 1303 Q294 1271 344 1271 Q447 1271 447 1403 Q447 1537 345 1537 Z " />
<glyph glyph-name="zeroinferior" unicode="&#x2080;" horiz-adv-x="696" d="M353 672 Q503 672 576 562 Q649 452 649 226 Q649 29 593 -83 Q523 -221 348 -221 Q161 -221 93 -60 Q47 49 47 226 Q47 423 103 534 Q173 672 353 672 Z M346 506 Q278 506 255 407 Q239 336 239 225 Q239 78 265 11.5 Q291 -55 348 -55 Q386 -55 407 -32.5 Q428 -10 441 44 Q457 114 457 226 Q457 350 437 421 Q414 506 346 506 Z " />
<glyph glyph-name="oneinferior" unicode="&#x2081;" horiz-adv-x="511" d="M159 -205 L159 465 L-19 393 L-19 558 L219 655 L351 655 L351 -205 L159 -205 Z " />
<glyph glyph-name="twoinferior" unicode="&#x2082;" horiz-adv-x="698" d="M30 -205 Q36 -106 60 -47 Q99 46 269 205 Q365 294 391.5 331 Q418 368 418 410 Q418 505 327 505 Q271 505 246 471 Q221 437 212 352 L30 352 Q43 498 92 566 Q167 671 333 671 Q467 671 538.5 605 Q610 539 610 416 Q610 319 558 235 Q539 204 524 187 Q509 170 440 101 Q357 19 345.5 6 Q334 -7 306 -45 L625 -45 L625 -205 L30 -205 Z " />
<glyph glyph-name="threeinferior" unicode="&#x2083;" horiz-adv-x="699" d="M223 167 L223 313 Q308 313 342 319 Q413 332 413 415 Q413 462 392.5 483 Q372 504 327 504 Q282 504 261.5 484.5 Q241 465 230 412 L52 412 Q68 534 113 589 Q178 670 340 670 Q605 670 605 430 Q605 309 527 256 Q639 199 639 48 Q639 -84 562 -153 Q485 -222 338 -222 Q152 -222 82 -123 Q45 -72 35 63 L216 63 Q226 -7 251.5 -31.5 Q277 -56 340 -56 Q447 -56 447 50 Q447 139 385 155 Q365 161 275 165 L223 167 Z " />
<glyph glyph-name="fourinferior" unicode="&#x2084;" horiz-adv-x="693" d="M391 -205 L391 -37 L49 -37 L49 101 L258 655 L464 655 L255 125 L391 125 L391 410 L575 410 L575 125 L674 125 L674 -37 L575 -37 L575 -205 L391 -205 Z " />
<glyph glyph-name="fiveinferior" unicode="&#x2085;" horiz-adv-x="701" d="M73 204 L106 655 L598 655 L598 495 L274 495 L263 337 Q333 358 387 358 Q516 358 576 297 Q643 228 643 84 Q643 -65 564 -143.5 Q485 -222 334 -222 Q179 -222 106 -153 Q33 -84 32 63 L213 63 Q220 -3 246 -29.5 Q272 -56 331 -56 Q451 -56 451 76 Q451 209 336 209 Q269 209 196 143 L73 204 Z " />
<glyph glyph-name="sixinferior" unicode="&#x2086;" horiz-adv-x="697" d="M246 293 Q284 327 315 338.5 Q346 350 400 350 Q515 350 571 282 Q634 206 634 77 Q634 -50 570 -128 Q501 -211 359 -211 Q212 -211 144.5 -117 Q77 -23 77 183 Q77 433 148.5 548.5 Q220 664 374 664 Q493 664 548.5 608 Q604 552 617 420 L454 420 Q448 525 369 525 Q307 525 282.5 478.5 Q258 432 246 293 Z M353 211 Q249 211 249 69 Q249 -5 274.5 -38.5 Q300 -72 356 -72 Q462 -72 462 69 Q462 143 436 177 Q410 211 353 211 Z " />
<glyph glyph-name="seveninferior" unicode="&#x2087;" horiz-adv-x="549" d="M343 495 L-14 495 L-14 655 L525 655 L525 521 L246 -205 L32 -205 L343 495 Z " />
<glyph glyph-name="eightinferior" unicode="&#x2088;" horiz-adv-x="697" d="M159 254 Q73 305 73 431 Q73 544 146 608 Q219 672 349 672 Q490 672 561 597 Q624 532 624 432 Q624 365 603.5 323 Q583 281 538 254 Q656 192 656 44 Q656 -81 575 -151 Q494 -221 349 -221 Q191 -221 112 -141 Q41 -69 41 44 Q41 192 159 254 Z M347 522 Q245 522 245 418 Q245 315 348 315 Q452 315 452 419 Q452 522 347 522 Z M347 176 Q223 176 223 57 Q223 -61 348 -61 Q474 -61 474 57 Q474 119 443.5 147.5 Q413 176 347 176 Z " />
<glyph glyph-name="nineinferior" unicode="&#x2089;" horiz-adv-x="704" d="M451 166 Q408 131 380 120 Q352 109 304 109 Q75 109 75 368 Q75 504 137 581 Q205 664 343 664 Q496 664 567 550 Q619 466 619 268 Q619 39 563 -80 Q501 -211 323 -211 Q204 -211 147 -153 Q90 -95 79 39 L242 39 Q256 -32 271.5 -52 Q287 -72 328 -72 Q402 -72 428 11 Q440 51 451 166 Z M344 514 Q247 514 247 381 Q247 312 270.5 280 Q294 248 344 248 Q447 248 447 380 Q447 450 422.5 482 Q398 514 344 514 Z " />
<glyph glyph-name="afii61289" unicode="&#x2113;" horiz-adv-x="983" d="M465 592 Q440 460 420 318 Q400 176 400 133 Q400 79 438 79 Q471 79 505 122.5 Q539 166 559 234 L629 203 Q544 -40 395 -40 Q321 -40 278.5 13 Q236 66 236 158 Q236 230 255 433 L133 325 L96 386 Q105 392 148 437 Q223 514 272 570 Q351 992 450 1240 Q559 1510 715 1510 Q781 1510 822 1460 Q863 1410 863 1328 Q863 1132 720 903 Q643 778 465 592 Z M485 718 Q587 830 646 931 Q701 1024 737 1136.5 Q773 1249 773 1326 Q773 1362 757.5 1385 Q742 1408 717 1408 Q657 1408 618 1306 Q558 1147 485 718 Z " />
<glyph glyph-name="afii61352" unicode="&#x2116;" horiz-adv-x="2106" d="M162 0 L162 1475 L410 1475 L889 520 L889 1475 L1121 1475 L1121 -18 L926 -18 L394 1049 L394 0 L162 0 Z M1613 1261 Q1970 1261 1970 793 Q1970 562 1886 446 Q1799 325 1608 325 Q1416 325 1329 446 Q1245 562 1245 791 Q1245 1025 1329 1140 Q1417 1261 1613 1261 Z M1605 1068 Q1534 1068 1506.5 1007 Q1479 946 1479 790 Q1479 637 1507 577.5 Q1535 518 1607 518 Q1679 518 1707.5 577 Q1736 636 1736 786 Q1736 948 1708 1008 Q1680 1068 1605 1068 Z M1269 0 L1269 201 L1946 201 L1946 0 L1269 0 Z " />
</font>
</svg>
