<?xml version="1.0" encoding="UTF-8"?>
<svg xmlns="http://www.w3.org/2000/svg" xmlns:xlink="http://www.w3.org/1999/xlink" version="1.2" >
<font id="A1 Sans Condensed Light">
<font-face  font-family="A1 Sans Condensed" units-per-em="2048" ascent="1536" descent="-512" font-style="normal" font-weight="300" font-stretch="normal" cap-height="1475" x-height="1061" underline-position="-375" underline-thickness="94" />
<missing-glyph  horiz-adv-x="410" d="M41 0 L41 1475 L369 1475 L369 0 L41 0 Z M328 41 L328 1434 L82 1434 L82 41 L328 41 Z " />
<glyph glyph-name="space" unicode="&#x20;" horiz-adv-x="410" d="" />
<glyph glyph-name="exclam" unicode="&#x21;" horiz-adv-x="595" d="M249 336 L234 1475 L361 1475 L346 336 L249 336 Z M300 161 Q339 161 367 133 Q395 105 395 66 Q395 27 366.5 -1 Q338 -29 298 -29 Q257 -29 229 -1 Q201 27 201 67 Q201 106 230 133.5 Q259 161 300 161 Z " />
<glyph glyph-name="quotedbl" unicode="&#x22;" horiz-adv-x="554" d="M113 920 L113 1475 L195 1475 L195 920 L113 920 Z M358 920 L358 1475 L440 1475 L440 920 L358 920 Z " />
<glyph glyph-name="numbersign" unicode="&#x23;" horiz-adv-x="1061" d="M282 492 L115 492 L128 586 L294 586 L324 862 L158 862 L170 956 L337 956 L393 1454 L496 1454 L440 956 L675 956 L730 1454 L834 1454 L778 956 L944 956 L932 862 L765 862 L735 586 L901 586 L889 492 L722 492 L667 0 L564 0 L619 492 L385 492 L330 0 L227 0 L282 492 Z M397 586 L632 586 L662 862 L428 862 L397 586 Z " />
<glyph glyph-name="dollar" unicode="&#x24;" horiz-adv-x="1061" d="M99 412 L205 412 Q209 242 290 167 Q365 96 491 89 L491 729 Q336 778 274 820 Q134 914 134 1110 Q134 1281 228 1379.5 Q322 1478 491 1484 L491 1638 L574 1638 L574 1481 Q737 1462 811 1362.5 Q885 1263 887 1063 L783 1063 Q782 1348 574 1382 L574 819 Q746 770 816 718 Q964 609 964 405 Q964 216 862.5 108.5 Q761 1 574 -9 L574 -160 L491 -160 L491 -9 Q314 1 214 86 Q101 183 99 412 Z M574 705 L574 90 Q684 102 742 148 Q848 234 848 394 Q848 558 729 639 Q690 667 574 705 Z M491 843 L491 1386 Q395 1380 337 1328 Q250 1249 250 1115 Q250 1006 303.5 946 Q357 886 491 843 Z " />
<glyph glyph-name="percent" unicode="&#x25;" horiz-adv-x="1358" d="M355 1506 Q489 1506 560 1404 Q631 1302 631 1134 Q631 967 560 864 Q490 762 351 762 Q211 762 141 864 Q70 967 70 1132 Q70 1312 144 1409 Q218 1506 355 1506 Z M347 1418 Q254 1418 209 1330 Q171 1256 171 1134 Q171 994 216.5 922 Q262 850 351 850 Q447 850 492 938 Q530 1012 530 1132 Q530 1418 347 1418 Z M1009 715 Q1144 715 1215 613 Q1286 510 1286 343 Q1286 176 1215 73 Q1144 -29 1005 -29 Q864 -29 794 73 Q723 177 723 341 Q723 521 797.5 618 Q872 715 1009 715 Z M1001 627 Q907 627 862 539 Q824 465 824 343 Q824 203 870 131 Q916 59 1004 59 Q1102 59 1147 147 Q1185 222 1185 341 Q1185 627 1001 627 Z M290 0 L960 1475 L1065 1475 L395 0 L290 0 Z " />
<glyph glyph-name="ampersand" unicode="&#x26;" horiz-adv-x="1195" d="M431 869 Q414 896 347 992 Q269 1105 269 1223 Q269 1346 344 1424 Q422 1506 553 1506 Q687 1506 763 1424 Q837 1343 837 1223 Q837 1094 719 979 L572 852 L872 382 Q938 583 985 821 L1088 821 Q1011 460 939 297 L1136 0 L1005 0 L881 205 Q820 109 795 82 Q692 -31 521 -31 Q364 -31 262 63 Q203 116 169.5 204.5 Q136 293 136 396 Q136 500 169 575 Q202 650 285 735 Q354 807 431 869 Z M512 925 Q593 995 635 1034 Q688 1084 708 1123.5 Q728 1163 728 1217 Q728 1308 682.5 1358 Q637 1408 554 1408 Q471 1408 424.5 1358.5 Q378 1309 378 1222 Q378 1143 446 1029 L512 925 Z M491 796 Q406 722 344 651 Q251 546 251 399 Q251 237 333 150 Q410 67 533 67 Q600 67 657.5 95.5 Q715 124 750 174 Q769 203 817 287 L491 796 Z " />
<glyph glyph-name="quotesingle" unicode="&#x27;" horiz-adv-x="309" d="M113 920 L113 1475 L195 1475 L195 920 L113 920 Z " />
<glyph glyph-name="parenleft" unicode="&#x28;" horiz-adv-x="758" d="M630 -356 L530 -356 Q417 -153 346 38 Q252 289 252 615 Q252 873 314.5 1088.5 Q377 1304 530 1573 L630 1573 Q513 1368 454 1189 Q367 924 367 615 Q367 346 428 121 Q489 -104 630 -356 Z " />
<glyph glyph-name="parenright" unicode="&#x29;" horiz-adv-x="758" d="M128 1573 L227 1573 Q339 1374 411 1179 Q505 928 505 602 Q505 345 442 128 Q379 -89 227 -356 L128 -356 Q245 -149 303 28 Q390 291 390 602 Q390 871 329.5 1095 Q269 1319 128 1573 Z " />
<glyph glyph-name="asterisk" unicode="&#x2a;" horiz-adv-x="1006" d="M190 1227 L223 1319 L461 1211 L455 1507 L551 1507 L544 1211 L783 1319 L816 1227 L569 1136 L743 904 L663 846 L503 1090 L342 846 L262 904 L436 1136 L190 1227 Z " />
<glyph glyph-name="plus" unicode="&#x2b;" horiz-adv-x="1061" d="M145 690 L145 784 L483 784 L483 1145 L582 1145 L582 784 L915 784 L915 690 L582 690 L582 330 L483 330 L483 690 L145 690 Z " />
<glyph glyph-name="comma" unicode="&#x2c;" horiz-adv-x="596" d="M190 -258 L283 162 L425 162 L286 -258 L190 -258 Z " />
<glyph glyph-name="hyphen" unicode="&#x2d;" horiz-adv-x="659" d="M113 568 L113 662 L546 662 L546 568 L113 568 Z " />
<glyph glyph-name="period" unicode="&#x2e;" horiz-adv-x="599" d="M302 161 Q341 161 369 133 Q397 105 397 66 Q397 27 368.5 -1 Q340 -29 300 -29 Q259 -29 231 -1 Q203 27 203 67 Q203 106 232 133.5 Q261 161 302 161 Z " />
<glyph glyph-name="slash" unicode="&#x2f;" horiz-adv-x="761" d="M49 -184 L575 1475 L672 1475 L146 -184 L49 -184 Z " />
<glyph glyph-name="zero" unicode="0" horiz-adv-x="1061" d="M537 1504 Q774 1504 869 1285 Q951 1097 951 738 Q951 339 851 153 Q754 -29 531 -29 Q392 -29 304 38 Q111 184 111 739 Q111 926 137.5 1081 Q164 1236 211 1323 Q268 1429 360 1471 Q433 1504 537 1504 Z M527 1406 Q442 1406 387 1366 Q332 1326 296 1238 Q226 1067 226 737 Q226 377 308 210 Q344 135 396.5 102 Q449 69 531 69 Q619 69 674.5 108.5 Q730 148 766 237 Q836 408 836 739 Q836 906 814 1047 Q792 1188 755 1265 Q718 1340 665 1373 Q612 1406 527 1406 Z " />
<glyph glyph-name="one" unicode="1" horiz-adv-x="1061" d="M443 0 L443 1362 L143 1222 L143 1322 L478 1475 L554 1475 L554 0 L443 0 Z " />
<glyph glyph-name="two" unicode="2" horiz-adv-x="1061" d="M100 0 Q117 163 193 282 Q238 354 298 419.5 Q358 485 560 687 Q683 809 729 909 Q771 1001 771 1100 Q771 1242 702 1324 Q633 1406 513 1406 Q378 1406 305 1321 Q232 1236 210 1053 L107 1053 Q129 1255 198 1350 Q307 1504 520 1504 Q701 1504 794 1396 Q886 1289 886 1106 Q886 925 783 785 Q716 694 521 500 Q363 341 308 262.5 Q253 184 240 94 L918 94 L918 0 L100 0 Z " />
<glyph glyph-name="three" unicode="3" horiz-adv-x="1061" d="M368 733 L368 828 Q443 826 481 826 Q623 826 674 874 Q712 910 734.5 979.5 Q757 1049 757 1131 Q757 1406 516 1406 Q346 1406 274 1283 Q241 1229 226 1141 L122 1141 Q172 1504 519 1504 Q872 1504 872 1133 Q872 993 829.5 910 Q787 827 692 781 Q753 757 789 726.5 Q825 696 855 643 Q912 543 912 397 Q912 -29 505 -29 Q347 -29 256 31 Q177 83 137 165.5 Q97 248 87 379 L193 379 Q209 219 284.5 144 Q360 69 505 69 Q797 69 797 394 Q797 607 675 691 Q637 716 583 723.5 Q529 731 368 733 Z " />
<glyph glyph-name="four" unicode="4" horiz-adv-x="1061" d="M675 0 L675 334 L107 334 L107 404 L469 1475 L581 1475 L228 428 L675 428 L675 1049 L787 1049 L787 428 L980 428 L980 334 L787 334 L787 0 L675 0 Z " />
<glyph glyph-name="five" unicode="5" horiz-adv-x="1061" d="M187 710 L225 1475 L864 1475 L864 1381 L326 1381 L294 822 Q411 920 556 920 Q700 920 775 860 Q854 796 893 663 Q923 559 923 435 Q923 203 813 78 Q720 -29 534 -29 Q145 -29 119 379 L224 379 Q257 69 529 69 Q661 69 721 140 Q808 241 808 433 Q808 617 743 726 Q685 822 543 822 Q460 822 401 791 Q342 760 258 672 L187 710 Z " />
<glyph glyph-name="six" unicode="6" horiz-adv-x="1061" d="M255 770 Q362 918 549 918 Q745 918 843 779 Q937 645 937 446 Q937 217 812 78 Q715 -29 540 -29 Q333 -29 223 131 Q137 257 137 561 Q137 987 225 1236 Q320 1504 565 1504 Q765 1504 850 1346 Q894 1266 905 1139 L799 1139 Q766 1406 562 1406 Q460 1406 397.5 1334 Q335 1262 298 1100 Q270 979 261 852 Q257 793 255 770 Z M533 820 Q405 820 333 727 Q252 623 252 448 Q252 272 335 162 Q406 69 537 69 Q668 69 739 162 Q822 273 822 445 Q822 622 745.5 721 Q669 820 533 820 Z " />
<glyph glyph-name="seven" unicode="7" horiz-adv-x="1061" d="M793 1381 L160 1381 L160 1475 L907 1475 L907 1406 L444 0 L325 0 L793 1381 Z " />
<glyph glyph-name="eight" unicode="8" horiz-adv-x="1061" d="M331 781 Q147 876 147 1112 Q147 1301 257 1406 Q359 1504 529 1504 Q714 1504 817 1389 Q911 1286 911 1112 Q911 876 726 781 Q826 736 878 663 Q955 556 955 392 Q955 192 831 77 Q716 -29 528 -29 Q325 -29 209 93 Q102 206 102 392 Q102 678 331 781 Z M526 1406 Q401 1406 332 1330.5 Q263 1255 263 1118 Q263 983 334 904 Q402 828 529 828 Q665 828 735 917 Q795 994 795 1118 Q795 1257 725.5 1331.5 Q656 1406 526 1406 Z M525 730 Q383 730 299 641 Q217 554 217 405 Q217 239 309 150 Q392 69 529 69 Q679 69 761 164 Q840 254 840 404 Q840 566 745 654 Q663 730 525 730 Z " />
<glyph glyph-name="nine" unicode="9" horiz-adv-x="1061" d="M789 738 Q724 654 661.5 621 Q599 588 504 588 Q349 588 260 676 Q134 803 134 1039 Q134 1267 252 1399 Q345 1504 518 1504 Q722 1504 824 1346 Q907 1216 907 882 Q907 464 840 239 Q760 -29 499 -29 Q287 -29 195 128 Q148 209 137 336 L243 336 Q281 69 499 69 Q609 69 669 143 Q729 217 758 389 Q783 536 789 738 Z M517 1406 Q393 1406 326 1315 Q249 1211 249 1038 Q249 872 319 779 Q389 686 515 686 Q643 686 713 775 Q792 876 792 1041 Q792 1214 710 1319 Q642 1406 517 1406 Z " />
<glyph glyph-name="colon" unicode="&#x3a;" horiz-adv-x="599" d="M334 161 Q373 161 401 133 Q429 105 429 66 Q429 27 400.5 -1 Q372 -29 332 -29 Q291 -29 263 -1 Q235 27 235 67 Q235 106 264 133.5 Q293 161 334 161 Z M334 870 Q373 870 401 842 Q429 814 429 775 Q429 736 400.5 708 Q372 680 332 680 Q291 680 263 708 Q235 736 235 776 Q235 815 264 842.5 Q293 870 334 870 Z " />
<glyph glyph-name="semicolon" unicode="&#x3b;" horiz-adv-x="590" d="M210 -258 L303 162 L445 162 L306 -258 L210 -258 Z M397 870 Q436 870 464 842 Q492 814 492 775 Q492 736 463.5 708 Q435 680 395 680 Q354 680 326 708 Q298 736 298 776 Q298 815 326.5 842.5 Q355 870 397 870 Z " />
<glyph glyph-name="less" unicode="&#x3c;" horiz-adv-x="1061" d="M291 738 L881 372 L881 267 L179 705 L179 771 L881 1210 L881 1104 L291 738 Z " />
<glyph glyph-name="equal" unicode="&#x3d;" horiz-adv-x="1061" d="M145 565 L145 659 L915 659 L915 565 L145 565 Z M145 817 L145 911 L915 911 L915 817 L145 817 Z " />
<glyph glyph-name="greater" unicode="&#x3e;" horiz-adv-x="1061" d="M769 738 L179 1104 L179 1210 L881 771 L881 705 L179 267 L179 372 L769 738 Z " />
<glyph glyph-name="question" unicode="&#x3f;" horiz-adv-x="899" d="M361 336 L361 416 Q361 550 392 622 Q414 674 434.5 695.5 Q455 717 555 795 Q628 852 657 926 Q690 1012 690 1128 Q690 1257 634 1332 Q576 1410 459 1410 Q329 1410 264 1291 Q226 1221 207 1067 L105 1067 Q141 1508 470 1508 Q626 1508 712 1412 Q805 1308 805 1121 Q805 918 719 804 Q694 771 669.5 750 Q645 729 557 664 Q499 622 479 576 Q459 530 459 439 L459 336 L361 336 Z M409 161 Q448 161 476 133 Q504 105 504 66 Q504 26 475.5 -1.5 Q447 -29 407 -29 Q366 -29 338 -1 Q310 27 310 67 Q310 106 338.5 133.5 Q367 161 409 161 Z " />
<glyph glyph-name="at" unicode="&#x40;" horiz-adv-x="1727" d="M1097 408 Q1065 353 1038 325 Q955 238 830 238 Q687 238 598 357 Q516 467 516 634 Q516 803 598 912 Q685 1028 830 1028 Q959 1028 1035 951 Q1057 929 1091 877 L1093 1016 L1188 1016 L1188 469 Q1188 400 1201 366 Q1220 316 1290 316 Q1395 316 1448 434 Q1499 546 1499 721 Q1499 1050 1328 1235 Q1235 1335 1096 1383 Q995 1418 883 1418 Q550 1418 371 1138 Q228 913 228 590 Q228 265 373 85 Q552 -139 921 -139 Q1217 -139 1460 -19 L1494 -96 Q1359 -165 1225.5 -196 Q1092 -227 927 -227 Q547 -227 333 -23 Q113 188 113 592 Q113 957 297 1212 Q509 1506 885 1506 Q1173 1506 1367 1334 Q1504 1213 1566 1031 Q1614 890 1614 737 Q1614 505 1531 376 Q1488 311 1422.5 274.5 Q1357 238 1282 238 Q1195 238 1151.5 278 Q1108 318 1097 408 Z M839 930 Q742 930 685 849 Q625 763 625 633 Q625 498 685 417 Q745 336 845 336 Q955 336 1020 433 Q1079 519 1079 632 Q1079 749 1020 833 Q953 930 839 930 Z " />
<glyph glyph-name="A" unicode="A" horiz-adv-x="1088" d="M806 444 L285 444 L148 0 L32 0 L505 1475 L585 1475 L1058 0 L943 0 L806 444 Z M777 538 L545 1291 L314 538 L777 538 Z " />
<glyph glyph-name="B" unicode="B" horiz-adv-x="1138" d="M191 0 L191 1475 L566 1475 Q753 1475 848 1390 Q956 1294 956 1109 Q956 997 915 928 Q874 859 780 810 Q882 785 944 706 Q1027 600 1027 426 Q1027 201 889 87 Q783 0 568 0 L191 0 Z M302 846 L603 846 Q711 846 776 915 Q841 985 841 1109 Q841 1241 775.5 1314 Q710 1387 591 1387 L302 1387 L302 846 Z M302 88 L565 88 Q734 88 817 164 Q912 252 912 421 Q912 596 816 684 Q741 752 623 752 L302 752 L302 88 Z " />
<glyph glyph-name="C" unicode="C" horiz-adv-x="1068" d="M884 412 L991 412 Q979 -29 592 -29 Q335 -29 222 165 Q111 355 111 733 Q111 1144 241 1331 Q355 1495 591 1495 Q965 1495 978 1063 L871 1063 Q859 1397 590 1397 Q490 1397 422.5 1355 Q355 1313 310 1224 Q226 1057 226 733 Q226 383 325 216 Q411 69 591 69 Q780 69 848 232 Q880 308 884 412 Z " />
<glyph glyph-name="D" unicode="D" horiz-adv-x="1239" d="M191 0 L191 1475 L533 1475 Q810 1475 954 1318 Q1128 1127 1128 737 Q1128 351 954 156 Q879 73 775 36.5 Q671 0 508 0 L191 0 Z M302 94 L519 94 Q669 94 763 142 Q1013 272 1013 736 Q1013 1083 879 1240 Q814 1317 729 1349 Q644 1381 504 1381 L302 1381 L302 94 Z " />
<glyph glyph-name="E" unicode="E" horiz-adv-x="1003" d="M191 0 L191 1475 L909 1475 L909 1381 L302 1381 L302 811 L814 811 L814 717 L302 717 L302 94 L922 94 L922 0 L191 0 Z " />
<glyph glyph-name="F" unicode="F" horiz-adv-x="957" d="M191 0 L191 1475 L910 1475 L910 1381 L302 1381 L302 811 L814 811 L814 717 L302 717 L302 0 L191 0 Z " />
<glyph glyph-name="G" unicode="G" horiz-adv-x="1116" d="M617 635 L617 729 L989 729 L989 56 Q787 -29 566 -29 Q379 -29 282 59 Q111 214 111 713 Q111 1150 245 1336 Q361 1495 589 1495 Q964 1495 977 1063 L868 1063 Q854 1397 590 1397 Q401 1397 313.5 1232.5 Q226 1068 226 713 Q226 370 314 212 Q358 134 418 102 Q481 69 578 69 Q736 69 878 135 L878 635 L617 635 Z " />
<glyph glyph-name="H" unicode="H" horiz-adv-x="1224" d="M191 0 L191 1475 L302 1475 L302 825 L921 825 L921 1475 L1032 1475 L1032 0 L921 0 L921 731 L302 731 L302 0 L191 0 Z " />
<glyph glyph-name="I" unicode="I" horiz-adv-x="493" d="M191 0 L191 1475 L302 1475 L302 0 L191 0 Z " />
<glyph glyph-name="J" unicode="J" horiz-adv-x="503" d="M201 1475 L312 1475 L312 94 Q312 -14 297.5 -74 Q283 -134 247 -175 Q179 -252 53 -259 L53 -165 Q141 -155 171 -99.5 Q201 -44 201 109 L201 1475 Z " />
<glyph glyph-name="K" unicode="K" horiz-adv-x="964" d="M191 0 L191 1475 L302 1475 L302 771 L830 1475 L959 1475 L427 773 L1006 0 L867 0 L302 771 L302 0 L191 0 Z " />
<glyph glyph-name="L" unicode="L" horiz-adv-x="911" d="M191 0 L191 1475 L302 1475 L302 94 L859 94 L859 0 L191 0 Z " />
<glyph glyph-name="M" unicode="M" horiz-adv-x="1492" d="M123 0 L252 1475 L360 1475 L746 206 L1133 1475 L1240 1475 L1370 0 L1263 0 L1152 1212 L785 0 L708 0 L341 1212 L229 0 L123 0 Z " />
<glyph glyph-name="N" unicode="N" horiz-adv-x="1225" d="M191 0 L191 1475 L299 1475 L922 269 L922 1475 L1033 1475 L1033 -20 L959 -20 L302 1257 L302 0 L191 0 Z " />
<glyph glyph-name="O" unicode="O" horiz-adv-x="1147" d="M582 1504 Q745 1504 853 1404 Q1036 1235 1036 737 Q1036 390 942 191 Q837 -29 574 -29 Q310 -29 205 191 Q111 389 111 732 Q111 1092 205 1284 Q313 1504 582 1504 Z M567 1406 Q226 1406 226 737 Q226 436 298 261 Q378 69 574 69 Q769 69 849 261 Q921 438 921 732 Q921 1043 849 1214 Q806 1314 738.5 1360 Q671 1406 567 1406 Z " />
<glyph glyph-name="P" unicode="P" horiz-adv-x="1067" d="M191 0 L191 1475 L507 1475 Q735 1475 835 1409 Q910 1359 950.5 1262 Q991 1165 991 1036 Q991 905 950.5 808.5 Q910 712 834 663 Q732 596 507 596 L302 596 L302 0 L191 0 Z M302 690 L540 690 Q631 690 686.5 707.5 Q742 725 784 767 Q876 858 876 1036 Q876 1213 787 1303 Q746 1345 689.5 1363 Q633 1381 542 1381 L302 1381 L302 690 Z " />
<glyph glyph-name="Q" unicode="Q" horiz-adv-x="1150" d="M1064 -132 L1106 -221 Q1010 -293 914 -293 Q869 -293 825 -278.5 Q781 -264 691 -220 Q592 -172 552.5 -157.5 Q513 -143 481 -143 Q432 -143 385.5 -169 Q339 -195 269 -261 L221 -181 Q366 -45 488 -45 Q532 -45 582 -62.5 Q632 -80 726 -128 Q809 -170 844 -182.5 Q879 -195 916 -195 Q990 -195 1064 -132 Z M582 1504 Q745 1504 853 1404 Q1036 1235 1036 737 Q1036 390 942 191 Q837 -29 574 -29 Q310 -29 205 191 Q111 389 111 732 Q111 1092 205 1284 Q313 1504 582 1504 Z M567 1406 Q226 1406 226 737 Q226 436 298 261 Q378 69 574 69 Q769 69 849 261 Q921 438 921 732 Q921 1043 849 1213 Q806 1313 738.5 1359.5 Q671 1406 567 1406 Z " />
<glyph glyph-name="R" unicode="R" horiz-adv-x="1114" d="M175 0 L175 1475 L517 1475 Q733 1475 828 1412 Q900 1365 939.5 1271.5 Q979 1178 979 1056 Q979 900 920 797 Q861 694 750 657 Q825 616 879 425 L1002 0 L880 0 L771 407 Q737 536 678.5 583.5 Q620 631 495 631 L286 631 L286 0 L175 0 Z M286 725 L541 725 Q701 725 769 786 Q864 872 864 1050 Q864 1219 778 1310 Q711 1381 547 1381 L286 1381 L286 725 Z " />
<glyph glyph-name="S" unicode="S" horiz-adv-x="1052" d="M103 412 L210 412 Q215 249 274 175 Q359 69 523 69 Q693 69 773 163 Q849 253 849 388 Q849 508 787 582 Q749 628 693.5 656 Q638 684 517 719 Q404 751 342.5 778.5 Q281 806 237 845 Q137 934 137 1112 Q137 1272 219 1377 Q319 1504 512 1504 Q739 1504 830 1346 Q885 1252 887 1063 L780 1063 Q775 1227 728 1299 Q659 1406 519 1406 Q385 1406 315 1316 Q252 1235 252 1117 Q252 993 326 929 Q387 876 556 828 Q693 790 757 757.5 Q821 725 868 671 Q964 562 964 394 Q964 213 863 96 Q756 -29 534 -29 Q276 -29 170 127 Q105 223 103 412 Z " />
<glyph glyph-name="T" unicode="T" horiz-adv-x="902" d="M395 0 L395 1381 L43 1381 L43 1475 L858 1475 L858 1381 L506 1381 L506 0 L395 0 Z " />
<glyph glyph-name="U" unicode="U" horiz-adv-x="1192" d="M181 1475 L292 1475 L292 468 Q292 298 337 204 Q402 69 596 69 Q756 69 827.5 163 Q899 257 899 468 L899 1475 L1010 1475 L1010 537 Q1010 370 997 288.5 Q984 207 947 142 Q850 -29 596 -29 Q341 -29 244 142 Q207 207 194 289.5 Q181 372 181 537 L181 1475 Z " />
<glyph glyph-name="V" unicode="V" horiz-adv-x="926" d="M427 -33 L6 1475 L121 1475 L463 199 L805 1475 L920 1475 L498 -33 L427 -33 Z " />
<glyph glyph-name="W" unicode="W" horiz-adv-x="1518" d="M368 -33 L67 1475 L178 1475 L417 238 L721 1487 L797 1487 L1101 238 L1340 1475 L1451 1475 L1150 -33 L1074 -33 L759 1238 L445 -33 L368 -33 Z " />
<glyph glyph-name="X" unicode="X" horiz-adv-x="970" d="M420 777 L54 1475 L174 1475 L503 852 L793 1475 L915 1475 L555 749 L947 0 L827 0 L472 673 L146 0 L23 0 L420 777 Z " />
<glyph glyph-name="Y" unicode="Y" horiz-adv-x="857" d="M373 0 L373 588 L-33 1475 L88 1475 L428 708 L769 1475 L890 1475 L484 588 L484 0 L373 0 Z " />
<glyph glyph-name="Z" unicode="Z" horiz-adv-x="940" d="M50 0 L50 82 L706 1381 L99 1381 L99 1475 L829 1475 L829 1406 L168 94 L858 94 L858 0 L50 0 Z " />
<glyph glyph-name="bracketleft" unicode="&#x5b;" horiz-adv-x="758" d="M326 -356 L326 1573 L635 1573 L635 1479 L437 1479 L437 -262 L635 -262 L635 -356 L326 -356 Z " />
<glyph glyph-name="backslash" unicode="&#x5c;" horiz-adv-x="761" d="M712 -184 L615 -184 L89 1475 L186 1475 L712 -184 Z " />
<glyph glyph-name="bracketright" unicode="&#x5d;" horiz-adv-x="758" d="M432 1573 L432 -356 L123 -356 L123 -262 L321 -262 L321 1479 L123 1479 L123 1573 L432 1573 Z " />
<glyph glyph-name="asciicircum" unicode="&#x5e;" horiz-adv-x="1061" d="M531 1379 L247 915 L121 915 L495 1475 L567 1475 L940 915 L814 915 L531 1379 Z " />
<glyph glyph-name="underscore" unicode="&#x5f;" horiz-adv-x="813" d="M-10 -422 L-10 -328 L823 -328 L823 -422 L-10 -422 Z " />
<glyph glyph-name="grave" unicode="&#x60;" horiz-adv-x="1024" d="M527 1225 L325 1542 L454 1542 L607 1225 L527 1225 Z " />
<glyph glyph-name="a" unicode="a" horiz-adv-x="963" d="M701 142 Q659 63 602 24 Q521 -32 397 -32 Q248 -32 172 54 Q98 138 98 294 Q98 498 207 581 Q247 611 305.5 623.5 Q364 636 466 636 Q501 636 694 626 L694 699 Q694 861 656 920 Q604 1000 472 1000 Q373 1000 330 958 Q287 916 266 801 L165 801 Q178 895 198 944 Q231 1022 298.5 1058.5 Q366 1095 476 1095 Q573 1095 646 1063.5 Q719 1032 754 975 Q802 897 802 734 L802 0 L701 0 L701 142 Z M693 533 Q602 545 476 545 Q387 545 337 530.5 Q287 516 257 482 Q211 428 211 303 Q211 63 410 63 Q693 63 693 424 L693 533 Z " />
<glyph glyph-name="b" unicode="b" horiz-adv-x="1018" d="M183 0 L183 1516 L292 1516 L292 954 Q379 1093 558 1093 Q751 1093 839 927 Q917 783 917 531 Q917 278 839 133 Q751 -32 556 -32 Q381 -32 288 114 L279 0 L183 0 Z M548 999 Q418 999 355 883 Q292 767 292 528 Q292 327 338 214 Q400 62 556 62 Q804 62 804 526 Q804 738 760 847 Q699 999 548 999 Z " />
<glyph glyph-name="c" unicode="c" horiz-adv-x="847" d="M708 194 L778 121 Q725 63 690 38 Q594 -32 469 -32 Q272 -32 181 133 Q101 278 101 532 Q101 785 181 930 Q271 1093 462 1093 Q604 1093 682.5 1004.5 Q761 916 765 751 L660 751 Q643 999 463 999 Q379 999 318 937 Q263 881 238.5 785.5 Q214 690 214 532 Q214 62 467 62 Q592 62 708 194 Z " />
<glyph glyph-name="d" unicode="d" horiz-adv-x="1018" d="M738 0 L730 114 Q638 -32 461 -32 Q267 -32 179 133 Q101 278 101 531 Q101 783 179 927 Q267 1093 461 1093 Q637 1093 726 954 L726 1516 L835 1516 L835 0 L738 0 Z M461 999 Q335 999 274.5 884.5 Q214 770 214 529 Q214 328 258 214 Q316 62 466 62 Q726 62 726 527 Q726 746 674 858 Q608 999 461 999 Z " />
<glyph glyph-name="e" unicode="e" horiz-adv-x="935" d="M833 513 L214 513 Q218 319 263 215 Q328 62 482 62 Q620 62 744 200 L810 121 Q754 63 717 38 Q617 -32 487 -32 Q280 -32 184 134 Q101 278 101 532 Q101 1093 467 1093 Q669 1093 755 928 Q834 778 834 561 Q834 540 833 513 Z M718 608 Q712 757 682 834 Q618 999 468 999 Q303 999 244 807 Q224 745 216 608 L718 608 Z " />
<glyph glyph-name="f" unicode="f" horiz-adv-x="546" d="M210 0 L210 967 L82 967 L82 1061 L210 1061 L210 1170 Q210 1342 244 1417 Q296 1531 457 1531 Q510 1531 576 1516 L564 1424 Q505 1436 470 1436 Q381 1436 350 1383 Q319 1330 319 1179 L319 1061 L538 1061 L538 967 L319 967 L319 0 L210 0 Z " />
<glyph glyph-name="g" unicode="g" horiz-adv-x="1020" d="M727 99 Q619 -33 463 -33 Q267 -33 179 132 Q101 277 101 530 Q101 783 179 927 Q267 1093 462 1093 Q637 1093 726 955 L726 1061 L837 1061 L837 142 Q837 -119 785 -253 Q740 -369 634 -427 Q556 -469 448 -469 Q259 -469 117 -341 L176 -261 Q257 -326 316.5 -350.5 Q376 -375 452 -375 Q594 -375 660.5 -265.5 Q727 -156 727 78 L727 99 Z M459 999 Q214 999 214 529 Q214 327 258 213 Q316 61 466 61 Q727 61 727 527 Q727 743 676 859 Q614 999 459 999 Z " />
<glyph glyph-name="h" unicode="h" horiz-adv-x="1053" d="M183 0 L183 1516 L292 1516 L292 898 Q378 1000 456 1046.5 Q534 1093 619 1093 Q699 1093 757.5 1055.5 Q816 1018 841 950 Q878 850 878 615 L878 0 L769 0 L769 621 Q769 844 734.5 919.5 Q700 995 598 995 Q551 995 509.5 974 Q468 953 411 900 Q341 837 292 769 L292 0 L183 0 Z " />
<glyph glyph-name="i" unicode="i" horiz-adv-x="478" d="M187 0 L187 1061 L295 1061 L295 0 L187 0 Z M243 1465 Q278 1465 302.5 1440 Q327 1415 327 1379 Q327 1343 302 1318 Q277 1293 241 1293 Q205 1293 180 1318.5 Q155 1344 155 1380 Q155 1416 180.5 1440.5 Q206 1465 243 1465 Z " />
<glyph glyph-name="j" unicode="j" horiz-adv-x="482" d="M190 1061 L299 1061 L299 -40 Q301 -283 235 -372 Q167 -469 47 -478 L47 -384 Q94 -376 120.5 -354.5 Q147 -333 163 -290 Q180 -244 185 -193 Q190 -142 190 -21 L190 1061 Z M247 1465 Q282 1465 306.5 1440 Q331 1415 331 1379 Q331 1343 306 1318 Q281 1293 245 1293 Q209 1293 184 1318.5 Q159 1344 159 1380 Q159 1416 184.5 1440.5 Q210 1465 247 1465 Z " />
<glyph glyph-name="k" unicode="k" horiz-adv-x="858" d="M183 0 L183 1516 L292 1516 L292 634 L666 1061 L796 1061 L402 621 L869 0 L737 0 L292 605 L292 0 L183 0 Z " />
<glyph glyph-name="l" unicode="l" horiz-adv-x="475" d="M183 0 L183 1516 L292 1516 L292 0 L183 0 Z " />
<glyph glyph-name="m" unicode="m" horiz-adv-x="1541" d="M183 0 L183 1061 L292 1061 L292 898 Q371 999 443.5 1046 Q516 1093 594 1093 Q687 1093 740.5 1040.5 Q794 988 814 877 Q912 999 981 1046 Q1050 1093 1131 1093 Q1204 1093 1257.5 1055 Q1311 1017 1333 950 Q1366 850 1366 615 L1366 0 L1257 0 L1257 621 Q1257 845 1227.5 920 Q1198 995 1109 995 Q1033 995 938 900 Q872 834 829 769 L829 0 L720 0 L720 630 Q720 787 706 866 Q693 934 664 963 Q633 995 572 995 Q496 995 401 900 Q334 833 292 769 L292 0 L183 0 Z " />
<glyph glyph-name="n" unicode="n" horiz-adv-x="1053" d="M183 0 L183 1061 L292 1061 L292 898 Q380 1001 457 1047 Q534 1093 619 1093 Q699 1093 757.5 1055.5 Q816 1018 841 950 Q878 851 878 615 L878 0 L769 0 L769 621 Q769 844 734.5 919.5 Q700 995 599 995 Q551 995 509.5 974 Q468 953 410 900 Q340 836 292 769 L292 0 L183 0 Z " />
<glyph glyph-name="o" unicode="o" horiz-adv-x="952" d="M482 1093 Q679 1093 771 928 Q851 784 851 530 Q851 -32 476 -32 Q101 -32 101 527 Q101 1093 482 1093 Z M472 999 Q341 999 277.5 884 Q214 769 214 530 Q214 327 260 214 Q321 62 475 62 Q631 62 692 214 Q738 328 738 525 Q738 737 692 847 Q628 999 472 999 Z " />
<glyph glyph-name="p" unicode="p" horiz-adv-x="1018" d="M183 -439 L183 1061 L293 1061 L293 955 Q380 1093 557 1093 Q751 1093 839 928 Q917 783 917 531 Q917 278 839 133 Q751 -32 556 -32 Q381 -32 292 107 L292 -439 L183 -439 Z M546 999 Q292 999 292 530 Q292 327 338 214 Q366 146 421 104 Q477 62 554 62 Q682 62 743 176 Q804 290 804 528 Q804 735 760 847 Q701 999 546 999 Z " />
<glyph glyph-name="q" unicode="q" horiz-adv-x="1018" d="M726 -439 L726 107 Q633 -32 462 -32 Q267 -32 179 133 Q101 278 101 531 Q101 783 179 928 Q267 1093 461 1093 Q636 1093 725 955 L725 1061 L835 1061 L835 -439 L726 -439 Z M459 999 Q317 999 258 847 Q214 735 214 529 Q214 315 265 197 Q322 62 466 62 Q726 62 726 527 Q726 746 673 862 Q610 999 459 999 Z " />
<glyph glyph-name="r" unicode="r" horiz-adv-x="668" d="M183 0 L183 1061 L292 1061 L292 919 Q398 1076 569 1076 L605 1076 L605 969 L578 969 Q469 969 401 907 Q332 844 292 771 L292 0 L183 0 Z " />
<glyph glyph-name="s" unicode="s" horiz-adv-x="834" d="M76 312 L177 312 Q187 198 218 154 Q279 63 412 63 Q632 63 632 284 Q632 390 583.5 437 Q535 484 396 510 Q316 526 271.5 544.5 Q227 563 195 595 Q121 671 121 798 Q121 933 199 1014 Q273 1093 395 1093 Q485 1093 552.5 1053 Q620 1013 652 942 Q685 871 686 767 L585 767 Q576 873 553 915 Q504 999 398 999 Q312 999 272 938 Q234 881 234 804 Q234 717 278 672 Q316 634 436 609 Q575 581 628 547 Q745 471 745 276 Q745 141 670 60 Q584 -32 420 -32 Q318 -32 239 6 Q160 44 121 112 Q79 183 76 312 Z " />
<glyph glyph-name="t" unicode="t" horiz-adv-x="586" d="M207 967 L79 967 L79 1061 L208 1061 L218 1381 L316 1381 L316 1061 L541 1061 L541 967 L316 967 L316 293 Q316 162 341.5 128 Q367 94 463 94 L560 94 L560 0 L456 0 Q358 0 316 13 Q274 26 248 64 Q224 99 215.5 145.5 Q207 192 207 285 L207 967 Z " />
<glyph glyph-name="u" unicode="u" horiz-adv-x="1019" d="M175 1061 L284 1061 L284 440 Q284 215 315 140.5 Q346 66 440 66 Q517 66 615 161 Q682 226 727 292 L727 1061 L836 1061 L836 0 L727 0 L727 163 Q643 60 570 14 Q497 -32 417 -32 Q258 -32 209 111 Q175 210 175 447 L175 1061 Z " />
<glyph glyph-name="v" unicode="v" horiz-adv-x="782" d="M362 -28 L25 1061 L137 1061 L391 190 L645 1061 L757 1061 L420 -28 L362 -28 Z " />
<glyph glyph-name="w" unicode="w" horiz-adv-x="1241" d="M318 -28 L63 1061 L172 1061 L358 212 L594 1061 L648 1061 L884 212 L1069 1061 L1179 1061 L924 -28 L863 -28 L621 844 L379 -28 L318 -28 Z " />
<glyph glyph-name="x" unicode="x" horiz-adv-x="762" d="M314 576 L41 1061 L156 1061 L385 655 L600 1061 L719 1061 L431 574 L755 0 L640 0 L361 494 L117 0 L-2 0 L314 576 Z " />
<glyph glyph-name="y" unicode="y" horiz-adv-x="783" d="M344 39 L26 1061 L138 1061 L391 191 L645 1061 L758 1061 L389 -172 Q340 -336 272 -395 Q224 -437 96 -439 L96 -345 Q177 -343 210 -313 Q254 -273 285 -164 L344 39 Z " />
<glyph glyph-name="z" unicode="z" horiz-adv-x="737" d="M37 0 L37 82 L541 967 L80 967 L80 1061 L667 1061 L667 988 L156 94 L678 94 L678 0 L37 0 Z " />
<glyph glyph-name="braceleft" unicode="&#x7b;" horiz-adv-x="758" d="M251 645 Q345 605 374 528 Q403 452 403 293 L403 24 Q404 -165 440 -212 Q477 -262 579 -262 L613 -262 L613 -356 L569 -356 Q479 -356 430.5 -338.5 Q382 -321 350 -277 Q292 -198 292 19 L292 273 Q292 443 259 509 Q235 557 201 575.5 Q167 594 99 598 L99 691 Q169 695 203.5 714 Q238 733 261 781 Q292 845 292 1016 L292 1193 Q292 1429 355 1500 Q387 1536 435.5 1551.5 Q484 1567 569 1567 L613 1567 L613 1475 L579 1475 Q467 1475 435 1422.5 Q403 1370 403 1189 L403 995 Q403 828 371.5 755.5 Q340 683 251 645 Z " />
<glyph glyph-name="bar" unicode="&#x7c;" horiz-adv-x="667" d="M283 -481 L283 1565 L380 1565 L380 -481 L283 -481 Z " />
<glyph glyph-name="braceright" unicode="&#x7d;" horiz-adv-x="758" d="M507 645 Q413 685 385 762 Q356 838 356 995 L356 1189 Q356 1382 319 1430 Q284 1475 180 1475 L145 1475 L145 1567 L190 1567 Q281 1567 332 1549 Q383 1531 414 1488 Q467 1416 467 1193 L467 1016 Q467 847 498 781 Q520 734 555 714.5 Q590 695 659 691 L659 598 Q591 594 557.5 575.5 Q524 557 500 509 Q467 444 467 273 L467 19 Q467 -211 400 -289 Q368 -326 321 -341 Q274 -356 190 -356 L145 -356 L145 -262 L180 -262 Q289 -262 322.5 -207.5 Q356 -153 356 24 L356 293 Q356 462 387 534 Q418 606 507 645 Z " />
<glyph glyph-name="asciitilde" unicode="&#x7e;" horiz-adv-x="1061" d="M227 640 L157 694 Q266 848 375 848 Q449 848 541 789 Q608 746 631.5 735.5 Q655 725 685 725 Q752 725 836 835 L902 785 Q797 627 686 627 Q647 627 613 640.5 Q579 654 515 695 Q428 750 378 750 Q338 750 305 726 Q272 702 227 640 Z " />
<glyph glyph-name="Adieresis" unicode="&#xc4;" horiz-adv-x="1088" d="M806 444 L285 444 L148 0 L32 0 L505 1475 L585 1475 L1058 0 L943 0 L806 444 Z M777 538 L545 1291 L314 538 L777 538 Z M382 1825 Q416 1825 440 1800.5 Q464 1776 464 1741 Q464 1706 439.5 1681.5 Q415 1657 380 1657 Q345 1657 320.5 1682 Q296 1707 296 1742 Q296 1777 320.5 1801 Q345 1825 382 1825 Z M710 1825 Q744 1825 768 1800.5 Q792 1776 792 1741 Q792 1706 767.5 1681.5 Q743 1657 708 1657 Q673 1657 648.5 1681.5 Q624 1706 624 1742 Q624 1777 648.5 1801 Q673 1825 710 1825 Z " />
<glyph glyph-name="Aring" unicode="&#xc5;" horiz-adv-x="1088" d="M806 444 L285 444 L148 0 L32 0 L505 1475 L585 1475 L1058 0 L943 0 L806 444 Z M777 538 L545 1291 L314 538 L777 538 Z M547 1985 Q642 1985 697.5 1927 Q753 1869 753 1769 Q753 1669 697 1611.5 Q641 1554 544 1554 Q446 1554 390.5 1611.5 Q335 1669 335 1769 Q335 1871 391 1928 Q447 1985 547 1985 Z M542 1907 Q423 1907 423 1770 Q423 1632 544 1632 Q665 1632 665 1769 Q665 1907 542 1907 Z " />
<glyph glyph-name="Ccedilla" unicode="&#xc7;" horiz-adv-x="1068" d="M884 412 L991 412 Q980 -21 598 -28 L567 -101 Q633 -104 663 -119 Q740 -158 740 -274 Q740 -362 691 -411 Q642 -460 555 -460 Q453 -460 361 -422 L386 -332 Q466 -372 548 -372 Q640 -372 640 -275 Q640 -184 540 -184 Q523 -184 487 -187 L477 -116 L517 -23 Q373 -4 288 79 Q111 252 111 733 Q111 1144 241 1332 Q355 1495 591 1495 Q965 1495 978 1063 L871 1063 Q859 1397 590 1397 Q490 1397 422.5 1355 Q355 1313 310 1224 Q226 1057 226 733 Q226 384 325 216 Q411 70 591 70 Q780 70 848 232 Q880 308 884 412 Z " />
<glyph glyph-name="Eacute" unicode="&#xc9;" horiz-adv-x="1003" d="M191 0 L191 1475 L909 1475 L909 1381 L302 1381 L302 811 L814 811 L814 717 L302 717 L302 94 L922 94 L922 0 L191 0 Z M485 1587 L638 1905 L767 1905 L565 1587 L485 1587 Z " />
<glyph glyph-name="Ntilde" unicode="&#xd1;" horiz-adv-x="1225" d="M191 0 L191 1475 L299 1475 L922 269 L922 1475 L1033 1475 L1033 -20 L959 -20 L302 1257 L302 0 L191 0 Z M471 1659 L401 1659 Q437 1833 542 1833 Q586 1833 646 1784 Q700 1741 719 1741 Q762 1741 791 1831 L861 1831 Q821 1653 713 1653 Q663 1653 587 1717 Q553 1745 535 1745 Q498 1745 471 1659 Z " />
<glyph glyph-name="Odieresis" unicode="&#xd6;" horiz-adv-x="1147" d="M582 1504 Q745 1504 853 1404 Q1036 1235 1036 737 Q1036 390 942 191 Q837 -29 574 -29 Q310 -29 205 191 Q111 389 111 732 Q111 1092 205 1284 Q313 1504 582 1504 Z M567 1406 Q226 1406 226 737 Q226 436 298 261 Q378 69 574 69 Q769 69 849 261 Q921 438 921 732 Q921 1043 849 1214 Q806 1314 738.5 1360 Q671 1406 567 1406 Z M411 1825 Q445 1825 469 1800.5 Q493 1776 493 1741 Q493 1706 468.5 1681.5 Q444 1657 409 1657 Q374 1657 349.5 1682 Q325 1707 325 1742 Q325 1777 349.5 1801 Q374 1825 411 1825 Z M739 1825 Q773 1825 797 1800.5 Q821 1776 821 1741 Q821 1706 796.5 1681.5 Q772 1657 737 1657 Q702 1657 677.5 1681.5 Q653 1706 653 1742 Q653 1777 677.5 1801 Q702 1825 739 1825 Z " />
<glyph glyph-name="Udieresis" unicode="&#xdc;" horiz-adv-x="1192" d="M181 1475 L292 1475 L292 468 Q292 298 337 204 Q402 69 596 69 Q756 69 827.5 163 Q899 257 899 468 L899 1475 L1010 1475 L1010 537 Q1010 370 997 288.5 Q984 207 947 142 Q850 -29 596 -29 Q341 -29 244 142 Q207 207 194 289.5 Q181 372 181 537 L181 1475 Z M434 1825 Q468 1825 492 1800.5 Q516 1776 516 1741 Q516 1706 491.5 1681.5 Q467 1657 432 1657 Q397 1657 372.5 1682 Q348 1707 348 1742 Q348 1777 372.5 1801 Q397 1825 434 1825 Z M762 1825 Q796 1825 820 1800.5 Q844 1776 844 1741 Q844 1706 819.5 1681.5 Q795 1657 760 1657 Q725 1657 700.5 1681.5 Q676 1706 676 1742 Q676 1777 700.5 1801 Q725 1825 762 1825 Z " />
<glyph glyph-name="aacute" unicode="&#xe1;" horiz-adv-x="963" d="M701 142 Q659 63 602 24 Q521 -32 397 -32 Q248 -32 172 54 Q98 138 98 294 Q98 498 207 581 Q247 611 305.5 623.5 Q364 636 466 636 Q501 636 694 626 L694 699 Q694 861 656 920 Q604 1000 472 1000 Q373 1000 330 958 Q287 916 266 801 L165 801 Q178 895 198 944 Q231 1022 298.5 1058.5 Q366 1095 476 1095 Q573 1095 646 1063.5 Q719 1032 754 975 Q802 897 802 734 L802 0 L701 0 L701 142 Z M693 533 Q602 545 476 545 Q387 545 337 530.5 Q287 516 257 482 Q211 428 211 303 Q211 63 410 63 Q693 63 693 424 L693 533 Z M416 1225 L569 1542 L698 1542 L496 1225 L416 1225 Z " />
<glyph glyph-name="agrave" unicode="&#xe0;" horiz-adv-x="963" d="M701 142 Q659 63 602 24 Q521 -32 397 -32 Q248 -32 172 54 Q98 138 98 294 Q98 498 207 581 Q247 611 305.5 623.5 Q364 636 466 636 Q501 636 694 626 L694 699 Q694 861 656 920 Q604 1000 472 1000 Q373 1000 330 958 Q287 916 266 801 L165 801 Q178 895 198 944 Q231 1022 298.5 1058.5 Q366 1095 476 1095 Q573 1095 646 1063.5 Q719 1032 754 975 Q802 897 802 734 L802 0 L701 0 L701 142 Z M693 533 Q602 545 476 545 Q387 545 337 530.5 Q287 516 257 482 Q211 428 211 303 Q211 63 410 63 Q693 63 693 424 L693 533 Z M479 1225 L277 1542 L406 1542 L559 1225 L479 1225 Z " />
<glyph glyph-name="acircumflex" unicode="&#xe2;" horiz-adv-x="963" d="M701 142 Q659 63 602 24 Q521 -32 397 -32 Q248 -32 172 54 Q98 138 98 294 Q98 498 207 581 Q247 611 305.5 623.5 Q364 636 466 636 Q501 636 694 626 L694 699 Q694 861 656 920 Q604 1000 472 1000 Q373 1000 330 958 Q287 916 266 801 L165 801 Q178 895 198 944 Q231 1022 298.5 1058.5 Q366 1095 476 1095 Q573 1095 646 1063.5 Q719 1032 754 975 Q802 897 802 734 L802 0 L701 0 L701 142 Z M693 533 Q602 545 476 545 Q387 545 337 530.5 Q287 516 257 482 Q211 428 211 303 Q211 63 410 63 Q693 63 693 424 L693 533 Z M480 1454 L337 1225 L226 1225 L448 1542 L513 1542 L735 1225 L623 1225 L480 1454 Z " />
<glyph glyph-name="adieresis" unicode="&#xe4;" horiz-adv-x="963" d="M701 142 Q659 63 602 24 Q521 -32 397 -32 Q248 -32 172 54 Q98 138 98 294 Q98 498 207 581 Q247 611 305.5 623.5 Q364 636 466 636 Q501 636 694 626 L694 699 Q694 861 656 920 Q604 1000 472 1000 Q373 1000 330 958 Q287 916 266 801 L165 801 Q178 895 198 944 Q231 1022 298.5 1058.5 Q366 1095 476 1095 Q573 1095 646 1063.5 Q719 1032 754 975 Q802 897 802 734 L802 0 L701 0 L701 142 Z M693 533 Q602 545 476 545 Q387 545 337 530.5 Q287 516 257 482 Q211 428 211 303 Q211 63 410 63 Q693 63 693 424 L693 533 Z M342 1463 Q376 1463 400 1438.5 Q424 1414 424 1379 Q424 1344 399.5 1319.5 Q375 1295 340 1295 Q305 1295 280.5 1320 Q256 1345 256 1380 Q256 1415 280.5 1439 Q305 1463 342 1463 Z M625 1463 Q659 1463 683 1438.5 Q707 1414 707 1379 Q707 1344 682.5 1319.5 Q658 1295 623 1295 Q588 1295 563.5 1320 Q539 1345 539 1380 Q539 1415 563.5 1439 Q588 1463 625 1463 Z " />
<glyph glyph-name="atilde" unicode="&#xe3;" horiz-adv-x="963" d="M701 142 Q659 63 602 24 Q521 -32 397 -32 Q248 -32 172 54 Q98 138 98 294 Q98 498 207 581 Q247 611 305.5 623.5 Q364 636 466 636 Q501 636 694 626 L694 699 Q694 861 656 920 Q604 1000 472 1000 Q373 1000 330 958 Q287 916 266 801 L165 801 Q178 895 198 944 Q231 1022 298.5 1058.5 Q366 1095 476 1095 Q573 1095 646 1063.5 Q719 1032 754 975 Q802 897 802 734 L802 0 L701 0 L701 142 Z M693 533 Q602 545 476 545 Q387 545 337 530.5 Q287 516 257 482 Q211 428 211 303 Q211 63 410 63 Q693 63 693 424 L693 533 Z M320 1296 L250 1296 Q286 1470 391 1470 Q435 1470 495 1421 Q548 1378 568 1378 Q611 1378 640 1468 L710 1468 Q670 1290 562 1290 Q513 1290 436 1354 Q402 1382 384 1382 Q347 1382 320 1296 Z " />
<glyph glyph-name="aring" unicode="&#xe5;" horiz-adv-x="963" d="M701 142 Q659 63 602 24 Q521 -32 397 -32 Q248 -32 172 54 Q98 138 98 294 Q98 498 207 581 Q247 611 305.5 623.5 Q364 636 466 636 Q501 636 694 626 L694 699 Q694 861 656 920 Q604 1000 472 1000 Q373 1000 330 958 Q287 916 266 801 L165 801 Q178 895 198 944 Q231 1022 298.5 1058.5 Q366 1095 476 1095 Q573 1095 646 1063.5 Q719 1032 754 975 Q802 897 802 734 L802 0 L701 0 L701 142 Z M693 533 Q602 545 476 545 Q387 545 337 530.5 Q287 516 257 482 Q211 428 211 303 Q211 63 410 63 Q693 63 693 424 L693 533 Z M480 1622 Q575 1622 630.5 1564 Q686 1506 686 1407 Q686 1307 630.5 1249.5 Q575 1192 477 1192 Q379 1192 323.5 1249 Q268 1306 268 1406 Q268 1508 324 1565 Q380 1622 480 1622 Z M475 1544 Q418 1544 387 1508 Q356 1472 356 1407 Q356 1270 477 1270 Q598 1270 598 1407 Q598 1544 475 1544 Z " />
<glyph glyph-name="ccedilla" unicode="&#xe7;" horiz-adv-x="847" d="M479 -31 L450 -101 Q515 -104 545 -119 Q622 -158 622 -274 Q622 -362 573 -411 Q524 -460 436 -460 Q338 -460 243 -422 L268 -332 Q350 -372 430 -372 Q522 -372 522 -275 Q522 -184 420 -184 Q402 -184 370 -187 L360 -116 L399 -25 Q101 35 101 532 Q101 785 181 930 Q271 1093 462 1093 Q604 1093 682.5 1004.5 Q761 916 765 751 L660 751 Q643 999 463 999 Q379 999 318 937 Q263 881 238.5 785.5 Q214 690 214 532 Q214 63 467 63 Q591 63 708 194 L778 121 Q695 32 625 1 Q558 -28 479 -31 Z " />
<glyph glyph-name="eacute" unicode="&#xe9;" horiz-adv-x="935" d="M833 513 L214 513 Q218 319 263 215 Q328 62 482 62 Q620 62 744 200 L810 121 Q754 63 717 38 Q617 -32 487 -32 Q280 -32 184 134 Q101 278 101 532 Q101 1093 467 1093 Q669 1093 755 928 Q834 778 834 561 Q834 540 833 513 Z M718 608 Q712 757 682 834 Q618 999 468 999 Q303 999 244 807 Q224 745 216 608 L718 608 Z M393 1225 L546 1542 L675 1542 L473 1225 L393 1225 Z " />
<glyph glyph-name="egrave" unicode="&#xe8;" horiz-adv-x="935" d="M833 513 L214 513 Q218 319 263 215 Q328 62 482 62 Q620 62 744 200 L810 121 Q754 63 717 38 Q617 -32 487 -32 Q280 -32 184 134 Q101 278 101 532 Q101 1093 467 1093 Q669 1093 755 928 Q834 778 834 561 Q834 540 833 513 Z M718 608 Q712 757 682 834 Q618 999 468 999 Q303 999 244 807 Q224 745 216 608 L718 608 Z M482 1225 L280 1542 L409 1542 L562 1225 L482 1225 Z " />
<glyph glyph-name="ecircumflex" unicode="&#xea;" horiz-adv-x="935" d="M833 513 L214 513 Q218 319 263 215 Q328 62 482 62 Q620 62 744 200 L810 121 Q754 63 717 38 Q617 -32 487 -32 Q280 -32 184 134 Q101 278 101 532 Q101 1093 467 1093 Q669 1093 755 928 Q834 778 834 561 Q834 540 833 513 Z M718 608 Q712 757 682 834 Q618 999 468 999 Q303 999 244 807 Q224 745 216 608 L718 608 Z M488 1454 L345 1225 L234 1225 L456 1542 L521 1542 L743 1225 L631 1225 L488 1454 Z " />
<glyph glyph-name="edieresis" unicode="&#xeb;" horiz-adv-x="935" d="M833 513 L214 513 Q218 319 263 215 Q328 62 482 62 Q620 62 744 200 L810 121 Q754 63 717 38 Q617 -32 487 -32 Q280 -32 184 134 Q101 278 101 532 Q101 1093 467 1093 Q669 1093 755 928 Q834 778 834 561 Q834 540 833 513 Z M718 608 Q712 757 682 834 Q618 999 468 999 Q303 999 244 807 Q224 745 216 608 L718 608 Z M349 1463 Q383 1463 407 1438.5 Q431 1414 431 1379 Q431 1344 406.5 1319.5 Q382 1295 347 1295 Q312 1295 287.5 1320 Q263 1345 263 1380 Q263 1415 287.5 1439 Q312 1463 349 1463 Z M632 1463 Q666 1463 690 1438.5 Q714 1414 714 1379 Q714 1344 689.5 1319.5 Q665 1295 630 1295 Q595 1295 570.5 1320 Q546 1345 546 1380 Q546 1415 570.5 1439 Q595 1463 632 1463 Z " />
<glyph glyph-name="iacute" unicode="&#xed;" horiz-adv-x="478" d="M186 0 L186 1061 L295 1061 L295 0 L186 0 Z M164 1225 L317 1542 L446 1542 L244 1225 L164 1225 Z " />
<glyph glyph-name="igrave" unicode="&#xec;" horiz-adv-x="478" d="M185 0 L185 1061 L294 1061 L294 0 L185 0 Z M226 1225 L24 1542 L153 1542 L306 1225 L226 1225 Z " />
<glyph glyph-name="icircumflex" unicode="&#xee;" horiz-adv-x="477" d="M185 0 L185 1061 L294 1061 L294 0 L185 0 Z M238 1454 L95 1225 L-16 1225 L206 1542 L271 1542 L493 1225 L381 1225 L238 1454 Z " />
<glyph glyph-name="idieresis" unicode="&#xef;" horiz-adv-x="478" d="M186 0 L186 1061 L295 1061 L295 0 L186 0 Z M100 1463 Q134 1463 158 1438.5 Q182 1414 182 1379 Q182 1344 157.5 1319.5 Q133 1295 98 1295 Q63 1295 38.5 1320 Q14 1345 14 1380 Q14 1415 38.5 1439 Q63 1463 100 1463 Z M383 1463 Q417 1463 441 1438.5 Q465 1414 465 1379 Q465 1344 440.5 1319.5 Q416 1295 381 1295 Q346 1295 321.5 1320 Q297 1345 297 1380 Q297 1415 321.5 1439 Q346 1463 383 1463 Z " />
<glyph glyph-name="ntilde" unicode="&#xf1;" horiz-adv-x="1053" d="M183 0 L183 1061 L292 1061 L292 898 Q380 1001 457 1047 Q534 1093 619 1093 Q699 1093 757.5 1055.5 Q816 1018 841 950 Q878 851 878 615 L878 0 L769 0 L769 621 Q769 844 734.5 919.5 Q700 995 599 995 Q551 995 509.5 974 Q468 953 410 900 Q340 836 292 769 L292 0 L183 0 Z M365 1296 L295 1296 Q331 1470 436 1470 Q480 1470 540 1421 Q593 1378 613 1378 Q656 1378 685 1468 L755 1468 Q715 1290 607 1290 Q558 1290 481 1354 Q447 1382 429 1382 Q392 1382 365 1296 Z " />
<glyph glyph-name="oacute" unicode="&#xf3;" horiz-adv-x="952" d="M482 1093 Q679 1093 771 928 Q851 784 851 530 Q851 -32 476 -32 Q101 -32 101 527 Q101 1093 482 1093 Z M472 999 Q341 999 277.5 884 Q214 769 214 530 Q214 327 260 214 Q321 62 475 62 Q631 62 692 214 Q738 328 738 525 Q738 737 692 847 Q628 999 472 999 Z M381 1225 L534 1542 L663 1542 L461 1225 L381 1225 Z " />
<glyph glyph-name="ograve" unicode="&#xf2;" horiz-adv-x="952" d="M482 1093 Q679 1093 771 928 Q851 784 851 530 Q851 -32 476 -32 Q101 -32 101 527 Q101 1093 482 1093 Z M472 999 Q341 999 277.5 884 Q214 769 214 530 Q214 327 260 214 Q321 62 475 62 Q631 62 692 214 Q738 328 738 525 Q738 737 692 847 Q628 999 472 999 Z M491 1225 L289 1542 L418 1542 L571 1225 L491 1225 Z " />
<glyph glyph-name="ocircumflex" unicode="&#xf4;" horiz-adv-x="952" d="M482 1093 Q679 1093 771 928 Q851 784 851 530 Q851 -32 476 -32 Q101 -32 101 527 Q101 1093 482 1093 Z M472 999 Q341 999 277.5 884 Q214 769 214 530 Q214 327 260 214 Q321 62 475 62 Q631 62 692 214 Q738 328 738 525 Q738 737 692 847 Q628 999 472 999 Z M476 1454 L333 1225 L222 1225 L444 1542 L509 1542 L731 1225 L619 1225 L476 1454 Z " />
<glyph glyph-name="odieresis" unicode="&#xf6;" horiz-adv-x="952" d="M482 1093 Q679 1093 771 928 Q851 784 851 530 Q851 -32 476 -32 Q101 -32 101 527 Q101 1093 482 1093 Z M472 999 Q341 999 277.5 884 Q214 769 214 530 Q214 327 260 214 Q321 62 475 62 Q631 62 692 214 Q738 328 738 525 Q738 737 692 847 Q628 999 472 999 Z M337 1463 Q371 1463 395 1438.5 Q419 1414 419 1379 Q419 1344 394.5 1319.5 Q370 1295 335 1295 Q300 1295 275.5 1320 Q251 1345 251 1380 Q251 1415 275.5 1439 Q300 1463 337 1463 Z M620 1463 Q654 1463 678 1438.5 Q702 1414 702 1379 Q702 1344 677.5 1319.5 Q653 1295 618 1295 Q583 1295 558.5 1320 Q534 1345 534 1380 Q534 1415 558.5 1439 Q583 1463 620 1463 Z " />
<glyph glyph-name="otilde" unicode="&#xf5;" horiz-adv-x="952" d="M482 1093 Q679 1093 771 928 Q851 784 851 530 Q851 -32 476 -32 Q101 -32 101 527 Q101 1093 482 1093 Z M472 999 Q341 999 277.5 884 Q214 769 214 530 Q214 327 260 214 Q321 62 475 62 Q631 62 692 214 Q738 328 738 525 Q738 737 692 847 Q628 999 472 999 Z M315 1296 L245 1296 Q281 1470 386 1470 Q430 1470 490 1421 Q543 1378 563 1378 Q606 1378 635 1468 L705 1468 Q665 1290 557 1290 Q508 1290 431 1354 Q397 1382 379 1382 Q342 1382 315 1296 Z " />
<glyph glyph-name="uacute" unicode="&#xfa;" horiz-adv-x="1019" d="M175 1061 L284 1061 L284 440 Q284 215 315 140.5 Q346 66 440 66 Q517 66 615 161 Q682 226 727 292 L727 1061 L836 1061 L836 0 L727 0 L727 163 Q643 60 570 14 Q497 -32 417 -32 Q258 -32 209 111 Q175 210 175 447 L175 1061 Z M435 1225 L588 1542 L717 1542 L515 1225 L435 1225 Z " />
<glyph glyph-name="ugrave" unicode="&#xf9;" horiz-adv-x="1019" d="M175 1061 L284 1061 L284 440 Q284 215 315 140.5 Q346 66 440 66 Q517 66 615 161 Q682 226 727 292 L727 1061 L836 1061 L836 0 L727 0 L727 163 Q643 60 570 14 Q497 -32 417 -32 Q258 -32 209 111 Q175 210 175 447 L175 1061 Z M504 1225 L302 1542 L431 1542 L584 1225 L504 1225 Z " />
<glyph glyph-name="ucircumflex" unicode="&#xfb;" horiz-adv-x="1019" d="M175 1061 L284 1061 L284 440 Q284 215 315 140.5 Q346 66 440 66 Q517 66 615 161 Q682 226 727 292 L727 1061 L836 1061 L836 0 L727 0 L727 163 Q643 60 570 14 Q497 -32 417 -32 Q258 -32 209 111 Q175 210 175 447 L175 1061 Z M509 1454 L366 1225 L255 1225 L477 1542 L542 1542 L764 1225 L652 1225 L509 1454 Z " />
<glyph glyph-name="udieresis" unicode="&#xfc;" horiz-adv-x="1019" d="M175 1061 L284 1061 L284 440 Q284 215 315 140.5 Q346 66 440 66 Q517 66 615 161 Q682 226 727 292 L727 1061 L836 1061 L836 0 L727 0 L727 163 Q643 60 570 14 Q497 -32 417 -32 Q258 -32 209 111 Q175 210 175 447 L175 1061 Z M370 1463 Q404 1463 428 1438.5 Q452 1414 452 1379 Q452 1344 427.5 1319.5 Q403 1295 368 1295 Q333 1295 308.5 1320 Q284 1345 284 1380 Q284 1415 308.5 1439 Q333 1463 370 1463 Z M653 1463 Q687 1463 711 1438.5 Q735 1414 735 1379 Q735 1344 710.5 1319.5 Q686 1295 651 1295 Q616 1295 591.5 1320 Q567 1345 567 1380 Q567 1415 591.5 1439 Q616 1463 653 1463 Z " />
<glyph glyph-name="dagger" unicode="&#x2020;" horiz-adv-x="960" d="M433 971 L134 971 L134 1065 L433 1065 L433 1516 L532 1516 L532 1065 L826 1065 L826 971 L532 971 L532 -197 L433 -197 L433 971 Z " />
<glyph glyph-name="degree" unicode="&#xb0;" horiz-adv-x="574" d="M292 1532 Q411 1532 483.5 1455.5 Q556 1379 556 1253 Q556 1137 491 1060 Q418 974 287 974 Q157 974 84 1060 Q19 1136 19 1252 Q19 1382 92.5 1457 Q166 1532 292 1532 Z M285 1449 Q204 1449 158.5 1396.5 Q113 1344 113 1252 Q113 1160 159 1108 Q205 1056 288 1056 Q370 1056 416 1107.5 Q462 1159 462 1252 Q462 1347 416 1398 Q370 1449 285 1449 Z " />
<glyph glyph-name="cent" unicode="&#xa2;" horiz-adv-x="1061" d="M528 -23 L528 273 Q182 307 182 773 Q182 1243 528 1273 L528 1599 L611 1599 L611 1271 Q874 1239 880 961 L775 961 Q759 1146 611 1176 L611 367 Q723 383 828 485 L896 409 Q810 330 745 304 Q686 280 611 272 L611 -23 L528 -23 Z M528 367 L528 1178 Q408 1159 352.5 1061.5 Q297 964 297 772 Q297 526 393 433 Q450 378 528 367 Z " />
<glyph glyph-name="sterling" unicode="&#xa3;" horiz-adv-x="1061" d="M91 694 L91 788 L266 788 Q263 804 246 877 Q222 985 222 1103 Q222 1207 246.5 1278 Q271 1349 326 1404 Q427 1504 597 1504 Q823 1504 910 1332 Q955 1242 958 1063 L853 1063 Q849 1205 812 1282 Q753 1406 600 1406 Q485 1406 417 1338 Q337 1258 337 1109 Q337 996 376 788 L633 788 L633 694 L396 694 Q425 541 425 435 Q425 299 372 190 Q467 127 533.5 102.5 Q600 78 675 78 Q920 78 943 385 L1047 385 Q1010 -20 674 -20 Q581 -20 503.5 8 Q426 36 323 106 Q221 -14 91 -23 L91 79 Q310 142 310 451 Q310 552 287 694 L91 694 Z " />
<glyph glyph-name="section" unicode="&#xa7;" horiz-adv-x="902" d="M258 969 Q221 1002 200.5 1061.5 Q180 1121 180 1192 Q180 1336 254 1420 Q328 1504 455 1504 Q729 1504 733 1176 L636 1176 Q629 1281 607 1323 Q563 1406 460 1406 Q379 1406 337 1347 Q295 1287 295 1194 Q295 1097 335.5 1052 Q376 1007 488 980 Q586 956 634.5 936 Q683 916 714 885 Q781 819 781 692 Q781 546 678 461 Q758 371 758 203 Q758 28 665 -64 Q577 -150 428 -150 Q331 -150 258.5 -110.5 Q186 -71 150 1 Q111 77 109 215 L203 215 Q212 92 240 44 Q297 -52 421 -52 Q518 -52 576 3 Q643 67 643 201 Q643 311 601 368 Q579 398 539.5 416.5 Q500 435 406 459 Q254 498 196 562 Q137 629 137 746 Q137 906 258 969 Z M334 922 Q246 871 246 756 Q246 675 286 629 Q307 605 337 591 Q367 577 444 554 L600 507 Q672 564 672 685 Q672 776 622 821 Q602 839 580.5 847 Q559 855 448 888 L334 922 Z " />
<glyph glyph-name="bullet" unicode="&#x2022;" horiz-adv-x="1054" d="M531 981 Q644 981 720 900 Q786 830 786 729 Q786 614 701 540 Q628 477 526 477 Q408 477 332 558 Q266 629 266 732 Q266 843 351 918 Q424 981 531 981 Z " />
<glyph glyph-name="paragraph" unicode="&#xb6;" horiz-adv-x="1065" d="M483 1381 L483 -422 L384 -422 L384 689 Q307 698 268.5 712 Q230 726 188 761 Q58 869 58 1080 Q58 1265 161 1376 Q213 1431 274.5 1453 Q336 1475 439 1475 L803 1475 L803 -422 L704 -422 L704 1381 L483 1381 Z " />
<glyph glyph-name="germandbls" unicode="&#xdf;" horiz-adv-x="1067" d="M183 0 L183 1124 Q183 1347 270 1444 Q363 1548 525 1548 Q692 1548 774 1458 Q857 1366 857 1201 Q857 1087 809.5 1007 Q762 927 676 898 Q779 869 837 811 Q966 680 966 423 Q966 224 904 113 Q823 -32 603 -32 Q540 -32 469 -12 L488 80 Q545 62 598 62 Q742 62 801 154 Q853 234 853 446 Q853 677 723 779 Q682 810 642.5 821.5 Q603 833 519 836 L519 929 Q616 938 664 983 Q744 1059 744 1196 Q744 1324 687 1389 Q630 1453 528 1453 Q375 1453 324 1322 Q292 1242 292 1100 L292 0 L183 0 Z " />
<glyph glyph-name="registered" unicode="&#xae;" horiz-adv-x="1257" d="M491 946 L491 1475 L625 1475 Q710 1475 752 1453 Q820 1417 820 1323 Q820 1234 751 1192 Q756 1184 759 1180 Q767 1169 780 1130 L842 946 L758 946 L707 1108 Q696 1145 677.5 1157.5 Q659 1170 618 1170 L575 1170 L575 946 L491 946 Z M575 1241 L626 1241 Q686 1241 712 1259.5 Q738 1278 738 1321 Q738 1363 712 1382 Q686 1401 628 1401 L575 1401 L575 1241 Z M636 1765 Q851 1765 1005 1601 Q1155 1441 1155 1209 Q1155 978 1005 817 Q851 653 629 653 Q406 653 252 817 Q102 978 102 1208 Q102 1444 253 1601 Q410 1765 636 1765 Z M622 1687 Q435 1687 303 1543 Q182 1410 182 1209 Q182 1008 303 875 Q434 731 628 731 Q822 731 953 875 Q1074 1008 1074 1208 Q1074 1414 953 1543 Q818 1687 622 1687 Z " />
<glyph glyph-name="copyright" unicode="&#xa9;" horiz-adv-x="1677" d="M1101 848 L1019 848 Q1014 945 974.5 989.5 Q935 1034 853 1034 Q738 1034 686 938 Q640 851 640 720 Q640 580 696.5 503 Q753 426 856 426 Q967 426 1065 525 L1123 460 Q1069 402 1025 378 Q953 338 859 338 Q708 338 622 457 Q551 556 551 725 Q551 902 634 1015 Q712 1122 858 1122 Q1010 1122 1070 1007 Q1097 954 1101 848 Z M848 1508 Q1048 1508 1219 1393 Q1396 1274 1485 1074 Q1554 919 1554 737 Q1554 417 1350 195 Q1141 -33 838 -33 Q535 -33 327 195 Q123 418 123 736 Q123 1061 327 1280 Q539 1508 848 1508 Z M831 1420 Q655 1420 506 1316 Q347 1206 274 1023 Q224 896 224 737 Q224 452 391 261 Q571 55 838 55 Q1106 55 1286 261 Q1453 452 1453 735 Q1453 1026 1286 1214 Q1103 1420 831 1420 Z " />
<glyph glyph-name="trademark" unicode="&#x2122;" horiz-adv-x="1225" d="M295 1395 L295 770 L212 770 L212 1395 L24 1395 L24 1475 L480 1475 L480 1395 L295 1395 Z M639 1280 L614 770 L531 770 L572 1475 L659 1475 L825 917 L990 1475 L1076 1475 L1116 770 L1034 770 L1008 1279 L851 770 L798 770 L639 1280 Z " />
<glyph glyph-name="acute" unicode="&#xb4;" horiz-adv-x="1024" d="M417 1225 L570 1542 L699 1542 L497 1225 L417 1225 Z " />
<glyph glyph-name="dieresis" unicode="&#xa8;" horiz-adv-x="1024" d="M373 1463 Q407 1463 431 1438.5 Q455 1414 455 1379 Q455 1344 430.5 1319.5 Q406 1295 371 1295 Q336 1295 311.5 1320 Q287 1345 287 1380 Q287 1415 311.5 1439 Q336 1463 373 1463 Z M656 1463 Q690 1463 714 1438.5 Q738 1414 738 1379 Q738 1344 713.5 1319.5 Q689 1295 654 1295 Q619 1295 594.5 1320 Q570 1345 570 1380 Q570 1415 594.5 1439 Q619 1463 656 1463 Z " />
<glyph glyph-name="notequal" unicode="&#x2260;" horiz-adv-x="1061" d="M145 565 L145 659 L446 659 L508 817 L145 817 L145 911 L543 911 L638 1155 L729 1123 L647 911 L915 911 L915 817 L611 817 L549 659 L915 659 L915 565 L514 565 L421 328 L330 360 L411 565 L145 565 Z " />
<glyph glyph-name="AE" unicode="&#xc6;" horiz-adv-x="1632" d="M823 504 L347 504 L81 0 L-36 0 L752 1475 L1491 1475 L1491 1381 L933 1381 L933 811 L1398 811 L1398 717 L933 717 L933 94 L1503 94 L1503 0 L823 0 L823 504 Z M823 598 L823 1400 L407 598 L823 598 Z " />
<glyph glyph-name="Oslash" unicode="&#xd8;" horiz-adv-x="1153" d="M196 219 Q114 424 114 731 Q114 1087 208 1283 Q313 1503 575 1503 Q791 1503 907 1348 L1010 1511 L1124 1511 L959 1250 Q1039 1047 1039 743 Q1039 390 945 191 Q840 -29 574 -29 Q362 -29 249 123 L142 -47 L28 -47 L196 219 Z M273 342 L839 1241 Q756 1405 577 1405 Q381 1405 301 1213 Q229 1038 229 734 Q229 498 273 342 Z M881 1127 L316 230 Q401 69 576 69 Q772 69 852 261 Q924 438 924 741 Q924 980 881 1127 Z " />
<glyph glyph-name="infinity" unicode="&#x221e;" horiz-adv-x="1274" d="M637 649 Q586 551 554 516 Q474 426 368 426 Q257 426 191 510 Q126 593 126 721 Q126 852 192 933 Q260 1016 370 1016 Q483 1016 565 914 Q591 882 637 793 Q686 889 721 928 Q800 1016 905 1016 Q1014 1016 1084 933 Q1149 854 1149 721 Q1149 591 1084 510 Q1017 426 907 426 Q792 426 708 530 Q682 562 637 649 Z M591 721 L583 740 Q492 938 379 938 Q307 938 261 877.5 Q215 817 215 721 Q215 625 261 564 Q306 504 379 504 Q438 504 484.5 549.5 Q531 595 583 703 L591 721 Z M683 721 L692 703 Q782 504 896 504 Q968 504 1014 564.5 Q1060 625 1060 721 Q1060 819 1014 878 Q968 938 895 938 Q783 938 692 740 L683 721 Z " />
<glyph glyph-name="plusminus" unicode="&#xb1;" horiz-adv-x="1061" d="M145 690 L145 784 L483 784 L483 1145 L582 1145 L582 784 L915 784 L915 690 L582 690 L582 330 L483 330 L483 690 L145 690 Z M160 0 L160 94 L900 94 L900 0 L160 0 Z " />
<glyph glyph-name="lessequal" unicode="&#x2264;" horiz-adv-x="1061" d="M291 740 L881 376 L881 271 L179 707 L179 773 L881 1210 L881 1104 L291 740 Z M181 0 L181 94 L881 94 L881 0 L181 0 Z " />
<glyph glyph-name="greaterequal" unicode="&#x2265;" horiz-adv-x="1061" d="M769 740 L179 1104 L179 1210 L881 773 L881 707 L179 271 L179 376 L769 740 Z M179 0 L179 94 L881 94 L881 0 L179 0 Z " />
<glyph glyph-name="yen" unicode="&#xa5;" horiz-adv-x="1061" d="M475 0 L475 377 L194 377 L194 465 L475 465 L475 641 L194 641 L194 729 L435 729 L69 1475 L190 1475 L530 753 L870 1475 L991 1475 L626 729 L866 729 L866 641 L586 641 L586 465 L866 465 L866 377 L586 377 L586 0 L475 0 Z " />
<glyph glyph-name="mu" unicode="&#xb5;" horiz-adv-x="1061" d="M206 1061 L317 1061 L317 405 Q317 259 332 193 Q358 81 464 81 Q531 81 590 133 Q649 185 743 327 L743 1061 L854 1061 L854 0 L743 0 L743 198 Q660 83 590 33 Q520 -17 442 -17 Q370 -17 317 37 L317 -439 L206 -439 L206 1061 Z " />
<glyph glyph-name="partialdiff" unicode="&#x2202;" horiz-adv-x="1061" d="M653 1028 Q596 1140 534 1222 Q472 1304 316 1476 L379 1531 Q544 1365 599 1300 Q654 1235 718 1134 Q906 834 906 501 Q906 268 826 128 Q736 -31 530 -31 Q155 -31 155 510 Q155 754 235 893 Q327 1052 525 1052 Q593 1052 653 1028 Z M527 954 Q396 954 333 845 Q270 736 270 510 Q270 265 342 162 Q409 67 530 67 Q664 67 727.5 175 Q791 283 791 511 Q791 756 719 859 Q652 954 527 954 Z " />
<glyph glyph-name="summation" unicode="&#x2211;" horiz-adv-x="1031" d="M946 1573 L946 1479 L230 1479 L645 640 L180 -262 L961 -262 L961 -356 L55 -356 L55 -270 L521 643 L99 1495 L99 1573 L946 1573 Z " />
<glyph glyph-name="product" unicode="&#x220f;" horiz-adv-x="1229" d="M921 1479 L308 1479 L308 -356 L197 -356 L197 1573 L1032 1573 L1032 -356 L921 -356 L921 1479 Z " />
<glyph glyph-name="integral" unicode="&#x222b;" horiz-adv-x="571" d="M31 -349 L51 -249 Q82 -262 113 -262 Q192 -262 216 -181 Q228 -141 228 -14 L228 1225 Q228 1396 255 1461 Q277 1514 329 1546.5 Q381 1579 446 1579 Q492 1579 536 1567 L517 1468 Q483 1481 451 1481 Q389 1481 364 1432.5 Q339 1384 339 1264 L339 -5 Q339 -130 331.5 -181.5 Q324 -233 300 -274 Q248 -360 108 -360 Q61 -360 31 -349 Z " />
<glyph glyph-name="ordfeminine" unicode="&#xaa;" horiz-adv-x="625" d="M415 883 L415 955 Q364 901 329 884 Q294 867 233 867 Q47 867 47 1054 Q47 1184 127 1227 Q170 1250 286 1250 Q322 1250 400 1246 L400 1292 Q400 1418 280 1418 Q236 1418 208 1411 Q180 1404 119 1377 L84 1460 Q180 1506 283 1506 Q400 1506 449 1455.5 Q498 1405 498 1285 L498 883 L415 883 Z M400 1160 Q353 1162 286 1162 Q207 1162 182 1141 Q148 1114 148 1056 Q148 955 249 955 Q321 955 360.5 994.5 Q400 1034 400 1106 L400 1160 Z " />
<glyph glyph-name="ordmasculine" unicode="&#xba;" horiz-adv-x="646" d="M327 1506 Q468 1506 544 1420 Q617 1336 617 1186 Q617 1037 544 953 Q468 867 323 867 Q178 867 102 953 Q29 1037 29 1185 Q29 1337 102 1420 Q179 1506 327 1506 Z M319 1418 Q131 1418 131 1186 Q131 1099 164 1036 Q207 955 327 955 Q432 955 475 1025 Q515 1089 515 1186 Q515 1302 466.5 1360 Q418 1418 319 1418 Z " />
<glyph glyph-name="Omega" unicode="&#x2126;" horiz-adv-x="1277" d="M106 0 L106 94 L361 94 Q274 139 213 241 Q91 446 91 747 Q91 1083 221 1291 Q355 1506 639 1506 Q923 1506 1058 1291 Q1188 1084 1188 750 Q1188 515 1116.5 342 Q1045 169 917 94 L1172 94 L1172 0 L710 0 L710 121 Q766 130 797 141 Q937 188 1016 393 Q1073 542 1073 760 Q1073 1044 969 1221 Q860 1408 639 1408 Q420 1408 310 1221 Q206 1045 206 761 Q206 543 262 393 Q341 185 479 141 Q511 131 567 121 L567 0 L106 0 Z " />
<glyph glyph-name="ae" unicode="&#xe6;" horiz-adv-x="1522" d="M691 630 L691 699 Q691 764 680 826.5 Q669 889 652 919 Q606 1000 466 1000 Q355 1000 312 933 Q284 889 270 801 L169 801 Q183 927 230 995 Q298 1095 468 1095 Q591 1095 660 1052.5 Q729 1010 768 909 Q854 1093 1057 1093 Q1187 1093 1275 1016 Q1367 935 1404 750 Q1422 661 1422 562 Q1422 540 1420 513 L802 513 Q805 62 1071 62 Q1207 62 1332 200 L1398 121 Q1342 63 1305 38 Q1204 -32 1074 -32 Q843 -32 751 202 Q647 -32 392 -32 Q244 -32 170 53 Q95 138 95 293 Q95 398 127 477.5 Q159 557 217 595 Q285 640 465 640 Q509 640 578 636 Q656 631 691 630 Z M690 533 Q604 545 462 545 Q320 545 271 500 Q208 441 208 295 Q208 63 405 63 Q585 63 656 214 Q690 286 690 404 L690 533 Z M1306 608 Q1298 762 1269 835 Q1205 999 1055 999 Q891 999 831 807 Q810 741 803 608 L1306 608 Z " />
<glyph glyph-name="oslash" unicode="&#xf8;" horiz-adv-x="955" d="M181 136 Q102 280 102 528 Q102 784 182 928 Q274 1094 476 1094 Q627 1094 721 998 L783 1098 L887 1098 L777 921 Q853 775 853 534 Q853 -32 479 -32 Q329 -32 238 60 L172 -45 L68 -45 L181 136 Z M250 245 L662 904 Q598 999 477 999 Q343 999 279 884.5 Q215 770 215 528 Q215 353 250 245 Z M707 810 L295 153 Q361 62 478 62 Q612 62 676 176.5 Q740 291 740 531 Q740 706 707 810 Z " />
<glyph glyph-name="questiondown" unicode="&#xbf;" horiz-adv-x="900" d="M496 946 L496 866 Q496 732 465 660 Q442 608 422 586.5 Q402 565 301 487 Q229 431 200 356 Q167 270 167 155 Q167 25 223 -50 Q281 -127 397 -127 Q528 -127 593 -8 Q631 62 649 215 L752 215 Q734 19 669 -80 Q576 -225 387 -225 Q230 -225 144 -129 Q52 -25 52 161 Q52 364 138 478 Q173 524 300 618 Q358 661 378 706.5 Q398 752 398 843 L398 946 L496 946 Z M454 1353 Q493 1353 521 1325 Q549 1297 549 1258 Q549 1218 520.5 1190.5 Q492 1163 452 1163 Q411 1163 383 1191 Q355 1219 355 1259 Q355 1298 383.5 1325.5 Q412 1353 454 1353 Z " />
<glyph glyph-name="exclamdown" unicode="&#xa1;" horiz-adv-x="595" d="M346 946 L361 -193 L234 -193 L249 946 L346 946 Z M300 1353 Q339 1353 367 1325 Q395 1297 395 1258 Q395 1218 366.5 1190.5 Q338 1163 298 1163 Q257 1163 229 1191 Q201 1219 201 1259 Q201 1298 230 1325.5 Q259 1353 300 1353 Z " />
<glyph glyph-name="logicalnot" unicode="&#xac;" horiz-adv-x="1061" d="M150 690 L150 784 L862 784 L862 289 L763 289 L763 690 L150 690 Z " />
<glyph glyph-name="radical" unicode="&#x221a;" horiz-adv-x="1061" d="M471 0 L280 635 L154 635 L154 723 L365 723 L518 199 L863 1712 L1264 1712 L1264 1624 L947 1624 L572 0 L471 0 Z " />
<glyph glyph-name="florin" unicode="&#x192;" horiz-adv-x="1061" d="M317 756 L317 850 L486 850 L540 1221 Q564 1381 610.5 1443.5 Q657 1506 752 1506 Q837 1506 902 1462 L870 1377 Q803 1408 764 1408 Q707 1408 684 1370.5 Q661 1333 643 1210 L590 850 L737 850 L737 756 L575 756 L478 15 Q461 -118 426 -203 Q371 -336 247 -336 Q188 -336 109 -297 L139 -210 Q194 -238 231 -238 Q275 -238 299 -218 Q323 -198 343 -148 Q364 -92 379 30 L471 756 L317 756 Z " />
<glyph glyph-name="approxequal" unicode="&#x2248;" horiz-adv-x="1061" d="M285 791 L221 853 Q328 999 433 999 Q507 999 599 940 Q665 897 689.5 886.5 Q714 876 744 876 Q812 876 895 986 L957 930 Q853 778 745 778 Q706 778 671.5 791.5 Q637 805 573 846 Q486 901 437 901 Q397 901 363.5 877 Q330 853 285 791 Z M285 493 L221 554 Q328 700 433 700 Q507 700 599 641 Q666 598 689.5 587.5 Q713 577 744 577 Q811 577 895 687 L957 631 Q853 479 745 479 Q706 479 671.5 492.5 Q637 506 573 547 Q486 602 437 602 Q397 602 363.5 578 Q330 554 285 493 Z " />
<glyph glyph-name="increment" unicode="&#x2206;" horiz-adv-x="1061" d="M1044 0 L18 0 L491 1475 L571 1475 L1044 0 Z M894 94 L531 1291 L169 94 L894 94 Z " />
<glyph glyph-name="guillemotleft" unicode="&#xab;" horiz-adv-x="667" d="M446 575 L663 219 L561 219 L342 575 L561 930 L663 930 L446 575 Z M178 575 L396 219 L293 219 L74 575 L293 930 L396 930 L178 575 Z " />
<glyph glyph-name="guillemotright" unicode="&#xbb;" horiz-adv-x="667" d="M222 575 L4 930 L107 930 L326 575 L107 219 L4 219 L222 575 Z M489 575 L272 930 L374 930 L593 575 L374 219 L272 219 L489 575 Z " />
<glyph glyph-name="ellipsis" unicode="&#x2026;" horiz-adv-x="1830" d="M302 161 Q341 161 369 133 Q397 105 397 66 Q397 27 368.5 -1 Q340 -29 300 -29 Q259 -29 231 -1 Q203 27 203 67 Q203 106 232 133.5 Q261 161 302 161 Z M917 161 Q956 161 984 133 Q1012 105 1012 66 Q1012 27 983.5 -1 Q955 -29 915 -29 Q874 -29 846 -1 Q818 27 818 67 Q818 106 846.5 133.5 Q875 161 917 161 Z M1533 161 Q1572 161 1600 133 Q1628 105 1628 66 Q1628 27 1600 -1 Q1572 -29 1531 -29 Q1490 -29 1462 -1.5 Q1434 26 1434 67 Q1434 107 1462.5 134 Q1491 161 1533 161 Z " />
<glyph glyph-name="Agrave" unicode="&#xc0;" horiz-adv-x="1088" d="M806 444 L285 444 L148 0 L32 0 L505 1475 L585 1475 L1058 0 L943 0 L806 444 Z M777 538 L545 1291 L314 538 L777 538 Z M511 1587 L309 1905 L438 1905 L591 1587 L511 1587 Z " />
<glyph glyph-name="Atilde" unicode="&#xc3;" horiz-adv-x="1088" d="M806 444 L285 444 L148 0 L32 0 L505 1475 L585 1475 L1058 0 L943 0 L806 444 Z M777 538 L545 1291 L314 538 L777 538 Z M383 1659 L313 1659 Q349 1833 454 1833 Q498 1833 558 1784 Q612 1741 631 1741 Q674 1741 703 1831 L773 1831 Q733 1653 625 1653 Q575 1653 499 1717 Q465 1745 447 1745 Q410 1745 383 1659 Z " />
<glyph glyph-name="Otilde" unicode="&#xd5;" horiz-adv-x="1147" d="M582 1504 Q745 1504 853 1404 Q1036 1235 1036 737 Q1036 390 942 191 Q837 -29 574 -29 Q310 -29 205 191 Q111 389 111 732 Q111 1092 205 1284 Q313 1504 582 1504 Z M567 1406 Q226 1406 226 737 Q226 436 298 261 Q378 69 574 69 Q769 69 849 261 Q921 438 921 732 Q921 1043 849 1214 Q806 1314 738.5 1360 Q671 1406 567 1406 Z M412 1659 L342 1659 Q378 1833 483 1833 Q527 1833 587 1784 Q641 1741 660 1741 Q703 1741 732 1831 L802 1831 Q762 1653 654 1653 Q604 1653 528 1717 Q494 1745 476 1745 Q439 1745 412 1659 Z " />
<glyph glyph-name="OE" unicode="&#x152;" horiz-adv-x="1662" d="M966 94 L1536 94 L1536 0 L974 0 Q914 0 737 -13 Q694 -16 656 -16 Q376 -16 250 164 Q111 362 111 738 Q111 1146 272 1339 Q398 1491 654 1491 Q693 1491 819 1482 Q913 1475 980 1475 L1523 1475 L1523 1381 L966 1381 L966 811 L1430 811 L1430 717 L966 717 L966 94 Z M855 94 L855 1381 Q726 1393 658 1393 Q522 1393 435 1334 Q314 1250 265 1075 Q226 935 226 735 Q226 382 348 225 Q408 149 482 115.5 Q556 82 664 82 Q725 82 855 94 Z " />
<glyph glyph-name="oe" unicode="&#x153;" horiz-adv-x="1568" d="M793 208 Q710 -32 474 -32 Q273 -32 181 134 Q101 279 101 532 Q101 784 181 928 Q273 1093 474 1093 Q707 1093 792 859 Q815 917 836 952 Q921 1093 1102 1093 Q1232 1093 1320 1016 Q1410 937 1447 763 Q1467 666 1467 555 Q1467 537 1466 513 L847 513 Q850 359 875 274 Q935 62 1117 62 Q1255 62 1378 200 L1443 121 Q1387 63 1351 38 Q1250 -32 1121 -32 Q887 -32 793 208 Z M472 999 Q329 999 266 861 Q214 747 214 530 Q214 329 260 215 Q321 62 476 62 Q739 62 739 526 Q739 761 680 876 Q616 999 472 999 Z M1352 608 Q1345 758 1315 835 Q1251 999 1101 999 Q937 999 877 807 Q856 740 849 608 L1352 608 Z " />
<glyph glyph-name="endash" unicode="&#x2013;" horiz-adv-x="670" d="M30 568 L30 662 L640 662 L640 568 L30 568 Z " />
<glyph glyph-name="emdash" unicode="&#x2014;" horiz-adv-x="1061" d="M-46 568 L-46 662 L1109 662 L1109 568 L-46 568 Z " />
<glyph glyph-name="quotedblleft" unicode="&#x201c;" horiz-adv-x="721" d="M117 1085 L253 1475 L348 1475 L259 1085 L117 1085 Z M387 1085 L523 1475 L618 1475 L527 1085 L387 1085 Z " />
<glyph glyph-name="quotedblright" unicode="&#x201d;" horiz-adv-x="719" d="M116 1085 L205 1475 L347 1475 L211 1085 L116 1085 Z M386 1085 L475 1475 L617 1475 L481 1085 L386 1085 Z " />
<glyph glyph-name="quoteleft" unicode="&#x2018;" horiz-adv-x="449" d="M115 1085 L251 1475 L346 1475 L257 1085 L115 1085 Z " />
<glyph glyph-name="quoteright" unicode="&#x2019;" horiz-adv-x="449" d="M116 1085 L205 1475 L347 1475 L211 1085 L116 1085 Z " />
<glyph glyph-name="divide" unicode="&#xf7;" horiz-adv-x="1061" d="M145 690 L145 784 L915 784 L915 690 L145 690 Z M533 1128 Q569 1128 595.5 1102 Q622 1076 622 1039 Q622 1002 595.5 976 Q569 950 531 950 Q493 950 466.5 976 Q440 1002 440 1040 Q440 1077 467 1102.5 Q494 1128 533 1128 Z M533 526 Q569 526 595.5 500 Q622 474 622 437 Q622 400 595.5 374 Q569 348 531 348 Q493 348 466.5 374 Q440 400 440 438 Q440 475 467 500.5 Q494 526 533 526 Z " />
<glyph glyph-name="lozenge" unicode="&#x25ca;" horiz-adv-x="942" d="M6 704 L471 1475 L936 704 L471 -66 L6 704 Z M106 704 L471 105 L835 704 L471 1304 L106 704 Z " />
<glyph glyph-name="ydieresis" unicode="&#xff;" horiz-adv-x="783" d="M344 39 L26 1061 L138 1061 L391 191 L645 1061 L758 1061 L389 -172 Q340 -336 272 -395 Q224 -437 96 -439 L96 -345 Q177 -343 210 -313 Q254 -273 285 -164 L344 39 Z M253 1463 Q287 1463 311 1438.5 Q335 1414 335 1379 Q335 1344 310.5 1319.5 Q286 1295 251 1295 Q216 1295 191.5 1320 Q167 1345 167 1380 Q167 1415 191.5 1439 Q216 1463 253 1463 Z M536 1463 Q570 1463 594 1438.5 Q618 1414 618 1379 Q618 1344 593.5 1319.5 Q569 1295 534 1295 Q499 1295 474.5 1320 Q450 1345 450 1380 Q450 1415 474.5 1439 Q499 1463 536 1463 Z " />
<glyph glyph-name="Ydieresis" unicode="&#x178;" horiz-adv-x="857" d="M373 0 L373 588 L-33 1475 L88 1475 L428 708 L769 1475 L890 1475 L484 588 L484 0 L373 0 Z M266 1825 Q300 1825 324 1800.5 Q348 1776 348 1741 Q348 1706 323.5 1681.5 Q299 1657 264 1657 Q229 1657 204.5 1682 Q180 1707 180 1742 Q180 1777 204.5 1801 Q229 1825 266 1825 Z M594 1825 Q628 1825 652 1800.5 Q676 1776 676 1741 Q676 1706 651.5 1681.5 Q627 1657 592 1657 Q557 1657 532.5 1681.5 Q508 1706 508 1742 Q508 1777 532.5 1801 Q557 1825 594 1825 Z " />
<glyph glyph-name="fraction" unicode="&#x2044;" horiz-adv-x="169" d="M-265 0 L332 1475 L434 1475 L-163 0 L-265 0 Z " />
<glyph glyph-name="Euro" unicode="&#x20ac;" horiz-adv-x="1061" d="M-6 530 L25 618 L172 618 Q169 681 169 760 Q169 780 170 797 L-6 797 L25 885 L174 885 Q184 1062 235 1208 Q336 1495 634 1495 Q881 1495 965 1296 Q1003 1207 1007 1063 L900 1063 Q896 1228 828.5 1312.5 Q761 1397 633 1397 Q428 1397 346 1179 Q307 1074 289 885 L873 885 L842 797 L285 797 Q284 752 284 725 Q284 675 287 618 L785 618 L753 530 L293 530 Q308 389 341 289 Q379 174 444.5 121.5 Q510 69 616 69 Q733 69 806 116.5 Q879 164 942 280 L1036 233 Q971 104 887 47 Q776 -29 614 -29 Q326 -29 236 245 Q190 384 178 530 L-6 530 Z " />
<glyph glyph-name="guilsinglleft" unicode="&#x2039;" horiz-adv-x="400" d="M178 575 L396 219 L293 219 L74 575 L293 930 L396 930 L178 575 Z " />
<glyph glyph-name="guilsinglright" unicode="&#x203a;" horiz-adv-x="400" d="M222 575 L4 930 L107 930 L326 575 L107 219 L4 219 L222 575 Z " />
<glyph glyph-name="fi" unicode="&#xfb01;" horiz-adv-x="1024" d="M210 0 L210 967 L82 967 L82 1061 L210 1061 L210 1170 Q210 1342 244 1417 Q296 1531 457 1531 Q510 1531 576 1516 L564 1424 Q505 1436 470 1436 Q381 1436 350 1383 Q319 1330 319 1179 L319 1061 L538 1061 L538 967 L319 967 L319 0 L210 0 Z M733 0 L733 1061 L841 1061 L841 0 L733 0 Z M789 1465 Q824 1465 848.5 1440 Q873 1415 873 1379 Q873 1343 848 1318 Q823 1293 787 1293 Q751 1293 726 1318.5 Q701 1344 701 1380 Q701 1416 726.5 1440.5 Q752 1465 789 1465 Z " />
<glyph glyph-name="fl" unicode="&#xfb02;" horiz-adv-x="1022" d="M210 0 L210 967 L82 967 L82 1061 L210 1061 L210 1170 Q210 1342 244 1417 Q296 1531 457 1531 Q510 1531 576 1516 L564 1424 Q505 1436 470 1436 Q381 1436 350 1383 Q319 1330 319 1179 L319 1061 L538 1061 L538 967 L319 967 L319 0 L210 0 Z M729 0 L729 1516 L838 1516 L838 0 L729 0 Z " />
<glyph glyph-name="daggerdbl" unicode="&#x2021;" horiz-adv-x="960" d="M433 977 L134 977 L134 1071 L433 1071 L433 1516 L532 1516 L532 1069 L826 1069 L826 975 L532 975 L532 346 L826 346 L826 252 L532 252 L532 -195 L433 -195 L433 250 L134 250 L134 344 L433 344 L433 977 Z " />
<glyph glyph-name="periodcentered" unicode="&#xb7;" horiz-adv-x="599" d="M304 710 Q343 710 371 682 Q399 654 399 615 Q399 576 370.5 548 Q342 520 302 520 Q261 520 233 548 Q205 576 205 616 Q205 655 234 682.5 Q263 710 304 710 Z " />
<glyph glyph-name="quotesinglbase" unicode="&#x201a;" horiz-adv-x="449" d="M104 -236 L194 154 L335 154 L199 -236 L104 -236 Z " />
<glyph glyph-name="quotedblbase" unicode="&#x201e;" horiz-adv-x="719" d="M95 -227 L184 162 L326 162 L190 -227 L95 -227 Z M365 -227 L454 162 L596 162 L460 -227 L365 -227 Z " />
<glyph glyph-name="perthousand" unicode="&#x2030;" horiz-adv-x="1999" d="M355 1506 Q489 1506 560 1404 Q631 1302 631 1134 Q631 967 560 864 Q490 762 351 762 Q211 762 141 864 Q70 967 70 1132 Q70 1312 144 1409 Q218 1506 355 1506 Z M347 1418 Q254 1418 209 1330 Q171 1256 171 1134 Q171 994 216.5 922 Q262 850 351 850 Q447 850 492 938 Q530 1012 530 1132 Q530 1418 347 1418 Z M1009 715 Q1144 715 1215 613 Q1286 510 1286 343 Q1286 176 1215 73 Q1144 -29 1005 -29 Q864 -29 794 73 Q723 177 723 341 Q723 521 797.5 618 Q872 715 1009 715 Z M1001 627 Q907 627 862 539 Q824 465 824 343 Q824 203 870 131 Q916 59 1004 59 Q1102 59 1147 147 Q1185 222 1185 341 Q1185 627 1001 627 Z M1652 715 Q1787 715 1858 613 Q1929 510 1929 343 Q1929 176 1858 73 Q1787 -29 1647 -29 Q1507 -29 1437 73 Q1366 177 1366 341 Q1366 520 1440.5 617.5 Q1515 715 1652 715 Z M1644 627 Q1550 627 1505 539 Q1467 465 1467 343 Q1467 203 1513 131 Q1559 59 1648 59 Q1746 59 1790 147 Q1828 222 1828 341 Q1828 627 1644 627 Z M290 0 L960 1475 L1065 1475 L395 0 L290 0 Z " />
<glyph glyph-name="Acircumflex" unicode="&#xc2;" horiz-adv-x="1088" d="M806 444 L285 444 L148 0 L32 0 L505 1475 L585 1475 L1058 0 L943 0 L806 444 Z M777 538 L545 1291 L314 538 L777 538 Z M543 1817 L400 1587 L289 1587 L511 1905 L576 1905 L798 1587 L686 1587 L543 1817 Z " />
<glyph glyph-name="Ecircumflex" unicode="&#xca;" horiz-adv-x="1003" d="M191 0 L191 1475 L909 1475 L909 1381 L302 1381 L302 811 L814 811 L814 717 L302 717 L302 94 L922 94 L922 0 L191 0 Z M546 1817 L403 1587 L292 1587 L514 1905 L579 1905 L801 1587 L689 1587 L546 1817 Z " />
<glyph glyph-name="Aacute" unicode="&#xc1;" horiz-adv-x="1088" d="M806 444 L285 444 L148 0 L32 0 L505 1475 L585 1475 L1058 0 L943 0 L806 444 Z M777 538 L545 1291 L314 538 L777 538 Z M490 1587 L643 1905 L772 1905 L570 1587 L490 1587 Z " />
<glyph glyph-name="Edieresis" unicode="&#xcb;" horiz-adv-x="1003" d="M191 0 L191 1475 L909 1475 L909 1381 L302 1381 L302 811 L814 811 L814 717 L302 717 L302 94 L922 94 L922 0 L191 0 Z M384 1825 Q418 1825 442 1800.5 Q466 1776 466 1741 Q466 1706 441.5 1681.5 Q417 1657 382 1657 Q347 1657 322.5 1682 Q298 1707 298 1742 Q298 1777 322.5 1801 Q347 1825 384 1825 Z M712 1825 Q746 1825 770 1800.5 Q794 1776 794 1741 Q794 1706 769.5 1681.5 Q745 1657 710 1657 Q675 1657 650.5 1681.5 Q626 1706 626 1742 Q626 1777 650.5 1801 Q675 1825 712 1825 Z " />
<glyph glyph-name="Egrave" unicode="&#xc8;" horiz-adv-x="1003" d="M191 0 L191 1475 L909 1475 L909 1381 L302 1381 L302 811 L814 811 L814 717 L302 717 L302 94 L922 94 L922 0 L191 0 Z M581 1587 L379 1905 L508 1905 L661 1587 L581 1587 Z " />
<glyph glyph-name="Iacute" unicode="&#xcd;" horiz-adv-x="493" d="M192 0 L192 1475 L303 1475 L303 0 L192 0 Z M179 1587 L332 1905 L461 1905 L259 1587 L179 1587 Z " />
<glyph glyph-name="Icircumflex" unicode="&#xce;" horiz-adv-x="493" d="M191 0 L191 1475 L302 1475 L302 0 L191 0 Z M246 1817 L103 1587 L-8 1587 L214 1905 L279 1905 L501 1587 L389 1587 L246 1817 Z " />
<glyph glyph-name="Idieresis" unicode="&#xcf;" horiz-adv-x="493" d="M192 0 L192 1475 L303 1475 L303 0 L192 0 Z M85 1825 Q119 1825 143 1800.5 Q167 1776 167 1741 Q167 1706 142.5 1681.5 Q118 1657 83 1657 Q48 1657 23.5 1682 Q-1 1707 -1 1742 Q-1 1777 23.5 1801 Q48 1825 85 1825 Z M413 1825 Q447 1825 471 1800.5 Q495 1776 495 1741 Q495 1706 470.5 1681.5 Q446 1657 411 1657 Q376 1657 351.5 1681.5 Q327 1706 327 1742 Q327 1777 351.5 1801 Q376 1825 413 1825 Z " />
<glyph glyph-name="Igrave" unicode="&#xcc;" horiz-adv-x="493" d="M191 0 L191 1475 L302 1475 L302 0 L191 0 Z M241 1587 L39 1905 L168 1905 L321 1587 L241 1587 Z " />
<glyph glyph-name="Oacute" unicode="&#xd3;" horiz-adv-x="1147" d="M582 1504 Q745 1504 853 1404 Q1036 1235 1036 737 Q1036 390 942 191 Q837 -29 574 -29 Q310 -29 205 191 Q111 389 111 732 Q111 1092 205 1284 Q313 1504 582 1504 Z M567 1406 Q226 1406 226 737 Q226 436 298 261 Q378 69 574 69 Q769 69 849 261 Q921 438 921 732 Q921 1043 849 1214 Q806 1314 738.5 1360 Q671 1406 567 1406 Z M478 1587 L631 1905 L760 1905 L558 1587 L478 1587 Z " />
<glyph glyph-name="Ocircumflex" unicode="&#xd4;" horiz-adv-x="1147" d="M582 1504 Q745 1504 853 1404 Q1036 1235 1036 737 Q1036 390 942 191 Q837 -29 574 -29 Q310 -29 205 191 Q111 389 111 732 Q111 1092 205 1284 Q313 1504 582 1504 Z M567 1406 Q226 1406 226 737 Q226 436 298 261 Q378 69 574 69 Q769 69 849 261 Q921 438 921 732 Q921 1043 849 1214 Q806 1314 738.5 1360 Q671 1406 567 1406 Z M573 1817 L430 1587 L319 1587 L541 1905 L606 1905 L828 1587 L716 1587 L573 1817 Z " />
<glyph glyph-name="Ograve" unicode="&#xd2;" horiz-adv-x="1147" d="M582 1504 Q745 1504 853 1404 Q1036 1235 1036 737 Q1036 390 942 191 Q837 -29 574 -29 Q310 -29 205 191 Q111 389 111 732 Q111 1092 205 1284 Q313 1504 582 1504 Z M567 1406 Q226 1406 226 737 Q226 436 298 261 Q378 69 574 69 Q769 69 849 261 Q921 438 921 732 Q921 1043 849 1214 Q806 1314 738.5 1360 Q671 1406 567 1406 Z M588 1587 L386 1905 L515 1905 L668 1587 L588 1587 Z " />
<glyph glyph-name="Uacute" unicode="&#xda;" horiz-adv-x="1192" d="M181 1475 L292 1475 L292 468 Q292 298 337 204 Q402 69 596 69 Q756 69 827.5 163 Q899 257 899 468 L899 1475 L1010 1475 L1010 537 Q1010 370 997 288.5 Q984 207 947 142 Q850 -29 596 -29 Q341 -29 244 142 Q207 207 194 289.5 Q181 372 181 537 L181 1475 Z M514 1587 L667 1905 L796 1905 L594 1587 L514 1587 Z " />
<glyph glyph-name="Ucircumflex" unicode="&#xdb;" horiz-adv-x="1192" d="M181 1475 L292 1475 L292 468 Q292 298 337 204 Q402 69 596 69 Q756 69 827.5 163 Q899 257 899 468 L899 1475 L1010 1475 L1010 537 Q1010 370 997 288.5 Q984 207 947 142 Q850 -29 596 -29 Q341 -29 244 142 Q207 207 194 289.5 Q181 372 181 537 L181 1475 Z M595 1817 L452 1587 L341 1587 L563 1905 L628 1905 L850 1587 L738 1587 L595 1817 Z " />
<glyph glyph-name="Ugrave" unicode="&#xd9;" horiz-adv-x="1192" d="M181 1475 L292 1475 L292 468 Q292 298 337 204 Q402 69 596 69 Q756 69 827.5 163 Q899 257 899 468 L899 1475 L1010 1475 L1010 537 Q1010 370 997 288.5 Q984 207 947 142 Q850 -29 596 -29 Q341 -29 244 142 Q207 207 194 289.5 Q181 372 181 537 L181 1475 Z M610 1587 L408 1905 L537 1905 L690 1587 L610 1587 Z " />
<glyph glyph-name="dotlessi" unicode="&#x131;" horiz-adv-x="477" d="M186 0 L186 1061 L295 1061 L295 0 L186 0 Z " />
<glyph glyph-name="circumflex" unicode="&#x2c6;" horiz-adv-x="1024" d="M512 1454 L369 1225 L258 1225 L480 1542 L545 1542 L767 1225 L655 1225 L512 1454 Z " />
<glyph glyph-name="tilde" unicode="&#x2dc;" horiz-adv-x="1024" d="M351 1296 L281 1296 Q317 1470 422 1470 Q466 1470 526 1421 Q579 1378 599 1378 Q642 1378 671 1468 L741 1468 Q701 1290 593 1290 Q544 1290 467 1354 Q433 1382 415 1382 Q378 1382 351 1296 Z " />
<glyph glyph-name="overscore" unicode="&#xaf;" horiz-adv-x="1024" d="M311 1325 L311 1436 L710 1436 L710 1325 L311 1325 Z " />
<glyph glyph-name="breve" unicode="&#x2d8;" horiz-adv-x="1024" d="M286 1513 L361 1513 Q367 1426 402 1389 Q437 1352 511 1352 Q588 1352 622 1388.5 Q656 1425 662 1513 L738 1513 Q727 1367 677 1312 Q625 1254 512 1254 Q395 1254 345.5 1311 Q296 1368 286 1513 Z " />
<glyph glyph-name="dotaccent" unicode="&#x2d9;" horiz-adv-x="1024" d="M514 1465 Q549 1465 573.5 1440 Q598 1415 598 1379 Q598 1343 573 1318 Q548 1293 512 1293 Q476 1293 451 1318.5 Q426 1344 426 1380 Q426 1416 451.5 1440.5 Q477 1465 514 1465 Z " />
<glyph glyph-name="ring" unicode="&#x2da;" horiz-adv-x="1024" d="M515 1622 Q610 1622 665.5 1564 Q721 1506 721 1407 Q721 1307 665.5 1249.5 Q610 1192 512 1192 Q414 1192 358.5 1249 Q303 1306 303 1406 Q303 1508 359 1565 Q415 1622 515 1622 Z M510 1544 Q453 1544 422 1508 Q391 1472 391 1407 Q391 1270 512 1270 Q633 1270 633 1407 Q633 1544 510 1544 Z " />
<glyph glyph-name="cedilla" unicode="&#xb8;" horiz-adv-x="1024" d="M499 0 L581 0 L539 -101 Q603 -104 634 -120 Q711 -158 711 -274 Q711 -362 662 -411 Q613 -460 525 -460 Q426 -460 332 -422 L357 -332 Q438 -372 519 -372 Q611 -372 611 -275 Q611 -184 510 -184 Q492 -184 458 -187 L449 -116 L499 0 Z " />
<glyph glyph-name="hungarumlaut" unicode="&#x2dd;" horiz-adv-x="1024" d="M381 1225 L486 1542 L605 1542 L449 1225 L381 1225 Z M583 1225 L692 1542 L812 1542 L651 1225 L583 1225 Z " />
<glyph glyph-name="ogonek" unicode="&#x2db;" horiz-adv-x="1024" d="M563 0 L653 0 Q581 -70 550.5 -129.5 Q520 -189 520 -259 Q520 -336 590 -336 L666 -336 L666 -424 L595 -424 Q420 -424 420 -276 Q420 -150 563 0 Z " />
<glyph glyph-name="caron" unicode="&#x2c7;" horiz-adv-x="1024" d="M512 1312 L655 1542 L767 1542 L545 1225 L480 1225 L258 1542 L369 1542 L512 1312 Z " />
<glyph glyph-name="nbspace" unicode="&#xa0;" horiz-adv-x="410" d="" />
<glyph glyph-name="currency" unicode="&#xa4;" horiz-adv-x="1061" d="M170 319 L104 372 L257 541 Q198 645 198 807 Q198 972 257 1075 L104 1244 L170 1297 L309 1143 Q391 1223 531 1223 Q674 1223 754 1143 L893 1297 L959 1244 L806 1075 Q864 970 864 809 Q864 643 806 541 L959 372 L893 319 L754 473 Q674 393 531 393 Q391 393 309 473 L170 319 Z M527 1135 Q397 1135 340 1038 Q286 945 286 808 Q286 671 340 577 Q397 481 531 481 Q665 481 722 577 Q776 671 776 807 Q776 947 722 1038 Q664 1135 527 1135 Z " />
<glyph glyph-name="brokenbar" unicode="&#xa6;" horiz-adv-x="667" d="M284 889 L284 1475 L382 1475 L382 889 L284 889 Z M284 0 L284 586 L382 586 L382 0 L284 0 Z " />
<glyph glyph-name="uni00AD" unicode="&#xad;" horiz-adv-x="659" d="M113 568 L113 662 L546 662 L546 568 L113 568 Z " />
<glyph glyph-name="twosuperior" unicode="&#xb2;" horiz-adv-x="635" d="M42 817 Q55 937 95.5 999 Q136 1061 318 1235 Q386 1300 412.5 1350 Q439 1400 439 1463 Q439 1531 405 1569.5 Q371 1608 312 1608 Q234 1608 198.5 1564 Q163 1520 150 1409 L46 1409 Q61 1543 97 1598 Q161 1696 314 1696 Q549 1696 549 1468 Q549 1362 511.5 1299 Q474 1236 330 1101 Q248 1024 217.5 986 Q187 948 172 905 L568 905 L568 817 L42 817 Z " />
<glyph glyph-name="threesuperior" unicode="&#xb3;" horiz-adv-x="637" d="M202 1230 L202 1317 L249 1318 L286 1318 Q366 1318 395 1352 Q431 1396 431 1469 Q431 1608 307 1608 Q240 1608 206 1573.5 Q172 1539 159 1458 L54 1458 Q69 1569 108 1617 Q173 1696 313 1696 Q428 1696 485 1642 Q541 1588 541 1468 Q541 1332 461 1275 Q564 1212 564 1056 Q564 803 304 803 Q168 803 106.5 862.5 Q45 922 35 1065 L140 1065 Q149 972 187 931.5 Q225 891 302 891 Q366 891 403 923 Q454 968 454 1057 Q454 1112 431 1156.5 Q408 1201 373 1215 Q338 1229 202 1230 Z " />
<glyph glyph-name="onesuperior" unicode="&#xb9;" horiz-adv-x="464" d="M197 819 L197 1575 L24 1496 L24 1596 L228 1686 L309 1686 L309 819 L197 819 Z " />
<glyph glyph-name="onequarter" unicode="&#xbc;" horiz-adv-x="1417" d="M296 614 L296 1370 L124 1292 L124 1392 L327 1481 L408 1481 L408 614 L296 614 Z M1077 0 L1077 186 L747 186 L747 251 L961 860 L1072 860 L867 274 L1077 274 L1077 621 L1190 621 L1190 274 L1304 274 L1304 186 L1190 186 L1190 0 L1077 0 Z M282 0 L879 1475 L981 1475 L384 0 L282 0 Z " />
<glyph glyph-name="onehalf" unicode="&#xbd;" horiz-adv-x="1415" d="M289 614 L289 1370 L117 1292 L117 1392 L320 1481 L401 1481 L401 614 L289 614 Z M733 0 Q746 120 787 182.5 Q828 245 1009 417 Q1077 481 1103.5 531 Q1130 581 1130 645 Q1130 712 1096 750.5 Q1062 789 1003 789 Q926 789 890 744.5 Q854 700 841 590 L737 590 Q751 722 788 779 Q852 877 1006 877 Q1121 877 1180.5 819 Q1240 761 1240 649 Q1240 543 1203 481 Q1166 419 1022 283 Q939 206 908.5 168 Q878 130 863 88 L1259 88 L1259 0 L733 0 Z M248 0 L845 1475 L947 1475 L350 0 L248 0 Z " />
<glyph glyph-name="threequarters" unicode="&#xbe;" horiz-adv-x="1420" d="M200 1025 L200 1112 L247 1113 L284 1113 Q364 1113 393 1147 Q429 1191 429 1264 Q429 1403 305 1403 Q238 1403 203.5 1368.5 Q169 1334 157 1253 L52 1253 Q67 1364 106 1412 Q170 1491 310 1491 Q426 1491 483 1437 Q539 1383 539 1262 Q539 1127 459 1070 Q562 1007 562 851 Q562 598 302 598 Q166 598 104.5 657.5 Q43 717 33 860 L138 860 Q147 767 185 726.5 Q223 686 300 686 Q364 686 401 718 Q452 763 452 852 Q452 907 429 951.5 Q406 996 371 1010 Q336 1024 200 1025 Z M1121 0 L1121 186 L791 186 L791 251 L1005 860 L1116 860 L911 274 L1121 274 L1121 621 L1234 621 L1234 274 L1347 274 L1347 186 L1234 186 L1234 0 L1121 0 Z M359 0 L957 1475 L1059 1475 L462 0 L359 0 Z " />
<glyph glyph-name="Eth" unicode="&#xd0;" horiz-adv-x="1247" d="M198 823 L198 1475 L541 1475 Q817 1475 960 1318 Q1134 1126 1134 737 Q1134 351 960 156 Q886 73 782 36.5 Q678 0 515 0 L198 0 L198 729 L28 729 L28 823 L198 823 Z M309 823 L665 823 L665 729 L309 729 L309 94 L526 94 Q676 94 770 142 Q1019 272 1019 736 Q1019 1083 886 1240 Q821 1317 735.5 1349 Q650 1381 511 1381 L309 1381 L309 823 Z " />
<glyph glyph-name="multiply" unicode="&#xd7;" horiz-adv-x="1061" d="M463 737 L179 1009 L246 1076 L530 803 L814 1076 L881 1009 L597 737 L881 465 L814 398 L530 670 L246 398 L179 465 L463 737 Z " />
<glyph glyph-name="Yacute" unicode="&#xdd;" horiz-adv-x="857" d="M373 0 L373 588 L-33 1475 L88 1475 L428 708 L769 1475 L890 1475 L484 588 L484 0 L373 0 Z M353 1587 L506 1905 L635 1905 L433 1587 L353 1587 Z " />
<glyph glyph-name="Thorn" unicode="&#xde;" horiz-adv-x="1067" d="M191 0 L191 1475 L302 1475 L302 1177 L507 1177 Q735 1177 835 1111 Q909 1061 950 964 Q991 867 991 738 Q991 607 950.5 510.5 Q910 414 834 365 Q732 298 507 298 L302 298 L302 0 L191 0 Z M302 392 L540 392 Q631 392 686.5 409.5 Q742 427 784 469 Q876 560 876 738 Q876 915 787 1005 Q746 1047 689.5 1065 Q633 1083 542 1083 L302 1083 L302 392 Z " />
<glyph glyph-name="eth" unicode="&#xf0;" horiz-adv-x="952" d="M599 1068 Q537 1197 444 1318 L271 1180 L218 1241 L395 1381 Q361 1423 262 1536 L325 1592 Q420 1494 468 1439 L642 1576 L695 1516 L520 1378 Q851 981 851 520 Q851 279 771 134 Q680 -32 476 -32 Q101 -32 101 530 Q101 783 181 928 Q225 1007 300.5 1050 Q376 1093 471 1093 Q537 1093 599 1068 Z M472 999 Q341 999 277.5 883.5 Q214 768 214 530 Q214 272 287 163 Q354 62 476 62 Q610 62 674 176 Q738 290 738 532 Q738 788 665 898 Q599 999 472 999 Z " />
<glyph glyph-name="yacute" unicode="&#xfd;" horiz-adv-x="783" d="M344 39 L26 1061 L138 1061 L391 191 L645 1061 L758 1061 L389 -172 Q340 -336 272 -395 Q224 -437 96 -439 L96 -345 Q177 -343 210 -313 Q254 -273 285 -164 L344 39 Z M351 1225 L504 1542 L633 1542 L431 1225 L351 1225 Z " />
<glyph glyph-name="thorn" unicode="&#xfe;" horiz-adv-x="1018" d="M183 -439 L183 1516 L292 1516 L292 954 Q380 1093 557 1093 Q751 1093 839 927 Q917 783 917 531 Q917 278 839 133 Q751 -32 557 -32 Q383 -32 292 107 L292 -439 L183 -439 Z M546 999 Q292 999 292 530 Q292 326 338 214 Q366 146 421 104 Q477 62 554 62 Q682 62 743 176 Q804 290 804 528 Q804 735 760 847 Q701 999 546 999 Z " />
<glyph glyph-name="Amacron" unicode="&#x100;" horiz-adv-x="1088" d="M806 444 L285 444 L148 0 L32 0 L505 1475 L585 1475 L1058 0 L943 0 L806 444 Z M777 538 L545 1291 L314 538 L777 538 Z M343 1687 L343 1798 L742 1798 L742 1687 L343 1687 Z " />
<glyph glyph-name="amacron" unicode="&#x101;" horiz-adv-x="963" d="M701 142 Q659 63 602 24 Q521 -32 397 -32 Q248 -32 172 54 Q98 138 98 294 Q98 498 207 581 Q247 611 305.5 623.5 Q364 636 466 636 Q501 636 694 626 L694 699 Q694 861 656 920 Q604 1000 472 1000 Q373 1000 330 958 Q287 916 266 801 L165 801 Q178 895 198 944 Q231 1022 298.5 1058.5 Q366 1095 476 1095 Q573 1095 646 1063.5 Q719 1032 754 975 Q802 897 802 734 L802 0 L701 0 L701 142 Z M693 533 Q602 545 476 545 Q387 545 337 530.5 Q287 516 257 482 Q211 428 211 303 Q211 63 410 63 Q693 63 693 424 L693 533 Z M275 1325 L275 1436 L674 1436 L674 1325 L275 1325 Z " />
<glyph glyph-name="Abreve" unicode="&#x102;" horiz-adv-x="1088" d="M806 444 L285 444 L148 0 L32 0 L505 1475 L585 1475 L1058 0 L943 0 L806 444 Z M777 538 L545 1291 L314 538 L777 538 Z M318 1876 L393 1876 Q399 1789 433.5 1751.5 Q468 1714 543 1714 Q620 1714 654 1751 Q688 1788 694 1876 L770 1876 Q759 1730 709 1674 Q657 1616 544 1616 Q427 1616 377.5 1673.5 Q328 1731 318 1876 Z " />
<glyph glyph-name="abreve" unicode="&#x103;" horiz-adv-x="963" d="M701 142 Q659 63 602 24 Q521 -32 397 -32 Q248 -32 172 54 Q98 138 98 294 Q98 498 207 581 Q247 611 305.5 623.5 Q364 636 466 636 Q501 636 694 626 L694 699 Q694 861 656 920 Q604 1000 472 1000 Q373 1000 330 958 Q287 916 266 801 L165 801 Q178 895 198 944 Q231 1022 298.5 1058.5 Q366 1095 476 1095 Q573 1095 646 1063.5 Q719 1032 754 975 Q802 897 802 734 L802 0 L701 0 L701 142 Z M693 533 Q602 545 476 545 Q387 545 337 530.5 Q287 516 257 482 Q211 428 211 303 Q211 63 410 63 Q693 63 693 424 L693 533 Z M254 1513 L329 1513 Q335 1426 370 1389 Q405 1352 479 1352 Q556 1352 590 1388.5 Q624 1425 630 1513 L706 1513 Q695 1367 645 1312 Q593 1254 480 1254 Q363 1254 313.5 1311 Q264 1368 254 1513 Z " />
<glyph glyph-name="Aogonek" unicode="&#x104;" horiz-adv-x="1088" d="M805 444 L284 444 L147 0 L32 0 L505 1475 L585 1475 L1058 0 Q984 -72 954.5 -130 Q925 -188 925 -259 Q925 -336 995 -336 L1071 -336 L1071 -424 L1000 -424 Q825 -424 825 -276 Q825 -147 968 0 L942 0 L805 444 Z M776 538 L545 1291 L313 538 L776 538 Z " />
<glyph glyph-name="aogonek" unicode="&#x105;" horiz-adv-x="976" d="M802 0 Q730 -71 700 -130 Q670 -189 670 -259 Q670 -336 740 -336 L815 -336 L815 -424 L745 -424 Q570 -424 570 -276 Q570 -147 713 0 L701 0 L701 142 Q659 63 602 24 Q521 -32 397 -32 Q248 -32 172 54 Q98 138 98 294 Q98 498 207 581 Q247 611 305.5 623.5 Q364 636 466 636 Q501 636 694 626 L694 699 Q694 861 656 920 Q604 1000 472 1000 Q373 1000 330 958 Q287 916 266 801 L165 801 Q178 895 198 944 Q231 1022 298.5 1058.5 Q366 1095 476 1095 Q573 1095 646 1063.5 Q719 1032 754 975 Q802 897 802 734 L802 0 Z M693 533 Q602 545 476 545 Q387 545 337 530.5 Q287 516 257 482 Q211 428 211 303 Q211 63 410 63 Q693 63 693 424 L693 533 Z " />
<glyph glyph-name="Cacute" unicode="&#x106;" horiz-adv-x="1068" d="M884 412 L991 412 Q979 -29 592 -29 Q335 -29 222 165 Q111 355 111 733 Q111 1144 241 1331 Q355 1495 591 1495 Q965 1495 978 1063 L871 1063 Q859 1397 590 1397 Q490 1397 422.5 1355 Q355 1313 310 1224 Q226 1057 226 733 Q226 383 325 216 Q411 69 591 69 Q780 69 848 232 Q880 308 884 412 Z M493 1587 L646 1905 L775 1905 L573 1587 L493 1587 Z " />
<glyph glyph-name="cacute" unicode="&#x107;" horiz-adv-x="847" d="M708 194 L778 121 Q725 63 690 38 Q594 -32 469 -32 Q272 -32 181 133 Q101 278 101 532 Q101 785 181 930 Q271 1093 462 1093 Q604 1093 682.5 1004.5 Q761 916 765 751 L660 751 Q643 999 463 999 Q379 999 318 937 Q263 881 238.5 785.5 Q214 690 214 532 Q214 62 467 62 Q592 62 708 194 Z M383 1225 L536 1542 L665 1542 L463 1225 L383 1225 Z " />
<glyph glyph-name="Ccircumflex" unicode="&#x108;" horiz-adv-x="1068" d="M884 412 L991 412 Q979 -29 592 -29 Q335 -29 222 165 Q111 355 111 733 Q111 1144 241 1331 Q355 1495 591 1495 Q965 1495 978 1063 L871 1063 Q859 1397 590 1397 Q490 1397 422.5 1355 Q355 1313 310 1224 Q226 1057 226 733 Q226 383 325 216 Q411 69 591 69 Q780 69 848 232 Q880 308 884 412 Z M574 1817 L431 1587 L320 1587 L542 1905 L607 1905 L829 1587 L717 1587 L574 1817 Z " />
<glyph glyph-name="ccircumflex" unicode="&#x109;" horiz-adv-x="847" d="M708 194 L778 121 Q725 63 690 38 Q594 -32 469 -32 Q272 -32 181 133 Q101 278 101 532 Q101 785 181 930 Q271 1093 462 1093 Q604 1093 682.5 1004.5 Q761 916 765 751 L660 751 Q643 999 463 999 Q379 999 318 937 Q263 881 238.5 785.5 Q214 690 214 532 Q214 62 467 62 Q592 62 708 194 Z M471 1454 L328 1225 L217 1225 L439 1542 L504 1542 L726 1225 L614 1225 L471 1454 Z " />
<glyph glyph-name="Cdotaccent" unicode="&#x10a;" horiz-adv-x="1068" d="M884 412 L991 412 Q979 -29 592 -29 Q335 -29 222 165 Q111 355 111 733 Q111 1144 241 1331 Q355 1495 591 1495 Q965 1495 978 1063 L871 1063 Q859 1397 590 1397 Q490 1397 422.5 1355 Q355 1313 310 1224 Q226 1057 226 733 Q226 383 325 216 Q411 69 591 69 Q780 69 848 232 Q880 308 884 412 Z M591 1827 Q626 1827 650.5 1802 Q675 1777 675 1741 Q675 1705 650 1680 Q625 1655 589 1655 Q553 1655 528 1680.5 Q503 1706 503 1742 Q503 1778 528.5 1802.5 Q554 1827 591 1827 Z " />
<glyph glyph-name="cdotaccent" unicode="&#x10b;" horiz-adv-x="847" d="M708 194 L778 121 Q725 63 690 38 Q594 -32 469 -32 Q272 -32 181 133 Q101 278 101 532 Q101 785 181 930 Q271 1093 462 1093 Q604 1093 682.5 1004.5 Q761 916 765 751 L660 751 Q643 999 463 999 Q379 999 318 937 Q263 881 238.5 785.5 Q214 690 214 532 Q214 62 467 62 Q592 62 708 194 Z M466 1465 Q501 1465 525.5 1440 Q550 1415 550 1379 Q550 1343 525 1318 Q500 1293 464 1293 Q428 1293 403 1318.5 Q378 1344 378 1380 Q378 1416 403.5 1440.5 Q429 1465 466 1465 Z " />
<glyph glyph-name="Ccaron" unicode="&#x10c;" horiz-adv-x="1068" d="M884 412 L991 412 Q979 -29 592 -29 Q335 -29 222 165 Q111 355 111 733 Q111 1144 241 1331 Q355 1495 591 1495 Q965 1495 978 1063 L871 1063 Q859 1397 590 1397 Q490 1397 422.5 1355 Q355 1313 310 1224 Q226 1057 226 733 Q226 383 325 216 Q411 69 591 69 Q780 69 848 232 Q880 308 884 412 Z M588 1676 L731 1905 L843 1905 L621 1588 L556 1588 L334 1905 L445 1905 L588 1676 Z " />
<glyph glyph-name="ccaron" unicode="&#x10d;" horiz-adv-x="847" d="M708 194 L778 121 Q725 63 690 38 Q594 -32 469 -32 Q272 -32 181 133 Q101 278 101 532 Q101 785 181 930 Q271 1093 462 1093 Q604 1093 682.5 1004.5 Q761 916 765 751 L660 751 Q643 999 463 999 Q379 999 318 937 Q263 881 238.5 785.5 Q214 690 214 532 Q214 62 467 62 Q592 62 708 194 Z M477 1312 L620 1542 L732 1542 L510 1225 L445 1225 L223 1542 L334 1542 L477 1312 Z " />
<glyph glyph-name="Dcaron" unicode="&#x10e;" horiz-adv-x="1239" d="M191 0 L191 1475 L533 1475 Q810 1475 954 1318 Q1128 1127 1128 737 Q1128 351 954 156 Q879 73 775 36.5 Q671 0 508 0 L191 0 Z M302 94 L519 94 Q669 94 763 142 Q1013 272 1013 736 Q1013 1083 879 1240 Q814 1317 729 1349 Q644 1381 504 1381 L302 1381 L302 94 Z M571 1676 L714 1905 L826 1905 L604 1588 L539 1588 L317 1905 L428 1905 L571 1676 Z " />
<glyph glyph-name="dcaron" unicode="&#x10f;" horiz-adv-x="1120" d="M738 0 L730 114 Q638 -32 461 -32 Q267 -32 179 133 Q101 278 101 531 Q101 783 179 927 Q267 1093 461 1093 Q637 1093 726 954 L726 1516 L835 1516 L835 0 L738 0 Z M461 999 Q335 999 274.5 884.5 Q214 770 214 529 Q214 328 258 214 Q316 62 466 62 Q726 62 726 527 Q726 746 674 858 Q608 999 461 999 Z M967 1155 L1050 1544 L1171 1544 L1050 1155 L967 1155 Z " />
<glyph glyph-name="Dcroat" unicode="&#x110;" horiz-adv-x="1247" d="M198 823 L198 1475 L541 1475 Q817 1475 960 1318 Q1134 1126 1134 737 Q1134 351 960 156 Q886 73 782 36.5 Q678 0 515 0 L198 0 L198 729 L28 729 L28 823 L198 823 Z M309 823 L665 823 L665 729 L309 729 L309 94 L526 94 Q676 94 770 142 Q1019 272 1019 736 Q1019 1083 886 1240 Q821 1317 735.5 1349 Q650 1381 511 1381 L309 1381 L309 823 Z " />
<glyph glyph-name="dcroat" unicode="&#x111;" horiz-adv-x="1024" d="M739 0 L731 114 Q638 -32 462 -32 Q268 -32 179 134 Q101 278 101 531 Q101 783 179 928 Q268 1093 462 1093 Q639 1093 727 954 L727 1227 L486 1227 L486 1319 L727 1319 L727 1516 L835 1516 L835 1319 L977 1319 L977 1227 L835 1227 L835 0 L739 0 Z M461 999 Q335 999 274.5 884 Q214 769 214 529 Q214 328 258 214 Q316 62 466 62 Q727 62 727 527 Q727 746 675 858 Q608 999 461 999 Z " />
<glyph glyph-name="Emacron" unicode="&#x112;" horiz-adv-x="1003" d="M191 0 L191 1475 L909 1475 L909 1381 L302 1381 L302 811 L814 811 L814 717 L302 717 L302 94 L922 94 L922 0 L191 0 Z M345 1687 L345 1798 L744 1798 L744 1687 L345 1687 Z " />
<glyph glyph-name="emacron" unicode="&#x113;" horiz-adv-x="935" d="M833 513 L214 513 Q218 319 263 215 Q328 62 482 62 Q620 62 744 200 L810 121 Q754 63 717 38 Q617 -32 487 -32 Q280 -32 184 134 Q101 278 101 532 Q101 1093 467 1093 Q669 1093 755 928 Q834 778 834 561 Q834 540 833 513 Z M718 608 Q712 757 682 834 Q618 999 468 999 Q303 999 244 807 Q224 745 216 608 L718 608 Z M274 1325 L274 1436 L673 1436 L673 1325 L274 1325 Z " />
<glyph glyph-name="Ebreve" unicode="&#x114;" horiz-adv-x="1003" d="M191 0 L191 1475 L909 1475 L909 1381 L302 1381 L302 811 L814 811 L814 717 L302 717 L302 94 L922 94 L922 0 L191 0 Z M320 1876 L395 1876 Q401 1789 435.5 1751.5 Q470 1714 545 1714 Q622 1714 656 1751 Q690 1788 696 1876 L772 1876 Q761 1730 711 1674 Q659 1616 546 1616 Q429 1616 379.5 1673.5 Q330 1731 320 1876 Z " />
<glyph glyph-name="ebreve" unicode="&#x115;" horiz-adv-x="935" d="M833 513 L214 513 Q218 319 263 215 Q328 62 482 62 Q620 62 744 200 L810 121 Q754 63 717 38 Q617 -32 487 -32 Q280 -32 184 134 Q101 278 101 532 Q101 1093 467 1093 Q669 1093 755 928 Q834 778 834 561 Q834 540 833 513 Z M718 608 Q712 757 682 834 Q618 999 468 999 Q303 999 244 807 Q224 745 216 608 L718 608 Z M255 1513 L330 1513 Q336 1426 371 1389 Q406 1352 480 1352 Q557 1352 591 1388.5 Q625 1425 631 1513 L707 1513 Q696 1367 646 1312 Q594 1254 481 1254 Q364 1254 314.5 1311 Q265 1368 255 1513 Z " />
<glyph glyph-name="Edotaccent" unicode="&#x116;" horiz-adv-x="1003" d="M191 0 L191 1475 L909 1475 L909 1381 L302 1381 L302 811 L814 811 L814 717 L302 717 L302 94 L922 94 L922 0 L191 0 Z M548 1827 Q583 1827 607.5 1802 Q632 1777 632 1741 Q632 1705 607 1680 Q582 1655 546 1655 Q510 1655 485 1680.5 Q460 1706 460 1742 Q460 1778 485.5 1802.5 Q511 1827 548 1827 Z " />
<glyph glyph-name="edotaccent" unicode="&#x117;" horiz-adv-x="935" d="M833 513 L214 513 Q218 319 263 215 Q328 62 482 62 Q620 62 744 200 L810 121 Q754 63 717 38 Q617 -32 487 -32 Q280 -32 184 134 Q101 278 101 532 Q101 1093 467 1093 Q669 1093 755 928 Q834 778 834 561 Q834 540 833 513 Z M718 608 Q712 757 682 834 Q618 999 468 999 Q303 999 244 807 Q224 745 216 608 L718 608 Z M482 1465 Q517 1465 541.5 1440 Q566 1415 566 1379 Q566 1343 541 1318 Q516 1293 480 1293 Q444 1293 419 1318.5 Q394 1344 394 1380 Q394 1416 419.5 1440.5 Q445 1465 482 1465 Z " />
<glyph glyph-name="Eogonek" unicode="&#x118;" horiz-adv-x="1003" d="M922 0 Q790 -128 790 -259 Q790 -336 859 -336 L936 -336 L936 -424 L864 -424 Q690 -424 690 -276 Q690 -146 832 0 L191 0 L191 1475 L909 1475 L909 1381 L302 1381 L302 811 L814 811 L814 717 L302 717 L302 94 L922 94 L922 0 Z " />
<glyph glyph-name="eogonek" unicode="&#x119;" horiz-adv-x="935" d="M833 513 L214 513 Q218 319 263 215 Q328 62 482 62 Q620 62 744 200 L810 121 Q680 11 632 -65.5 Q584 -142 584 -240 Q584 -336 654 -336 L730 -336 L730 -424 L659 -424 Q484 -424 484 -257 Q484 -135 573 -23 Q530 -32 489 -32 Q101 -32 101 532 Q101 1093 467 1093 Q669 1093 755 928 Q834 778 834 559 Q834 538 833 513 Z M718 608 Q712 757 682 834 Q618 999 467 999 Q303 999 243 807 Q224 745 215 608 L718 608 Z " />
<glyph glyph-name="Ecaron" unicode="&#x11a;" horiz-adv-x="1003" d="M191 0 L191 1475 L909 1475 L909 1381 L302 1381 L302 811 L814 811 L814 717 L302 717 L302 94 L922 94 L922 0 L191 0 Z M546 1676 L689 1905 L801 1905 L579 1588 L514 1588 L292 1905 L403 1905 L546 1676 Z " />
<glyph glyph-name="ecaron" unicode="&#x11b;" horiz-adv-x="935" d="M833 513 L214 513 Q218 319 263 215 Q328 62 482 62 Q620 62 744 200 L810 121 Q754 63 717 38 Q617 -32 487 -32 Q280 -32 184 134 Q101 278 101 532 Q101 1093 467 1093 Q669 1093 755 928 Q834 778 834 561 Q834 540 833 513 Z M718 608 Q712 757 682 834 Q618 999 468 999 Q303 999 244 807 Q224 745 216 608 L718 608 Z M488 1312 L631 1542 L743 1542 L521 1225 L456 1225 L234 1542 L345 1542 L488 1312 Z " />
<glyph glyph-name="Gcircumflex" unicode="&#x11c;" horiz-adv-x="1116" d="M617 635 L617 729 L989 729 L989 56 Q787 -29 566 -29 Q379 -29 282 59 Q111 214 111 713 Q111 1150 245 1336 Q361 1495 589 1495 Q964 1495 977 1063 L868 1063 Q854 1397 590 1397 Q401 1397 313.5 1232.5 Q226 1068 226 713 Q226 370 314 212 Q358 134 418 102 Q481 69 578 69 Q736 69 878 135 L878 635 L617 635 Z M591 1817 L448 1587 L337 1587 L559 1905 L624 1905 L846 1587 L734 1587 L591 1817 Z " />
<glyph glyph-name="gcircumflex" unicode="&#x11d;" horiz-adv-x="1020" d="M727 99 Q619 -33 463 -33 Q267 -33 179 132 Q101 277 101 530 Q101 783 179 927 Q267 1093 462 1093 Q637 1093 726 955 L726 1061 L837 1061 L837 142 Q837 -119 785 -253 Q740 -369 634 -427 Q556 -469 448 -469 Q259 -469 117 -341 L176 -261 Q257 -326 316.5 -350.5 Q376 -375 452 -375 Q594 -375 660.5 -265.5 Q727 -156 727 78 L727 99 Z M459 999 Q214 999 214 529 Q214 327 258 213 Q316 61 466 61 Q727 61 727 527 Q727 743 676 859 Q614 999 459 999 Z M510 1454 L367 1225 L256 1225 L478 1542 L543 1542 L765 1225 L653 1225 L510 1454 Z " />
<glyph glyph-name="Gbreve" unicode="&#x11e;" horiz-adv-x="1116" d="M617 635 L617 729 L989 729 L989 56 Q787 -29 566 -29 Q379 -29 282 59 Q111 214 111 713 Q111 1150 245 1336 Q361 1495 589 1495 Q964 1495 977 1063 L868 1063 Q854 1397 590 1397 Q401 1397 313.5 1232.5 Q226 1068 226 713 Q226 370 314 212 Q358 134 418 102 Q481 69 578 69 Q736 69 878 135 L878 635 L617 635 Z M338 1876 L413 1876 Q419 1789 453.5 1751.5 Q488 1714 563 1714 Q640 1714 674 1751 Q708 1788 714 1876 L790 1876 Q779 1730 729 1674 Q677 1616 564 1616 Q447 1616 397.5 1673.5 Q348 1731 338 1876 Z " />
<glyph glyph-name="gbreve" unicode="&#x11f;" horiz-adv-x="1020" d="M727 99 Q619 -33 463 -33 Q267 -33 179 132 Q101 277 101 530 Q101 783 179 927 Q267 1093 462 1093 Q637 1093 726 955 L726 1061 L837 1061 L837 142 Q837 -119 785 -253 Q740 -369 634 -427 Q556 -469 448 -469 Q259 -469 117 -341 L176 -261 Q257 -326 316.5 -350.5 Q376 -375 452 -375 Q594 -375 660.5 -265.5 Q727 -156 727 78 L727 99 Z M459 999 Q214 999 214 529 Q214 327 258 213 Q316 61 466 61 Q727 61 727 527 Q727 743 676 859 Q614 999 459 999 Z M264 1513 L339 1513 Q345 1426 380 1389 Q415 1352 489 1352 Q566 1352 600 1388.5 Q634 1425 640 1513 L716 1513 Q705 1367 655 1312 Q603 1254 490 1254 Q373 1254 323.5 1311 Q274 1368 264 1513 Z " />
<glyph glyph-name="Gdotaccent" unicode="&#x120;" horiz-adv-x="1116" d="M617 635 L617 729 L989 729 L989 56 Q787 -29 566 -29 Q379 -29 282 59 Q111 214 111 713 Q111 1150 245 1336 Q361 1495 589 1495 Q964 1495 977 1063 L868 1063 Q854 1397 590 1397 Q401 1397 313.5 1232.5 Q226 1068 226 713 Q226 370 314 212 Q358 134 418 102 Q481 69 578 69 Q736 69 878 135 L878 635 L617 635 Z M573 1827 Q608 1827 632.5 1802 Q657 1777 657 1741 Q657 1705 632 1680 Q607 1655 571 1655 Q535 1655 510 1680.5 Q485 1706 485 1742 Q485 1778 510.5 1802.5 Q536 1827 573 1827 Z " />
<glyph glyph-name="gdotaccent" unicode="&#x121;" horiz-adv-x="1020" d="M727 99 Q619 -33 463 -33 Q267 -33 179 132 Q101 277 101 530 Q101 783 179 927 Q267 1093 462 1093 Q637 1093 726 955 L726 1061 L837 1061 L837 142 Q837 -119 785 -253 Q740 -369 634 -427 Q556 -469 448 -469 Q259 -469 117 -341 L176 -261 Q257 -326 316.5 -350.5 Q376 -375 452 -375 Q594 -375 660.5 -265.5 Q727 -156 727 78 L727 99 Z M459 999 Q214 999 214 529 Q214 327 258 213 Q316 61 466 61 Q727 61 727 527 Q727 743 676 859 Q614 999 459 999 Z M492 1465 Q527 1465 551.5 1440 Q576 1415 576 1379 Q576 1343 551 1318 Q526 1293 490 1293 Q454 1293 429 1318.5 Q404 1344 404 1380 Q404 1416 429.5 1440.5 Q455 1465 492 1465 Z " />
<glyph glyph-name="Gcommaaccent" unicode="&#x122;" horiz-adv-x="1116" d="M617 635 L617 729 L989 729 L989 56 Q787 -29 566 -29 Q379 -29 282 59 Q111 214 111 713 Q111 1150 245 1336 Q361 1495 589 1495 Q964 1495 977 1063 L868 1063 Q854 1397 590 1397 Q401 1397 313.5 1232.5 Q226 1068 226 713 Q226 370 314 212 Q358 134 418 102 Q481 69 578 69 Q736 69 878 135 L878 635 L617 635 Z M423 -473 L522 -156 L643 -156 L500 -473 L423 -473 Z " />
<glyph glyph-name="gcommaaccent" unicode="&#x123;" horiz-adv-x="1020" d="M727 99 Q619 -33 463 -33 Q267 -33 179 132 Q101 277 101 530 Q101 783 179 927 Q267 1093 462 1093 Q637 1093 726 955 L726 1061 L837 1061 L837 142 Q837 -119 785 -253 Q740 -369 634 -427 Q556 -469 448 -469 Q259 -469 117 -341 L176 -261 Q257 -326 316.5 -350.5 Q376 -375 452 -375 Q594 -375 660.5 -265.5 Q727 -156 727 78 L727 99 Z M459 999 Q214 999 214 529 Q214 327 258 213 Q316 61 466 61 Q727 61 727 527 Q727 743 676 859 Q614 999 459 999 Z M711 1542 L558 1225 L429 1225 L631 1542 L711 1542 Z " />
<glyph glyph-name="Hcircumflex" unicode="&#x124;" horiz-adv-x="1224" d="M191 0 L191 1475 L302 1475 L302 825 L921 825 L921 1475 L1032 1475 L1032 0 L921 0 L921 731 L302 731 L302 0 L191 0 Z M611 1817 L468 1587 L357 1587 L579 1905 L644 1905 L866 1587 L754 1587 L611 1817 Z " />
<glyph glyph-name="hcircumflex" unicode="&#x125;" horiz-adv-x="1053" d="M183 0 L183 1516 L292 1516 L292 898 Q378 1000 456 1046.5 Q534 1093 619 1093 Q699 1093 757.5 1055.5 Q816 1018 841 950 Q878 850 878 615 L878 0 L769 0 L769 621 Q769 844 734.5 919.5 Q700 995 598 995 Q551 995 509.5 974 Q468 953 411 900 Q341 837 292 769 L292 0 L183 0 Z M288 1817 L145 1587 L34 1587 L256 1905 L321 1905 L543 1587 L431 1587 L288 1817 Z " />
<glyph glyph-name="Hbar" unicode="&#x126;" horiz-adv-x="1161" d="M159 0 L159 1042 L25 1042 L25 1122 L159 1122 L159 1475 L270 1475 L270 1122 L890 1122 L890 1475 L1001 1475 L1001 1122 L1135 1122 L1135 1042 L1001 1042 L1001 0 L890 0 L890 731 L270 731 L270 0 L159 0 Z M270 825 L890 825 L890 1042 L270 1042 L270 825 Z " />
<glyph glyph-name="hbar" unicode="&#x127;" horiz-adv-x="1059" d="M189 0 L189 1227 L47 1227 L47 1319 L189 1319 L189 1516 L298 1516 L298 1319 L538 1319 L538 1227 L298 1227 L298 898 Q387 1002 463 1047.5 Q539 1093 624 1093 Q794 1093 847 950 Q884 851 884 615 L884 0 L775 0 L775 621 Q775 845 740.5 920 Q706 995 604 995 Q556 995 515 974 Q474 953 416 900 Q346 836 298 769 L298 0 L189 0 Z " />
<glyph glyph-name="Itilde" unicode="&#x128;" horiz-adv-x="493" d="M192 0 L192 1475 L303 1475 L303 0 L192 0 Z M86 1659 L16 1659 Q52 1833 157 1833 Q201 1833 261 1784 Q315 1741 334 1741 Q377 1741 406 1831 L476 1831 Q436 1653 328 1653 Q278 1653 202 1717 Q168 1745 150 1745 Q113 1745 86 1659 Z " />
<glyph glyph-name="itilde" unicode="&#x129;" horiz-adv-x="478" d="M186 0 L186 1061 L295 1061 L295 0 L186 0 Z M78 1296 L8 1296 Q44 1470 149 1470 Q193 1470 253 1421 Q306 1378 326 1378 Q369 1378 398 1468 L468 1468 Q428 1290 320 1290 Q271 1290 194 1354 Q160 1382 142 1382 Q105 1382 78 1296 Z " />
<glyph glyph-name="Imacron" unicode="&#x12a;" horiz-adv-x="493" d="M191 0 L191 1475 L302 1475 L302 0 L191 0 Z M46 1687 L46 1798 L445 1798 L445 1687 L46 1687 Z " />
<glyph glyph-name="imacron" unicode="&#x12b;" horiz-adv-x="478" d="M186 0 L186 1061 L295 1061 L295 0 L186 0 Z M38 1325 L38 1436 L437 1436 L437 1325 L38 1325 Z " />
<glyph glyph-name="Ibreve" unicode="&#x12c;" horiz-adv-x="493" d="M192 0 L192 1475 L303 1475 L303 0 L192 0 Z M21 1876 L96 1876 Q102 1789 136.5 1751.5 Q171 1714 246 1714 Q323 1714 357 1751 Q391 1788 397 1876 L473 1876 Q462 1730 412 1674 Q360 1616 247 1616 Q130 1616 80.5 1673.5 Q31 1731 21 1876 Z " />
<glyph glyph-name="ibreve" unicode="&#x12d;" horiz-adv-x="478" d="M186 0 L186 1061 L295 1061 L295 0 L186 0 Z M13 1513 L88 1513 Q94 1426 129 1389 Q164 1352 238 1352 Q315 1352 349 1388.5 Q383 1425 389 1513 L465 1513 Q454 1367 404 1312 Q352 1254 239 1254 Q122 1254 72.5 1311 Q23 1368 13 1513 Z " />
<glyph glyph-name="Iogonek" unicode="&#x12e;" horiz-adv-x="493" d="M302 0 Q230 -71 200 -130 Q170 -189 170 -259 Q170 -336 240 -336 L316 -336 L316 -424 L245 -424 Q70 -424 70 -276 Q70 -146 213 0 L192 0 L192 1475 L302 1475 L302 0 Z " />
<glyph glyph-name="iogonek" unicode="&#x12f;" horiz-adv-x="478" d="M186 0 L186 1061 L295 1061 L295 0 Q222 -74 192.5 -131 Q163 -188 163 -259 Q163 -336 232 -336 L309 -336 L309 -424 L238 -424 Q63 -424 63 -276 Q63 -144 205 0 L186 0 Z M243 1465 Q278 1465 302.5 1440 Q327 1415 327 1379 Q327 1343 302 1318 Q277 1293 241 1293 Q205 1293 180 1318.5 Q155 1344 155 1380 Q155 1416 180.5 1440.5 Q206 1465 243 1465 Z " />
<glyph glyph-name="Idot" unicode="&#x130;" horiz-adv-x="493" d="M192 0 L192 1475 L303 1475 L303 0 L192 0 Z M249 1827 Q284 1827 308.5 1802 Q333 1777 333 1741 Q333 1705 308 1680 Q283 1655 247 1655 Q211 1655 186 1680.5 Q161 1706 161 1742 Q161 1778 186.5 1802.5 Q212 1827 249 1827 Z " />
<glyph glyph-name="IJ" unicode="&#x132;" horiz-adv-x="997" d="M191 0 L191 1475 L302 1475 L302 0 L191 0 Z M694 1475 L805 1475 L805 94 Q805 -14 790.5 -74 Q776 -134 740 -175 Q672 -252 546 -259 L546 -165 Q634 -155 664 -99.5 Q694 -44 694 109 L694 1475 Z " />
<glyph glyph-name="ij" unicode="&#x133;" horiz-adv-x="960" d="M187 0 L187 1061 L295 1061 L295 0 L187 0 Z M243 1465 Q278 1465 302.5 1440 Q327 1415 327 1379 Q327 1343 302 1318 Q277 1293 241 1293 Q205 1293 180 1318.5 Q155 1344 155 1380 Q155 1416 180.5 1440.5 Q206 1465 243 1465 Z M668 1061 L777 1061 L777 -40 Q779 -283 713 -372 Q645 -469 525 -478 L525 -384 Q572 -376 598.5 -354.5 Q625 -333 641 -290 Q658 -244 663 -193 Q668 -142 668 -21 L668 1061 Z M725 1465 Q760 1465 784.5 1440 Q809 1415 809 1379 Q809 1343 784 1318 Q759 1293 723 1293 Q687 1293 662 1318.5 Q637 1344 637 1380 Q637 1416 662.5 1440.5 Q688 1465 725 1465 Z " />
<glyph glyph-name="Jcircumflex" unicode="&#x134;" horiz-adv-x="503" d="M200 1475 L311 1475 L311 94 Q311 -14 296.5 -74 Q282 -134 246 -175 Q178 -252 52 -259 L52 -165 Q140 -155 170 -99.5 Q200 -44 200 109 L200 1475 Z M251 1817 L108 1587 L-3 1587 L219 1905 L284 1905 L506 1587 L394 1587 L251 1817 Z " />
<glyph glyph-name="jcircumflex" unicode="&#x135;" horiz-adv-x="482" d="M190 1061 L299 1061 L299 -40 Q301 -283 235 -372 Q167 -469 47 -478 L47 -384 Q94 -376 120.5 -354.5 Q147 -333 163 -290 Q180 -244 185 -193 Q190 -142 190 -21 L190 1061 Z M240 1454 L97 1225 L-14 1225 L208 1542 L273 1542 L495 1225 L383 1225 L240 1454 Z " />
<glyph glyph-name="Kcommaaccent" unicode="&#x136;" horiz-adv-x="964" d="M191 0 L191 1475 L302 1475 L302 771 L830 1475 L959 1475 L427 773 L1006 0 L867 0 L302 771 L302 0 L191 0 Z M401 -473 L500 -156 L621 -156 L478 -473 L401 -473 Z " />
<glyph glyph-name="kcommaaccent" unicode="&#x137;" horiz-adv-x="858" d="M183 0 L183 1516 L292 1516 L292 634 L666 1061 L796 1061 L402 621 L869 0 L737 0 L292 605 L292 0 L183 0 Z M335 -473 L434 -156 L555 -156 L412 -473 L335 -473 Z " />
<glyph glyph-name="kgreenlandic" unicode="&#x138;" horiz-adv-x="858" d="M183 0 L183 1061 L292 1061 L292 620 L666 1061 L796 1061 L402 607 L869 0 L737 0 L292 591 L292 0 L183 0 Z " />
<glyph glyph-name="Lacute" unicode="&#x139;" horiz-adv-x="911" d="M191 0 L191 1475 L302 1475 L302 94 L859 94 L859 0 L191 0 Z M224 1587 L377 1905 L506 1905 L304 1587 L224 1587 Z " />
<glyph glyph-name="lacute" unicode="&#x13a;" horiz-adv-x="475" d="M183 0 L183 1516 L292 1516 L292 0 L183 0 Z M191 1642 L344 1959 L473 1959 L271 1642 L191 1642 Z " />
<glyph glyph-name="Lcommaaccent" unicode="&#x13b;" horiz-adv-x="911" d="M191 0 L191 1475 L302 1475 L302 94 L859 94 L859 0 L191 0 Z M361 -473 L460 -156 L581 -156 L438 -473 L361 -473 Z " />
<glyph glyph-name="lcommaaccent" unicode="&#x13c;" horiz-adv-x="475" d="M183 0 L183 1516 L292 1516 L292 0 L183 0 Z M84 -473 L183 -156 L304 -156 L161 -473 L84 -473 Z " />
<glyph glyph-name="Lcaron" unicode="&#x13d;" horiz-adv-x="911" d="M191 0 L191 1475 L302 1475 L302 94 L859 94 L859 0 L191 0 Z M482 1085 L562 1475 L686 1475 L565 1085 L482 1085 Z " />
<glyph glyph-name="lcaron" unicode="&#x13e;" horiz-adv-x="577" d="M184 0 L184 1516 L293 1516 L293 0 L184 0 Z M425 1155 L508 1544 L629 1544 L508 1155 L425 1155 Z " />
<glyph glyph-name="Ldot" unicode="&#x13f;" horiz-adv-x="911" d="M191 0 L191 1475 L302 1475 L302 94 L859 94 L859 0 L191 0 Z M705 802 Q744 802 772 774 Q800 746 800 707 Q800 668 771.5 640 Q743 612 703 612 Q662 612 634 640 Q606 668 606 708 Q606 747 635 774.5 Q664 802 705 802 Z " />
<glyph glyph-name="ldot" unicode="&#x140;" horiz-adv-x="586" d="M183 0 L183 1516 L292 1516 L292 0 L183 0 Z M537 796 Q576 796 604 768 Q632 740 632 701 Q632 662 603.5 634 Q575 606 535 606 Q494 606 466 634 Q438 662 438 702 Q438 741 467 768.5 Q496 796 537 796 Z " />
<glyph glyph-name="Lslash" unicode="&#x141;" horiz-adv-x="917" d="M199 0 L199 599 L28 463 L28 569 L199 706 L199 1475 L310 1475 L310 797 L553 992 L553 885 L310 691 L310 94 L866 94 L866 0 L199 0 Z " />
<glyph glyph-name="lslash" unicode="&#x142;" horiz-adv-x="426" d="M161 0 L161 734 L-14 576 L-14 682 L161 839 L161 1578 L270 1578 L270 937 L440 1090 L440 985 L270 831 L270 0 L161 0 Z " />
<glyph glyph-name="Nacute" unicode="&#x143;" horiz-adv-x="1225" d="M191 0 L191 1475 L299 1475 L922 269 L922 1475 L1033 1475 L1033 -20 L959 -20 L302 1257 L302 0 L191 0 Z M551 1587 L704 1905 L833 1905 L631 1587 L551 1587 Z " />
<glyph glyph-name="nacute" unicode="&#x144;" horiz-adv-x="1053" d="M183 0 L183 1061 L292 1061 L292 898 Q380 1001 457 1047 Q534 1093 619 1093 Q699 1093 757.5 1055.5 Q816 1018 841 950 Q878 851 878 615 L878 0 L769 0 L769 621 Q769 844 734.5 919.5 Q700 995 599 995 Q551 995 509.5 974 Q468 953 410 900 Q340 836 292 769 L292 0 L183 0 Z M438 1225 L591 1542 L720 1542 L518 1225 L438 1225 Z " />
<glyph glyph-name="Ncommaaccent" unicode="&#x145;" horiz-adv-x="1225" d="M191 0 L191 1475 L299 1475 L922 269 L922 1475 L1033 1475 L1033 -20 L959 -20 L302 1257 L302 0 L191 0 Z M457 -473 L556 -156 L677 -156 L534 -473 L457 -473 Z " />
<glyph glyph-name="ncommaaccent" unicode="&#x146;" horiz-adv-x="1053" d="M183 0 L183 1061 L292 1061 L292 898 Q380 1001 457 1047 Q534 1093 619 1093 Q699 1093 757.5 1055.5 Q816 1018 841 950 Q878 851 878 615 L878 0 L769 0 L769 621 Q769 844 734.5 919.5 Q700 995 599 995 Q551 995 509.5 974 Q468 953 410 900 Q340 836 292 769 L292 0 L183 0 Z M392 -473 L491 -156 L612 -156 L469 -473 L392 -473 Z " />
<glyph glyph-name="Ncaron" unicode="&#x147;" horiz-adv-x="1225" d="M191 0 L191 1475 L299 1475 L922 269 L922 1475 L1033 1475 L1033 -20 L959 -20 L302 1257 L302 0 L191 0 Z M639 1676 L782 1905 L894 1905 L672 1588 L607 1588 L385 1905 L496 1905 L639 1676 Z " />
<glyph glyph-name="ncaron" unicode="&#x148;" horiz-adv-x="1053" d="M183 0 L183 1061 L292 1061 L292 898 Q380 1001 457 1047 Q534 1093 619 1093 Q699 1093 757.5 1055.5 Q816 1018 841 950 Q878 851 878 615 L878 0 L769 0 L769 621 Q769 844 734.5 919.5 Q700 995 599 995 Q551 995 509.5 974 Q468 953 410 900 Q340 836 292 769 L292 0 L183 0 Z M512 1312 L655 1542 L767 1542 L545 1225 L480 1225 L258 1542 L369 1542 L512 1312 Z " />
<glyph glyph-name="napostrophe" unicode="&#x149;" horiz-adv-x="1061" d="M191 0 L191 1061 L300 1061 L300 898 Q388 1001 464.5 1047 Q541 1093 627 1093 Q796 1093 849 950 Q886 851 886 615 L886 0 L777 0 L777 621 Q777 844 742.5 919.5 Q708 995 607 995 Q559 995 518 974 Q477 953 419 900 Q347 834 300 769 L300 0 L191 0 Z M-28 1150 L56 1578 L176 1578 L54 1150 L-28 1150 Z " />
<glyph glyph-name="Eng" unicode="&#x14a;" horiz-adv-x="1225" d="M191 0 L191 1475 L299 1475 L922 269 L922 1475 L1033 1475 L1033 -29 Q1035 -245 967 -327 Q897 -413 781 -421 L781 -327 Q867 -315 895 -247 Q912 -208 917 -163.5 Q922 -119 922 -13 L922 48 L302 1257 L302 0 L191 0 Z " />
<glyph glyph-name="eng" unicode="&#x14b;" horiz-adv-x="1053" d="M183 0 L183 1061 L292 1061 L292 898 Q379 1001 456.5 1047 Q534 1093 619 1093 Q699 1093 757.5 1055.5 Q816 1018 841 950 Q878 851 878 615 L878 0 Q879 -242 814 -333 Q746 -429 626 -439 L626 -344 Q674 -336 700 -315 Q726 -294 742 -250 Q759 -204 764 -152.5 Q769 -101 769 19 L769 621 Q769 844 734.5 919.5 Q700 995 599 995 Q551 995 509.5 974 Q468 953 410 900 Q340 836 292 769 L292 0 L183 0 Z " />
<glyph glyph-name="Omacron" unicode="&#x14c;" horiz-adv-x="1147" d="M582 1504 Q745 1504 853 1404 Q1036 1235 1036 737 Q1036 390 942 191 Q837 -29 574 -29 Q310 -29 205 191 Q111 389 111 732 Q111 1092 205 1284 Q313 1504 582 1504 Z M567 1406 Q226 1406 226 737 Q226 436 298 261 Q378 69 574 69 Q769 69 849 261 Q921 438 921 732 Q921 1043 849 1214 Q806 1314 738.5 1360 Q671 1406 567 1406 Z M373 1687 L373 1798 L772 1798 L772 1687 L373 1687 Z " />
<glyph glyph-name="omacron" unicode="&#x14d;" horiz-adv-x="952" d="M482 1093 Q679 1093 771 928 Q851 784 851 530 Q851 -32 476 -32 Q101 -32 101 527 Q101 1093 482 1093 Z M472 999 Q341 999 277.5 884 Q214 769 214 530 Q214 327 260 214 Q321 62 475 62 Q631 62 692 214 Q738 328 738 525 Q738 737 692 847 Q628 999 472 999 Z M275 1325 L275 1436 L674 1436 L674 1325 L275 1325 Z " />
<glyph glyph-name="Obreve" unicode="&#x14e;" horiz-adv-x="1147" d="M582 1504 Q745 1504 853 1404 Q1036 1235 1036 737 Q1036 390 942 191 Q837 -29 574 -29 Q310 -29 205 191 Q111 389 111 732 Q111 1092 205 1284 Q313 1504 582 1504 Z M567 1406 Q226 1406 226 737 Q226 436 298 261 Q378 69 574 69 Q769 69 849 261 Q921 438 921 732 Q921 1043 849 1214 Q806 1314 738.5 1360 Q671 1406 567 1406 Z M347 1876 L422 1876 Q428 1789 462.5 1751.5 Q497 1714 572 1714 Q649 1714 683 1751 Q717 1788 723 1876 L799 1876 Q788 1730 738 1674 Q686 1616 573 1616 Q456 1616 406.5 1673.5 Q357 1731 347 1876 Z " />
<glyph glyph-name="obreve" unicode="&#x14f;" horiz-adv-x="952" d="M482 1093 Q679 1093 771 928 Q851 784 851 530 Q851 -32 476 -32 Q101 -32 101 527 Q101 1093 482 1093 Z M472 999 Q341 999 277.5 884 Q214 769 214 530 Q214 327 260 214 Q321 62 475 62 Q631 62 692 214 Q738 328 738 525 Q738 737 692 847 Q628 999 472 999 Z M250 1513 L325 1513 Q331 1426 366 1389 Q401 1352 475 1352 Q552 1352 586 1388.5 Q620 1425 626 1513 L702 1513 Q691 1367 641 1312 Q589 1254 476 1254 Q359 1254 309.5 1311 Q260 1368 250 1513 Z " />
<glyph glyph-name="Ohungarumlaut" unicode="&#x150;" horiz-adv-x="1147" d="M582 1504 Q745 1504 853 1404 Q1036 1235 1036 737 Q1036 390 942 191 Q837 -29 574 -29 Q310 -29 205 191 Q111 389 111 732 Q111 1092 205 1284 Q313 1504 582 1504 Z M567 1406 Q226 1406 226 737 Q226 436 298 261 Q378 69 574 69 Q769 69 849 261 Q921 438 921 732 Q921 1043 849 1214 Q806 1314 738.5 1360 Q671 1406 567 1406 Z M442 1588 L547 1905 L666 1905 L510 1588 L442 1588 Z M644 1588 L753 1905 L873 1905 L712 1588 L644 1588 Z " />
<glyph glyph-name="ohungarumlaut" unicode="&#x151;" horiz-adv-x="952" d="M482 1093 Q679 1093 771 928 Q851 784 851 530 Q851 -32 476 -32 Q101 -32 101 527 Q101 1093 482 1093 Z M472 999 Q341 999 277.5 884 Q214 769 214 530 Q214 327 260 214 Q321 62 475 62 Q631 62 692 214 Q738 328 738 525 Q738 737 692 847 Q628 999 472 999 Z M345 1225 L450 1542 L569 1542 L413 1225 L345 1225 Z M547 1225 L656 1542 L776 1542 L615 1225 L547 1225 Z " />
<glyph glyph-name="Racute" unicode="&#x154;" horiz-adv-x="1114" d="M175 0 L175 1475 L517 1475 Q733 1475 828 1412 Q900 1365 939.5 1271.5 Q979 1178 979 1056 Q979 900 920 797 Q861 694 750 657 Q825 616 879 425 L1002 0 L880 0 L771 407 Q737 536 678.5 583.5 Q620 631 495 631 L286 631 L286 0 L175 0 Z M286 725 L541 725 Q701 725 769 786 Q864 872 864 1050 Q864 1219 778 1310 Q711 1381 547 1381 L286 1381 L286 725 Z M462 1587 L615 1905 L744 1905 L542 1587 L462 1587 Z " />
<glyph glyph-name="racute" unicode="&#x155;" horiz-adv-x="668" d="M183 0 L183 1061 L292 1061 L292 919 Q398 1076 569 1076 L605 1076 L605 969 L578 969 Q469 969 401 907 Q332 844 292 771 L292 0 L183 0 Z M334 1225 L487 1542 L616 1542 L414 1225 L334 1225 Z " />
<glyph glyph-name="Rcommaaccent" unicode="&#x156;" horiz-adv-x="1114" d="M175 0 L175 1475 L517 1475 Q733 1475 828 1412 Q900 1365 939.5 1271.5 Q979 1178 979 1056 Q979 900 920 797 Q861 694 750 657 Q825 616 879 425 L1002 0 L880 0 L771 407 Q737 536 678.5 583.5 Q620 631 495 631 L286 631 L286 0 L175 0 Z M286 725 L541 725 Q701 725 769 786 Q864 872 864 1050 Q864 1219 778 1310 Q711 1381 547 1381 L286 1381 L286 725 Z M423 -473 L522 -156 L643 -156 L500 -473 L423 -473 Z " />
<glyph glyph-name="rcommaaccent" unicode="&#x157;" horiz-adv-x="668" d="M183 0 L183 1061 L292 1061 L292 919 Q398 1076 569 1076 L605 1076 L605 969 L578 969 Q469 969 401 907 Q332 844 292 771 L292 0 L183 0 Z M84 -473 L183 -156 L304 -156 L161 -473 L84 -473 Z " />
<glyph glyph-name="Rcaron" unicode="&#x158;" horiz-adv-x="1114" d="M175 0 L175 1475 L517 1475 Q733 1475 828 1412 Q900 1365 939.5 1271.5 Q979 1178 979 1056 Q979 900 920 797 Q861 694 750 657 Q825 616 879 425 L1002 0 L880 0 L771 407 Q737 536 678.5 583.5 Q620 631 495 631 L286 631 L286 0 L175 0 Z M286 725 L541 725 Q701 725 769 786 Q864 872 864 1050 Q864 1219 778 1310 Q711 1381 547 1381 L286 1381 L286 725 Z M530 1676 L673 1905 L785 1905 L563 1588 L498 1588 L276 1905 L387 1905 L530 1676 Z " />
<glyph glyph-name="rcaron" unicode="&#x159;" horiz-adv-x="668" d="M183 0 L183 1061 L292 1061 L292 919 Q398 1076 569 1076 L605 1076 L605 969 L578 969 Q469 969 401 907 Q332 844 292 771 L292 0 L183 0 Z M395 1312 L538 1542 L650 1542 L428 1225 L363 1225 L141 1542 L252 1542 L395 1312 Z " />
<glyph glyph-name="Sacute" unicode="&#x15a;" horiz-adv-x="1052" d="M103 412 L210 412 Q215 249 274 175 Q359 69 523 69 Q693 69 773 163 Q849 253 849 388 Q849 508 787 582 Q749 628 693.5 656 Q638 684 517 719 Q404 751 342.5 778.5 Q281 806 237 845 Q137 934 137 1112 Q137 1272 219 1377 Q319 1504 512 1504 Q739 1504 830 1346 Q885 1252 887 1063 L780 1063 Q775 1227 728 1299 Q659 1406 519 1406 Q385 1406 315 1316 Q252 1235 252 1117 Q252 993 326 929 Q387 876 556 828 Q693 790 757 757.5 Q821 725 868 671 Q964 562 964 394 Q964 213 863 96 Q756 -29 534 -29 Q276 -29 170 127 Q105 223 103 412 Z M451 1587 L604 1905 L733 1905 L531 1587 L451 1587 Z " />
<glyph glyph-name="sacute" unicode="&#x15b;" horiz-adv-x="834" d="M76 312 L177 312 Q187 198 218 154 Q279 63 412 63 Q632 63 632 284 Q632 390 583.5 437 Q535 484 396 510 Q316 526 271.5 544.5 Q227 563 195 595 Q121 671 121 798 Q121 933 199 1014 Q273 1093 395 1093 Q485 1093 552.5 1053 Q620 1013 652 942 Q685 871 686 767 L585 767 Q576 873 553 915 Q504 999 398 999 Q312 999 272 938 Q234 881 234 804 Q234 717 278 672 Q316 634 436 609 Q575 581 628 547 Q745 471 745 276 Q745 141 670 60 Q584 -32 420 -32 Q318 -32 239 6 Q160 44 121 112 Q79 183 76 312 Z M342 1225 L495 1542 L624 1542 L422 1225 L342 1225 Z " />
<glyph glyph-name="Scircumflex" unicode="&#x15c;" horiz-adv-x="1052" d="M103 412 L210 412 Q215 249 274 175 Q359 69 523 69 Q693 69 773 163 Q849 253 849 388 Q849 508 787 582 Q749 628 693.5 656 Q638 684 517 719 Q404 751 342.5 778.5 Q281 806 237 845 Q137 934 137 1112 Q137 1272 219 1377 Q319 1504 512 1504 Q739 1504 830 1346 Q885 1252 887 1063 L780 1063 Q775 1227 728 1299 Q659 1406 519 1406 Q385 1406 315 1316 Q252 1235 252 1117 Q252 993 326 929 Q387 876 556 828 Q693 790 757 757.5 Q821 725 868 671 Q964 562 964 394 Q964 213 863 96 Q756 -29 534 -29 Q276 -29 170 127 Q105 223 103 412 Z M525 1817 L382 1587 L271 1587 L493 1905 L558 1905 L780 1587 L668 1587 L525 1817 Z " />
<glyph glyph-name="scircumflex" unicode="&#x15d;" horiz-adv-x="834" d="M76 312 L177 312 Q187 198 218 154 Q279 63 412 63 Q632 63 632 284 Q632 390 583.5 437 Q535 484 396 510 Q316 526 271.5 544.5 Q227 563 195 595 Q121 671 121 798 Q121 933 199 1014 Q273 1093 395 1093 Q485 1093 552.5 1053 Q620 1013 652 942 Q685 871 686 767 L585 767 Q576 873 553 915 Q504 999 398 999 Q312 999 272 938 Q234 881 234 804 Q234 717 278 672 Q316 634 436 609 Q575 581 628 547 Q745 471 745 276 Q745 141 670 60 Q584 -32 420 -32 Q318 -32 239 6 Q160 44 121 112 Q79 183 76 312 Z M416 1454 L273 1225 L162 1225 L384 1542 L449 1542 L671 1225 L559 1225 L416 1454 Z " />
<glyph glyph-name="Scedilla" unicode="&#x15e;" horiz-adv-x="1052" d="M562 -28 L532 -101 Q597 -104 627 -119 Q704 -158 704 -274 Q704 -362 655 -411 Q606 -460 519 -460 Q417 -460 325 -422 L350 -332 Q430 -372 513 -372 Q604 -372 604 -275 Q604 -184 504 -184 Q487 -184 451 -187 L442 -116 L481 -26 Q287 -11 196 94.5 Q105 200 103 412 L210 412 Q215 249 274 176 Q359 70 523 70 Q693 70 773 164 Q849 254 849 389 Q849 508 787 582 Q749 629 693.5 656.5 Q638 684 517 719 Q404 751 342.5 779 Q281 807 237 846 Q137 934 137 1112 Q137 1272 219 1377 Q318 1504 512 1504 Q739 1504 830 1346 Q885 1252 887 1063 L780 1063 Q775 1227 728 1299 Q659 1406 519 1406 Q385 1406 315 1316 Q252 1235 252 1117 Q252 993 326 929 Q387 877 556 829 Q693 790 757 757.5 Q821 725 868 671 Q964 562 964 394 Q964 260 901 151 Q805 -18 562 -28 Z " />
<glyph glyph-name="scedilla" unicode="&#x15f;" horiz-adv-x="834" d="M445 -31 L416 -101 Q481 -104 511 -120 Q588 -158 588 -275 Q588 -363 539 -412 Q490 -461 402 -461 Q303 -461 209 -423 L234 -332 Q316 -373 396 -373 Q488 -373 488 -276 Q488 -184 387 -184 Q368 -184 336 -187 L326 -116 L364 -28 Q242 -14 169 52 Q80 132 76 312 L177 312 Q187 198 218 154 Q279 63 412 63 Q632 63 632 283 Q632 390 583.5 436.5 Q535 483 396 510 Q315 525 271 544 Q227 563 195 595 Q121 671 121 798 Q121 933 199 1014 Q273 1093 395 1093 Q485 1093 552.5 1053 Q620 1013 652 942 Q685 871 686 767 L585 767 Q576 873 553 915 Q504 999 398 999 Q312 999 272 938 Q234 881 234 804 Q234 717 278 672 Q316 634 436 609 Q575 581 628 547 Q745 471 745 277 Q745 90 610 13 Q541 -26 445 -31 Z " />
<glyph glyph-name="Scaron" unicode="&#x160;" horiz-adv-x="1052" d="M103 412 L210 412 Q215 249 274 175 Q359 69 523 69 Q693 69 773 163 Q849 253 849 388 Q849 508 787 582 Q749 628 693.5 656 Q638 684 517 719 Q404 751 342.5 778.5 Q281 806 237 845 Q137 934 137 1112 Q137 1272 219 1377 Q319 1504 512 1504 Q739 1504 830 1346 Q885 1252 887 1063 L780 1063 Q775 1227 728 1299 Q659 1406 519 1406 Q385 1406 315 1316 Q252 1235 252 1117 Q252 993 326 929 Q387 876 556 828 Q693 790 757 757.5 Q821 725 868 671 Q964 562 964 394 Q964 213 863 96 Q756 -29 534 -29 Q276 -29 170 127 Q105 223 103 412 Z M519 1676 L662 1905 L774 1905 L552 1588 L487 1588 L265 1905 L376 1905 L519 1676 Z " />
<glyph glyph-name="scaron" unicode="&#x161;" horiz-adv-x="834" d="M76 312 L177 312 Q187 198 218 154 Q279 63 412 63 Q632 63 632 284 Q632 390 583.5 437 Q535 484 396 510 Q316 526 271.5 544.5 Q227 563 195 595 Q121 671 121 798 Q121 933 199 1014 Q273 1093 395 1093 Q485 1093 552.5 1053 Q620 1013 652 942 Q685 871 686 767 L585 767 Q576 873 553 915 Q504 999 398 999 Q312 999 272 938 Q234 881 234 804 Q234 717 278 672 Q316 634 436 609 Q575 581 628 547 Q745 471 745 276 Q745 141 670 60 Q584 -32 420 -32 Q318 -32 239 6 Q160 44 121 112 Q79 183 76 312 Z M403 1312 L546 1542 L658 1542 L436 1225 L371 1225 L149 1542 L260 1542 L403 1312 Z " />
<glyph glyph-name="Tcommaaccent" unicode="&#x162;" horiz-adv-x="902" d="M395 0 L395 1381 L43 1381 L43 1475 L858 1475 L858 1381 L506 1381 L506 0 L395 0 Z M296 -473 L395 -156 L516 -156 L373 -473 L296 -473 Z " />
<glyph glyph-name="tcommaaccent" unicode="&#x163;" horiz-adv-x="586" d="M207 967 L79 967 L79 1061 L208 1061 L218 1381 L316 1381 L316 1061 L541 1061 L541 967 L316 967 L316 293 Q316 162 341.5 128 Q367 94 463 94 L560 94 L560 0 L456 0 Q358 0 316 13 Q274 26 248 64 Q224 99 215.5 145.5 Q207 192 207 285 L207 967 Z M159 -473 L258 -156 L379 -156 L236 -473 L159 -473 Z " />
<glyph glyph-name="Tcaron" unicode="&#x164;" horiz-adv-x="902" d="M395 0 L395 1381 L43 1381 L43 1475 L858 1475 L858 1381 L506 1381 L506 0 L395 0 Z M450 1676 L593 1905 L705 1905 L483 1588 L418 1588 L196 1905 L307 1905 L450 1676 Z " />
<glyph glyph-name="tcaron" unicode="&#x165;" horiz-adv-x="654" d="M207 967 L79 967 L79 1061 L208 1061 L218 1381 L316 1381 L316 1061 L541 1061 L541 967 L316 967 L316 293 Q316 162 341.5 128 Q367 94 463 94 L560 94 L560 0 L456 0 Q358 0 316 13 Q274 26 248 64 Q224 99 215.5 145.5 Q207 192 207 285 L207 967 Z M502 1182 L585 1571 L706 1571 L585 1182 L502 1182 Z " />
<glyph glyph-name="Tbar" unicode="&#x166;" horiz-adv-x="902" d="M395 0 L395 729 L132 729 L132 823 L395 823 L395 1381 L43 1381 L43 1475 L858 1475 L858 1381 L506 1381 L506 823 L769 823 L769 729 L506 729 L506 0 L395 0 Z " />
<glyph glyph-name="tbar" unicode="&#x167;" horiz-adv-x="586" d="M207 967 L79 967 L79 1061 L208 1061 L218 1381 L316 1381 L316 1061 L541 1061 L541 967 L316 967 L316 696 L541 696 L541 604 L316 604 L316 293 Q316 162 341.5 128 Q367 94 463 94 L560 94 L560 0 L456 0 Q358 0 316 13 Q274 26 248 64 Q224 99 215.5 145.5 Q207 192 207 285 L207 604 L79 604 L79 696 L207 696 L207 967 Z " />
<glyph glyph-name="Utilde" unicode="&#x168;" horiz-adv-x="1192" d="M181 1475 L292 1475 L292 468 Q292 298 337 204 Q402 69 596 69 Q756 69 827.5 163 Q899 257 899 468 L899 1475 L1010 1475 L1010 537 Q1010 370 997 288.5 Q984 207 947 142 Q850 -29 596 -29 Q341 -29 244 142 Q207 207 194 289.5 Q181 372 181 537 L181 1475 Z M435 1659 L365 1659 Q401 1833 506 1833 Q550 1833 610 1784 Q664 1741 683 1741 Q726 1741 755 1831 L825 1831 Q785 1653 677 1653 Q627 1653 551 1717 Q517 1745 499 1745 Q462 1745 435 1659 Z " />
<glyph glyph-name="utilde" unicode="&#x169;" horiz-adv-x="1019" d="M175 1061 L284 1061 L284 440 Q284 215 315 140.5 Q346 66 440 66 Q517 66 615 161 Q682 226 727 292 L727 1061 L836 1061 L836 0 L727 0 L727 163 Q643 60 570 14 Q497 -32 417 -32 Q258 -32 209 111 Q175 210 175 447 L175 1061 Z M348 1296 L278 1296 Q314 1470 419 1470 Q463 1470 523 1421 Q576 1378 596 1378 Q639 1378 668 1468 L738 1468 Q698 1290 590 1290 Q541 1290 464 1354 Q430 1382 412 1382 Q375 1382 348 1296 Z " />
<glyph glyph-name="Umacron" unicode="&#x16a;" horiz-adv-x="1192" d="M181 1475 L292 1475 L292 468 Q292 298 337 204 Q402 69 596 69 Q756 69 827.5 163 Q899 257 899 468 L899 1475 L1010 1475 L1010 537 Q1010 370 997 288.5 Q984 207 947 142 Q850 -29 596 -29 Q341 -29 244 142 Q207 207 194 289.5 Q181 372 181 537 L181 1475 Z M395 1687 L395 1798 L794 1798 L794 1687 L395 1687 Z " />
<glyph glyph-name="umacron" unicode="&#x16b;" horiz-adv-x="1019" d="M175 1061 L284 1061 L284 440 Q284 215 315 140.5 Q346 66 440 66 Q517 66 615 161 Q682 226 727 292 L727 1061 L836 1061 L836 0 L727 0 L727 163 Q643 60 570 14 Q497 -32 417 -32 Q258 -32 209 111 Q175 210 175 447 L175 1061 Z M309 1325 L309 1436 L708 1436 L708 1325 L309 1325 Z " />
<glyph glyph-name="Ubreve" unicode="&#x16c;" horiz-adv-x="1192" d="M181 1475 L292 1475 L292 468 Q292 298 337 204 Q402 69 596 69 Q756 69 827.5 163 Q899 257 899 468 L899 1475 L1010 1475 L1010 537 Q1010 370 997 288.5 Q984 207 947 142 Q850 -29 596 -29 Q341 -29 244 142 Q207 207 194 289.5 Q181 372 181 537 L181 1475 Z M370 1876 L445 1876 Q451 1789 485.5 1751.5 Q520 1714 595 1714 Q672 1714 706 1751 Q740 1788 746 1876 L822 1876 Q811 1730 761 1674 Q709 1616 596 1616 Q479 1616 429.5 1673.5 Q380 1731 370 1876 Z " />
<glyph glyph-name="ubreve" unicode="&#x16d;" horiz-adv-x="1019" d="M175 1061 L284 1061 L284 440 Q284 215 315 140.5 Q346 66 440 66 Q517 66 615 161 Q682 226 727 292 L727 1061 L836 1061 L836 0 L727 0 L727 163 Q643 60 570 14 Q497 -32 417 -32 Q258 -32 209 111 Q175 210 175 447 L175 1061 Z M283 1513 L358 1513 Q364 1426 399 1389 Q434 1352 508 1352 Q585 1352 619 1388.5 Q653 1425 659 1513 L735 1513 Q724 1367 674 1312 Q622 1254 509 1254 Q392 1254 342.5 1311 Q293 1368 283 1513 Z " />
<glyph glyph-name="Uring" unicode="&#x16e;" horiz-adv-x="1192" d="M181 1475 L292 1475 L292 468 Q292 298 337 204 Q402 69 596 69 Q756 69 827.5 163 Q899 257 899 468 L899 1475 L1010 1475 L1010 537 Q1010 370 997 288.5 Q984 207 947 142 Q850 -29 596 -29 Q341 -29 244 142 Q207 207 194 289.5 Q181 372 181 537 L181 1475 Z M599 1985 Q694 1985 749.5 1927 Q805 1869 805 1769 Q805 1669 749 1611.5 Q693 1554 596 1554 Q498 1554 442.5 1611.5 Q387 1669 387 1769 Q387 1871 443 1928 Q499 1985 599 1985 Z M594 1907 Q475 1907 475 1770 Q475 1632 596 1632 Q717 1632 717 1769 Q717 1907 594 1907 Z " />
<glyph glyph-name="uring" unicode="&#x16f;" horiz-adv-x="1019" d="M175 1061 L284 1061 L284 440 Q284 215 315 140.5 Q346 66 440 66 Q517 66 615 161 Q682 226 727 292 L727 1061 L836 1061 L836 0 L727 0 L727 163 Q643 60 570 14 Q497 -32 417 -32 Q258 -32 209 111 Q175 210 175 447 L175 1061 Z M513 1622 Q608 1622 663.5 1564 Q719 1506 719 1407 Q719 1307 663.5 1249.5 Q608 1192 510 1192 Q412 1192 356.5 1249 Q301 1306 301 1406 Q301 1508 357 1565 Q413 1622 513 1622 Z M508 1544 Q451 1544 420 1508 Q389 1472 389 1407 Q389 1270 510 1270 Q631 1270 631 1407 Q631 1544 508 1544 Z " />
<glyph glyph-name="Uhungarumlaut" unicode="&#x170;" horiz-adv-x="1192" d="M181 1475 L292 1475 L292 468 Q292 298 337 204 Q402 69 596 69 Q756 69 827.5 163 Q899 257 899 468 L899 1475 L1010 1475 L1010 537 Q1010 370 997 288.5 Q984 207 947 142 Q850 -29 596 -29 Q341 -29 244 142 Q207 207 194 289.5 Q181 372 181 537 L181 1475 Z M464 1588 L569 1905 L688 1905 L532 1588 L464 1588 Z M666 1588 L775 1905 L895 1905 L734 1588 L666 1588 Z " />
<glyph glyph-name="uhungarumlaut" unicode="&#x171;" horiz-adv-x="1019" d="M175 1061 L284 1061 L284 440 Q284 215 315 140.5 Q346 66 440 66 Q517 66 615 161 Q682 226 727 292 L727 1061 L836 1061 L836 0 L727 0 L727 163 Q643 60 570 14 Q497 -32 417 -32 Q258 -32 209 111 Q175 210 175 447 L175 1061 Z M378 1225 L483 1542 L602 1542 L446 1225 L378 1225 Z M580 1225 L689 1542 L809 1542 L648 1225 L580 1225 Z " />
<glyph glyph-name="Uogonek" unicode="&#x172;" horiz-adv-x="1192" d="M181 1475 L292 1475 L292 468 Q292 298 337 204 Q402 69 596 69 Q756 69 827.5 163 Q899 257 899 468 L899 1475 L1010 1475 L1010 537 Q1010 371 997 289 Q984 207 947 142 Q878 21 720 -15 Q604 -134 604 -259 Q604 -336 673 -336 L749 -336 L749 -424 L678 -424 Q504 -424 504 -275 Q504 -161 620 -28 Q597 -29 587 -29 Q468 -29 379.5 15 Q291 59 244 142 Q207 207 194 289.5 Q181 372 181 537 L181 1475 Z " />
<glyph glyph-name="uogonek" unicode="&#x173;" horiz-adv-x="1019" d="M836 0 Q762 -73 732.5 -130.5 Q703 -188 703 -259 Q703 -336 773 -336 L849 -336 L849 -424 L778 -424 Q603 -424 603 -276 Q603 -142 746 0 L727 0 L727 163 Q643 60 570 14 Q497 -32 417 -32 Q258 -32 209 111 Q175 210 175 447 L175 1061 L284 1061 L284 440 Q284 215 315 140.5 Q346 66 440 66 Q517 66 615 161 Q682 226 727 292 L727 1061 L836 1061 L836 0 Z " />
<glyph glyph-name="Wcircumflex" unicode="&#x174;" horiz-adv-x="1518" d="M368 -33 L67 1475 L178 1475 L417 238 L721 1487 L797 1487 L1101 238 L1340 1475 L1451 1475 L1150 -33 L1074 -33 L759 1238 L445 -33 L368 -33 Z M759 1817 L616 1587 L505 1587 L727 1905 L792 1905 L1014 1587 L902 1587 L759 1817 Z " />
<glyph glyph-name="wcircumflex" unicode="&#x175;" horiz-adv-x="1241" d="M318 -28 L63 1061 L172 1061 L358 212 L594 1061 L648 1061 L884 212 L1069 1061 L1179 1061 L924 -28 L863 -28 L621 844 L379 -28 L318 -28 Z M620 1454 L477 1225 L366 1225 L588 1542 L653 1542 L875 1225 L763 1225 L620 1454 Z " />
<glyph glyph-name="Ycircumflex" unicode="&#x176;" horiz-adv-x="857" d="M373 0 L373 588 L-33 1475 L88 1475 L428 708 L769 1475 L890 1475 L484 588 L484 0 L373 0 Z M428 1817 L285 1587 L174 1587 L396 1905 L461 1905 L683 1587 L571 1587 L428 1817 Z " />
<glyph glyph-name="ycircumflex" unicode="&#x177;" horiz-adv-x="783" d="M344 39 L26 1061 L138 1061 L391 191 L645 1061 L758 1061 L389 -172 Q340 -336 272 -395 Q224 -437 96 -439 L96 -345 Q177 -343 210 -313 Q254 -273 285 -164 L344 39 Z M391 1454 L248 1225 L137 1225 L359 1542 L424 1542 L646 1225 L534 1225 L391 1454 Z " />
<glyph glyph-name="Zacute" unicode="&#x179;" horiz-adv-x="940" d="M50 0 L50 82 L706 1381 L99 1381 L99 1475 L829 1475 L829 1406 L168 94 L858 94 L858 0 L50 0 Z M422 1587 L575 1905 L704 1905 L502 1587 L422 1587 Z " />
<glyph glyph-name="zacute" unicode="&#x17a;" horiz-adv-x="737" d="M37 0 L37 82 L541 967 L80 967 L80 1061 L667 1061 L667 988 L156 94 L678 94 L678 0 L37 0 Z M321 1225 L474 1542 L603 1542 L401 1225 L321 1225 Z " />
<glyph glyph-name="Zdotaccent" unicode="&#x17b;" horiz-adv-x="940" d="M50 0 L50 82 L706 1381 L99 1381 L99 1475 L829 1475 L829 1406 L168 94 L858 94 L858 0 L50 0 Z M486 1827 Q521 1827 545.5 1802 Q570 1777 570 1741 Q570 1705 545 1680 Q520 1655 484 1655 Q448 1655 423 1680.5 Q398 1706 398 1742 Q398 1778 423.5 1802.5 Q449 1827 486 1827 Z " />
<glyph glyph-name="zdotaccent" unicode="&#x17c;" horiz-adv-x="737" d="M37 0 L37 82 L541 967 L80 967 L80 1061 L667 1061 L667 988 L156 94 L678 94 L678 0 L37 0 Z M398 1465 Q433 1465 457.5 1440 Q482 1415 482 1379 Q482 1343 457 1318 Q432 1293 396 1293 Q360 1293 335 1318.5 Q310 1344 310 1380 Q310 1416 335.5 1440.5 Q361 1465 398 1465 Z " />
<glyph glyph-name="Zcaron" unicode="&#x17d;" horiz-adv-x="940" d="M50 0 L50 82 L706 1381 L99 1381 L99 1475 L829 1475 L829 1406 L168 94 L858 94 L858 0 L50 0 Z M490 1676 L633 1905 L745 1905 L523 1588 L458 1588 L236 1905 L347 1905 L490 1676 Z " />
<glyph glyph-name="zcaron" unicode="&#x17e;" horiz-adv-x="737" d="M37 0 L37 82 L541 967 L80 967 L80 1061 L667 1061 L667 988 L156 94 L678 94 L678 0 L37 0 Z M395 1312 L538 1542 L650 1542 L428 1225 L363 1225 L141 1542 L252 1542 L395 1312 Z " />
<glyph glyph-name="uni018F" unicode="&#x18f;" horiz-adv-x="1272" d="M112 825 L1044 825 Q1036 1022 991 1136 Q936 1275 850 1340.5 Q764 1406 635 1406 Q516 1406 441.5 1356.5 Q367 1307 302 1184 L206 1232 Q331 1504 636 1504 Q922 1504 1046 1284 Q1162 1077 1162 737 Q1162 398 1046 191 Q922 -29 637 -29 Q277 -29 162 347 Q111 511 112 825 Z M227 731 Q233 570 242.5 497.5 Q252 425 277 355 Q333 199 431 128 Q512 69 637 69 Q807 69 906 189 Q979 277 1011.5 402.5 Q1044 528 1047 731 L227 731 Z " />
<glyph glyph-name="uni01CD" unicode="&#x1cd;" horiz-adv-x="1088" d="M806 444 L285 444 L148 0 L32 0 L505 1475 L585 1475 L1058 0 L943 0 L806 444 Z M777 538 L545 1291 L314 538 L777 538 Z M543 1676 L686 1905 L798 1905 L576 1588 L511 1588 L289 1905 L400 1905 L543 1676 Z " />
<glyph glyph-name="uni01CE" unicode="&#x1ce;" horiz-adv-x="963" d="M701 142 Q659 63 602 24 Q521 -32 397 -32 Q248 -32 172 54 Q98 138 98 294 Q98 498 207 581 Q247 611 305.5 623.5 Q364 636 466 636 Q501 636 694 626 L694 699 Q694 861 656 920 Q604 1000 472 1000 Q373 1000 330 958 Q287 916 266 801 L165 801 Q178 895 198 944 Q231 1022 298.5 1058.5 Q366 1095 476 1095 Q573 1095 646 1063.5 Q719 1032 754 975 Q802 897 802 734 L802 0 L701 0 L701 142 Z M693 533 Q602 545 476 545 Q387 545 337 530.5 Q287 516 257 482 Q211 428 211 303 Q211 63 410 63 Q693 63 693 424 L693 533 Z M488 1312 L631 1542 L743 1542 L521 1225 L456 1225 L234 1542 L345 1542 L488 1312 Z " />
<glyph glyph-name="uni01D3" unicode="&#x1d3;" horiz-adv-x="1192" d="M181 1475 L292 1475 L292 468 Q292 298 337 204 Q402 69 596 69 Q756 69 827.5 163 Q899 257 899 468 L899 1475 L1010 1475 L1010 537 Q1010 370 997 288.5 Q984 207 947 142 Q850 -29 596 -29 Q341 -29 244 142 Q207 207 194 289.5 Q181 372 181 537 L181 1475 Z M595 1676 L738 1905 L850 1905 L628 1588 L563 1588 L341 1905 L452 1905 L595 1676 Z " />
<glyph glyph-name="uni01D4" unicode="&#x1d4;" horiz-adv-x="1019" d="M175 1061 L284 1061 L284 440 Q284 215 315 140.5 Q346 66 440 66 Q517 66 615 161 Q682 226 727 292 L727 1061 L836 1061 L836 0 L727 0 L727 163 Q643 60 570 14 Q497 -32 417 -32 Q258 -32 209 111 Q175 210 175 447 L175 1061 Z M509 1312 L652 1542 L764 1542 L542 1225 L477 1225 L255 1542 L366 1542 L509 1312 Z " />
<glyph glyph-name="uni01DD" unicode="&#x1dd;" horiz-adv-x="952" d="M99 601 L738 601 Q723 999 474 999 Q331 999 261 847 L160 884 Q258 1093 477 1093 Q852 1093 852 530 Q852 -32 477 -32 Q220 -32 137 236 Q112 317 99 601 Z M215 505 Q219 350 241 272 Q299 62 480 62 Q632 62 694 214 Q735 316 740 505 L215 505 Z " />
<glyph glyph-name="Gcaron" unicode="&#x1e6;" horiz-adv-x="1116" d="M617 635 L617 729 L989 729 L989 56 Q787 -29 566 -29 Q379 -29 282 59 Q111 214 111 713 Q111 1150 245 1336 Q361 1495 589 1495 Q964 1495 977 1063 L868 1063 Q854 1397 590 1397 Q401 1397 313.5 1232.5 Q226 1068 226 713 Q226 370 314 212 Q358 134 418 102 Q481 69 578 69 Q736 69 878 135 L878 635 L617 635 Z M578 1676 L721 1905 L833 1905 L611 1588 L546 1588 L324 1905 L435 1905 L578 1676 Z " />
<glyph glyph-name="gcaron" unicode="&#x1e7;" horiz-adv-x="1020" d="M727 99 Q619 -33 463 -33 Q267 -33 179 132 Q101 277 101 530 Q101 783 179 927 Q267 1093 462 1093 Q637 1093 726 955 L726 1061 L837 1061 L837 142 Q837 -119 785 -253 Q740 -369 634 -427 Q556 -469 448 -469 Q259 -469 117 -341 L176 -261 Q257 -326 316.5 -350.5 Q376 -375 452 -375 Q594 -375 660.5 -265.5 Q727 -156 727 78 L727 99 Z M459 999 Q214 999 214 529 Q214 327 258 213 Q316 61 466 61 Q727 61 727 527 Q727 743 676 859 Q614 999 459 999 Z M510 1312 L653 1542 L765 1542 L543 1225 L478 1225 L256 1542 L367 1542 L510 1312 Z " />
<glyph glyph-name="uni01F4" unicode="&#x1f4;" horiz-adv-x="1116" d="M617 635 L617 729 L989 729 L989 56 Q787 -29 566 -29 Q379 -29 282 59 Q111 214 111 713 Q111 1150 245 1336 Q361 1495 589 1495 Q964 1495 977 1063 L868 1063 Q854 1397 590 1397 Q401 1397 313.5 1232.5 Q226 1068 226 713 Q226 370 314 212 Q358 134 418 102 Q481 69 578 69 Q736 69 878 135 L878 635 L617 635 Z M476 1594 L629 1912 L758 1912 L556 1594 L476 1594 Z " />
<glyph glyph-name="uni01F5" unicode="&#x1f5;" horiz-adv-x="1020" d="M727 99 Q619 -33 463 -33 Q267 -33 179 132 Q101 277 101 530 Q101 783 179 927 Q267 1093 462 1093 Q637 1093 726 955 L726 1061 L837 1061 L837 142 Q837 -119 785 -253 Q740 -369 634 -427 Q556 -469 448 -469 Q259 -469 117 -341 L176 -261 Q257 -326 316.5 -350.5 Q376 -375 452 -375 Q594 -375 660.5 -265.5 Q727 -156 727 78 L727 99 Z M459 999 Q214 999 214 529 Q214 327 258 213 Q316 61 466 61 Q727 61 727 527 Q727 743 676 859 Q614 999 459 999 Z M456 1225 L609 1542 L738 1542 L536 1225 L456 1225 Z " />
<glyph glyph-name="Scommaaccent" unicode="&#x218;" horiz-adv-x="1052" d="M103 412 L210 412 Q215 249 274 175 Q359 69 523 69 Q693 69 773 163 Q849 253 849 388 Q849 508 787 582 Q749 628 693.5 656 Q638 684 517 719 Q404 751 342.5 778.5 Q281 806 237 845 Q137 934 137 1112 Q137 1272 219 1377 Q319 1504 512 1504 Q739 1504 830 1346 Q885 1252 887 1063 L780 1063 Q775 1227 728 1299 Q659 1406 519 1406 Q385 1406 315 1316 Q252 1235 252 1117 Q252 993 326 929 Q387 876 556 828 Q693 790 757 757.5 Q821 725 868 671 Q964 562 964 394 Q964 213 863 96 Q756 -29 534 -29 Q276 -29 170 127 Q105 223 103 412 Z M391 -473 L490 -156 L611 -156 L468 -473 L391 -473 Z " />
<glyph glyph-name="scommaaccent" unicode="&#x219;" horiz-adv-x="834" d="M76 312 L177 312 Q187 198 218 154 Q279 63 412 63 Q632 63 632 284 Q632 390 583.5 437 Q535 484 396 510 Q316 526 271.5 544.5 Q227 563 195 595 Q121 671 121 798 Q121 933 199 1014 Q273 1093 395 1093 Q485 1093 552.5 1053 Q620 1013 652 942 Q685 871 686 767 L585 767 Q576 873 553 915 Q504 999 398 999 Q312 999 272 938 Q234 881 234 804 Q234 717 278 672 Q316 634 436 609 Q575 581 628 547 Q745 471 745 276 Q745 141 670 60 Q584 -32 420 -32 Q318 -32 239 6 Q160 44 121 112 Q79 183 76 312 Z M255 -473 L354 -156 L475 -156 L332 -473 L255 -473 Z " />
<glyph glyph-name="uni021A" unicode="&#x21a;" horiz-adv-x="902" d="M395 0 L395 1381 L43 1381 L43 1475 L858 1475 L858 1381 L506 1381 L506 0 L395 0 Z M296 -473 L395 -156 L516 -156 L373 -473 L296 -473 Z " />
<glyph glyph-name="uni021B" unicode="&#x21b;" horiz-adv-x="586" d="M207 967 L79 967 L79 1061 L208 1061 L218 1381 L316 1381 L316 1061 L541 1061 L541 967 L316 967 L316 293 Q316 162 341.5 128 Q367 94 463 94 L560 94 L560 0 L456 0 Q358 0 316 13 Q274 26 248 64 Q224 99 215.5 145.5 Q207 192 207 285 L207 967 Z M159 -473 L258 -156 L379 -156 L236 -473 L159 -473 Z " />
<glyph glyph-name="uni0226" unicode="&#x226;" horiz-adv-x="1088" d="M806 444 L285 444 L148 0 L32 0 L505 1475 L585 1475 L1058 0 L943 0 L806 444 Z M777 538 L545 1291 L314 538 L777 538 Z M546 1827 Q581 1827 605.5 1802 Q630 1777 630 1741 Q630 1705 605 1680 Q580 1655 544 1655 Q508 1655 483 1680.5 Q458 1706 458 1742 Q458 1778 483.5 1802.5 Q509 1827 546 1827 Z " />
<glyph glyph-name="uni0227" unicode="&#x227;" horiz-adv-x="963" d="M701 142 Q659 63 602 24 Q521 -32 397 -32 Q248 -32 172 54 Q98 138 98 294 Q98 498 207 581 Q247 611 305.5 623.5 Q364 636 466 636 Q501 636 694 626 L694 699 Q694 861 656 920 Q604 1000 472 1000 Q373 1000 330 958 Q287 916 266 801 L165 801 Q178 895 198 944 Q231 1022 298.5 1058.5 Q366 1095 476 1095 Q573 1095 646 1063.5 Q719 1032 754 975 Q802 897 802 734 L802 0 L701 0 L701 142 Z M693 533 Q602 545 476 545 Q387 545 337 530.5 Q287 516 257 482 Q211 428 211 303 Q211 63 410 63 Q693 63 693 424 L693 533 Z M469 1465 Q504 1465 528.5 1440 Q553 1415 553 1379 Q553 1343 528 1318 Q503 1293 467 1293 Q431 1293 406 1318.5 Q381 1344 381 1380 Q381 1416 406.5 1440.5 Q432 1465 469 1465 Z " />
<glyph glyph-name="uni0237" unicode="&#x237;" horiz-adv-x="482" d="M190 1061 L299 1061 L299 -40 Q301 -283 235 -372 Q167 -469 47 -478 L47 -384 Q94 -376 120.5 -354.5 Q147 -333 163 -290 Q180 -244 185 -193 Q190 -142 190 -21 L190 1061 Z " />
<glyph glyph-name="uni0259" unicode="&#x259;" horiz-adv-x="952" d="M99 601 L738 601 Q723 999 474 999 Q331 999 261 847 L160 884 Q258 1093 477 1093 Q852 1093 852 530 Q852 -32 477 -32 Q220 -32 137 236 Q112 317 99 601 Z M215 505 Q219 350 241 272 Q299 62 480 62 Q632 62 694 214 Q735 316 740 505 L215 505 Z " />
<glyph glyph-name="uni02C9" unicode="&#x2c9;" horiz-adv-x="1024" d="M311 1325 L311 1436 L710 1436 L710 1325 L311 1325 Z " />
<glyph glyph-name="uni0312" unicode="&#x312;" horiz-adv-x="1024" d="M699 1542 L546 1225 L417 1225 L619 1542 L699 1542 Z " />
<glyph glyph-name="uni0313" unicode="&#x313;" horiz-adv-x="101" d="M-51 1155 L32 1544 L153 1544 L32 1155 L-51 1155 Z " />
<glyph glyph-name="uni031B" unicode="&#x31b;" horiz-adv-x="101" d="M-51 1155 L32 1544 L153 1544 L32 1155 L-51 1155 Z " />
<glyph glyph-name="commaaccent" unicode="&#x326;" horiz-adv-x="1024" d="M377 -473 L476 -156 L597 -156 L454 -473 L377 -473 Z " />
<glyph glyph-name="uni037E" unicode="&#x37e;" horiz-adv-x="590" d="M210 -258 L303 162 L445 162 L306 -258 L210 -258 Z M397 870 Q436 870 464 842 Q492 814 492 775 Q492 736 463.5 708 Q435 680 395 680 Q354 680 326 708 Q298 736 298 776 Q298 815 326.5 842.5 Q355 870 397 870 Z " />
<glyph glyph-name="uni0387" unicode="&#x387;" horiz-adv-x="599" d="M304 710 Q343 710 371 682 Q399 654 399 615 Q399 576 370.5 548 Q342 520 302 520 Q261 520 233 548 Q205 576 205 616 Q205 655 234 682.5 Q263 710 304 710 Z " />
<glyph glyph-name="uni0400" unicode="&#x400;" horiz-adv-x="1003" d="M191 0 L191 1475 L909 1475 L909 1381 L302 1381 L302 811 L814 811 L814 717 L302 717 L302 94 L922 94 L922 0 L191 0 Z M556 1587 L354 1905 L483 1905 L636 1587 L556 1587 Z " />
<glyph glyph-name="afii10023" unicode="&#x401;" horiz-adv-x="1003" d="M191 0 L191 1475 L909 1475 L909 1381 L302 1381 L302 811 L814 811 L814 717 L302 717 L302 94 L922 94 L922 0 L191 0 Z M375 1825 Q409 1825 433 1800.5 Q457 1776 457 1741 Q457 1706 432.5 1681.5 Q408 1657 373 1657 Q338 1657 313.5 1682 Q289 1707 289 1742 Q289 1777 313.5 1801 Q338 1825 375 1825 Z M703 1825 Q737 1825 761 1800.5 Q785 1776 785 1741 Q785 1706 760.5 1681.5 Q736 1657 701 1657 Q666 1657 641.5 1681.5 Q617 1706 617 1742 Q617 1777 641.5 1801 Q666 1825 703 1825 Z " />
<glyph glyph-name="afii10051" unicode="&#x402;" horiz-adv-x="1291" d="M390 0 L390 1381 L63 1381 L63 1475 L881 1475 L881 1381 L501 1381 L501 833 Q612 957 689 1004.5 Q766 1052 857 1052 Q938 1052 996 1016 Q1054 980 1079 915 Q1115 820 1115 594 L1115 -74 Q1117 -268 1051 -339 Q983 -415 870 -422 L870 -328 Q917 -322 941.5 -307 Q966 -292 981 -259 Q997 -225 1002 -186.5 Q1007 -148 1007 -59 L1007 600 Q1007 810 973 882 Q939 954 839 954 Q691 954 501 701 L501 0 L390 0 Z " />
<glyph glyph-name="afii10052" unicode="&#x403;" horiz-adv-x="908" d="M191 0 L191 1475 L854 1475 L854 1381 L302 1381 L302 0 L191 0 Z M449 1587 L602 1905 L731 1905 L529 1587 L449 1587 Z " />
<glyph glyph-name="afii10053" unicode="&#x404;" horiz-adv-x="1123" d="M762 731 L224 731 Q227 500 270 356 Q317 196 400 129 Q473 69 598 69 Q682 69 751.5 102 Q821 135 861 193 Q909 263 914 412 L1022 412 Q1019 198 931 99 Q877 38 788 4.5 Q699 -29 592 -29 Q321 -29 213 191 Q111 397 111 737 Q111 1078 216 1284 Q328 1504 602 1504 Q986 1504 997 1063 L890 1063 Q874 1406 609 1406 Q437 1406 347 1284 Q243 1142 227 825 L762 825 L762 731 Z " />
<glyph glyph-name="afii10054" unicode="&#x405;" horiz-adv-x="1052" d="M103 412 L210 412 Q215 249 274 175 Q359 69 523 69 Q693 69 773 163 Q849 253 849 388 Q849 508 787 582 Q749 628 693.5 656 Q638 684 517 719 Q404 751 342.5 778.5 Q281 806 237 845 Q137 934 137 1112 Q137 1272 219 1377 Q319 1504 512 1504 Q739 1504 830 1346 Q885 1252 887 1063 L780 1063 Q775 1227 728 1299 Q659 1406 519 1406 Q385 1406 315 1316 Q252 1235 252 1117 Q252 993 326 929 Q387 876 556 828 Q693 790 757 757.5 Q821 725 868 671 Q964 562 964 394 Q964 213 863 96 Q756 -29 534 -29 Q276 -29 170 127 Q105 223 103 412 Z " />
<glyph glyph-name="afii10055" unicode="&#x406;" horiz-adv-x="493" d="M191 0 L191 1475 L302 1475 L302 0 L191 0 Z " />
<glyph glyph-name="afii10056" unicode="&#x407;" horiz-adv-x="509" d="M199 0 L199 1475 L310 1475 L310 0 L199 0 Z M86 1825 Q121 1825 145.5 1800.5 Q170 1776 170 1741 Q170 1706 145 1681.5 Q120 1657 85 1657 Q49 1657 24 1681.5 Q-1 1706 -1 1742 Q-1 1777 24 1801 Q49 1825 86 1825 Z M425 1825 Q460 1825 484.5 1800.5 Q509 1776 509 1741 Q509 1706 484 1681.5 Q459 1657 424 1657 Q388 1657 363 1682 Q338 1707 338 1742 Q338 1777 363 1801 Q388 1825 425 1825 Z " />
<glyph glyph-name="afii10057" unicode="&#x408;" horiz-adv-x="503" d="M201 1475 L312 1475 L312 94 Q312 -14 297.5 -74 Q283 -134 247 -175 Q179 -252 53 -259 L53 -165 Q141 -155 171 -99.5 Q201 -44 201 109 L201 1475 Z " />
<glyph glyph-name="afii10058" unicode="&#x409;" horiz-adv-x="1678" d="M823 0 L823 1381 L404 1381 L398 1252 Q366 536 255 222 Q195 60 109 22 Q60 0 -6 0 L-35 0 L-35 94 L-5 94 Q36 94 63 110 Q90 126 116 166 Q192 285 240.5 636 Q289 987 296 1475 L934 1475 L934 870 L1181 870 Q1284 870 1349.5 850 Q1415 830 1467 782 Q1592 669 1592 435 Q1592 201 1467 88 Q1415 40 1349.5 20 Q1284 0 1181 0 L823 0 Z M934 94 L1157 94 Q1477 94 1477 435 Q1477 776 1157 776 L934 776 L934 94 Z " />
<glyph glyph-name="afii10059" unicode="&#x40a;" horiz-adv-x="1710" d="M191 0 L191 1475 L302 1475 L302 825 L839 825 L839 1475 L950 1475 L950 825 L1211 825 Q1313 825 1379.5 806 Q1446 787 1498 742 Q1623 635 1623 413 Q1623 191 1498 83 Q1446 38 1380 19 Q1314 0 1211 0 L839 0 L839 731 L302 731 L302 0 L191 0 Z M950 94 L1186 94 Q1508 94 1508 413 Q1508 731 1186 731 L950 731 L950 94 Z " />
<glyph glyph-name="afii10060" unicode="&#x40b;" horiz-adv-x="1291" d="M390 0 L390 1381 L63 1381 L63 1475 L881 1475 L881 1381 L501 1381 L501 833 Q611 956 688.5 1004 Q766 1052 857 1052 Q937 1052 995.5 1016 Q1054 980 1079 915 Q1115 820 1115 594 L1115 0 L1007 0 L1007 600 Q1007 810 973 882 Q939 954 839 954 Q691 954 501 701 L501 0 L390 0 Z " />
<glyph glyph-name="afii10061" unicode="&#x40c;" horiz-adv-x="1030" d="M191 0 L191 1475 L302 1475 L302 829 L524 829 L881 1475 L999 1475 L620 792 Q665 761 697 707.5 Q729 654 782 520 L989 0 L869 0 L695 461 Q632 626 600 667 Q548 735 454 735 L302 735 L302 0 L191 0 Z M488 1587 L641 1905 L770 1905 L568 1587 L488 1587 Z " />
<glyph glyph-name="uni040D" unicode="&#x40d;" horiz-adv-x="1200" d="M191 0 L191 1475 L299 1475 L299 248 L914 1475 L1008 1475 L1008 0 L900 0 L900 1227 L285 0 L191 0 Z M589 1587 L387 1905 L516 1905 L669 1587 L589 1587 Z " />
<glyph glyph-name="afii10062" unicode="&#x40e;" horiz-adv-x="892" d="M413 417 L26 1475 L144 1475 L470 542 L792 1475 L903 1475 L371 0 L259 0 L413 417 Z M624 1890 L711 1890 Q703 1748 634 1687 Q571 1631 461 1631 Q222 1631 212 1890 L298 1890 Q307 1799 344.5 1761 Q382 1723 462 1723 Q541 1723 577.5 1760.5 Q614 1798 624 1890 Z " />
<glyph glyph-name="afii10145" unicode="&#x40f;" horiz-adv-x="1138" d="M191 0 L191 1475 L302 1475 L302 94 L835 94 L835 1475 L946 1475 L946 0 L629 0 L609 -360 L528 -360 L508 0 L191 0 Z " />
<glyph glyph-name="afii10017" unicode="&#x410;" horiz-adv-x="1088" d="M806 444 L285 444 L148 0 L32 0 L505 1475 L585 1475 L1058 0 L943 0 L806 444 Z M777 538 L545 1291 L314 538 L777 538 Z " />
<glyph glyph-name="afii10018" unicode="&#x411;" horiz-adv-x="1069" d="M191 0 L191 1475 L883 1475 L883 1381 L302 1381 L302 870 L539 870 Q646 870 714.5 849.5 Q783 829 835 782 Q957 674 957 435 Q957 196 835 88 Q783 41 714 20.5 Q645 0 539 0 L191 0 Z M302 94 L568 94 Q842 94 842 435 Q842 776 568 776 L302 776 L302 94 Z " />
<glyph glyph-name="afii10019" unicode="&#x412;" horiz-adv-x="1138" d="M191 0 L191 1475 L566 1475 Q753 1475 848 1390 Q956 1294 956 1109 Q956 997 915 928 Q874 859 780 810 Q882 785 944 706 Q1027 600 1027 426 Q1027 201 889 87 Q783 0 568 0 L191 0 Z M302 846 L603 846 Q711 846 776 915 Q841 985 841 1109 Q841 1241 775.5 1314 Q710 1387 591 1387 L302 1387 L302 846 Z M302 88 L565 88 Q734 88 817 164 Q912 252 912 421 Q912 596 816 684 Q741 752 623 752 L302 752 L302 88 Z " />
<glyph glyph-name="afii10020" unicode="&#x413;" horiz-adv-x="908" d="M191 0 L191 1475 L854 1475 L854 1381 L302 1381 L302 0 L191 0 Z " />
<glyph glyph-name="afii10021" unicode="&#x414;" horiz-adv-x="1140" d="M946 0 L86 0 L64 -360 L-24 -360 L-24 94 L68 94 Q296 470 304 1475 L945 1475 L945 94 L1055 94 L1055 -360 L969 -360 L946 0 Z M834 94 L834 1381 L415 1381 Q390 884 355 658 Q297 286 189 94 L834 94 Z " />
<glyph glyph-name="afii10022" unicode="&#x415;" horiz-adv-x="1003" d="M191 0 L191 1475 L909 1475 L909 1381 L302 1381 L302 811 L814 811 L814 717 L302 717 L302 94 L922 94 L922 0 L191 0 Z " />
<glyph glyph-name="afii10024" unicode="&#x416;" horiz-adv-x="1466" d="M678 0 L678 735 L576 735 Q488 735 445.5 686 Q403 637 336 461 L162 0 L42 0 L249 520 Q302 654 333.5 707.5 Q365 761 411 792 L32 1475 L150 1475 L506 829 L678 829 L678 1475 L789 1475 L789 829 L960 829 L1317 1475 L1435 1475 L1056 792 Q1123 748 1187 593 L1218 520 L1425 0 L1305 0 L1131 461 Q1068 626 1037 667 Q984 735 890 735 L789 735 L789 0 L678 0 Z " />
<glyph glyph-name="afii10025" unicode="&#x417;" horiz-adv-x="1070" d="M354 737 L354 831 L512 831 Q646 831 713 898 Q799 985 799 1121 Q799 1406 514 1406 Q247 1406 233 1063 L125 1063 Q131 1265 208 1370 Q305 1504 525 1504 Q914 1504 914 1131 Q914 901 747 799 Q827 766 868 720 Q959 617 959 421 Q959 -29 531 -29 Q269 -29 165 127 Q104 220 101 412 L208 412 Q214 247 270 175 Q353 69 514 69 Q693 69 771 162 Q844 249 844 413 Q844 580 772.5 658.5 Q701 737 550 737 L354 737 Z " />
<glyph glyph-name="afii10026" unicode="&#x418;" horiz-adv-x="1200" d="M191 0 L191 1475 L299 1475 L299 248 L914 1475 L1008 1475 L1008 0 L900 0 L900 1227 L285 0 L191 0 Z " />
<glyph glyph-name="afii10027" unicode="&#x419;" horiz-adv-x="1200" d="M191 0 L191 1475 L299 1475 L299 248 L914 1475 L1008 1475 L1008 0 L900 0 L900 1227 L285 0 L191 0 Z M759 1890 L845 1890 Q838 1748 769 1687 Q706 1631 596 1631 Q357 1631 346 1890 L433 1890 Q442 1799 479 1761 Q516 1723 596 1723 Q675 1723 712 1760.5 Q749 1798 759 1890 Z " />
<glyph glyph-name="afii10028" unicode="&#x41a;" horiz-adv-x="1030" d="M191 0 L191 1475 L302 1475 L302 829 L524 829 L881 1475 L999 1475 L620 792 Q665 761 697 707.5 Q729 654 782 520 L989 0 L869 0 L695 461 Q632 626 600 667 Q548 735 454 735 L302 735 L302 0 L191 0 Z " />
<glyph glyph-name="afii10029" unicode="&#x41b;" horiz-adv-x="1124" d="M823 0 L823 1381 L404 1381 L398 1252 Q366 537 255 222 Q195 60 109 22 Q60 0 -6 0 L-35 0 L-35 94 L-5 94 Q36 94 63 110.5 Q90 127 116 167 Q192 286 240.5 637 Q289 988 296 1475 L934 1475 L934 0 L823 0 Z " />
<glyph glyph-name="afii10030" unicode="&#x41c;" horiz-adv-x="1475" d="M151 0 L243 1475 L351 1475 L737 206 L1124 1475 L1232 1475 L1324 0 L1217 0 L1143 1212 L776 0 L699 0 L332 1212 L257 0 L151 0 Z " />
<glyph glyph-name="afii10031" unicode="&#x41d;" horiz-adv-x="1224" d="M191 0 L191 1475 L302 1475 L302 825 L921 825 L921 1475 L1032 1475 L1032 0 L921 0 L921 731 L302 731 L302 0 L191 0 Z " />
<glyph glyph-name="afii10032" unicode="&#x41e;" horiz-adv-x="1147" d="M582 1504 Q745 1504 853 1404 Q1036 1235 1036 737 Q1036 390 942 191 Q837 -29 574 -29 Q310 -29 205 191 Q111 389 111 732 Q111 1092 205 1284 Q313 1504 582 1504 Z M567 1406 Q226 1406 226 737 Q226 436 298 261 Q378 69 574 69 Q769 69 849 261 Q921 438 921 732 Q921 1043 849 1214 Q806 1314 738.5 1360 Q671 1406 567 1406 Z " />
<glyph glyph-name="afii10033" unicode="&#x41f;" horiz-adv-x="1194" d="M191 0 L191 1475 L1002 1475 L1002 0 L891 0 L891 1381 L302 1381 L302 0 L191 0 Z " />
<glyph glyph-name="afii10034" unicode="&#x420;" horiz-adv-x="1067" d="M191 0 L191 1475 L507 1475 Q735 1475 835 1409 Q910 1359 950.5 1262 Q991 1165 991 1036 Q991 905 950.5 808.5 Q910 712 834 663 Q732 596 507 596 L302 596 L302 0 L191 0 Z M302 690 L540 690 Q631 690 686.5 707.5 Q742 725 784 767 Q876 858 876 1036 Q876 1213 787 1303 Q746 1345 689.5 1363 Q633 1381 542 1381 L302 1381 L302 690 Z " />
<glyph glyph-name="afii10035" unicode="&#x421;" horiz-adv-x="1068" d="M884 412 L991 412 Q979 -29 592 -29 Q335 -29 222 165 Q111 355 111 733 Q111 1144 241 1331 Q355 1495 591 1495 Q965 1495 978 1063 L871 1063 Q859 1397 590 1397 Q490 1397 422.5 1355 Q355 1313 310 1224 Q226 1057 226 733 Q226 383 325 216 Q411 69 591 69 Q780 69 848 232 Q880 308 884 412 Z " />
<glyph glyph-name="afii10036" unicode="&#x422;" horiz-adv-x="902" d="M395 0 L395 1381 L43 1381 L43 1475 L858 1475 L858 1381 L506 1381 L506 0 L395 0 Z " />
<glyph glyph-name="afii10037" unicode="&#x423;" horiz-adv-x="892" d="M413 417 L26 1475 L144 1475 L470 542 L792 1475 L903 1475 L371 0 L259 0 L413 417 Z " />
<glyph glyph-name="afii10038" unicode="&#x424;" horiz-adv-x="1537" d="M701 -41 L701 135 Q498 147 368 236 Q126 401 126 738 Q126 950 228 1100 Q352 1283 570 1325 Q624 1335 701 1341 L701 1516 L812 1516 L812 1341 Q1031 1331 1167 1239 Q1409 1074 1409 738 Q1409 526 1308 377 Q1227 260 1109 202 Q991 144 812 135 L812 -41 L701 -41 Z M701 234 L701 1241 Q534 1233 430 1161 Q241 1030 241 738 Q241 419 465 295 Q553 246 701 234 Z M812 233 Q1002 245 1105 316 Q1294 447 1294 738 Q1294 1057 1069 1180 Q970 1235 812 1242 L812 233 Z " />
<glyph glyph-name="afii10039" unicode="&#x425;" horiz-adv-x="970" d="M420 777 L54 1475 L174 1475 L503 852 L793 1475 L915 1475 L555 749 L947 0 L827 0 L472 673 L146 0 L23 0 L420 777 Z " />
<glyph glyph-name="afii10040" unicode="&#x426;" horiz-adv-x="1180" d="M191 0 L191 1475 L302 1475 L302 94 L873 94 L873 1475 L984 1475 L984 94 L1094 94 L1094 -360 L1008 -360 L985 0 L191 0 Z " />
<glyph glyph-name="afii10041" unicode="&#x427;" horiz-adv-x="1104" d="M802 0 L802 722 Q718 646 639.5 613 Q561 580 463 580 Q234 580 170 782 Q138 880 138 1095 L138 1475 L249 1475 L249 1049 Q249 853 286 782 Q341 678 488 678 Q579 678 649.5 715.5 Q720 753 802 846 L802 1475 L913 1475 L913 0 L802 0 Z " />
<glyph glyph-name="afii10042" unicode="&#x428;" horiz-adv-x="1608" d="M191 0 L191 1475 L302 1475 L302 94 L750 94 L750 1475 L861 1475 L861 94 L1305 94 L1305 1475 L1416 1475 L1416 0 L191 0 Z " />
<glyph glyph-name="afii10043" unicode="&#x429;" horiz-adv-x="1613" d="M191 0 L191 1475 L302 1475 L302 94 L750 94 L750 1475 L861 1475 L861 94 L1305 94 L1305 1475 L1416 1475 L1416 94 L1527 94 L1527 -360 L1441 -360 L1417 0 L191 0 Z " />
<glyph glyph-name="afii10044" unicode="&#x42a;" horiz-adv-x="1233" d="M378 0 L378 1381 L12 1381 L12 1475 L489 1475 L489 870 L736 870 Q839 870 905 850 Q971 830 1022 782 Q1147 669 1147 435 Q1147 201 1022 88 Q971 40 905 20 Q839 0 736 0 L378 0 Z M489 94 L712 94 Q1032 94 1032 435 Q1032 776 712 776 L489 776 L489 94 Z " />
<glyph glyph-name="afii10045" unicode="&#x42b;" horiz-adv-x="1413" d="M191 0 L191 1475 L302 1475 L302 870 L549 870 Q652 870 718 850 Q784 830 835 782 Q960 669 960 435 Q960 201 835 88 Q784 40 717.5 20 Q651 0 549 0 L191 0 Z M302 94 L525 94 Q845 94 845 435 Q845 776 525 776 L302 776 L302 94 Z M1110 0 L1110 1475 L1221 1475 L1221 0 L1110 0 Z " />
<glyph glyph-name="afii10046" unicode="&#x42c;" horiz-adv-x="1046" d="M191 0 L191 1475 L302 1475 L302 870 L549 870 Q652 870 718 850 Q784 830 835 782 Q960 669 960 435 Q960 201 835 88 Q784 40 717.5 20 Q651 0 549 0 L191 0 Z M302 94 L525 94 Q845 94 845 435 Q845 776 525 776 L302 776 L302 94 Z " />
<glyph glyph-name="afii10047" unicode="&#x42d;" horiz-adv-x="1123" d="M362 731 L362 825 L897 825 Q887 1016 852 1132 Q807 1278 729 1343 Q654 1406 530 1406 Q250 1406 234 1063 L126 1063 Q139 1504 535 1504 Q804 1504 912 1284 Q1013 1078 1013 739 Q1013 397 906 191 Q793 -29 520 -29 Q272 -29 168 127 Q105 220 102 412 L209 412 Q215 248 273 175 Q357 69 511 69 Q602 69 664 97.5 Q726 126 773 189 Q895 353 899 731 L362 731 Z " />
<glyph glyph-name="afii10048" unicode="&#x42e;" horiz-adv-x="1747" d="M191 0 L191 1475 L302 1475 L302 825 L592 825 Q609 1050 659 1181 Q782 1504 1112 1504 Q1396 1504 1520 1284 Q1636 1078 1636 737 Q1636 396 1520 191 Q1396 -29 1108 -29 Q894 -29 767 105 Q635 245 599 552 Q590 633 589 731 L302 731 L302 0 L191 0 Z M1104 1406 Q895 1406 794 1213 Q701 1037 701 737 Q701 439 794 261 Q895 69 1111 69 Q1328 69 1428 261 Q1521 439 1521 733 Q1521 1040 1428 1213 Q1375 1313 1296.5 1359.5 Q1218 1406 1104 1406 Z " />
<glyph glyph-name="afii10049" unicode="&#x42f;" horiz-adv-x="1067" d="M764 676 L610 676 Q535 676 497.5 665.5 Q460 655 430 625 Q374 571 344 452 L229 0 L106 0 L237 470 Q288 660 361 702 Q280 728 227 792 Q141 895 141 1078 Q141 1196 179 1283.5 Q217 1371 288 1416 Q382 1475 593 1475 L875 1475 L875 0 L764 0 L764 676 Z M764 770 L764 1381 L581 1381 Q399 1381 329 1298 Q256 1213 256 1073 Q256 888 372 813 Q439 770 587 770 L764 770 Z " />
<glyph glyph-name="afii10065" unicode="&#x430;" horiz-adv-x="963" d="M701 142 Q659 63 602 24 Q521 -32 397 -32 Q248 -32 172 54 Q98 138 98 294 Q98 461 175 550 Q217 599 281 617.5 Q345 636 470 636 Q517 636 599 631 L625 630 L648 628 L668 627 L685 626 L694 626 L694 699 Q694 776 687 825 Q674 916 622.5 958 Q571 1000 472 1000 Q373 1000 330 958 Q287 916 266 801 L165 801 Q183 933 225 993 Q296 1095 472 1095 Q629 1095 712 1023 Q761 980 781.5 914.5 Q802 849 802 734 L802 0 L701 0 L701 142 Z M693 533 Q603 545 471 545 Q314 545 260 486 Q211 432 211 302 Q211 63 410 63 Q693 63 693 424 L693 533 Z " />
<glyph glyph-name="afii10066" unicode="&#x431;" horiz-adv-x="961" d="M216 751 Q301 958 502 958 Q690 958 789 787 Q865 654 865 463 Q865 275 790 145 Q691 -29 488 -29 Q249 -29 161 214 Q107 364 107 615 Q107 889 174.5 1052 Q242 1215 388 1294 Q485 1346 618 1394 Q661 1409 676 1433 Q691 1457 695 1516 L797 1516 Q792 1407 760.5 1368.5 Q729 1330 606 1287 Q422 1222 341 1133 Q284 1069 255 982 Q226 895 216 751 Z M490 864 Q374 864 303 756 Q232 648 232 471 Q232 304 294 194 Q366 66 497 66 Q623 66 692 187 Q754 295 754 461 Q754 635 692 741 Q620 864 490 864 Z " />
<glyph glyph-name="afii10067" unicode="&#x432;" horiz-adv-x="955" d="M183 0 L183 1061 L532 1061 Q687 1061 748 1016 Q828 957 828 802 Q828 610 699 558 Q862 512 862 288 Q862 137 785 68.5 Q708 0 541 0 L183 0 Z M292 599 L483 599 Q611 599 653 633 Q715 682 715 805 Q715 896 672.5 931 Q630 966 518 966 L292 966 L292 599 Z M292 95 L510 95 Q639 95 685 125 Q749 167 749 288 Q749 419 682 467 Q629 504 490 504 L292 504 L292 95 Z " />
<glyph glyph-name="afii10068" unicode="&#x433;" horiz-adv-x="775" d="M183 0 L183 1061 L723 1061 L723 967 L292 967 L292 0 L183 0 Z " />
<glyph glyph-name="afii10069" unicode="&#x434;" horiz-adv-x="962" d="M779 0 L67 0 L42 -347 L-35 -347 L-35 94 L45 94 Q123 232 178 483.5 Q233 735 257 1061 L775 1061 L775 94 L881 94 L881 -347 L804 -347 L779 0 Z M666 94 L666 967 L353 967 Q300 384 161 94 L666 94 Z " />
<glyph glyph-name="afii10070" unicode="&#x435;" horiz-adv-x="935" d="M833 513 L214 513 Q218 319 263 215 Q328 62 482 62 Q620 62 744 200 L810 121 Q754 63 717 38 Q617 -32 487 -32 Q280 -32 184 134 Q101 278 101 532 Q101 1093 467 1093 Q669 1093 755 928 Q834 778 834 561 Q834 540 833 513 Z M718 608 Q712 757 682 834 Q618 999 468 999 Q303 999 244 807 Q224 745 216 608 L718 608 Z " />
<glyph glyph-name="afii10072" unicode="&#x436;" horiz-adv-x="1269" d="M581 0 L581 508 L558 508 Q493 508 454.5 478 Q416 448 361 353 L153 0 L17 0 L301 444 Q354 526 387 552 L44 1061 L175 1061 L472 599 L581 599 L581 1061 L690 1061 L690 599 L799 599 L1095 1061 L1226 1061 L884 552 Q916 527 969 444 L1254 0 L1118 0 L910 353 Q854 448 815.5 478 Q777 508 712 508 L690 508 L690 0 L581 0 Z " />
<glyph glyph-name="afii10073" unicode="&#x437;" horiz-adv-x="798" d="M250 506 L250 601 L400 601 Q481 601 520 644 Q571 700 571 797 Q571 999 372 999 Q271 999 221 946 Q171 893 160 773 L60 773 Q68 1093 380 1093 Q521 1093 602 1022 Q684 949 684 809 Q684 717 659 658.5 Q634 600 581 565 Q635 543 663 513 Q723 445 723 300 Q723 112 620 35 Q529 -32 389 -32 Q289 -32 210 6.5 Q131 45 93 113 Q52 184 49 315 L150 315 Q159 200 191 154 Q254 63 387 63 Q495 63 552.5 121.5 Q610 180 610 291 Q610 416 553 470 Q515 506 402 506 L250 506 Z " />
<glyph glyph-name="afii10074" unicode="&#x438;" horiz-adv-x="1045" d="M183 0 L183 1061 L292 1061 L292 191 L752 1061 L861 1061 L861 0 L752 0 L752 862 L292 0 L183 0 Z " />
<glyph glyph-name="afii10075" unicode="&#x439;" horiz-adv-x="1045" d="M183 0 L183 1061 L292 1061 L292 191 L752 1061 L861 1061 L861 0 L752 0 L752 862 L292 0 L183 0 Z M692 1509 L778 1509 Q770 1367 701 1306 Q639 1250 528 1250 Q289 1250 279 1509 L365 1509 Q374 1418 411.5 1380 Q449 1342 529 1342 Q608 1342 644.5 1379.5 Q681 1417 692 1509 Z " />
<glyph glyph-name="afii10076" unicode="&#x43a;" horiz-adv-x="932" d="M183 0 L183 1061 L292 1061 L292 599 L461 599 L758 1061 L889 1061 L546 552 Q578 527 632 443 L916 0 L780 0 L573 353 Q517 447 478 477.5 Q439 508 375 508 L292 508 L292 0 L183 0 Z " />
<glyph glyph-name="afii10077" unicode="&#x43b;" horiz-adv-x="989" d="M697 0 L697 967 L375 967 Q326 499 272 306 Q226 137 169 68.5 Q112 0 19 0 L0 0 L0 94 L14 94 Q71 94 107 147.5 Q143 201 179 338 Q248 600 279 1061 L806 1061 L806 0 L697 0 Z " />
<glyph glyph-name="afii10078" unicode="&#x43c;" horiz-adv-x="1287" d="M98 0 L228 1061 L343 1061 L643 196 L942 1061 L1058 1061 L1188 0 L1087 0 L979 870 L674 0 L611 0 L307 870 L199 0 L98 0 Z " />
<glyph glyph-name="afii10079" unicode="&#x43d;" horiz-adv-x="1044" d="M183 0 L183 1061 L292 1061 L292 598 L751 598 L751 1061 L860 1061 L860 0 L751 0 L751 504 L292 504 L292 0 L183 0 Z " />
<glyph glyph-name="afii10080" unicode="&#x43e;" horiz-adv-x="952" d="M482 1093 Q679 1093 771 928 Q851 784 851 530 Q851 -32 476 -32 Q101 -32 101 527 Q101 1093 482 1093 Z M472 999 Q341 999 277.5 884 Q214 769 214 530 Q214 327 260 214 Q321 62 475 62 Q631 62 692 214 Q738 328 738 525 Q738 737 692 847 Q628 999 472 999 Z " />
<glyph glyph-name="afii10081" unicode="&#x43f;" horiz-adv-x="1042" d="M183 0 L183 1061 L859 1061 L859 0 L751 0 L751 967 L292 967 L292 0 L183 0 Z " />
<glyph glyph-name="afii10082" unicode="&#x440;" horiz-adv-x="1018" d="M183 -439 L183 1061 L293 1061 L293 955 Q380 1093 557 1093 Q751 1093 839 928 Q917 783 917 531 Q917 278 839 133 Q751 -32 556 -32 Q381 -32 292 107 L292 -439 L183 -439 Z M546 999 Q292 999 292 530 Q292 327 338 214 Q366 146 421 104 Q477 62 554 62 Q682 62 743 176 Q804 290 804 528 Q804 735 760 847 Q701 999 546 999 Z " />
<glyph glyph-name="afii10083" unicode="&#x441;" horiz-adv-x="847" d="M708 194 L778 121 Q725 63 690 38 Q594 -32 469 -32 Q272 -32 181 133 Q101 278 101 532 Q101 785 181 930 Q271 1093 462 1093 Q604 1093 682.5 1004.5 Q761 916 765 751 L660 751 Q643 999 463 999 Q379 999 318 937 Q263 881 238.5 785.5 Q214 690 214 532 Q214 62 467 62 Q592 62 708 194 Z " />
<glyph glyph-name="afii10084" unicode="&#x442;" horiz-adv-x="814" d="M353 0 L353 967 L52 967 L52 1061 L763 1061 L763 967 L461 967 L461 0 L353 0 Z " />
<glyph glyph-name="afii10085" unicode="&#x443;" horiz-adv-x="783" d="M344 39 L26 1061 L138 1061 L391 191 L645 1061 L758 1061 L389 -172 Q340 -336 272 -395 Q224 -437 96 -439 L96 -345 Q177 -343 210 -313 Q254 -273 285 -164 L344 39 Z " />
<glyph glyph-name="afii10086" unicode="&#x444;" horiz-adv-x="1288" d="M595 -439 L595 98 Q539 20 498.5 -6 Q458 -32 392 -32 Q246 -32 182 92 Q101 250 101 534 Q101 813 181 968 Q245 1093 392 1093 Q459 1093 498.5 1067.5 Q538 1042 595 963 L595 1516 L694 1516 L694 962 Q746 1039 788 1066 Q830 1093 896 1093 Q1044 1093 1108 968 Q1188 813 1188 533 Q1188 250 1107 92 Q1043 -32 895 -32 Q830 -32 788.5 -5 Q747 22 694 98 L694 -439 L595 -439 Z M595 420 L595 640 Q595 731 586 782 Q577 833 551 885 Q492 1003 394 1003 Q315 1003 268 916 Q201 795 201 531 Q201 304 251.5 181 Q302 58 395 58 Q500 58 559 193 Q595 275 595 420 Z M694 640 L694 420 Q694 328 703 278 Q712 228 738 176 Q796 58 892 58 Q971 58 1018 145 Q1084 265 1084 531 Q1084 757 1034.5 880 Q985 1003 893 1003 Q788 1003 730 868 Q708 818 701 772 Q694 726 694 640 Z " />
<glyph glyph-name="afii10087" unicode="&#x445;" horiz-adv-x="762" d="M314 576 L41 1061 L156 1061 L385 655 L600 1061 L719 1061 L431 574 L755 0 L640 0 L361 494 L117 0 L-2 0 L314 576 Z " />
<glyph glyph-name="afii10088" unicode="&#x446;" horiz-adv-x="1038" d="M183 0 L183 1061 L292 1061 L292 94 L741 94 L741 1061 L850 1061 L850 94 L956 94 L956 -347 L879 -347 L854 0 L183 0 Z " />
<glyph glyph-name="afii10089" unicode="&#x447;" horiz-adv-x="974" d="M682 0 L682 464 Q568 364 410 364 Q212 364 150 526 Q122 600 122 789 L122 1061 L231 1061 L231 746 Q231 586 273 522 Q315 458 421 458 Q578 458 682 581 L682 1061 L791 1061 L791 0 L682 0 Z " />
<glyph glyph-name="afii10090" unicode="&#x448;" horiz-adv-x="1452" d="M183 0 L183 1061 L292 1061 L292 94 L672 94 L672 1061 L781 1061 L781 94 L1159 94 L1159 1061 L1268 1061 L1268 0 L183 0 Z " />
<glyph glyph-name="afii10091" unicode="&#x449;" horiz-adv-x="1456" d="M183 0 L183 1061 L292 1061 L292 94 L672 94 L672 1061 L781 1061 L781 94 L1159 94 L1159 1061 L1268 1061 L1268 94 L1375 94 L1375 -347 L1297 -347 L1272 0 L183 0 Z " />
<glyph glyph-name="afii10092" unicode="&#x44a;" horiz-adv-x="1027" d="M303 0 L303 967 L10 967 L10 1061 L412 1061 L412 661 L626 661 Q806 661 874 594 Q955 515 955 327 Q955 132 858 55 Q787 0 626 0 L303 0 Z M412 95 L603 95 Q734 95 779 129 Q842 177 842 329 Q842 499 769 540 Q722 566 603 566 L412 566 L412 95 Z " />
<glyph glyph-name="afii10093" unicode="&#x44b;" horiz-adv-x="1289" d="M183 0 L183 1061 L292 1061 L292 661 L506 661 Q686 661 754 594 Q835 515 835 327 Q835 131 738 55 Q667 0 506 0 L183 0 Z M292 95 L483 95 Q614 95 659 129 Q722 177 722 329 Q722 499 649 540 Q602 566 483 566 L292 566 L292 95 Z M997 0 L997 1061 L1106 1061 L1106 0 L997 0 Z " />
<glyph glyph-name="afii10094" unicode="&#x44c;" horiz-adv-x="907" d="M183 0 L183 1061 L292 1061 L292 661 L506 661 Q686 661 754 594 Q835 515 835 327 Q835 131 738 55 Q667 0 506 0 L183 0 Z M292 95 L483 95 Q614 95 659 129 Q722 177 722 329 Q722 499 649 540 Q602 566 483 566 L292 566 L292 95 Z " />
<glyph glyph-name="afii10095" unicode="&#x44d;" horiz-adv-x="835" d="M242 506 L242 601 L619 601 Q602 997 366 997 Q248 997 196 896 Q166 838 160 773 L60 773 Q71 905 124 976 Q209 1091 366 1091 Q563 1091 654 928 Q734 784 734 532 Q734 -30 364 -30 Q176 -30 95 109 Q52 182 49 315 L149 315 Q159 198 194 149 Q255 64 363 64 Q544 64 599 292 Q618 367 621 506 L242 506 Z " />
<glyph glyph-name="afii10096" unicode="&#x44e;" horiz-adv-x="1332" d="M183 0 L183 1061 L292 1061 L292 598 L484 598 Q511 1095 857 1095 Q1231 1095 1231 530 Q1231 -32 857 -32 Q492 -32 482 503 L292 503 L292 0 L183 0 Z M852 1001 Q721 1001 657.5 885 Q594 769 594 531 Q594 405 608.5 323 Q623 241 658 178 Q721 62 856 62 Q990 62 1054 175.5 Q1118 289 1118 527 Q1118 657 1103 740 Q1088 823 1054 884 Q989 1001 852 1001 Z " />
<glyph glyph-name="afii10097" unicode="&#x44f;" horiz-adv-x="976" d="M683 473 L442 473 Q391 473 370.5 447.5 Q350 422 303 298 L188 0 L76 0 L215 350 Q250 438 261.5 460 Q273 482 294 502 Q130 565 130 774 Q130 930 220 1008 Q281 1061 416 1061 L792 1061 L792 0 L683 0 L683 473 Z M683 568 L683 966 L439 966 Q332 966 287.5 923 Q243 880 243 776 Q243 670 287.5 619 Q332 568 425 568 L683 568 Z " />
<glyph glyph-name="uni0450" unicode="&#x450;" horiz-adv-x="935" d="M833 513 L214 513 Q218 319 263 215 Q328 62 482 62 Q620 62 744 200 L810 121 Q754 63 717 38 Q617 -32 487 -32 Q280 -32 184 134 Q101 278 101 532 Q101 1093 467 1093 Q669 1093 755 928 Q834 778 834 561 Q834 540 833 513 Z M718 608 Q712 757 682 834 Q618 999 468 999 Q303 999 244 807 Q224 745 216 608 L718 608 Z M482 1225 L280 1542 L409 1542 L562 1225 L482 1225 Z " />
<glyph glyph-name="afii10071" unicode="&#x451;" horiz-adv-x="935" d="M833 513 L214 513 Q218 319 263 215 Q328 62 482 62 Q620 62 744 200 L810 121 Q754 63 717 38 Q617 -32 487 -32 Q280 -32 184 134 Q101 278 101 532 Q101 1093 467 1093 Q669 1093 755 928 Q834 778 834 561 Q834 540 833 513 Z M718 608 Q712 757 682 834 Q618 999 468 999 Q303 999 244 807 Q224 745 216 608 L718 608 Z M349 1463 Q383 1463 407 1438.5 Q431 1414 431 1379 Q431 1344 406.5 1319.5 Q382 1295 347 1295 Q312 1295 287.5 1320 Q263 1345 263 1380 Q263 1415 287.5 1439 Q312 1463 349 1463 Z M632 1463 Q666 1463 690 1438.5 Q714 1414 714 1379 Q714 1344 689.5 1319.5 Q665 1295 630 1295 Q595 1295 570.5 1320 Q546 1345 546 1380 Q546 1415 570.5 1439 Q595 1463 632 1463 Z " />
<glyph glyph-name="afii10099" unicode="&#x452;" horiz-adv-x="1059" d="M189 0 L189 1226 L47 1226 L47 1318 L189 1318 L189 1515 L298 1515 L298 1318 L538 1318 L538 1226 L298 1226 L298 898 Q387 1002 463 1047.5 Q539 1093 624 1093 Q794 1093 847 950 Q884 852 884 615 L884 6 Q885 -243 822 -331 Q755 -428 637 -439 L637 -345 Q683 -336 708 -315 Q733 -294 749 -248 Q765 -201 770 -149 Q775 -97 775 28 L775 621 Q775 845 740.5 920 Q706 995 604 995 Q556 995 515 974 Q474 953 416 900 Q347 836 298 770 L298 0 L189 0 Z " />
<glyph glyph-name="afii10100" unicode="&#x453;" horiz-adv-x="775" d="M183 0 L183 1061 L723 1061 L723 967 L292 967 L292 0 L183 0 Z M402 1219 L562 1549 L692 1549 L483 1219 L402 1219 Z " />
<glyph glyph-name="afii10101" unicode="&#x454;" horiz-adv-x="835" d="M593 506 L214 506 Q220 64 472 64 Q592 64 651 164 Q677 209 686 315 L786 315 Q783 165 726 87 Q640 -30 471 -30 Q101 -30 101 532 Q101 784 181 928 Q271 1091 469 1091 Q605 1091 683.5 1010 Q762 929 775 773 L675 773 Q665 879 610.5 938 Q556 997 469 997 Q229 997 216 601 L593 601 L593 506 Z " />
<glyph glyph-name="afii10102" unicode="&#x455;" horiz-adv-x="834" d="M76 312 L177 312 Q187 198 218 154 Q279 63 412 63 Q632 63 632 284 Q632 390 583.5 437 Q535 484 396 510 Q316 526 271.5 544.5 Q227 563 195 595 Q121 671 121 798 Q121 933 199 1014 Q273 1093 395 1093 Q485 1093 552.5 1053 Q620 1013 652 942 Q685 871 686 767 L585 767 Q576 873 553 915 Q504 999 398 999 Q312 999 272 938 Q234 881 234 804 Q234 717 278 672 Q316 634 436 609 Q575 581 628 547 Q745 471 745 276 Q745 141 670 60 Q584 -32 420 -32 Q318 -32 239 6 Q160 44 121 112 Q79 183 76 312 Z " />
<glyph glyph-name="afii10103" unicode="&#x456;" horiz-adv-x="478" d="M187 0 L187 1061 L295 1061 L295 0 L187 0 Z M242 1467 Q277 1467 302 1441.5 Q327 1416 327 1380 Q327 1343 301.5 1317.5 Q276 1292 240 1292 Q204 1292 178.5 1318 Q153 1344 153 1380 Q153 1417 178.5 1442 Q204 1467 242 1467 Z " />
<glyph glyph-name="afii10104" unicode="&#x457;" horiz-adv-x="491" d="M192 0 L192 1061 L301 1061 L301 0 L192 0 Z M101 1465 Q136 1465 160.5 1440 Q185 1415 185 1380 Q185 1344 160 1319 Q135 1294 100 1294 Q64 1294 39 1319.5 Q14 1345 14 1380 Q14 1416 39 1440.5 Q64 1465 101 1465 Z M393 1465 Q428 1465 452.5 1440 Q477 1415 477 1380 Q477 1344 452 1319 Q427 1294 392 1294 Q356 1294 331 1319.5 Q306 1345 306 1380 Q306 1416 331 1440.5 Q356 1465 393 1465 Z " />
<glyph glyph-name="afii10105" unicode="&#x458;" horiz-adv-x="482" d="M190 1061 L299 1061 L299 -40 Q301 -283 235 -372 Q167 -469 47 -478 L47 -384 Q94 -376 120.5 -354.5 Q147 -333 163 -290 Q180 -244 185 -193 Q190 -142 190 -21 L190 1061 Z M244 1467 Q279 1467 304.5 1441.5 Q330 1416 330 1380 Q330 1343 304.5 1317.5 Q279 1292 243 1292 Q207 1292 181.5 1317.5 Q156 1343 156 1380 Q156 1417 181.5 1442 Q207 1467 244 1467 Z " />
<glyph glyph-name="afii10106" unicode="&#x459;" horiz-adv-x="1421" d="M697 0 L697 967 L375 967 Q330 512 273 307 Q226 137 169 68.5 Q112 0 19 0 L0 0 L0 95 L14 95 Q71 95 107 148 Q143 201 179 339 Q248 603 279 1061 L806 1061 L806 661 L1020 661 Q1200 661 1268 594 Q1349 515 1349 326 Q1349 131 1252 55 Q1181 0 1020 0 L697 0 Z M806 95 L998 95 Q1128 95 1173 129 Q1236 177 1236 329 Q1236 499 1163 540 Q1116 566 998 566 L806 566 L806 95 Z " />
<glyph glyph-name="afii10107" unicode="&#x45a;" horiz-adv-x="1476" d="M183 0 L183 1061 L292 1061 L292 627 L752 627 L752 1061 L861 1061 L861 626 L1075 626 Q1255 626 1322 567 Q1404 495 1404 325 Q1404 132 1307 55 Q1236 0 1075 0 L752 0 L752 532 L292 532 L292 0 L183 0 Z M861 95 L1052 95 Q1183 95 1228 129 Q1291 176 1291 326 Q1291 475 1217 509 Q1172 531 1052 531 L861 531 L861 95 Z " />
<glyph glyph-name="afii10108" unicode="&#x45b;" horiz-adv-x="1059" d="M189 0 L189 1226 L47 1226 L47 1318 L189 1318 L189 1515 L298 1515 L298 1318 L538 1318 L538 1226 L298 1226 L298 898 Q387 1002 463 1047.5 Q539 1093 624 1093 Q794 1093 847 950 Q884 852 884 615 L884 0 L775 0 L775 621 Q775 845 740.5 920 Q706 995 604 995 Q556 995 515 974 Q474 953 416 900 Q347 836 298 770 L298 0 L189 0 Z " />
<glyph glyph-name="afii10109" unicode="&#x45c;" horiz-adv-x="932" d="M183 0 L183 1061 L292 1061 L292 599 L461 599 L758 1061 L889 1061 L546 552 Q578 527 632 443 L916 0 L780 0 L573 353 Q517 447 478 477.5 Q439 508 375 508 L292 508 L292 0 L183 0 Z M460 1219 L619 1549 L749 1549 L540 1219 L460 1219 Z " />
<glyph glyph-name="uni045D" unicode="&#x45d;" horiz-adv-x="1045" d="M526 1219 L316 1549 L447 1549 L606 1219 L526 1219 Z M183 0 L183 1061 L292 1061 L292 191 L752 1061 L861 1061 L861 0 L752 0 L752 862 L292 0 L183 0 Z " />
<glyph glyph-name="afii10110" unicode="&#x45e;" horiz-adv-x="783" d="M344 39 L26 1061 L138 1061 L391 191 L645 1061 L758 1061 L389 -172 Q340 -336 272 -395 Q224 -437 96 -439 L96 -345 Q177 -343 210 -313 Q254 -273 285 -164 L344 39 Z M554 1509 L641 1509 Q633 1367 564 1306 Q501 1250 391 1250 Q152 1250 141 1509 L228 1509 Q237 1418 274.5 1380 Q312 1342 391 1342 Q470 1342 507 1379.5 Q544 1417 554 1509 Z " />
<glyph glyph-name="afii10193" unicode="&#x45f;" horiz-adv-x="1034" d="M183 0 L183 1061 L292 1061 L292 94 L741 94 L741 1061 L850 1061 L850 0 L576 0 L552 -347 L481 -347 L457 0 L183 0 Z " />
<glyph glyph-name="uni0462" unicode="&#x462;" horiz-adv-x="1172" d="M425 1340 L804 1340 L804 1246 L425 1246 L425 870 L673 870 Q776 870 842 850 Q908 830 960 782 Q1085 669 1085 435 Q1085 201 960 88 Q908 40 841.5 20 Q775 0 673 0 L314 0 L314 1246 L34 1246 L34 1340 L314 1340 L314 1541 L425 1541 L425 1340 Z M425 94 L648 94 Q812 94 891 177.5 Q970 261 970 435 Q970 776 648 776 L425 776 L425 94 Z " />
<glyph glyph-name="uni0463" unicode="&#x463;" horiz-adv-x="1013" d="M261 967 L-1 967 L-1 1061 L261 1061 L261 1413 L370 1413 L370 1061 L700 1061 L700 967 L370 967 L370 661 L583 661 Q763 661 831 594 Q912 515 912 325 Q912 144 829 69 Q754 0 583 0 L261 0 L261 967 Z M370 95 L561 95 Q667 95 719 119 Q799 155 799 330 Q799 489 737 533 Q691 566 561 566 L370 566 L370 95 Z " />
<glyph glyph-name="afii10050" unicode="&#x490;" horiz-adv-x="908" d="M191 0 L191 1475 L736 1475 L764 1835 L854 1835 L854 1381 L302 1381 L302 0 L191 0 Z " />
<glyph glyph-name="afii10098" unicode="&#x491;" horiz-adv-x="775" d="M183 0 L183 1061 L618 1061 L641 1399 L723 1399 L723 967 L292 967 L292 0 L183 0 Z " />
<glyph glyph-name="uni0492" unicode="&#x492;" horiz-adv-x="931" d="M215 0 L215 735 L42 735 L42 823 L215 823 L215 1475 L878 1475 L878 1381 L326 1381 L326 823 L655 823 L655 735 L326 735 L326 0 L215 0 Z " />
<glyph glyph-name="uni0493" unicode="&#x493;" horiz-adv-x="753" d="M161 0 L161 434 L27 434 L27 530 L161 530 L161 1061 L701 1061 L701 967 L270 967 L270 530 L449 530 L449 434 L270 434 L270 0 L161 0 Z " />
<glyph glyph-name="uni0496" unicode="&#x496;" horiz-adv-x="1447" d="M678 0 L678 735 L576 735 Q488 735 445.5 686 Q403 637 336 461 L162 0 L42 0 L249 520 Q302 655 333.5 708 Q365 761 411 792 L32 1475 L150 1475 L506 829 L678 829 L678 1475 L789 1475 L789 829 L960 829 L1317 1475 L1435 1475 L1056 792 Q1123 749 1187 593 L1218 520 L1388 94 L1460 94 L1460 -360 L1373 -360 L1349 0 L1305 0 L1131 461 Q1068 626 1037 667 Q984 735 890 735 L789 735 L789 0 L678 0 Z " />
<glyph glyph-name="uni0497" unicode="&#x497;" horiz-adv-x="1266" d="M581 0 L581 508 L558 508 Q493 508 454.5 478 Q416 448 361 353 L153 0 L17 0 L301 444 Q354 526 387 552 L44 1061 L175 1061 L472 599 L581 599 L581 1061 L690 1061 L690 599 L799 599 L1095 1061 L1226 1061 L884 552 Q916 527 969 444 L1193 94 L1295 94 L1295 -347 L1217 -347 L1190 0 L1118 0 L910 353 Q854 448 815.5 478 Q777 508 712 508 L690 508 L690 0 L581 0 Z " />
<glyph glyph-name="uni0498" unicode="&#x498;" horiz-adv-x="1070" d="M578 -27 L547 -101 Q612 -104 642 -119 Q719 -158 719 -274 Q719 -362 670 -411 Q621 -460 534 -460 Q432 -460 340 -422 L365 -332 Q445 -372 528 -372 Q619 -372 619 -275 Q619 -184 519 -184 Q502 -184 467 -187 L457 -116 L495 -27 Q328 -17 236 52 Q131 132 108 295 Q102 338 101 412 L208 412 Q214 248 270 176 Q353 70 516 70 Q693 70 771 162 Q844 249 844 414 Q844 580 772.5 658.5 Q701 737 550 737 L354 737 L354 831 L512 831 Q646 831 713 898 Q799 985 799 1121 Q799 1406 514 1406 Q247 1406 233 1063 L125 1063 Q131 1265 208 1370 Q305 1504 525 1504 Q914 1504 914 1131 Q914 901 747 799 Q827 766 868 720 Q959 617 959 422 Q959 -4 578 -27 Z " />
<glyph glyph-name="uni0499" unicode="&#x499;" horiz-adv-x="798" d="M447 -28 L417 -101 Q482 -104 512 -120 Q589 -158 589 -274 Q589 -363 540 -412 Q491 -461 403 -461 Q304 -461 210 -423 L235 -332 Q316 -373 397 -373 Q489 -373 489 -276 Q489 -184 389 -184 Q371 -184 336 -187 L327 -116 L363 -31 Q208 -22 130.5 63 Q53 148 49 315 L150 315 Q159 200 191 154 Q254 63 387 63 Q495 63 552.5 121.5 Q610 180 610 291 Q610 416 553 470 Q515 506 402 506 L250 506 L250 601 L400 601 Q481 601 520 644 Q571 700 571 797 Q571 999 372 999 Q271 999 221 946 Q171 893 160 773 L60 773 Q68 1093 380 1093 Q521 1093 602 1022 Q684 949 684 809 Q684 717 659 658.5 Q634 600 581 565 Q635 543 663 513 Q723 445 723 300 Q723 180 681 106.5 Q639 33 551 -2 Q501 -22 447 -28 Z " />
<glyph glyph-name="uni049A" unicode="&#x49a;" horiz-adv-x="1019" d="M191 0 L191 1475 L302 1475 L302 829 L524 829 L881 1475 L999 1475 L620 792 Q665 761 697 707.5 Q729 654 782 520 L951 94 L1036 94 L1036 -360 L949 -360 L924 0 L869 0 L695 461 Q632 626 600 667 Q548 735 454 735 L302 735 L302 0 L191 0 Z " />
<glyph glyph-name="uni049B" unicode="&#x49b;" horiz-adv-x="931" d="M183 0 L183 1061 L292 1061 L292 599 L461 599 L758 1061 L888 1061 L546 552 Q578 527 632 443 L855 94 L931 94 L931 -347 L851 -347 L823 0 L780 0 L572 353 Q516 447 477.5 477.5 Q439 508 375 508 L292 508 L292 0 L183 0 Z " />
<glyph glyph-name="uni049C" unicode="&#x49c;" horiz-adv-x="1030" d="M421 735 L302 735 L302 0 L191 0 L191 1475 L302 1475 L302 829 L421 829 L421 1083 L498 1083 L498 829 L524 829 L881 1475 L999 1475 L620 792 Q666 760 697.5 707.5 Q729 655 782 521 L989 0 L869 0 L695 461 Q634 622 598.5 670.5 Q563 719 498 732 L498 446 L421 446 L421 735 Z " />
<glyph glyph-name="uni049D" unicode="&#x49d;" horiz-adv-x="932" d="M367 508 L292 508 L292 0 L183 0 L183 1061 L292 1061 L292 599 L367 599 L367 806 L436 806 L436 599 L461 599 L758 1061 L889 1061 L547 552 Q578 527 632 443 L916 0 L780 0 L573 353 Q497 482 436 500 L436 298 L367 298 L367 508 Z " />
<glyph glyph-name="uni04A2" unicode="&#x4a2;" horiz-adv-x="1228" d="M191 0 L191 1475 L302 1475 L302 825 L921 825 L921 1475 L1032 1475 L1032 94 L1143 94 L1143 -360 L1056 -360 L1031 0 L921 0 L921 731 L302 731 L302 0 L191 0 Z " />
<glyph glyph-name="uni04A3" unicode="&#x4a3;" horiz-adv-x="1048" d="M183 0 L183 1061 L292 1061 L292 598 L751 598 L751 1061 L860 1061 L860 94 L967 94 L967 -347 L889 -347 L862 0 L751 0 L751 504 L292 504 L292 0 L183 0 Z " />
<glyph glyph-name="uni04AA" unicode="&#x4aa;" horiz-adv-x="1068" d="M884 412 L991 412 Q980 -21 598 -28 L567 -101 Q633 -104 663 -119 Q740 -158 740 -274 Q740 -362 691 -411 Q642 -460 555 -460 Q453 -460 361 -422 L386 -332 Q466 -372 548 -372 Q640 -372 640 -275 Q640 -184 540 -184 Q523 -184 487 -187 L477 -116 L517 -23 Q373 -4 288 79 Q111 252 111 733 Q111 1144 241 1332 Q355 1495 591 1495 Q965 1495 978 1063 L871 1063 Q859 1397 590 1397 Q490 1397 422.5 1355 Q355 1313 310 1224 Q226 1057 226 733 Q226 384 325 216 Q411 70 591 70 Q780 70 848 232 Q880 308 884 412 Z " />
<glyph glyph-name="uni04AB" unicode="&#x4ab;" horiz-adv-x="847" d="M479 -31 L450 -101 Q515 -104 545 -119 Q622 -158 622 -274 Q622 -362 573 -411 Q524 -460 436 -460 Q338 -460 243 -422 L268 -332 Q350 -372 430 -372 Q522 -372 522 -275 Q522 -184 420 -184 Q402 -184 370 -187 L360 -116 L399 -25 Q101 35 101 532 Q101 785 181 930 Q271 1093 462 1093 Q604 1093 682.5 1004.5 Q761 916 765 751 L660 751 Q643 999 463 999 Q379 999 318 937 Q263 881 238.5 785.5 Q214 690 214 532 Q214 63 467 63 Q591 63 708 194 L778 121 Q695 32 625 1 Q558 -28 479 -31 Z " />
<glyph glyph-name="uni04AE" unicode="&#x4ae;" horiz-adv-x="857" d="M373 0 L373 588 L-33 1475 L88 1475 L428 708 L769 1475 L890 1475 L484 588 L484 0 L373 0 Z " />
<glyph glyph-name="uni04AF" unicode="&#x4af;" horiz-adv-x="763" d="M328 -2 L26 1061 L138 1061 L382 132 L627 1061 L739 1061 L437 -2 L437 -439 L328 -439 L328 -2 Z " />
<glyph glyph-name="uni04B0" unicode="&#x4b0;" horiz-adv-x="832" d="M360 0 L360 576 L173 576 L173 670 L321 670 L-33 1475 L87 1475 L416 708 L744 1475 L865 1475 L510 670 L658 670 L658 576 L471 576 L471 0 L360 0 Z " />
<glyph glyph-name="uni04B1" unicode="&#x4b1;" horiz-adv-x="761" d="M300 81 L26 1061 L138 1061 L383 131 L624 1061 L736 1061 L465 81 L596 81 L596 0 L437 0 L437 -439 L328 -439 L328 0 L165 0 L165 81 L300 81 Z " />
<glyph glyph-name="uni04B2" unicode="&#x4b2;" horiz-adv-x="930" d="M420 776 L54 1475 L174 1475 L503 851 L793 1475 L915 1475 L555 748 L898 94 L989 94 L989 -360 L903 -360 L878 0 L827 0 L472 673 L146 0 L23 0 L420 776 Z " />
<glyph glyph-name="uni04B3" unicode="&#x4b3;" horiz-adv-x="762" d="M314 576 L41 1061 L156 1061 L385 655 L600 1061 L718 1061 L431 573 L702 94 L785 94 L785 -347 L707 -347 L680 0 L640 0 L361 494 L117 0 L-2 0 L314 576 Z " />
<glyph glyph-name="uni04B6" unicode="&#x4b6;" horiz-adv-x="1108" d="M802 0 L802 722 Q647 579 464 579 Q234 579 170 781 Q138 880 138 1095 L138 1475 L249 1475 L249 1049 Q249 853 286 781 Q341 677 488 677 Q579 677 649.5 715 Q720 753 802 845 L802 1475 L913 1475 L913 94 L1023 94 L1023 -360 L937 -360 L912 0 L802 0 Z " />
<glyph glyph-name="uni04B7" unicode="&#x4b7;" horiz-adv-x="979" d="M682 0 L682 464 Q566 364 410 364 Q212 364 150 526 Q122 600 122 789 L122 1061 L231 1061 L231 746 Q231 586 273 522 Q315 458 421 458 Q578 458 682 581 L682 1061 L791 1061 L791 94 L898 94 L898 -347 L820 -347 L793 0 L682 0 Z " />
<glyph glyph-name="uni04B8" unicode="&#x4b8;" horiz-adv-x="1104" d="M567 685 Q679 707 802 845 L802 1475 L913 1475 L913 0 L802 0 L802 722 Q686 617 567 591 L567 344 L483 344 L483 580 Q474 579 465 579 Q235 579 170 781 Q138 879 138 1095 L138 1475 L249 1475 L249 1049 Q249 916 263 850 Q277 784 313 743 Q368 680 483 678 L483 981 L567 981 L567 685 Z " />
<glyph glyph-name="uni04B9" unicode="&#x4b9;" horiz-adv-x="974" d="M682 0 L682 464 Q598 391 495 372 L495 177 L419 177 L419 364 Q405 364 398 364 Q212 364 150 526 Q122 600 122 789 L122 1061 L231 1061 L231 746 Q231 587 272.5 523.5 Q314 460 419 458 L419 683 L495 683 L495 465 Q605 490 682 581 L682 1061 L791 1061 L791 0 L682 0 Z " />
<glyph glyph-name="uni04BA" unicode="&#x4ba;" horiz-adv-x="1093" d="M191 0 L191 1475 L302 1475 L302 833 Q413 957 490.5 1004.5 Q568 1052 659 1052 Q827 1052 880 915 Q916 820 916 594 L916 0 L808 0 L808 600 Q808 812 774 883 Q740 954 638 954 Q493 954 302 701 L302 0 L191 0 Z " />
<glyph glyph-name="uni04BB" unicode="&#x4bb;" horiz-adv-x="1053" d="M183 0 L183 1578 L292 1578 L292 898 Q378 1000 456 1046.5 Q534 1093 619 1093 Q699 1093 757.5 1055.5 Q816 1018 841 950 Q878 851 878 615 L878 0 L769 0 L769 621 Q769 844 734.5 919.5 Q700 995 598 995 Q551 995 509.5 974 Q468 953 411 900 Q341 837 292 769 L292 0 L183 0 Z " />
<glyph glyph-name="uni04C0" unicode="&#x4c0;" horiz-adv-x="493" d="M191 0 L191 1475 L302 1475 L302 0 L191 0 Z " />
<glyph glyph-name="uni04C1" unicode="&#x4c1;" horiz-adv-x="1466" d="M678 0 L678 735 L576 735 Q488 735 445.5 686 Q403 637 336 461 L162 0 L42 0 L249 520 Q302 654 333.5 707.5 Q365 761 411 792 L32 1475 L150 1475 L506 829 L678 829 L678 1475 L789 1475 L789 829 L960 829 L1317 1475 L1435 1475 L1056 792 Q1123 748 1187 593 L1218 520 L1425 0 L1305 0 L1131 461 Q1068 626 1037 667 Q984 735 890 735 L789 735 L789 0 L678 0 Z M891 1890 L977 1890 Q969 1748 900 1687 Q837 1631 727 1631 Q488 1631 478 1890 L564 1890 Q573 1799 610.5 1761 Q648 1723 728 1723 Q807 1723 843.5 1760.5 Q880 1798 891 1890 Z " />
<glyph glyph-name="uni04C2" unicode="&#x4c2;" horiz-adv-x="1269" d="M581 0 L581 508 L558 508 Q493 508 454.5 478 Q416 448 361 353 L153 0 L17 0 L301 444 Q354 526 387 552 L44 1061 L175 1061 L472 599 L581 599 L581 1061 L690 1061 L690 599 L799 599 L1095 1061 L1226 1061 L884 552 Q916 527 969 444 L1254 0 L1118 0 L910 353 Q854 448 815.5 478 Q777 508 712 508 L690 508 L690 0 L581 0 Z M792 1509 L879 1509 Q871 1367 802 1306 Q739 1250 629 1250 Q390 1250 379 1509 L466 1509 Q475 1418 512.5 1380 Q550 1342 629 1342 Q708 1342 744.5 1379.5 Q781 1417 792 1509 Z " />
<glyph glyph-name="uni04CF" unicode="&#x4cf;" horiz-adv-x="493" d="M191 0 L191 1475 L302 1475 L302 0 L191 0 Z " />
<glyph glyph-name="uni04D4" unicode="&#x4d4;" horiz-adv-x="1632" d="M823 504 L347 504 L81 0 L-36 0 L752 1475 L1491 1475 L1491 1381 L933 1381 L933 811 L1398 811 L1398 717 L933 717 L933 94 L1503 94 L1503 0 L823 0 L823 504 Z M823 598 L823 1400 L407 598 L823 598 Z " />
<glyph glyph-name="uni04D5" unicode="&#x4d5;" horiz-adv-x="1522" d="M691 630 L691 699 Q691 764 680 826.5 Q669 889 652 919 Q606 1000 466 1000 Q355 1000 312 933 Q284 889 270 801 L169 801 Q183 927 230 995 Q298 1095 468 1095 Q591 1095 660 1052.5 Q729 1010 768 909 Q854 1093 1057 1093 Q1187 1093 1275 1016 Q1367 935 1404 750 Q1422 661 1422 562 Q1422 540 1420 513 L802 513 Q805 62 1071 62 Q1207 62 1332 200 L1398 121 Q1342 63 1305 38 Q1204 -32 1074 -32 Q843 -32 751 202 Q647 -32 392 -32 Q244 -32 170 53 Q95 138 95 293 Q95 398 127 477.5 Q159 557 217 595 Q285 640 465 640 Q509 640 578 636 Q656 631 691 630 Z M690 533 Q604 545 462 545 Q320 545 271 500 Q208 441 208 295 Q208 63 405 63 Q585 63 656 214 Q690 286 690 404 L690 533 Z M1306 608 Q1298 762 1269 835 Q1205 999 1055 999 Q891 999 831 807 Q810 741 803 608 L1306 608 Z " />
<glyph glyph-name="uni04D8" unicode="&#x4d8;" horiz-adv-x="1272" d="M112 825 L1044 825 Q1036 1022 991 1136 Q936 1275 850 1340.5 Q764 1406 635 1406 Q516 1406 441.5 1356.5 Q367 1307 302 1184 L206 1232 Q331 1504 636 1504 Q922 1504 1046 1284 Q1162 1077 1162 737 Q1162 398 1046 191 Q922 -29 637 -29 Q277 -29 162 347 Q111 511 112 825 Z M227 731 Q233 570 242.5 497.5 Q252 425 277 355 Q333 199 431 128 Q512 69 637 69 Q807 69 906 189 Q979 277 1011.5 402.5 Q1044 528 1047 731 L227 731 Z " />
<glyph glyph-name="afii10846" unicode="&#x4d9;" horiz-adv-x="952" d="M99 601 L738 601 Q723 999 474 999 Q331 999 261 847 L160 884 Q258 1093 477 1093 Q852 1093 852 530 Q852 -32 477 -32 Q220 -32 137 236 Q112 317 99 601 Z M215 505 Q219 350 241 272 Q299 62 480 62 Q632 62 694 214 Q735 316 740 505 L215 505 Z " />
<glyph glyph-name="uni04E2" unicode="&#x4e2;" horiz-adv-x="1200" d="M191 0 L191 1475 L299 1475 L299 248 L914 1475 L1008 1475 L1008 0 L900 0 L900 1227 L285 0 L191 0 Z M392 1687 L392 1798 L791 1798 L791 1687 L392 1687 Z " />
<glyph glyph-name="uni04E3" unicode="&#x4e3;" horiz-adv-x="1045" d="M314 1325 L314 1438 L727 1438 L727 1325 L314 1325 Z M183 0 L183 1061 L292 1061 L292 191 L752 1061 L861 1061 L861 0 L752 0 L752 862 L292 0 L183 0 Z " />
<glyph glyph-name="uni04E8" unicode="&#x4e8;" horiz-adv-x="1272" d="M645 1504 Q821 1504 942 1405 Q1072 1301 1126 1074 Q1161 925 1161 737 Q1161 398 1045 191 Q921 -29 636 -29 Q351 -29 227 191 Q111 398 111 733 Q111 1504 645 1504 Z M228 825 L1043 825 Q1031 1029 986 1141 Q932 1281 841 1347 Q760 1406 636 1406 Q375 1406 275 1118 Q242 1021 228 825 Z M1045 731 L225 731 Q235 69 636 69 Q807 69 905 188 Q1043 356 1045 731 Z " />
<glyph glyph-name="uni04E9" unicode="&#x4e9;" horiz-adv-x="952" d="M482 1093 Q679 1093 771 927 Q851 783 851 529 Q851 -32 476 -32 Q101 -32 101 526 Q101 1093 482 1093 Z M215 601 L737 601 Q723 999 476 999 Q351 999 288 902 Q225 805 215 601 Z M214 505 Q218 315 260 214 Q321 62 476 62 Q631 62 693 214 Q734 315 738 505 L214 505 Z " />
<glyph glyph-name="uni04EE" unicode="&#x4ee;" horiz-adv-x="892" d="M413 417 L26 1475 L144 1475 L470 542 L792 1475 L903 1475 L371 0 L259 0 L413 417 Z M258 1687 L258 1798 L657 1798 L657 1687 L258 1687 Z " />
<glyph glyph-name="uni04EF" unicode="&#x4ef;" horiz-adv-x="783" d="M344 39 L26 1061 L138 1061 L391 191 L645 1061 L758 1061 L389 -172 Q340 -336 272 -395 Q224 -437 96 -439 L96 -345 Q177 -343 210 -313 Q254 -273 285 -164 L344 39 Z M178 1325 L178 1438 L591 1438 L591 1325 L178 1325 Z " />
<glyph glyph-name="uni1E1E" unicode="&#x1e1e;" horiz-adv-x="957" d="M191 0 L191 1475 L910 1475 L910 1381 L302 1381 L302 811 L814 811 L814 717 L302 717 L302 0 L191 0 Z M569 1834 Q604 1834 628.5 1809 Q653 1784 653 1748 Q653 1712 628 1687 Q603 1662 567 1662 Q531 1662 506 1687.5 Q481 1713 481 1749 Q481 1785 506.5 1809.5 Q532 1834 569 1834 Z " />
<glyph glyph-name="Wdieresis" unicode="&#x1e84;" horiz-adv-x="1518" d="M368 -33 L67 1475 L178 1475 L417 238 L721 1487 L797 1487 L1101 238 L1340 1475 L1451 1475 L1150 -33 L1074 -33 L759 1238 L445 -33 L368 -33 Z M597 1825 Q631 1825 655 1800.5 Q679 1776 679 1741 Q679 1706 654.5 1681.5 Q630 1657 595 1657 Q560 1657 535.5 1682 Q511 1707 511 1742 Q511 1777 535.5 1801 Q560 1825 597 1825 Z M925 1825 Q959 1825 983 1800.5 Q1007 1776 1007 1741 Q1007 1706 982.5 1681.5 Q958 1657 923 1657 Q888 1657 863.5 1681.5 Q839 1706 839 1742 Q839 1777 863.5 1801 Q888 1825 925 1825 Z " />
<glyph glyph-name="wdieresis" unicode="&#x1e85;" horiz-adv-x="1241" d="M318 -28 L63 1061 L172 1061 L358 212 L594 1061 L648 1061 L884 212 L1069 1061 L1179 1061 L924 -28 L863 -28 L621 844 L379 -28 L318 -28 Z M482 1463 Q516 1463 540 1438.5 Q564 1414 564 1379 Q564 1344 539.5 1319.5 Q515 1295 480 1295 Q445 1295 420.5 1320 Q396 1345 396 1380 Q396 1415 420.5 1439 Q445 1463 482 1463 Z M764 1463 Q798 1463 822 1438.5 Q846 1414 846 1379 Q846 1344 821.5 1319.5 Q797 1295 762 1295 Q727 1295 702.5 1320 Q678 1345 678 1380 Q678 1415 702.5 1439 Q727 1463 764 1463 Z " />
<glyph glyph-name="uni2007" unicode="&#x2007;" horiz-adv-x="1061" d="" />
<glyph glyph-name="uni2011" unicode="&#x2011;" horiz-adv-x="659" d="M113 568 L113 662 L546 662 L546 568 L113 568 Z " />
<glyph glyph-name="figuredash" unicode="&#x2012;" horiz-adv-x="670" d="M30 568 L30 662 L640 662 L640 568 L30 568 Z " />
<glyph glyph-name="afii00208" unicode="&#x2015;" horiz-adv-x="1061" d="M-46 568 L-46 662 L1109 662 L1109 568 L-46 568 Z " />
<glyph glyph-name="zerosuperior" unicode="&#x2070;" horiz-adv-x="631" d="M320 1696 Q475 1696 534 1567 Q584 1459 584 1250 Q584 1017 523 910 Q463 803 315 803 Q232 803 180 833.5 Q128 864 97 932 Q47 1041 47 1251 Q47 1481 108 1589 Q139 1646 189 1671 Q239 1696 320 1696 Z M314 1608 Q223 1608 191 1520 Q157 1425 157 1250 Q157 1057 197 964 Q229 891 315 891 Q408 891 439 979 Q474 1075 474 1251 Q474 1441 434 1535 Q402 1608 314 1608 Z " />
<glyph glyph-name="foursuperior" unicode="&#x2074;" horiz-adv-x="628" d="M372 819 L372 1006 L42 1006 L42 1071 L256 1679 L367 1679 L162 1094 L372 1094 L372 1440 L485 1440 L485 1094 L599 1094 L599 1006 L485 1006 L485 819 L372 819 Z " />
<glyph glyph-name="fivesuperior" unicode="&#x2075;" horiz-adv-x="637" d="M87 1221 L111 1679 L528 1679 L528 1591 L211 1591 L195 1335 Q255 1362 330 1362 Q467 1362 522 1281 Q575 1204 575 1076 Q575 803 313 803 Q179 803 117 863.5 Q55 924 46 1065 L150 1065 Q159 973 197.5 932 Q236 891 312 891 Q378 891 413 927 Q465 981 465 1077 Q465 1170 426.5 1222 Q388 1274 320 1274 Q277 1274 244 1256.5 Q211 1239 156 1186 L87 1221 Z " />
<glyph glyph-name="sixsuperior" unicode="&#x2076;" horiz-adv-x="634" d="M182 1327 Q247 1368 330 1368 Q460 1368 522 1286 Q579 1209 579 1087 Q579 950 512.5 876.5 Q446 803 323 803 Q186 803 118 897 Q65 970 65 1149 Q65 1396 117 1539 Q147 1621 200.5 1658.5 Q254 1696 340 1696 Q447 1696 499 1640 Q551 1584 562 1458 L456 1458 Q440 1608 339 1608 Q301 1608 280 1597.5 Q259 1587 241 1559 Q195 1486 182 1327 Z M321 1280 Q255 1280 215.5 1227.5 Q176 1175 176 1088 Q176 1012 205 959 Q221 929 254 910 Q287 891 323 891 Q389 891 428.5 944.5 Q468 998 468 1087 Q468 1166 437 1217 Q399 1280 321 1280 Z " />
<glyph glyph-name="sevensuperior" unicode="&#x2077;" horiz-adv-x="463" d="M337 1591 L-8 1591 L-8 1679 L438 1679 L438 1615 L163 819 L45 819 L337 1591 Z " />
<glyph glyph-name="eightsuperior" unicode="&#x2078;" horiz-adv-x="629" d="M150 1275 Q66 1335 66 1460 Q66 1574 130 1635 Q194 1696 314 1696 Q433 1696 497 1635 Q561 1574 561 1460 Q561 1335 476 1275 Q586 1208 586 1055 Q586 935 514.5 869 Q443 803 314 803 Q184 803 112.5 869 Q41 935 41 1055 Q41 1208 150 1275 Z M311 1608 Q249 1608 213 1569 Q177 1530 177 1462 Q177 1395 213 1356 Q249 1317 312 1317 Q384 1317 418 1362 Q450 1403 450 1462 Q450 1531 413.5 1569.5 Q377 1608 311 1608 Z M311 1229 Q240 1229 196 1182.5 Q152 1136 152 1060 Q152 983 196 937 Q240 891 314 891 Q387 891 431 937 Q475 983 475 1059 Q475 1137 430.5 1183 Q386 1229 311 1229 Z " />
<glyph glyph-name="ninesuperior" unicode="&#x2079;" horiz-adv-x="637" d="M448 1190 Q412 1164 382.5 1155 Q353 1146 303 1146 Q200 1146 143 1198 Q65 1271 65 1415 Q65 1695 315 1695 Q449 1695 505.5 1611 Q562 1527 562 1330 Q562 1032 503.5 916 Q445 800 295 800 Q179 800 128 853.5 Q77 907 65 1040 L170 1040 Q179 973 197 942 Q229 888 293 888 Q367 888 401.5 955 Q436 1022 448 1190 Z M309 1607 Q246 1607 211 1557.5 Q176 1508 176 1417 Q176 1332 212 1283 Q248 1234 311 1234 Q376 1234 413.5 1284.5 Q451 1335 451 1424 Q451 1607 309 1607 Z " />
<glyph glyph-name="zeroinferior" unicode="&#x2080;" horiz-adv-x="631" d="M320 672 Q475 672 534 543 Q584 435 584 226 Q584 -7 523 -114 Q463 -221 315 -221 Q232 -221 180 -190.5 Q128 -160 97 -92 Q47 17 47 227 Q47 457 108 565 Q139 622 189 647 Q239 672 320 672 Z M314 584 Q223 584 191 496 Q157 401 157 226 Q157 33 197 -60 Q229 -133 315 -133 Q408 -133 439 -45 Q474 51 474 227 Q474 417 434 511 Q402 584 314 584 Z " />
<glyph glyph-name="oneinferior" unicode="&#x2081;" horiz-adv-x="464" d="M197 -205 L197 551 L24 472 L24 572 L228 662 L309 662 L309 -205 L197 -205 Z " />
<glyph glyph-name="twoinferior" unicode="&#x2082;" horiz-adv-x="635" d="M42 -205 Q55 -84 95.5 -23 Q136 38 318 212 Q386 277 412.5 326.5 Q439 376 439 439 Q439 507 405 545.5 Q371 584 312 584 Q234 584 198.5 540 Q163 496 150 385 L46 385 Q61 519 97 574 Q161 672 314 672 Q549 672 549 444 Q549 338 511.5 275.5 Q474 213 330 78 Q249 2 218 -36 Q187 -74 172 -117 L568 -117 L568 -205 L42 -205 Z " />
<glyph glyph-name="threeinferior" unicode="&#x2083;" horiz-adv-x="637" d="M202 206 L202 293 L249 294 L286 294 Q366 294 395 328 Q431 372 431 445 Q431 584 307 584 Q240 584 206 549.5 Q172 515 159 434 L54 434 Q69 545 108 593 Q173 672 313 672 Q428 672 485 618 Q541 564 541 444 Q541 308 461 251 Q564 188 564 32 Q564 -221 304 -221 Q168 -221 106.5 -161.5 Q45 -102 35 41 L140 41 Q149 -52 187 -92.5 Q225 -133 302 -133 Q366 -133 403 -101 Q454 -56 454 33 Q454 88 431 132.5 Q408 177 373 191 Q338 205 202 206 Z " />
<glyph glyph-name="fourinferior" unicode="&#x2084;" horiz-adv-x="628" d="M372 -205 L372 -18 L42 -18 L42 47 L256 655 L367 655 L162 70 L372 70 L372 416 L485 416 L485 70 L599 70 L599 -18 L485 -18 L485 -205 L372 -205 Z " />
<glyph glyph-name="fiveinferior" unicode="&#x2085;" horiz-adv-x="637" d="M87 197 L111 655 L528 655 L528 567 L211 567 L195 311 Q255 338 330 338 Q467 338 522 257 Q575 180 575 52 Q575 -221 313 -221 Q179 -221 117 -160.5 Q55 -100 46 41 L150 41 Q159 -51 197.5 -92 Q236 -133 312 -133 Q378 -133 413 -97 Q465 -43 465 53 Q465 146 426.5 198 Q388 250 320 250 Q277 250 244 232.5 Q211 215 156 162 L87 197 Z " />
<glyph glyph-name="sixinferior" unicode="&#x2086;" horiz-adv-x="634" d="M182 303 Q247 344 330 344 Q460 344 522 262 Q579 185 579 63 Q579 -74 512.5 -147.5 Q446 -221 323 -221 Q186 -221 118 -127 Q65 -54 65 125 Q65 372 117 515 Q147 597 200.5 634.5 Q254 672 340 672 Q447 672 499 616 Q551 560 562 434 L456 434 Q440 584 339 584 Q301 584 280 573.5 Q259 563 241 535 Q195 462 182 303 Z M321 256 Q255 256 215.5 203.5 Q176 151 176 64 Q176 -12 205 -65 Q221 -95 254 -114 Q287 -133 323 -133 Q389 -133 428.5 -79.5 Q468 -26 468 63 Q468 142 437 193 Q399 256 321 256 Z " />
<glyph glyph-name="seveninferior" unicode="&#x2087;" horiz-adv-x="463" d="M337 567 L-8 567 L-8 655 L438 655 L438 591 L163 -205 L45 -205 L337 567 Z " />
<glyph glyph-name="eightinferior" unicode="&#x2088;" horiz-adv-x="629" d="M150 251 Q66 311 66 436 Q66 550 130 611 Q194 672 314 672 Q433 672 497 611 Q561 550 561 436 Q561 311 476 251 Q586 184 586 31 Q586 -89 514.5 -155 Q443 -221 314 -221 Q184 -221 112.5 -155 Q41 -89 41 31 Q41 184 150 251 Z M311 584 Q249 584 213 545 Q177 506 177 438 Q177 371 213 332 Q249 293 312 293 Q384 293 418 338 Q450 379 450 438 Q450 507 413.5 545.5 Q377 584 311 584 Z M311 205 Q240 205 196 158.5 Q152 112 152 36 Q152 -41 196 -87 Q240 -133 314 -133 Q387 -133 431 -87 Q475 -41 475 35 Q475 113 430.5 159 Q386 205 311 205 Z " />
<glyph glyph-name="nineinferior" unicode="&#x2089;" horiz-adv-x="637" d="M448 166 Q412 140 382.5 131 Q353 122 303 122 Q200 122 143 174 Q65 247 65 391 Q65 671 315 671 Q449 671 505.5 587 Q562 503 562 306 Q562 8 503.5 -108 Q445 -224 295 -224 Q179 -224 128 -170.5 Q77 -117 65 16 L170 16 Q179 -51 197 -82 Q229 -136 293 -136 Q367 -136 401.5 -69 Q436 -2 448 166 Z M309 583 Q246 583 211 533.5 Q176 484 176 393 Q176 308 212 259 Q248 210 311 210 Q376 210 413.5 260.5 Q451 311 451 400 Q451 583 309 583 Z " />
<glyph glyph-name="afii61289" unicode="&#x2113;" horiz-adv-x="983" d="M465 592 Q440 460 420 318 Q400 176 400 133 Q400 79 438 79 Q471 79 505 122.5 Q539 166 559 234 L629 203 Q544 -40 395 -40 Q321 -40 278.5 13 Q236 66 236 158 Q236 230 255 433 L133 325 L96 386 Q105 392 148 437 Q223 514 272 570 Q351 992 450 1240 Q559 1510 715 1510 Q781 1510 822 1460 Q863 1410 863 1328 Q863 1132 720 903 Q643 778 465 592 Z M485 718 Q587 830 646 931 Q701 1024 737 1136.5 Q773 1249 773 1326 Q773 1362 757.5 1385 Q742 1408 717 1408 Q657 1408 618 1306 Q558 1147 485 718 Z " />
<glyph glyph-name="afii61352" unicode="&#x2116;" horiz-adv-x="1992" d="M191 0 L191 1475 L299 1475 L926 269 L926 1475 L1037 1475 L1037 -20 L963 -20 L302 1257 L302 0 L191 0 Z M1498 1177 Q1640 1177 1730 1046 Q1774 981 1793 903.5 Q1812 826 1812 711 Q1812 596 1793 518 Q1774 440 1730 375 Q1639 243 1494 243 Q1346 243 1257 376 Q1174 498 1174 709 Q1174 928 1256 1046 Q1348 1177 1498 1177 Z M1489 1079 Q1379 1079 1329 956 Q1285 850 1285 712 Q1285 574 1328 465 Q1376 341 1493 341 Q1610 341 1658 465 Q1701 574 1701 710 Q1701 851 1658 956 Q1608 1079 1489 1079 Z M1180 0 L1180 94 L1811 94 L1811 0 L1180 0 Z " />
<glyph glyph-name="estimated" unicode="&#x212e;" horiz-adv-x="1501" d="M1336 607 L393 607 L393 356 Q413 287 433 250.5 Q453 214 486 184 Q580 100 748 100 Q900 100 997 162 Q1094 224 1151 357 L1287 357 Q1181 -24 748 -24 Q467 -24 314 154 Q164 327 164 625 Q164 942 329 1120 Q489 1292 755 1292 Q975 1292 1127 1179 Q1313 1040 1332 758 Q1334 728 1336 607 Z M1114 709 L1114 928 Q1094 985 1060 1025 Q995 1101 921 1134.5 Q847 1168 744 1168 Q580 1168 487 1069 Q444 1023 399 928 L399 709 L1114 709 Z " />
<glyph glyph-name="onethird" unicode="&#x2153;" horiz-adv-x="1415" d="M283 614 L283 1370 L111 1292 L111 1392 L314 1481 L395 1481 L395 614 L283 614 Z M888 411 L888 498 L935 499 L972 499 Q1053 499 1081 533 Q1117 577 1117 651 Q1117 717 1084.5 753 Q1052 789 993 789 Q926 789 892 754.5 Q858 720 845 639 L740 639 Q755 750 794 798 Q858 877 999 877 Q1114 877 1171 823 Q1227 769 1227 648 Q1227 514 1147 456 Q1250 393 1250 236 Q1250 -16 990 -16 Q854 -16 793 43.5 Q732 103 721 246 L826 246 Q840 72 988 72 Q1052 72 1089 104 Q1140 149 1140 238 Q1140 293 1117 337.5 Q1094 382 1059 396 Q1023 410 888 411 Z M242 0 L839 1475 L941 1475 L344 0 L242 0 Z " />
<glyph glyph-name="twothirds" unicode="&#x2154;" horiz-adv-x="1418" d="M39 612 Q52 732 93 794.5 Q134 857 315 1030 Q383 1094 409.5 1144.5 Q436 1195 436 1258 Q436 1326 402 1364.5 Q368 1403 308 1403 Q231 1403 195.5 1358.5 Q160 1314 147 1204 L43 1204 Q57 1337 94 1393 Q158 1491 311 1491 Q546 1491 546 1263 Q546 1156 508.5 1093.5 Q471 1031 327 896 Q245 819 214.5 781 Q184 743 169 700 L565 700 L565 612 L39 612 Z M985 411 L985 498 L1032 499 L1069 499 Q1149 499 1178 533 Q1214 577 1214 651 Q1214 717 1181.5 753 Q1149 789 1090 789 Q1023 789 989 754.5 Q955 720 942 639 L837 639 Q852 750 891 798 Q955 877 1096 877 Q1211 877 1268 823 Q1324 769 1324 650 Q1324 513 1244 456 Q1347 393 1347 237 Q1347 -16 1087 -16 Q950 -16 889.5 43 Q829 102 818 246 L923 246 Q932 153 969.5 112.5 Q1007 72 1085 72 Q1149 72 1186 104 Q1237 149 1237 238 Q1237 293 1214 337.5 Q1191 382 1156 396 Q1121 410 985 411 Z M359 0 L957 1475 L1059 1475 L461 0 L359 0 Z " />
<glyph glyph-name="uni2155" unicode="&#x2155;" horiz-adv-x="1416" d="M276 614 L276 1370 L104 1292 L104 1392 L307 1481 L388 1481 L388 614 L276 614 Z M766 402 L790 860 L1207 860 L1207 772 L890 772 L874 516 Q934 543 1008 543 Q1147 543 1202 462 Q1254 385 1254 257 Q1254 -16 993 -16 Q858 -16 796.5 44 Q735 104 725 246 L830 246 Q838 155 876.5 113.5 Q915 72 991 72 Q1057 72 1092 108 Q1144 162 1144 258 Q1144 351 1106 403 Q1068 455 1000 455 Q956 455 923.5 437.5 Q891 420 835 367 L766 402 Z M235 0 L832 1475 L934 1475 L337 0 L235 0 Z " />
<glyph glyph-name="uni2156" unicode="&#x2156;" horiz-adv-x="1418" d="M39 612 Q52 732 93 794.5 Q134 857 315 1030 Q383 1094 409.5 1144.5 Q436 1195 436 1258 Q436 1326 402 1364.5 Q368 1403 308 1403 Q231 1403 195.5 1358.5 Q160 1314 147 1204 L43 1204 Q57 1337 94 1393 Q158 1491 311 1491 Q546 1491 546 1263 Q546 1156 508.5 1093.5 Q471 1031 327 896 Q245 819 214.5 781 Q184 743 169 700 L565 700 L565 612 L39 612 Z M870 402 L894 860 L1311 860 L1311 772 L994 772 L978 516 Q1039 543 1111 543 Q1250 543 1305 462 Q1358 385 1358 257 Q1358 -16 1097 -16 Q962 -16 901 43.5 Q840 103 829 246 L933 246 Q942 155 980.5 113.5 Q1019 72 1095 72 Q1161 72 1196 108 Q1248 162 1248 258 Q1248 351 1209.5 403 Q1171 455 1103 455 Q1060 455 1027.5 437.5 Q995 420 939 367 L870 402 Z M359 0 L957 1475 L1059 1475 L461 0 L359 0 Z " />
<glyph glyph-name="uni2157" unicode="&#x2157;" horiz-adv-x="1419" d="M200 1025 L200 1112 L247 1113 L284 1113 Q364 1113 393 1147 Q429 1191 429 1264 Q429 1403 305 1403 Q238 1403 203.5 1368.5 Q169 1334 157 1253 L52 1253 Q67 1364 106 1412 Q170 1491 310 1491 Q426 1491 483 1437 Q539 1383 539 1262 Q539 1127 459 1070 Q562 1007 562 851 Q562 598 302 598 Q166 598 104.5 657.5 Q43 717 33 860 L138 860 Q147 767 185 726.5 Q223 686 300 686 Q364 686 401 718 Q452 763 452 852 Q452 907 429 951.5 Q406 996 371 1010 Q336 1024 200 1025 Z M870 402 L894 860 L1312 860 L1312 772 L994 772 L979 516 Q1039 543 1112 543 Q1251 543 1306 462 Q1359 386 1359 257 Q1359 -16 1097 -16 Q963 -16 901.5 44 Q840 104 830 246 L934 246 Q944 153 982 112.5 Q1020 72 1096 72 Q1162 72 1197 108 Q1249 162 1249 258 Q1249 351 1210.5 403 Q1172 455 1104 455 Q1061 455 1028 437.5 Q995 420 940 367 L870 402 Z M353 0 L950 1475 L1052 1475 L455 0 L353 0 Z " />
</font>
</svg>
