<?xml version="1.0" encoding="UTF-8"?>
<svg xmlns="http://www.w3.org/2000/svg" xmlns:xlink="http://www.w3.org/1999/xlink" version="1.2" >
<font id="A1 Sans Condensed">
<font-face  font-family="A1 Sans Condensed" units-per-em="2048" ascent="1536" descent="-512" font-style="normal" font-weight="400" font-stretch="normal" cap-height="1475" x-height="1102" underline-position="-351" underline-thickness="141" />
<missing-glyph  horiz-adv-x="410" d="M41 0 L41 1475 L369 1475 L369 0 L41 0 Z M328 41 L328 1434 L82 1434 L82 41 L328 41 Z " />
<glyph glyph-name="space" unicode="&#x20;" horiz-adv-x="410" d="" />
<glyph glyph-name="exclam" unicode="&#x21;" horiz-adv-x="653" d="M254 379 L233 1475 L420 1475 L399 379 L254 379 Z M329 214 Q378 214 414 178 Q450 142 450 93 Q450 42 414 6.5 Q378 -29 327 -29 Q275 -29 239 6.5 Q203 42 203 94 Q203 144 239.5 179 Q276 214 329 214 Z " />
<glyph glyph-name="quotedbl" unicode="&#x22;" horiz-adv-x="600" d="M104 909 L104 1475 L223 1475 L223 909 L104 909 Z M376 909 L376 1475 L495 1475 L495 909 L376 909 Z " />
<glyph glyph-name="numbersign" unicode="&#x23;" horiz-adv-x="1061" d="M253 468 L93 468 L110 598 L268 598 L297 851 L138 851 L155 981 L313 981 L368 1460 L510 1460 L455 981 L665 981 L720 1460 L862 1460 L807 981 L966 981 L949 851 L791 851 L763 598 L922 598 L904 468 L747 468 L693 0 L551 0 L605 468 L394 468 L341 0 L199 0 L253 468 Z M410 598 L621 598 L649 851 L439 851 L410 598 Z " />
<glyph glyph-name="dollar" unicode="&#x24;" horiz-adv-x="1061" d="M95 427 L253 427 Q258 274 323 205 Q379 146 485 131 L485 711 Q322 764 270 799 Q123 895 123 1101 Q123 1327 286 1430 Q359 1476 485 1484 L485 1640 L596 1640 L596 1480 Q923 1442 918 1054 L770 1054 Q765 1198 720 1260 Q675 1322 596 1342 L596 839 Q770 789 845 728 Q989 612 989 410 Q989 222 887.5 114.5 Q786 7 596 -8 L596 -168 L485 -168 L485 -8 Q86 24 95 427 Z M596 672 L596 131 Q699 149 745 190 Q829 265 829 395 Q829 536 728 609 Q685 640 596 672 Z M485 874 L485 1349 Q408 1342 363 1302 Q283 1232 283 1112 Q283 1021 329.5 966.5 Q376 912 485 874 Z " />
<glyph glyph-name="percent" unicode="&#x25;" horiz-adv-x="1435" d="M370 1506 Q516 1506 593 1397 Q666 1293 666 1119 Q666 947 593 842 Q517 733 365 733 Q213 733 137 842 Q64 947 64 1118 Q64 1293 137 1397 Q214 1506 370 1506 Z M362 1378 Q289 1378 250 1311 Q211 1244 211 1119 Q211 861 365 861 Q519 861 519 1118 Q519 1378 362 1378 Z M1090 744 Q1237 744 1314 635 Q1387 532 1387 357 Q1387 184 1314 80 Q1237 -29 1085 -29 Q932 -29 856 80 Q783 185 783 356 Q783 531 856 635 Q933 744 1090 744 Z M1082 616 Q930 616 930 357 Q930 99 1085 99 Q1240 99 1240 356 Q1240 616 1082 616 Z M303 0 L998 1475 L1144 1475 L450 0 L303 0 Z " />
<glyph glyph-name="ampersand" unicode="&#x26;" horiz-adv-x="1233" d="M411 846 Q393 872 327 966 Q249 1077 249 1200 Q249 1334 332 1418 Q419 1506 565 1506 Q715 1506 801 1414 Q880 1330 880 1208 Q880 1074 758 951 L612 822 L885 414 Q941 592 973 806 L1123 806 Q1066 459 979 287 L1176 0 L988 0 L887 156 Q846 94 810 63 Q702 -32 536 -32 Q362 -32 254 65 Q129 177 129 387 Q129 519 190 618 Q251 717 411 846 Z M530 931 Q650 1035 687 1087 Q724 1139 724 1203 Q724 1282 682 1327 Q640 1372 566 1372 Q491 1372 448 1327 Q405 1282 405 1204 Q405 1131 467 1026 L530 931 Z M493 736 Q377 632 336.5 562.5 Q296 493 296 397 Q296 261 368 184 Q440 108 558 108 Q680 108 744 187 Q747 191 804 271 L493 736 Z " />
<glyph glyph-name="quotesingle" unicode="&#x27;" horiz-adv-x="328" d="M104 909 L104 1475 L223 1475 L223 909 L104 909 Z " />
<glyph glyph-name="parenleft" unicode="&#x28;" horiz-adv-x="766" d="M664 -356 L528 -356 Q400 -142 331 33 Q231 287 231 613 Q231 875 296.5 1087 Q362 1299 528 1573 L664 1573 Q542 1354 483 1179 Q398 923 398 613 Q398 344 457 128.5 Q516 -87 664 -356 Z " />
<glyph glyph-name="parenright" unicode="&#x29;" horiz-adv-x="766" d="M103 1573 L238 1573 Q364 1363 435 1184 Q535 930 535 604 Q535 343 469 128.5 Q403 -86 238 -356 L103 -356 Q223 -140 283 38 Q368 293 368 604 Q368 872 308.5 1089.5 Q249 1307 103 1573 Z " />
<glyph glyph-name="asterisk" unicode="&#x2a;" horiz-adv-x="1017" d="M168 1194 L219 1330 L444 1228 L438 1507 L580 1507 L573 1227 L799 1330 L850 1194 L615 1109 L785 890 L666 804 L509 1037 L351 804 L232 890 L403 1109 L168 1194 Z " />
<glyph glyph-name="plus" unicode="&#x2b;" horiz-adv-x="1061" d="M141 665 L141 806 L458 806 L458 1152 L603 1152 L603 806 L919 806 L919 665 L603 665 L603 321 L458 321 L458 665 L141 665 Z " />
<glyph glyph-name="comma" unicode="&#x2c;" horiz-adv-x="600" d="M146 -271 L267 211 L465 211 L285 -271 L146 -271 Z " />
<glyph glyph-name="hyphen" unicode="&#x2d;" horiz-adv-x="674" d="M114 544 L114 685 L560 685 L560 544 L114 544 Z " />
<glyph glyph-name="period" unicode="&#x2e;" horiz-adv-x="602" d="M304 214 Q353 214 389 178 Q425 142 425 93 Q425 42 389 6.5 Q353 -29 302 -29 Q250 -29 214 6.5 Q178 42 178 94 Q178 144 214.5 179 Q251 214 304 214 Z " />
<glyph glyph-name="slash" unicode="&#x2f;" horiz-adv-x="762" d="M25 -184 L535 1475 L685 1475 L175 -184 L25 -184 Z " />
<glyph glyph-name="zero" unicode="0" horiz-adv-x="1061" d="M535 1504 Q771 1504 873 1292 Q961 1106 961 738 Q961 331 853 147 Q750 -29 530 -29 Q392 -29 303 36 Q99 184 99 739 Q99 931 127.5 1086.5 Q156 1242 207 1328 Q267 1431 359 1472 Q433 1504 535 1504 Z M526 1357 Q387 1357 327 1199 Q266 1040 266 738 Q266 406 337 250 Q398 118 530 118 Q605 118 653.5 155.5 Q702 193 733 276 Q794 434 794 740 Q794 892 775 1023 Q756 1154 723 1225 Q691 1295 645 1326 Q599 1357 526 1357 Z " />
<glyph glyph-name="one" unicode="1" horiz-adv-x="1061" d="M427 0 L427 1309 L130 1173 L130 1316 L480 1475 L591 1475 L591 0 L427 0 Z " />
<glyph glyph-name="two" unicode="2" horiz-adv-x="1061" d="M87 0 Q99 148 163 265 Q236 398 513 680 Q644 813 692 906 Q739 995 739 1093 Q739 1218 680 1289 Q621 1360 516 1360 Q365 1360 297 1219 Q268 1157 253 1033 L101 1033 Q123 1250 189 1345 Q246 1428 325 1466 Q405 1504 522 1504 Q710 1504 807 1397 Q906 1289 906 1100 Q906 918 811 786 Q748 698 570 521 Q408 360 359 294 Q310 228 286 141 L936 141 L936 0 L87 0 Z " />
<glyph glyph-name="three" unicode="3" horiz-adv-x="1061" d="M368 708 L368 838 Q427 837 456 837 Q579 837 631 874 Q670 902 693.5 966 Q717 1030 717 1111 Q717 1360 505 1360 Q302 1360 262 1121 L111 1121 Q128 1280 193 1367 Q294 1504 511 1504 Q884 1504 884 1118 Q884 989 847.5 908.5 Q811 828 730 778 Q930 689 930 404 Q930 186 810 72 Q703 -29 508 -29 Q249 -29 145 140 Q91 228 81 397 L237 397 Q251 250 315.5 182 Q380 114 505 114 Q621 114 683 174 Q763 252 763 408 Q763 504 731 575 Q699 646 641 676 Q604 695 551 701 Q498 707 368 708 Z " />
<glyph glyph-name="four" unicode="4" horiz-adv-x="1061" d="M664 0 L664 322 L94 322 L94 439 L453 1475 L617 1475 L268 463 L664 463 L664 1040 L821 1040 L821 463 L1002 463 L1002 322 L821 322 L821 0 L664 0 Z " />
<glyph glyph-name="five" unicode="5" horiz-adv-x="1061" d="M161 717 L204 1475 L875 1475 L875 1334 L350 1334 L321 858 Q435 937 568 937 Q755 937 842 815 Q938 678 938 453 Q938 211 821 83 Q720 -29 525 -29 Q268 -29 165 140 Q112 226 101 397 L257 397 Q269 272 316 208 Q384 114 520 114 Q639 114 695 184 Q771 278 771 448 Q771 793 536 793 Q460 793 403 762.5 Q346 732 271 651 L161 717 Z " />
<glyph glyph-name="six" unicode="6" horiz-adv-x="1061" d="M294 811 Q358 880 420.5 908 Q483 936 573 936 Q769 936 862 802 Q955 668 955 456 Q955 229 841 95 Q736 -29 544 -29 Q323 -29 210 149 Q123 285 123 602 Q123 1017 214 1251 Q312 1504 563 1504 Q882 1504 916 1128 L761 1128 Q746 1222 719 1269 Q667 1360 561 1360 Q473 1360 419.5 1300 Q366 1240 334 1106 Q310 1008 301 891 Q296 833 294 811 Z M538 792 Q420 792 357 703 Q290 609 290 456 Q290 302 358 205 Q421 115 540 115 Q659 115 720 204 Q788 302 788 453 Q788 609 722 703 Q659 792 538 792 Z " />
<glyph glyph-name="seven" unicode="7" horiz-adv-x="1061" d="M743 1334 L132 1334 L132 1475 L909 1475 L909 1360 L451 0 L272 0 L743 1334 Z " />
<glyph glyph-name="eight" unicode="8" horiz-adv-x="1061" d="M299 782 Q133 880 133 1105 Q133 1293 245 1400 Q352 1504 529 1504 Q722 1504 831 1383 Q926 1277 926 1104 Q926 880 759 782 Q974 678 974 403 Q974 203 847 84 Q726 -29 526 -29 Q313 -29 193 100 Q85 217 85 403 Q85 677 299 782 Z M527 1364 Q415 1364 354 1296 Q293 1228 293 1105 Q293 983 355.5 915.5 Q418 848 529 848 Q641 848 703.5 915.5 Q766 983 766 1104 Q766 1230 704 1297 Q642 1364 527 1364 Z M526 708 Q400 708 326 629 Q252 550 252 415 Q252 268 332 188 Q406 115 529 115 Q665 115 739 201 Q807 280 807 415 Q807 557 727 636 Q654 708 526 708 Z " />
<glyph glyph-name="nine" unicode="9" horiz-adv-x="1061" d="M752 688 Q691 621 633 595 Q575 569 490 569 Q320 569 228 671 Q116 797 116 1025 Q116 1249 225 1383 Q325 1504 518 1504 Q748 1504 847 1325 Q923 1186 923 860 Q923 447 845 224 Q758 -29 495 -29 Q164 -29 129 347 L284 347 Q301 251 329 206 Q385 115 497 115 Q589 115 641 176.5 Q693 238 720 377 Q747 514 752 688 Z M514 1360 Q403 1360 345 1274 Q283 1182 283 1032 Q283 886 342 798 Q400 713 513 713 Q629 713 691 798 Q756 888 756 1033 Q756 1187 691.5 1273.5 Q627 1360 514 1360 Z " />
<glyph glyph-name="colon" unicode="&#x3a;" horiz-adv-x="601" d="M339 214 Q388 214 424 178 Q460 142 460 93 Q460 42 424 6.5 Q388 -29 337 -29 Q285 -29 249 6.5 Q213 42 213 94 Q213 144 249.5 179 Q286 214 339 214 Z M339 907 Q388 907 424 871 Q460 835 460 786 Q460 735 424 699.5 Q388 664 337 664 Q285 664 249 699.5 Q213 735 213 787 Q213 837 249.5 872 Q286 907 339 907 Z " />
<glyph glyph-name="semicolon" unicode="&#x3b;" horiz-adv-x="594" d="M168 -271 L289 211 L487 211 L307 -271 L168 -271 Z M401 907 Q450 907 486 871 Q522 835 522 786 Q522 735 486 699.5 Q450 664 398 664 Q347 664 311 699.5 Q275 735 275 787 Q275 837 311.5 872 Q348 907 401 907 Z " />
<glyph glyph-name="less" unicode="&#x3c;" horiz-adv-x="1061" d="M337 737 L884 401 L884 244 L174 686 L174 789 L884 1231 L884 1073 L337 737 Z " />
<glyph glyph-name="equal" unicode="&#x3d;" horiz-adv-x="1061" d="M141 520 L141 661 L919 661 L919 520 L141 520 Z M141 811 L141 952 L919 952 L919 811 L141 811 Z " />
<glyph glyph-name="greater" unicode="&#x3e;" horiz-adv-x="1061" d="M724 737 L177 1073 L177 1231 L887 789 L887 686 L177 244 L177 401 L724 737 Z " />
<glyph glyph-name="question" unicode="&#x3f;" horiz-adv-x="903" d="M346 380 L346 447 Q346 586 382 661 Q405 709 425 730 Q445 751 537 825 Q605 880 635.5 947 Q666 1014 666 1112 Q666 1227 614 1296 Q563 1364 463 1364 Q343 1364 288 1252 Q256 1188 243 1055 L93 1055 Q121 1508 472 1508 Q640 1508 735 1404 Q833 1296 833 1107 Q833 918 752 811 Q721 771 591 671 Q533 627 514 585.5 Q495 544 495 461 L495 380 L346 380 Z M420 214 Q469 214 505 178.5 Q541 143 541 93 Q541 42 505 6.5 Q469 -29 417 -29 Q366 -29 330 6.5 Q294 42 294 94 Q294 144 330.5 179 Q367 214 420 214 Z " />
<glyph glyph-name="at" unicode="&#x40;" horiz-adv-x="1806" d="M1119 373 Q1081 318 1064 300 Q986 219 862 219 Q718 219 627 336 Q541 447 541 626 Q541 808 628 921 Q716 1034 863 1034 Q947 1034 1001 1005 Q1055 976 1105 904 L1109 1024 L1241 1024 L1241 494 Q1241 425 1252 391 Q1270 339 1339 339 Q1435 339 1481 448 Q1525 551 1525 716 Q1525 1029 1359 1204 Q1267 1300 1133 1345 Q1032 1378 924 1378 Q594 1378 421 1111 Q281 895 281 583 Q281 272 422 103 Q600 -110 962 -110 Q1267 -110 1517 8 L1565 -112 Q1422 -182 1279.5 -213 Q1137 -244 963 -244 Q572 -244 347 -35 Q114 181 114 586 Q114 960 307 1215 Q534 1512 924 1512 Q1226 1512 1431 1338 Q1575 1215 1641 1030 Q1692 887 1692 730 Q1692 493 1601 361 Q1554 294 1481.5 255.5 Q1409 217 1328 217 Q1240 217 1189.5 254.5 Q1139 292 1119 373 Z M882 900 Q797 900 748 825 Q697 747 697 627 Q697 501 748.5 427 Q800 353 887 353 Q982 353 1038 439 Q1089 518 1089 626 Q1089 748 1031.5 824 Q974 900 882 900 Z " />
<glyph glyph-name="A" unicode="A" horiz-adv-x="1122" d="M812 418 L312 418 L187 0 L17 0 L493 1475 L632 1475 L1108 0 L938 0 L812 418 Z M771 559 L562 1254 L354 559 L771 559 Z " />
<glyph glyph-name="B" unicode="B" horiz-adv-x="1162" d="M179 0 L179 1475 L598 1475 Q995 1475 995 1107 Q995 996 956.5 925 Q918 854 831 805 Q924 776 983 698 Q1059 599 1059 433 Q1059 201 910 87 Q797 0 588 0 L179 0 Z M343 863 L599 863 Q711 863 769.5 922.5 Q828 982 828 1095 Q828 1338 595 1338 L343 1338 L343 863 Z M343 136 L565 136 Q726 136 801 199 Q888 272 888 431 Q888 570 816.5 647.5 Q745 725 616 725 L343 725 L343 136 Z " />
<glyph glyph-name="C" unicode="C" horiz-adv-x="1090" d="M846 427 L1008 427 Q1000 -29 591 -29 Q333 -29 216 161 Q105 342 105 734 Q105 1162 237 1340 Q355 1498 588 1498 Q986 1498 996 1048 L834 1048 Q821 1351 588 1351 Q424 1351 351 1198 Q276 1043 276 735 Q276 400 364 246 Q438 118 591 118 Q834 118 846 427 Z " />
<glyph glyph-name="D" unicode="D" horiz-adv-x="1257" d="M179 0 L179 1475 L548 1475 Q832 1475 980 1311 Q1152 1121 1152 738 Q1152 354 980 164 Q902 77 797 38.5 Q692 0 532 0 L179 0 Z M345 141 L536 141 Q757 141 861 272 Q981 422 981 736 Q981 1054 861 1203 Q805 1272 726 1303 Q647 1334 527 1334 L345 1334 L345 141 Z " />
<glyph glyph-name="E" unicode="E" horiz-adv-x="1031" d="M179 0 L179 1475 L942 1475 L942 1334 L345 1334 L345 837 L838 837 L838 696 L345 696 L345 141 L955 141 L955 0 L179 0 Z " />
<glyph glyph-name="F" unicode="F" horiz-adv-x="986" d="M179 0 L179 1475 L941 1475 L941 1334 L345 1334 L345 829 L838 829 L838 688 L345 688 L345 0 L179 0 Z " />
<glyph glyph-name="G" unicode="G" horiz-adv-x="1161" d="M623 602 L623 740 L1033 740 L1033 58 Q827 -29 586 -29 Q397 -29 293 54 Q105 203 105 720 Q105 1147 233 1328 Q353 1498 595 1498 Q1001 1498 1011 1048 L848 1048 Q833 1351 597 1351 Q428 1351 353 1197 Q276 1040 276 723 Q276 400 357 250 Q395 180 449 150 Q508 118 597 118 Q734 118 869 178 L869 602 L623 602 Z " />
<glyph glyph-name="H" unicode="H" horiz-adv-x="1254" d="M179 0 L179 1475 L345 1475 L345 847 L908 847 L908 1475 L1074 1475 L1074 0 L908 0 L908 706 L345 706 L345 0 L179 0 Z " />
<glyph glyph-name="I" unicode="I" horiz-adv-x="525" d="M179 0 L179 1475 L345 1475 L345 0 L179 0 Z " />
<glyph glyph-name="J" unicode="J" horiz-adv-x="534" d="M189 1475 L355 1475 L355 128 Q355 -5 338 -78 Q321 -151 278 -199 Q202 -284 35 -293 L35 -151 Q85 -146 109.5 -133.5 Q134 -121 153 -91 Q174 -58 181.5 -14 Q189 30 189 121 L189 1475 Z " />
<glyph glyph-name="K" unicode="K" horiz-adv-x="1022" d="M179 0 L179 1475 L345 1475 L345 784 L835 1475 L1024 1475 L522 781 L1075 0 L872 0 L345 766 L345 0 L179 0 Z " />
<glyph glyph-name="L" unicode="L" horiz-adv-x="934" d="M179 0 L179 1475 L345 1475 L345 141 L889 141 L889 0 L179 0 Z " />
<glyph glyph-name="M" unicode="M" horiz-adv-x="1534" d="M109 0 L244 1475 L409 1475 L767 295 L1124 1475 L1290 1475 L1424 0 L1264 0 L1163 1136 L820 0 L713 0 L370 1136 L270 0 L109 0 Z " />
<glyph glyph-name="N" unicode="N" horiz-adv-x="1247" d="M179 0 L179 1475 L343 1475 L907 371 L907 1475 L1068 1475 L1068 -20 L944 -20 L339 1172 L339 0 L179 0 Z " />
<glyph glyph-name="O" unicode="O" horiz-adv-x="1184" d="M601 1504 Q785 1504 903 1392 Q1080 1225 1080 737 Q1080 404 993 210 Q936 82 818 21 Q720 -29 593 -29 Q398 -29 282 82 Q105 250 105 733 Q105 1077 192 1265 Q302 1504 601 1504 Z M587 1357 Q415 1357 344 1189 Q276 1026 276 737 Q276 450 344 286 Q415 118 593 118 Q771 118 841 286 Q909 451 909 732 Q909 1030 841 1189 Q803 1276 741.5 1316.5 Q680 1357 587 1357 Z " />
<glyph glyph-name="P" unicode="P" horiz-adv-x="1093" d="M179 0 L179 1475 L514 1475 Q650 1475 729.5 1458 Q809 1441 866 1399 Q940 1345 980.5 1247 Q1021 1149 1021 1024 Q1021 759 864 652 Q750 575 515 575 L345 575 L345 0 L179 0 Z M345 714 L538 714 Q695 714 765 780 Q850 859 850 1027 Q850 1187 773 1266 Q706 1334 544 1334 L345 1334 L345 714 Z " />
<glyph glyph-name="Q" unicode="Q" horiz-adv-x="1187" d="M1092 -134 L1135 -273 Q1036 -338 940 -338 Q864 -338 720 -266 Q620 -215 582.5 -201.5 Q545 -188 507 -188 Q454 -188 403.5 -212.5 Q353 -237 278 -301 L227 -167 Q383 -45 514 -45 Q571 -45 633.5 -67 Q696 -89 837 -160 Q899 -191 952 -191 Q1015 -191 1092 -134 Z M602 1504 Q785 1504 903 1393 Q1080 1225 1080 737 Q1080 405 993 210 Q936 82 818 21 Q720 -29 593 -29 Q398 -29 282 82 Q105 250 105 733 Q105 1077 192 1265 Q302 1504 602 1504 Z M587 1357 Q415 1357 344 1189 Q276 1026 276 737 Q276 450 344 286 Q415 118 593 118 Q771 118 841 286 Q909 451 909 732 Q909 1030 841 1189 Q803 1275 741.5 1316 Q680 1357 587 1357 Z " />
<glyph glyph-name="R" unicode="R" horiz-adv-x="1133" d="M167 0 L167 1475 L540 1475 Q764 1475 863 1408 Q933 1361 972.5 1267 Q1012 1173 1012 1053 Q1012 904 960 809 Q908 714 799 663 Q844 637 870 588 Q896 539 927 421 L1040 0 L861 0 L775 351 Q735 511 681.5 561.5 Q628 612 499 612 L333 612 L333 0 L167 0 Z M333 751 L551 751 Q700 751 761 807 Q841 882 841 1042 Q841 1199 761 1276 Q702 1334 554 1334 L333 1334 L333 751 Z " />
<glyph glyph-name="S" unicode="S" horiz-adv-x="1063" d="M92 427 L253 427 Q258 284 306 218 Q379 118 530 118 Q676 118 746 199 Q812 275 812 395 Q812 504 754 571 Q719 612 667.5 637.5 Q616 663 496 700 Q303 759 228 825 Q125 916 125 1100 Q125 1267 209 1375 Q308 1504 509 1504 Q756 1504 852 1333 Q905 1238 907 1054 L746 1054 Q740 1198 702 1259 Q641 1357 514 1357 Q403 1357 345 1285 Q292 1221 292 1116 Q292 1007 349.5 953.5 Q407 900 578 849 Q711 810 778 774 Q845 738 890 681 Q979 571 979 405 Q979 218 874 98 Q763 -29 537 -29 Q312 -29 202.5 83 Q93 195 92 427 Z " />
<glyph glyph-name="T" unicode="T" horiz-adv-x="925" d="M379 0 L379 1334 L39 1334 L39 1475 L885 1475 L885 1334 L545 1334 L545 0 L379 0 Z " />
<glyph glyph-name="U" unicode="U" horiz-adv-x="1212" d="M170 1475 L336 1475 L336 473 Q336 280 397.5 199 Q459 118 606 118 Q753 118 814.5 199 Q876 280 876 473 L876 1475 L1042 1475 L1042 532 Q1042 364 1028.5 284.5 Q1015 205 976 139 Q875 -29 606 -29 Q336 -29 236 139 Q197 204 183.5 285 Q170 366 170 532 L170 1475 Z " />
<glyph glyph-name="V" unicode="V" horiz-adv-x="987" d="M435 -32 L10 1475 L182 1475 L494 286 L805 1475 L977 1475 L552 -32 L435 -32 Z " />
<glyph glyph-name="W" unicode="W" horiz-adv-x="1579" d="M374 -32 L73 1475 L242 1475 L452 322 L740 1483 L840 1483 L1128 322 L1337 1475 L1507 1475 L1206 -32 L1082 -32 L790 1138 L498 -32 L374 -32 Z " />
<glyph glyph-name="X" unicode="X" horiz-adv-x="1012" d="M411 773 L44 1475 L224 1475 L528 898 L783 1475 L967 1475 L604 749 L995 0 L816 0 L486 624 L200 0 L14 0 L411 773 Z " />
<glyph glyph-name="Y" unicode="Y" horiz-adv-x="930" d="M383 0 L383 578 L-31 1475 L150 1475 L466 746 L781 1475 L962 1475 L549 578 L549 0 L383 0 Z " />
<glyph glyph-name="Z" unicode="Z" horiz-adv-x="947" d="M37 0 L37 127 L665 1334 L88 1334 L88 1475 L851 1475 L851 1368 L221 141 L885 141 L885 0 L37 0 Z " />
<glyph glyph-name="bracketleft" unicode="&#x5b;" horiz-adv-x="766" d="M305 -356 L305 1573 L664 1573 L664 1443 L469 1443 L469 -221 L664 -221 L664 -356 L305 -356 Z " />
<glyph glyph-name="backslash" unicode="&#x5c;" horiz-adv-x="762" d="M738 -184 L588 -184 L78 1475 L228 1475 L738 -184 Z " />
<glyph glyph-name="bracketright" unicode="&#x5d;" horiz-adv-x="766" d="M463 1573 L463 -356 L100 -356 L100 -226 L299 -226 L299 1438 L100 1438 L100 1573 L463 1573 Z " />
<glyph glyph-name="asciicircum" unicode="&#x5e;" horiz-adv-x="1061" d="M530 1341 L268 906 L92 906 L476 1475 L585 1475 L968 906 L792 906 L530 1341 Z " />
<glyph glyph-name="underscore" unicode="&#x5f;" horiz-adv-x="825" d="M-13 -422 L-13 -281 L839 -281 L839 -422 L-13 -422 Z " />
<glyph glyph-name="grave" unicode="&#x60;" horiz-adv-x="1024" d="M508 1221 L291 1549 L464 1549 L619 1221 L508 1221 Z " />
<glyph glyph-name="a" unicode="a" horiz-adv-x="1000" d="M701 125 Q669 58 609 21 Q523 -32 402 -32 Q253 -32 175 55 Q97 142 97 310 Q97 497 179 576 Q261 655 456 655 Q509 655 687 644 L687 710 Q687 843 655 900 Q615 972 492 972 Q406 972 369 936 Q332 900 315 799 L166 799 Q183 937 226 1000 Q302 1110 493 1110 Q665 1110 751 1036 Q799 995 820 926 Q841 857 841 742 L841 0 L701 0 L701 125 Z M689 511 Q601 523 472 523 Q349 523 304 474 Q261 427 261 312 Q261 102 431 102 Q554 102 622 178 Q689 254 689 400 L689 511 Z " />
<glyph glyph-name="b" unicode="b" horiz-adv-x="1037" d="M170 0 L170 1516 L331 1516 L331 995 Q384 1057 441 1083.5 Q498 1110 579 1110 Q702 1110 789 1037 Q942 909 942 539 Q942 -32 577 -32 Q404 -32 317 100 L311 0 L170 0 Z M552 970 Q437 970 384 866.5 Q331 763 331 538 Q331 346 369 242 Q420 108 559 108 Q673 108 724.5 209 Q776 310 776 534 Q776 737 739 836 Q689 970 552 970 Z " />
<glyph glyph-name="c" unicode="c" horiz-adv-x="881" d="M729 229 L823 113 Q767 60 737 39 Q632 -32 488 -32 Q94 -32 94 539 Q94 805 182 952 Q227 1027 304.5 1068.5 Q382 1110 478 1110 Q683 1110 766 947 Q806 868 808 740 L652 740 Q636 970 479 970 Q402 970 348 913 Q301 865 280.5 776 Q260 687 260 536 Q260 291 323 195 Q380 108 489 108 Q615 108 729 229 Z " />
<glyph glyph-name="d" unicode="d" horiz-adv-x="1037" d="M725 0 L719 100 Q629 -32 458 -32 Q94 -32 94 539 Q94 1110 458 1110 Q615 1110 705 995 L705 1516 L866 1516 L866 0 L725 0 Z M475 970 Q361 970 310.5 867.5 Q260 765 260 537 Q260 346 297 242 Q345 108 479 108 Q597 108 651 210 Q705 312 705 535 Q705 741 663 842 Q609 970 475 970 Z " />
<glyph glyph-name="e" unicode="e" horiz-adv-x="969" d="M872 498 L255 498 Q260 328 299 237 Q355 108 505 108 Q580 108 638.5 136.5 Q697 165 762 233 L854 113 Q798 61 764 39 Q655 -32 505 -32 Q94 -32 94 540 Q94 1110 484 1110 Q619 1110 712 1038 Q789 977 831.5 853 Q874 729 874 562 Q874 534 872 498 Z M712 626 Q705 761 681 825 Q625 972 484 972 Q334 972 283 807 Q265 751 257 626 L712 626 Z " />
<glyph glyph-name="f" unicode="f" horiz-adv-x="601" d="M201 0 L201 938 L76 938 L76 1078 L201 1078 L201 1168 Q201 1343 252 1428 Q313 1531 475 1531 Q538 1531 619 1516 L607 1381 Q540 1393 507 1393 Q409 1393 381 1326 Q362 1279 362 1164 L362 1078 L584 1078 L584 938 L362 938 L362 0 L201 0 Z " />
<glyph glyph-name="g" unicode="g" horiz-adv-x="1038" d="M706 88 Q606 -22 460 -22 Q95 -22 95 544 Q95 806 176 951 Q218 1026 292.5 1068 Q367 1110 459 1110 Q544 1110 603.5 1081 Q663 1052 714 986 L714 1078 L868 1078 L868 155 Q868 -125 809 -260 Q765 -361 676.5 -415 Q588 -469 466 -469 Q358 -469 278.5 -442 Q199 -415 110 -348 L186 -222 Q277 -288 332 -309.5 Q387 -331 460 -331 Q619 -331 670 -190 Q706 -92 706 70 L706 88 Z M474 970 Q362 970 311.5 868.5 Q261 767 261 543 Q261 353 298 251 Q346 118 480 118 Q600 118 652 216 Q704 314 704 540 Q704 658 695.5 724 Q687 790 664 844 Q612 970 474 970 Z " />
<glyph glyph-name="h" unicode="h" horiz-adv-x="1072" d="M170 0 L170 1516 L331 1516 L331 942 Q348 958 399 1008 Q449 1056 513.5 1083 Q578 1110 642 1110 Q814 1110 869 976 Q910 875 910 660 L910 0 L749 0 L749 656 Q749 835 718 899 Q687 963 602 963 Q484 963 331 774 L331 0 L170 0 Z " />
<glyph glyph-name="i" unicode="i" horiz-adv-x="502" d="M173 0 L173 1078 L334 1078 L334 0 L173 0 Z M256 1489 Q301 1489 333.5 1456 Q366 1423 366 1377 Q366 1330 333.5 1297 Q301 1264 254 1264 Q207 1264 174 1297 Q141 1330 141 1377 Q141 1424 174.5 1456.5 Q208 1489 256 1489 Z " />
<glyph glyph-name="j" unicode="j" horiz-adv-x="511" d="M180 1078 L341 1078 L341 -4 Q342 -270 268 -358 Q192 -452 43 -464 L43 -324 Q87 -317 109.5 -300.5 Q132 -284 149 -247 Q168 -205 174 -158 Q180 -111 180 -4 L180 1078 Z M264 1489 Q309 1489 341.5 1456 Q374 1423 374 1377 Q374 1330 341.5 1297 Q309 1264 262 1264 Q215 1264 182 1297 Q149 1330 149 1377 Q149 1424 182.5 1456.5 Q216 1489 264 1489 Z " />
<glyph glyph-name="k" unicode="k" horiz-adv-x="899" d="M170 0 L170 1516 L331 1516 L331 643 L673 1078 L860 1078 L495 626 L921 0 L730 0 L331 608 L331 0 L170 0 Z " />
<glyph glyph-name="l" unicode="l" horiz-adv-x="501" d="M170 0 L170 1516 L331 1516 L331 0 L170 0 Z " />
<glyph glyph-name="m" unicode="m" horiz-adv-x="1558" d="M170 0 L170 1078 L331 1078 L331 942 Q411 1024 440 1046 Q526 1110 618 1110 Q711 1110 762.5 1065.5 Q814 1021 842 918 Q929 1011 961 1037 Q1053 1110 1151 1110 Q1309 1110 1358 976 Q1396 875 1396 660 L1396 0 L1235 0 L1235 656 Q1235 837 1209.5 900 Q1184 963 1110 963 Q1005 963 863 774 L863 0 L702 0 L702 666 Q702 837 675.5 900 Q649 963 578 963 Q523 963 464 918 Q405 873 331 774 L331 0 L170 0 Z " />
<glyph glyph-name="n" unicode="n" horiz-adv-x="1072" d="M170 0 L170 1078 L331 1078 L331 942 Q351 960 406 1013 Q453 1058 516 1084 Q579 1110 641 1110 Q814 1110 869 976 Q910 875 910 660 L910 0 L749 0 L749 656 Q749 835 718.5 899 Q688 963 602 963 Q541 963 477 918.5 Q413 874 331 774 L331 0 L170 0 Z " />
<glyph glyph-name="o" unicode="o" horiz-adv-x="983" d="M497 1110 Q628 1110 722 1037 Q888 909 888 539 Q888 -32 491 -32 Q94 -32 94 536 Q94 807 181 950 Q279 1110 497 1110 Z M487 970 Q367 970 313.5 868 Q260 766 260 539 Q260 342 301 238 Q352 108 490 108 Q613 108 668 208.5 Q723 309 723 534 Q723 739 682 840 Q630 970 487 970 Z " />
<glyph glyph-name="p" unicode="p" horiz-adv-x="1037" d="M170 -439 L170 1078 L321 1078 L321 985 Q414 1110 578 1110 Q942 1110 942 539 Q942 274 861 128 Q819 53 744.5 10.5 Q670 -32 579 -32 Q422 -32 331 84 L331 -439 L170 -439 Z M551 970 Q437 970 384 866.5 Q331 763 331 540 Q331 345 369 242 Q420 108 558 108 Q673 108 724.5 209 Q776 310 776 535 Q776 735 739 836 Q690 970 551 970 Z " />
<glyph glyph-name="q" unicode="q" horiz-adv-x="1037" d="M705 -439 L705 84 Q656 22 598 -5 Q540 -32 459 -32 Q94 -32 94 539 Q94 1110 458 1110 Q624 1110 714 985 L714 1078 L866 1078 L866 -439 L705 -439 Z M474 970 Q361 970 310.5 867.5 Q260 765 260 537 Q260 338 301 232 Q349 108 480 108 Q598 108 651.5 210 Q705 312 705 535 Q705 742 662 845 Q611 970 474 970 Z " />
<glyph glyph-name="r" unicode="r" horiz-adv-x="686" d="M170 0 L170 1078 L327 1078 L327 946 Q439 1093 603 1093 L635 1093 L635 935 L608 935 Q517 935 458 899 Q399 863 331 765 L331 0 L170 0 Z " />
<glyph glyph-name="s" unicode="s" horiz-adv-x="864" d="M68 328 L215 328 Q224 228 252 187 Q309 103 429 103 Q625 103 625 291 Q625 382 579 425 Q541 462 407 491 Q322 509 275 529 Q228 549 192 581 Q107 658 107 796 Q107 939 189.5 1024.5 Q272 1110 411 1110 Q615 1110 694 953 Q730 882 733 769 L586 769 Q578 860 558 898 Q516 975 418 975 Q339 975 304 924 Q272 877 272 807 Q272 730 313 693.5 Q354 657 470 630 Q574 606 623 583.5 Q672 561 708 520 Q784 435 784 294 Q784 142 696 58 Q602 -32 434 -32 Q203 -32 114 121 Q70 196 68 328 Z " />
<glyph glyph-name="t" unicode="t" horiz-adv-x="630" d="M195 938 L70 938 L70 1078 L197 1078 L209 1399 L356 1399 L356 1078 L582 1078 L582 938 L356 938 L356 314 Q356 201 379 170.5 Q402 140 488 140 L602 140 L602 0 L502 0 Q389 0 342 11.5 Q295 23 260 60 Q222 100 208.5 151.5 Q195 203 195 308 L195 938 Z " />
<glyph glyph-name="u" unicode="u" horiz-adv-x="1040" d="M162 1078 L323 1078 L323 421 Q323 241 350.5 178 Q378 115 456 115 Q568 115 709 304 L709 1078 L870 1078 L870 0 L709 0 L709 136 Q623 42 558 5 Q493 -32 415 -32 Q252 -32 201 102 Q162 203 162 418 L162 1078 Z " />
<glyph glyph-name="v" unicode="v" horiz-adv-x="823" d="M351 -25 L18 1078 L188 1078 L412 239 L635 1078 L805 1078 L472 -25 L351 -25 Z " />
<glyph glyph-name="w" unicode="w" horiz-adv-x="1292" d="M301 -25 L50 1078 L213 1078 L378 268 L601 1078 L692 1078 L915 268 L1081 1078 L1243 1078 L992 -25 L871 -25 L647 793 L423 -25 L301 -25 Z " />
<glyph glyph-name="x" unicode="x" horiz-adv-x="808" d="M308 578 L27 1078 L199 1078 L417 691 L607 1078 L776 1078 L484 572 L806 0 L634 0 L376 457 L166 0 L-4 0 L308 578 Z " />
<glyph glyph-name="y" unicode="y" horiz-adv-x="823" d="M338 22 L18 1078 L188 1078 L411 239 L635 1078 L805 1078 L469 -80 Q404 -305 326 -379 Q292 -412 244.5 -425 Q197 -438 106 -439 L106 -299 Q184 -299 217 -271 Q266 -228 299 -115 L338 22 Z " />
<glyph glyph-name="z" unicode="z" horiz-adv-x="763" d="M34 0 L34 128 L507 938 L75 938 L75 1078 L692 1078 L692 961 L209 140 L704 140 L704 0 L34 0 Z " />
<glyph glyph-name="braceleft" unicode="&#x7b;" horiz-adv-x="766" d="M299 645 Q381 607 409.5 535.5 Q438 464 438 296 L438 30 Q438 -135 473 -181 Q506 -226 595 -226 L638 -226 L638 -356 L577 -356 Q480 -356 430.5 -341 Q381 -326 345 -286 Q306 -244 290 -175 Q274 -106 274 15 L274 278 Q274 443 236 507 Q213 547 186.5 561.5 Q160 576 102 580 L102 710 Q163 714 192 730 Q221 746 242 788 Q274 851 274 1012 L274 1199 Q274 1328 289.5 1398 Q305 1468 343 1505 Q378 1540 430.5 1554 Q483 1568 577 1568 L638 1568 L638 1440 L595 1440 Q497 1440 467.5 1392 Q438 1344 438 1184 L438 986 Q438 824 409 753.5 Q380 683 299 645 Z " />
<glyph glyph-name="bar" unicode="&#x7c;" horiz-adv-x="671" d="M255 -464 L255 1565 L413 1565 L413 -464 L255 -464 Z " />
<glyph glyph-name="braceright" unicode="&#x7d;" horiz-adv-x="766" d="M472 645 Q387 685 361 756 Q333 833 333 986 L333 1184 Q333 1354 299 1398 Q266 1440 173 1440 L128 1440 L128 1568 L191 1568 Q294 1568 349 1551.5 Q404 1535 439 1493 Q497 1424 497 1199 L497 1012 Q497 841 531.5 778.5 Q566 716 664 710 L664 580 Q608 576 582 561.5 Q556 547 533 507 Q497 444 497 278 L497 15 Q497 -113 478.5 -184 Q460 -255 416 -297 Q380 -331 332 -343.5 Q284 -356 191 -356 L128 -356 L128 -226 L172 -226 Q270 -226 301.5 -176 Q333 -126 333 30 L333 296 Q333 464 361.5 535 Q390 606 472 645 Z " />
<glyph glyph-name="asciitilde" unicode="&#x7e;" horiz-adv-x="1061" d="M221 608 L122 697 Q247 876 374 876 Q451 876 541 816 Q614 768 634.5 758 Q655 748 686 748 Q723 748 756.5 773.5 Q790 799 841 866 L938 780 Q809 597 689 597 Q620 597 520 662 Q423 725 376 725 Q336 725 305.5 702 Q275 679 221 608 Z " />
<glyph glyph-name="Adieresis" unicode="&#xc4;" horiz-adv-x="1122" d="M812 418 L312 418 L187 0 L17 0 L493 1475 L632 1475 L1108 0 L938 0 L812 418 Z M771 559 L562 1254 L354 559 L771 559 Z M389 1849 Q432 1849 462.5 1818 Q493 1787 493 1743 Q493 1699 462 1668 Q431 1637 387 1637 Q343 1637 312 1668.5 Q281 1700 281 1744 Q281 1788 312.5 1818.5 Q344 1849 389 1849 Z M737 1849 Q780 1849 810.5 1818 Q841 1787 841 1743 Q841 1699 810 1668 Q779 1637 736 1637 Q691 1637 660 1668.5 Q629 1700 629 1744 Q629 1788 660.5 1818.5 Q692 1849 737 1849 Z " />
<glyph glyph-name="Aring" unicode="&#xc5;" horiz-adv-x="1122" d="M812 418 L312 418 L187 0 L17 0 L493 1475 L632 1475 L1108 0 L938 0 L812 418 Z M771 559 L562 1254 L354 559 L771 559 Z M565 2005 Q664 2005 722.5 1946 Q781 1887 781 1786 Q781 1683 722.5 1624.5 Q664 1566 561 1566 Q458 1566 399.5 1624.5 Q341 1683 341 1785 Q341 1889 400 1947 Q459 2005 565 2005 Z M559 1906 Q451 1906 451 1785 Q451 1665 560 1665 Q671 1665 671 1785 Q671 1906 559 1906 Z " />
<glyph glyph-name="Ccedilla" unicode="&#xc7;" horiz-adv-x="1090" d="M846 427 L1008 427 Q1004 202 900 87 Q825 4 691 -18 Q667 -22 632 -26 L603 -95 Q668 -101 698 -118 Q772 -160 772 -276 Q772 -370 718.5 -422.5 Q665 -475 569 -475 Q464 -475 362 -436 L396 -320 Q484 -358 560 -358 Q639 -358 639 -276 Q639 -235 618.5 -217 Q598 -199 550 -199 Q531 -199 490 -202 L473 -113 L512 -23 Q369 -3 283 79 Q105 248 105 734 Q105 1162 237 1340 Q355 1498 588 1498 Q986 1498 996 1048 L834 1048 Q821 1351 588 1351 Q424 1351 351 1198 Q276 1043 276 735 Q276 400 364 246 Q438 118 591 118 Q834 118 846 427 Z " />
<glyph glyph-name="Eacute" unicode="&#xc9;" horiz-adv-x="1031" d="M179 0 L179 1475 L942 1475 L942 1334 L345 1334 L345 837 L838 837 L838 696 L345 696 L345 141 L955 141 L955 0 L179 0 Z M481 1594 L636 1921 L809 1921 L592 1594 L481 1594 Z " />
<glyph glyph-name="Ntilde" unicode="&#xd1;" horiz-adv-x="1247" d="M179 0 L179 1475 L343 1475 L907 371 L907 1475 L1068 1475 L1068 -20 L944 -20 L339 1172 L339 0 L179 0 Z M486 1649 L390 1649 Q420 1848 547 1848 Q594 1848 654 1803 Q707 1763 729 1763 Q771 1763 790 1847 L886 1847 Q869 1753 842 1710 Q798 1643 721 1643 Q671 1643 591 1704 Q560 1728 541 1728 Q505 1728 486 1649 Z " />
<glyph glyph-name="Odieresis" unicode="&#xd6;" horiz-adv-x="1184" d="M601 1504 Q785 1504 903 1392 Q1080 1225 1080 737 Q1080 404 993 210 Q936 82 818 21 Q720 -29 593 -29 Q398 -29 282 82 Q105 250 105 733 Q105 1077 192 1265 Q302 1504 601 1504 Z M587 1357 Q415 1357 344 1189 Q276 1026 276 737 Q276 450 344 286 Q415 118 593 118 Q771 118 841 286 Q909 451 909 732 Q909 1030 841 1189 Q803 1276 741.5 1316.5 Q680 1357 587 1357 Z M420 1849 Q463 1849 493.5 1818 Q524 1787 524 1743 Q524 1699 493 1668 Q462 1637 418 1637 Q374 1637 343 1668.5 Q312 1700 312 1744 Q312 1788 343.5 1818.5 Q375 1849 420 1849 Z M768 1849 Q811 1849 841.5 1818 Q872 1787 872 1743 Q872 1699 841 1668 Q810 1637 767 1637 Q722 1637 691 1668.5 Q660 1700 660 1744 Q660 1788 691.5 1818.5 Q723 1849 768 1849 Z " />
<glyph glyph-name="Udieresis" unicode="&#xdc;" horiz-adv-x="1212" d="M170 1475 L336 1475 L336 473 Q336 280 397.5 199 Q459 118 606 118 Q753 118 814.5 199 Q876 280 876 473 L876 1475 L1042 1475 L1042 532 Q1042 364 1028.5 284.5 Q1015 205 976 139 Q875 -29 606 -29 Q336 -29 236 139 Q197 204 183.5 285 Q170 366 170 532 L170 1475 Z M434 1849 Q477 1849 507.5 1818 Q538 1787 538 1743 Q538 1699 507 1668 Q476 1637 432 1637 Q388 1637 357 1668.5 Q326 1700 326 1744 Q326 1788 357.5 1818.5 Q389 1849 434 1849 Z M782 1849 Q825 1849 855.5 1818 Q886 1787 886 1743 Q886 1699 855 1668 Q824 1637 781 1637 Q736 1637 705 1668.5 Q674 1700 674 1744 Q674 1788 705.5 1818.5 Q737 1849 782 1849 Z " />
<glyph glyph-name="aacute" unicode="&#xe1;" horiz-adv-x="1000" d="M701 125 Q669 58 609 21 Q523 -32 402 -32 Q253 -32 175 55 Q97 142 97 310 Q97 497 179 576 Q261 655 456 655 Q509 655 687 644 L687 710 Q687 843 655 900 Q615 972 492 972 Q406 972 369 936 Q332 900 315 799 L166 799 Q183 937 226 1000 Q302 1110 493 1110 Q665 1110 751 1036 Q799 995 820 926 Q841 857 841 742 L841 0 L701 0 L701 125 Z M689 511 Q601 523 472 523 Q349 523 304 474 Q261 427 261 312 Q261 102 431 102 Q554 102 622 178 Q689 254 689 400 L689 511 Z M425 1221 L580 1549 L753 1549 L536 1221 L425 1221 Z " />
<glyph glyph-name="agrave" unicode="&#xe0;" horiz-adv-x="1000" d="M701 125 Q669 58 609 21 Q523 -32 402 -32 Q253 -32 175 55 Q97 142 97 310 Q97 497 179 576 Q261 655 456 655 Q509 655 687 644 L687 710 Q687 843 655 900 Q615 972 492 972 Q406 972 369 936 Q332 900 315 799 L166 799 Q183 937 226 1000 Q302 1110 493 1110 Q665 1110 751 1036 Q799 995 820 926 Q841 857 841 742 L841 0 L701 0 L701 125 Z M689 511 Q601 523 472 523 Q349 523 304 474 Q261 427 261 312 Q261 102 431 102 Q554 102 622 178 Q689 254 689 400 L689 511 Z M497 1221 L280 1549 L453 1549 L608 1221 L497 1221 Z " />
<glyph glyph-name="acircumflex" unicode="&#xe2;" horiz-adv-x="1000" d="M701 125 Q669 58 609 21 Q523 -32 402 -32 Q253 -32 175 55 Q97 142 97 310 Q97 497 179 576 Q261 655 456 655 Q509 655 687 644 L687 710 Q687 843 655 900 Q615 972 492 972 Q406 972 369 936 Q332 900 315 799 L166 799 Q183 937 226 1000 Q302 1110 493 1110 Q665 1110 751 1036 Q799 995 820 926 Q841 857 841 742 L841 0 L701 0 L701 125 Z M689 511 Q601 523 472 523 Q349 523 304 474 Q261 427 261 312 Q261 102 431 102 Q554 102 622 178 Q689 254 689 400 L689 511 Z M498 1435 L367 1221 L213 1221 L449 1549 L547 1549 L784 1221 L630 1221 L498 1435 Z " />
<glyph glyph-name="adieresis" unicode="&#xe4;" horiz-adv-x="1000" d="M701 125 Q669 58 609 21 Q523 -32 402 -32 Q253 -32 175 55 Q97 142 97 310 Q97 497 179 576 Q261 655 456 655 Q509 655 687 644 L687 710 Q687 843 655 900 Q615 972 492 972 Q406 972 369 936 Q332 900 315 799 L166 799 Q183 937 226 1000 Q302 1110 493 1110 Q665 1110 751 1036 Q799 995 820 926 Q841 857 841 742 L841 0 L701 0 L701 125 Z M689 511 Q601 523 472 523 Q349 523 304 474 Q261 427 261 312 Q261 102 431 102 Q554 102 622 178 Q689 254 689 400 L689 511 Z M336 1482 Q379 1482 409.5 1451 Q440 1420 440 1376 Q440 1332 409 1301 Q378 1270 334 1270 Q290 1270 259 1301.5 Q228 1333 228 1377 Q228 1421 259.5 1451.5 Q291 1482 336 1482 Z M645 1482 Q688 1482 718.5 1451 Q749 1420 749 1376 Q749 1332 718 1301 Q687 1270 644 1270 Q600 1270 568.5 1301.5 Q537 1333 537 1377 Q537 1421 568.5 1451.5 Q600 1482 645 1482 Z " />
<glyph glyph-name="atilde" unicode="&#xe3;" horiz-adv-x="1000" d="M701 125 Q669 58 609 21 Q523 -32 402 -32 Q253 -32 175 55 Q97 142 97 310 Q97 497 179 576 Q261 655 456 655 Q509 655 687 644 L687 710 Q687 843 655 900 Q615 972 492 972 Q406 972 369 936 Q332 900 315 799 L166 799 Q183 937 226 1000 Q302 1110 493 1110 Q665 1110 751 1036 Q799 995 820 926 Q841 857 841 742 L841 0 L701 0 L701 125 Z M689 511 Q601 523 472 523 Q349 523 304 474 Q261 427 261 312 Q261 102 431 102 Q554 102 622 178 Q689 254 689 400 L689 511 Z M348 1282 L252 1282 Q282 1481 410 1481 Q456 1481 516 1436 Q569 1396 591 1396 Q633 1396 652 1480 L748 1480 Q731 1385 704 1343 Q660 1276 582 1276 Q533 1276 453 1337 Q422 1361 404 1361 Q367 1361 348 1282 Z " />
<glyph glyph-name="aring" unicode="&#xe5;" horiz-adv-x="1000" d="M701 125 Q669 58 609 21 Q523 -32 402 -32 Q253 -32 175 55 Q97 142 97 310 Q97 497 179 576 Q261 655 456 655 Q509 655 687 644 L687 710 Q687 843 655 900 Q615 972 492 972 Q406 972 369 936 Q332 900 315 799 L166 799 Q183 937 226 1000 Q302 1110 493 1110 Q665 1110 751 1036 Q799 995 820 926 Q841 857 841 742 L841 0 L701 0 L701 125 Z M689 511 Q601 523 472 523 Q349 523 304 474 Q261 427 261 312 Q261 102 431 102 Q554 102 622 178 Q689 254 689 400 L689 511 Z M501 1639 Q600 1639 658.5 1579.5 Q717 1520 717 1419 Q717 1316 658 1257 Q599 1198 497 1198 Q395 1198 336 1257 Q277 1316 277 1418 Q277 1522 336 1580.5 Q395 1639 501 1639 Z M495 1540 Q387 1540 387 1418 Q387 1297 496 1297 Q607 1297 607 1418 Q607 1540 495 1540 Z " />
<glyph glyph-name="ccedilla" unicode="&#xe7;" horiz-adv-x="881" d="M523 -30 L497 -95 Q562 -101 592 -118 Q666 -160 666 -276 Q666 -370 612.5 -422.5 Q559 -475 463 -475 Q357 -475 256 -436 L290 -320 Q378 -358 454 -358 Q533 -358 533 -275 Q533 -198 449 -198 Q429 -198 384 -202 L367 -113 L406 -24 Q298 -1 230 66 Q94 201 94 539 Q94 805 182 952 Q227 1027 304.5 1068.5 Q382 1110 478 1110 Q683 1110 766 947 Q806 868 808 740 L652 740 Q636 970 479 970 Q402 970 348 913 Q301 865 280.5 776 Q260 687 260 536 Q260 292 323 195 Q380 109 489 109 Q615 109 729 230 L823 113 Q736 30 668 2 Q607 -22 523 -30 Z " />
<glyph glyph-name="eacute" unicode="&#xe9;" horiz-adv-x="969" d="M872 498 L255 498 Q260 328 299 237 Q355 108 505 108 Q580 108 638.5 136.5 Q697 165 762 233 L854 113 Q798 61 764 39 Q655 -32 505 -32 Q94 -32 94 540 Q94 1110 484 1110 Q619 1110 712 1038 Q789 977 831.5 853 Q874 729 874 562 Q874 534 872 498 Z M712 626 Q705 761 681 825 Q625 972 484 972 Q334 972 283 807 Q265 751 257 626 L712 626 Z M395 1221 L550 1549 L723 1549 L506 1221 L395 1221 Z " />
<glyph glyph-name="egrave" unicode="&#xe8;" horiz-adv-x="969" d="M872 498 L255 498 Q260 328 299 237 Q355 108 505 108 Q580 108 638.5 136.5 Q697 165 762 233 L854 113 Q798 61 764 39 Q655 -32 505 -32 Q94 -32 94 540 Q94 1110 484 1110 Q619 1110 712 1038 Q789 977 831.5 853 Q874 729 874 562 Q874 534 872 498 Z M712 626 Q705 761 681 825 Q625 972 484 972 Q334 972 283 807 Q265 751 257 626 L712 626 Z M480 1221 L263 1549 L436 1549 L591 1221 L480 1221 Z " />
<glyph glyph-name="ecircumflex" unicode="&#xea;" horiz-adv-x="969" d="M872 498 L255 498 Q260 328 299 237 Q355 108 505 108 Q580 108 638.5 136.5 Q697 165 762 233 L854 113 Q798 61 764 39 Q655 -32 505 -32 Q94 -32 94 540 Q94 1110 484 1110 Q619 1110 712 1038 Q789 977 831.5 853 Q874 729 874 562 Q874 534 872 498 Z M712 626 Q705 761 681 825 Q625 972 484 972 Q334 972 283 807 Q265 751 257 626 L712 626 Z M502 1435 L371 1221 L217 1221 L453 1549 L551 1549 L788 1221 L634 1221 L502 1435 Z " />
<glyph glyph-name="edieresis" unicode="&#xeb;" horiz-adv-x="969" d="M872 498 L255 498 Q260 328 299 237 Q355 108 505 108 Q580 108 638.5 136.5 Q697 165 762 233 L854 113 Q798 61 764 39 Q655 -32 505 -32 Q94 -32 94 540 Q94 1110 484 1110 Q619 1110 712 1038 Q789 977 831.5 853 Q874 729 874 562 Q874 534 872 498 Z M712 626 Q705 761 681 825 Q625 972 484 972 Q334 972 283 807 Q265 751 257 626 L712 626 Z M350 1482 Q393 1482 423.5 1451 Q454 1420 454 1376 Q454 1332 423 1301 Q392 1270 348 1270 Q304 1270 273 1301.5 Q242 1333 242 1377 Q242 1421 273.5 1451.5 Q305 1482 350 1482 Z M659 1482 Q702 1482 732.5 1451 Q763 1420 763 1376 Q763 1332 732 1301 Q701 1270 658 1270 Q614 1270 582.5 1301.5 Q551 1333 551 1377 Q551 1421 582.5 1451.5 Q614 1482 659 1482 Z " />
<glyph glyph-name="iacute" unicode="&#xed;" horiz-adv-x="502" d="M171 0 L171 1078 L332 1078 L332 0 L171 0 Z M156 1221 L311 1549 L484 1549 L267 1221 L156 1221 Z " />
<glyph glyph-name="igrave" unicode="&#xec;" horiz-adv-x="502" d="M171 0 L171 1078 L332 1078 L332 0 L171 0 Z M231 1221 L14 1549 L187 1549 L342 1221 L231 1221 Z " />
<glyph glyph-name="icircumflex" unicode="&#xee;" horiz-adv-x="502" d="M171 0 L171 1078 L332 1078 L332 0 L171 0 Z M251 1435 L120 1221 L-34 1221 L202 1549 L300 1549 L537 1221 L383 1221 L251 1435 Z " />
<glyph glyph-name="idieresis" unicode="&#xef;" horiz-adv-x="502" d="M171 0 L171 1078 L332 1078 L332 0 L171 0 Z M98 1482 Q141 1482 171.5 1451 Q202 1420 202 1376 Q202 1332 171 1301 Q140 1270 96 1270 Q52 1270 21 1301.5 Q-10 1333 -10 1377 Q-10 1421 21.5 1451.5 Q53 1482 98 1482 Z M407 1482 Q450 1482 480.5 1451 Q511 1420 511 1376 Q511 1332 480 1301 Q449 1270 406 1270 Q362 1270 330.5 1301.5 Q299 1333 299 1377 Q299 1421 330.5 1451.5 Q362 1482 407 1482 Z " />
<glyph glyph-name="ntilde" unicode="&#xf1;" horiz-adv-x="1072" d="M170 0 L170 1078 L331 1078 L331 942 Q351 960 406 1013 Q453 1058 516 1084 Q579 1110 641 1110 Q814 1110 869 976 Q910 875 910 660 L910 0 L749 0 L749 656 Q749 835 718.5 899 Q688 963 602 963 Q541 963 477 918.5 Q413 874 331 774 L331 0 L170 0 Z M384 1282 L288 1282 Q318 1481 446 1481 Q492 1481 552 1436 Q605 1396 627 1396 Q669 1396 688 1480 L784 1480 Q767 1385 740 1343 Q696 1276 618 1276 Q569 1276 489 1337 Q458 1361 440 1361 Q403 1361 384 1282 Z " />
<glyph glyph-name="oacute" unicode="&#xf3;" horiz-adv-x="983" d="M497 1110 Q628 1110 722 1037 Q888 909 888 539 Q888 -32 491 -32 Q94 -32 94 536 Q94 807 181 950 Q279 1110 497 1110 Z M487 970 Q367 970 313.5 868 Q260 766 260 539 Q260 342 301 238 Q352 108 490 108 Q613 108 668 208.5 Q723 309 723 534 Q723 739 682 840 Q630 970 487 970 Z M384 1221 L539 1549 L712 1549 L495 1221 L384 1221 Z " />
<glyph glyph-name="ograve" unicode="&#xf2;" horiz-adv-x="983" d="M497 1110 Q628 1110 722 1037 Q888 909 888 539 Q888 -32 491 -32 Q94 -32 94 536 Q94 807 181 950 Q279 1110 497 1110 Z M487 970 Q367 970 313.5 868 Q260 766 260 539 Q260 342 301 238 Q352 108 490 108 Q613 108 668 208.5 Q723 309 723 534 Q723 739 682 840 Q630 970 487 970 Z M488 1221 L271 1549 L444 1549 L599 1221 L488 1221 Z " />
<glyph glyph-name="ocircumflex" unicode="&#xf4;" horiz-adv-x="983" d="M497 1110 Q628 1110 722 1037 Q888 909 888 539 Q888 -32 491 -32 Q94 -32 94 536 Q94 807 181 950 Q279 1110 497 1110 Z M487 970 Q367 970 313.5 868 Q260 766 260 539 Q260 342 301 238 Q352 108 490 108 Q613 108 668 208.5 Q723 309 723 534 Q723 739 682 840 Q630 970 487 970 Z M491 1435 L360 1221 L206 1221 L442 1549 L540 1549 L777 1221 L623 1221 L491 1435 Z " />
<glyph glyph-name="odieresis" unicode="&#xf6;" horiz-adv-x="983" d="M497 1110 Q628 1110 722 1037 Q888 909 888 539 Q888 -32 491 -32 Q94 -32 94 536 Q94 807 181 950 Q279 1110 497 1110 Z M487 970 Q367 970 313.5 868 Q260 766 260 539 Q260 342 301 238 Q352 108 490 108 Q613 108 668 208.5 Q723 309 723 534 Q723 739 682 840 Q630 970 487 970 Z M338 1482 Q381 1482 411.5 1451 Q442 1420 442 1376 Q442 1332 411 1301 Q380 1270 336 1270 Q292 1270 261 1301.5 Q230 1333 230 1377 Q230 1421 261.5 1451.5 Q293 1482 338 1482 Z M647 1482 Q690 1482 720.5 1451 Q751 1420 751 1376 Q751 1332 720 1301 Q689 1270 646 1270 Q602 1270 570.5 1301.5 Q539 1333 539 1377 Q539 1421 570.5 1451.5 Q602 1482 647 1482 Z " />
<glyph glyph-name="otilde" unicode="&#xf5;" horiz-adv-x="983" d="M497 1110 Q628 1110 722 1037 Q888 909 888 539 Q888 -32 491 -32 Q94 -32 94 536 Q94 807 181 950 Q279 1110 497 1110 Z M487 970 Q367 970 313.5 868 Q260 766 260 539 Q260 342 301 238 Q352 108 490 108 Q613 108 668 208.5 Q723 309 723 534 Q723 739 682 840 Q630 970 487 970 Z M338 1282 L242 1282 Q272 1481 400 1481 Q446 1481 506 1436 Q559 1396 581 1396 Q623 1396 642 1480 L738 1480 Q721 1385 694 1343 Q650 1276 572 1276 Q523 1276 443 1337 Q412 1361 394 1361 Q357 1361 338 1282 Z " />
<glyph glyph-name="uacute" unicode="&#xfa;" horiz-adv-x="1040" d="M162 1078 L323 1078 L323 421 Q323 241 350.5 178 Q378 115 456 115 Q568 115 709 304 L709 1078 L870 1078 L870 0 L709 0 L709 136 Q623 42 558 5 Q493 -32 415 -32 Q252 -32 201 102 Q162 203 162 418 L162 1078 Z M433 1221 L588 1549 L761 1549 L544 1221 L433 1221 Z " />
<glyph glyph-name="ugrave" unicode="&#xf9;" horiz-adv-x="1040" d="M162 1078 L323 1078 L323 421 Q323 241 350.5 178 Q378 115 456 115 Q568 115 709 304 L709 1078 L870 1078 L870 0 L709 0 L709 136 Q623 42 558 5 Q493 -32 415 -32 Q252 -32 201 102 Q162 203 162 418 L162 1078 Z M504 1221 L287 1549 L460 1549 L615 1221 L504 1221 Z " />
<glyph glyph-name="ucircumflex" unicode="&#xfb;" horiz-adv-x="1040" d="M162 1078 L323 1078 L323 421 Q323 241 350.5 178 Q378 115 456 115 Q568 115 709 304 L709 1078 L870 1078 L870 0 L709 0 L709 136 Q623 42 558 5 Q493 -32 415 -32 Q252 -32 201 102 Q162 203 162 418 L162 1078 Z M519 1435 L388 1221 L234 1221 L470 1549 L568 1549 L805 1221 L651 1221 L519 1435 Z " />
<glyph glyph-name="udieresis" unicode="&#xfc;" horiz-adv-x="1040" d="M162 1078 L323 1078 L323 421 Q323 241 350.5 178 Q378 115 456 115 Q568 115 709 304 L709 1078 L870 1078 L870 0 L709 0 L709 136 Q623 42 558 5 Q493 -32 415 -32 Q252 -32 201 102 Q162 203 162 418 L162 1078 Z M367 1482 Q410 1482 440.5 1451 Q471 1420 471 1376 Q471 1332 440 1301 Q409 1270 365 1270 Q321 1270 290 1301.5 Q259 1333 259 1377 Q259 1421 290.5 1451.5 Q322 1482 367 1482 Z M676 1482 Q719 1482 749.5 1451 Q780 1420 780 1376 Q780 1332 749 1301 Q718 1270 675 1270 Q631 1270 599.5 1301.5 Q568 1333 568 1377 Q568 1421 599.5 1451.5 Q631 1482 676 1482 Z " />
<glyph glyph-name="dagger" unicode="&#x2020;" horiz-adv-x="972" d="M415 946 L126 946 L126 1084 L415 1084 L415 1516 L561 1516 L561 1084 L845 1084 L845 946 L561 946 L561 -198 L415 -198 L415 946 Z " />
<glyph glyph-name="degree" unicode="&#xb0;" horiz-adv-x="619" d="M315 1536 Q445 1536 524.5 1454 Q604 1372 604 1238 Q604 1113 533 1031 Q453 939 310 939 Q167 939 87 1031 Q16 1113 16 1237 Q16 1375 96.5 1455.5 Q177 1536 315 1536 Z M307 1429 Q226 1429 181 1378 Q136 1327 136 1237 Q136 1145 181.5 1095 Q227 1045 310 1045 Q399 1045 444 1103 Q484 1154 484 1236 Q484 1330 438.5 1379.5 Q393 1429 307 1429 Z " />
<glyph glyph-name="cent" unicode="&#xa2;" horiz-adv-x="1061" d="M513 -25 L513 283 Q380 299 296 371 Q155 492 155 791 Q155 1260 513 1300 L513 1607 L624 1607 L624 1299 Q914 1261 918 959 L767 959 Q754 1121 624 1154 L624 425 Q738 439 842 529 L939 412 Q839 336 775 313 Q706 288 624 282 L624 -25 L513 -25 Z M513 427 L513 1154 Q408 1129 365 1046.5 Q322 964 322 789 Q322 571 398 491 Q447 439 513 427 Z " />
<glyph glyph-name="sterling" unicode="&#xa3;" horiz-adv-x="1061" d="M80 671 L80 801 L245 801 Q202 980 202 1098 Q202 1297 309 1403 Q412 1504 589 1504 Q832 1504 925 1320 Q971 1228 973 1048 L819 1048 Q814 1177 782 1246 Q728 1360 593 1360 Q485 1360 427 1292.5 Q369 1225 369 1100 Q369 1000 408 801 L664 801 L664 671 L432 671 Q452 524 452 454 Q452 330 407 223 Q496 167 552 147 Q608 127 675 127 Q881 127 904 394 L1058 394 Q1018 -24 680 -24 Q589 -24 513 3.5 Q437 31 336 100 Q233 -18 80 -24 L80 134 Q188 167 236.5 248 Q285 329 285 479 Q285 537 269 671 L80 671 Z " />
<glyph glyph-name="section" unicode="&#xa7;" horiz-adv-x="936" d="M248 954 Q212 988 191.5 1047.5 Q171 1107 171 1178 Q171 1331 258 1424 Q332 1504 470 1504 Q669 1504 741 1354 Q777 1281 778 1166 L633 1166 Q627 1256 607 1294 Q567 1365 481 1365 Q413 1365 375.5 1318.5 Q338 1272 338 1188 Q338 1102 375.5 1063.5 Q413 1025 528 994 Q693 950 749 890 Q816 821 816 693 Q816 543 714 455 Q791 370 791 210 Q791 32 696 -65 Q609 -153 446 -153 Q230 -153 147 0 Q107 74 105 216 L248 216 Q255 111 280 70 Q329 -13 440 -13 Q624 -13 624 197 Q624 292 585 342 Q564 369 528 385.5 Q492 402 402 428 Q248 472 189 538 Q128 606 128 723 Q128 881 248 954 Z M354 894 Q314 866 297 832.5 Q280 799 280 748 Q280 676 318 632 Q336 612 361.5 600 Q387 588 466 562 L607 515 Q664 567 664 670 Q664 752 620 793 Q602 811 582.5 819 Q563 827 464 859 L354 894 Z " />
<glyph glyph-name="bullet" unicode="&#x2022;" horiz-adv-x="1060" d="M535 1005 Q657 1005 741 916 Q813 839 813 730 Q813 603 720 523 Q640 454 529 454 Q401 454 318 543 Q245 621 245 732 Q245 854 338 936 Q417 1005 535 1005 Z " />
<glyph glyph-name="paragraph" unicode="&#xb6;" horiz-adv-x="1119" d="M525 1335 L525 -422 L382 -422 L382 662 Q308 670 265 686.5 Q222 703 180 740 Q53 851 53 1068 Q53 1259 155 1371 Q209 1431 271 1453 Q333 1475 447 1475 L856 1475 L856 -422 L713 -422 L713 1335 L525 1335 Z " />
<glyph glyph-name="germandbls" unicode="&#xdf;" horiz-adv-x="1088" d="M170 0 L170 1083 Q170 1329 252 1429 Q351 1547 534 1547 Q715 1547 807 1451 Q894 1359 894 1196 Q894 977 719 898 Q827 863 881 802 Q994 675 994 431 Q994 231 929 116 Q845 -32 634 -32 Q564 -32 487 -14 L505 126 Q565 108 616 108 Q730 108 779.5 186.5 Q829 265 829 445 Q829 672 717 761 Q681 790 641.5 799.5 Q602 809 515 811 L515 944 Q735 960 735 1180 Q735 1412 538 1412 Q427 1412 379 1336.5 Q331 1261 331 1088 L331 0 L170 0 Z " />
<glyph glyph-name="registered" unicode="&#xae;" horiz-adv-x="1305" d="M501 939 L501 1475 L659 1475 Q747 1475 785 1451 Q850 1411 850 1319 Q850 1231 785 1188 Q790 1180 793 1176 Q803 1162 815 1123 L870 939 L763 939 L727 1077 Q714 1125 697.5 1140 Q681 1155 638 1155 L605 1155 L605 939 L501 939 Z M605 1240 L649 1240 Q703 1240 725.5 1257 Q748 1274 748 1314 Q748 1353 726.5 1369 Q705 1385 655 1385 L605 1385 L605 1240 Z M659 1772 Q885 1772 1045 1604 Q1202 1440 1202 1203 Q1202 968 1045 803 Q885 635 652 635 Q419 635 259 803 Q102 968 102 1202 Q102 1444 259 1604 Q424 1772 659 1772 Z M646 1669 Q463 1669 334 1529 Q215 1400 215 1203 Q215 1008 334 878 Q462 738 652 738 Q842 738 970 878 Q1089 1008 1089 1202 Q1089 1403 970 1529 Q838 1669 646 1669 Z " />
<glyph glyph-name="copyright" unicode="&#xa9;" horiz-adv-x="1734" d="M1133 849 L1020 849 Q1012 1008 882 1008 Q786 1008 740 923 Q698 844 698 724 Q698 599 749 526.5 Q800 454 888 454 Q992 454 1082 544 L1151 460 Q1091 396 1031 368.5 Q971 341 890 341 Q736 341 651 456 Q576 556 576 729 Q576 905 658 1016 Q735 1121 884 1121 Q1009 1121 1069 1055.5 Q1129 990 1133 849 Z M877 1519 Q1085 1519 1263 1403 Q1448 1282 1540 1079 Q1611 921 1611 737 Q1611 411 1400 186 Q1184 -45 867 -45 Q550 -45 334 186 Q123 412 123 735 Q123 955 222 1136 Q328 1328 522 1433 Q680 1519 877 1519 Z M860 1391 Q688 1391 542 1292 Q387 1187 315 1011 Q266 890 266 737 Q266 463 430 280 Q606 83 867 83 Q1129 83 1306 280 Q1469 463 1469 735 Q1469 1016 1306 1194 Q1124 1391 860 1391 Z " />
<glyph glyph-name="trademark" unicode="&#x2122;" horiz-adv-x="1284" d="M328 1371 L328 770 L213 770 L213 1371 L30 1371 L30 1475 L507 1475 L507 1371 L328 1371 Z M686 1261 L660 770 L548 770 L594 1475 L725 1475 L862 969 L998 1475 L1128 1475 L1174 770 L1063 770 L1036 1261 L898 770 L825 770 L686 1261 Z " />
<glyph glyph-name="acute" unicode="&#xb4;" horiz-adv-x="1024" d="M405 1221 L560 1549 L733 1549 L516 1221 L405 1221 Z " />
<glyph glyph-name="dieresis" unicode="&#xa8;" horiz-adv-x="1024" d="M359 1482 Q402 1482 432.5 1451 Q463 1420 463 1376 Q463 1332 432 1301 Q401 1270 357 1270 Q313 1270 282 1301.5 Q251 1333 251 1377 Q251 1421 282.5 1451.5 Q314 1482 359 1482 Z M668 1482 Q711 1482 741.5 1451 Q772 1420 772 1376 Q772 1332 741 1301 Q710 1270 667 1270 Q623 1270 591.5 1301.5 Q560 1333 560 1377 Q560 1421 591.5 1451.5 Q623 1482 668 1482 Z " />
<glyph glyph-name="notequal" unicode="&#x2260;" horiz-adv-x="1061" d="M142 520 L142 661 L426 661 L486 811 L142 811 L142 952 L542 952 L642 1201 L773 1154 L691 952 L920 952 L920 811 L636 811 L575 661 L920 661 L920 520 L520 520 L425 285 L294 332 L370 520 L142 520 Z " />
<glyph glyph-name="AE" unicode="&#xc6;" horiz-adv-x="1663" d="M809 483 L355 483 L108 0 L-70 0 L707 1475 L1540 1475 L1540 1334 L975 1334 L975 837 L1439 837 L1439 696 L975 696 L975 141 L1554 141 L1554 0 L809 0 L809 483 Z M809 621 L809 1362 L438 621 L809 621 Z " />
<glyph glyph-name="Oslash" unicode="&#xd8;" horiz-adv-x="1189" d="M194 211 Q108 409 108 730 Q108 1072 195 1265 Q303 1504 597 1504 Q799 1504 919 1380 L1001 1511 L1158 1511 L1000 1256 Q1083 1054 1083 747 Q1083 404 996 210 Q940 84 821 21 Q726 -29 596 -29 Q397 -29 276 89 L189 -51 L32 -51 L194 211 Z M311 399 L825 1227 Q747 1357 596 1357 Q418 1357 348 1189 Q279 1025 279 735 Q279 527 311 399 Z M882 1066 L370 241 Q444 118 596 118 Q773 118 843 286 Q912 451 912 743 Q912 933 882 1066 Z " />
<glyph glyph-name="infinity" unicode="&#x221e;" horiz-adv-x="1332" d="M666 620 Q613 528 580 494 Q495 406 380 406 Q256 406 186 496 Q118 584 118 719 Q118 857 186 941 Q259 1031 383 1031 Q503 1031 591 931 Q614 905 666 816 Q676 834 681 842 Q732 930 780 969 Q856 1031 950 1031 Q1073 1031 1147 941 Q1215 858 1215 719 Q1215 582 1147 496 Q1076 406 952 406 Q829 406 739 507 Q717 532 666 620 Z M605 718 L594 737 Q534 839 491 878 Q448 917 395 917 Q329 917 286.5 861.5 Q244 806 244 719 Q244 631 286 575 Q327 520 395 520 Q462 520 521 588 Q546 617 593 699 L605 718 Z M727 718 L739 699 Q790 615 814 587 Q870 520 937 520 Q1004 520 1046.5 575.5 Q1089 631 1089 719 Q1089 806 1047 862 Q1005 917 937 917 Q883 917 842 880 Q801 843 738 737 L727 718 Z " />
<glyph glyph-name="plusminus" unicode="&#xb1;" horiz-adv-x="1061" d="M141 665 L141 806 L458 806 L458 1152 L603 1152 L603 806 L919 806 L919 665 L603 665 L603 321 L458 321 L458 665 L141 665 Z M150 0 L150 141 L910 141 L910 0 L150 0 Z " />
<glyph glyph-name="lessequal" unicode="&#x2264;" horiz-adv-x="1061" d="M337 759 L884 436 L884 279 L174 708 L174 810 L884 1239 L884 1081 L337 759 Z M178 0 L178 141 L884 141 L884 0 L178 0 Z " />
<glyph glyph-name="greaterequal" unicode="&#x2265;" horiz-adv-x="1061" d="M724 759 L177 1081 L177 1239 L887 810 L887 708 L177 279 L177 436 L724 759 Z M177 0 L177 141 L885 141 L885 0 L177 0 Z " />
<glyph glyph-name="yen" unicode="&#xa5;" horiz-adv-x="1061" d="M448 0 L448 347 L162 347 L162 464 L448 464 L448 615 L162 615 L162 732 L395 732 L34 1475 L215 1475 L531 778 L845 1475 L1026 1475 L667 732 L899 732 L899 615 L614 615 L614 464 L899 464 L899 347 L614 347 L614 0 L448 0 Z " />
<glyph glyph-name="mu" unicode="&#xb5;" horiz-adv-x="1061" d="M184 1077 L348 1077 L348 424 Q348 289 362 227 Q384 130 473 130 Q531 130 580 173 Q629 216 712 339 L712 1077 L876 1077 L876 0 L712 0 L712 171 Q701 158 696 151 Q622 56 568 19.5 Q514 -17 449 -17 Q391 -17 348 23 L348 -439 L184 -439 L184 1077 Z " />
<glyph glyph-name="partialdiff" unicode="&#x2202;" horiz-adv-x="1061" d="M630 1047 Q576 1149 524 1216 Q472 1283 314 1454 L406 1537 Q444 1499 538 1408 Q728 1222 827.5 993 Q927 764 927 515 Q927 -31 530 -31 Q133 -31 133 518 Q133 772 219 914 Q312 1067 510 1067 Q574 1067 630 1047 Z M527 924 Q407 924 353.5 828 Q300 732 300 518 Q300 282 362 194 Q420 112 530 112 Q652 112 706 207 Q760 302 760 519 Q760 754 698 843 Q640 924 527 924 Z " />
<glyph glyph-name="summation" unicode="&#x2211;" horiz-adv-x="1045" d="M965 1573 L965 1435 L283 1435 L678 643 L246 -218 L981 -218 L981 -356 L60 -356 L60 -224 L491 643 L92 1447 L92 1573 L965 1573 Z " />
<glyph glyph-name="product" unicode="&#x220f;" horiz-adv-x="1242" d="M889 1435 L352 1435 L352 -356 L188 -356 L188 1573 L1053 1573 L1053 -356 L889 -356 L889 1435 Z " />
<glyph glyph-name="integral" unicode="&#x222b;" horiz-adv-x="637" d="M41 -343 L70 -205 Q106 -220 136 -220 Q207 -220 228 -147 Q239 -109 239 35 L239 1155 Q239 1361 263 1435 Q285 1502 340.5 1540.5 Q396 1579 471 1579 Q530 1579 595 1560 L565 1422 Q529 1439 496 1439 Q428 1439 407 1365 Q396 1326 396 1212 L396 64 Q396 -83 389 -142 Q382 -201 360 -248 Q307 -360 150 -360 Q89 -360 41 -343 Z " />
<glyph glyph-name="ordfeminine" unicode="&#xaa;" horiz-adv-x="656" d="M418 858 L418 927 Q370 876 333.5 858.5 Q297 841 238 841 Q145 841 96 891.5 Q47 942 47 1037 Q47 1147 99.5 1192 Q152 1237 279 1237 Q307 1237 397 1233 L397 1270 Q397 1333 370 1360.5 Q343 1388 280 1388 Q215 1388 127 1351 L88 1463 Q191 1506 289 1506 Q446 1506 497 1423 Q530 1370 530 1253 L530 858 L418 858 Z M397 1128 Q338 1132 293 1132 Q230 1132 210 1113 Q185 1089 185 1038 Q185 950 268 950 Q328 950 362.5 984.5 Q397 1019 397 1080 L397 1128 Z " />
<glyph glyph-name="ordmasculine" unicode="&#xba;" horiz-adv-x="665" d="M337 1506 Q478 1506 558 1418 Q637 1331 637 1174 Q637 1019 558 931 Q479 843 333 843 Q187 843 108 931 Q29 1019 29 1174 Q29 1332 108 1418 Q189 1506 337 1506 Z M330 1387 Q240 1387 202 1323 Q166 1263 166 1175 Q166 962 337 962 Q426 962 464 1026 Q500 1086 500 1174 Q500 1387 330 1387 Z " />
<glyph glyph-name="Omega" unicode="&#x2126;" horiz-adv-x="1301" d="M94 0 L94 130 L327 130 Q216 197 151 364 Q86 531 86 749 Q86 1067 205 1270 Q280 1398 414 1459 Q518 1505 647 1505 Q844 1505 978 1399 Q1115 1291 1172 1071 Q1210 929 1210 751 Q1210 481 1107 287 Q1052 184 968 130 L1202 130 L1202 0 L719 0 L719 159 Q792 174 838 202.5 Q884 231 924 286 Q1039 440 1039 755 Q1039 1028 941 1193 Q843 1358 647 1358 Q453 1358 355 1193 Q257 1028 257 757 Q257 409 392 258 Q429 216 468.5 194.5 Q508 173 575 159 L575 0 L94 0 Z " />
<glyph glyph-name="ae" unicode="&#xe6;" horiz-adv-x="1541" d="M666 642 L666 710 Q666 845 635 902 Q597 975 473 975 Q395 975 358.5 936.5 Q322 898 306 799 L157 799 Q171 928 218 1000 Q289 1110 475 1110 Q595 1110 660 1074 Q725 1038 766 950 Q857 1110 1060 1110 Q1191 1110 1284 1038 Q1385 960 1425 778 Q1447 678 1447 562 Q1447 535 1445 498 L830 498 Q832 367 854 289 Q906 108 1082 108 Q1215 108 1336 233 L1427 113 Q1371 61 1337 39 Q1228 -32 1079 -32 Q849 -32 746 174 Q613 -32 392 -32 Q246 -32 168 51 Q86 138 86 301 Q86 515 199 601 Q269 653 446 653 Q504 653 666 642 Z M668 511 Q585 523 450 523 Q339 523 300 481 Q252 428 252 307 Q252 106 415 106 Q497 106 550 136 Q603 166 636 231 Q668 294 668 400 L668 511 Z M1283 626 Q1276 762 1252 825 Q1197 972 1057 972 Q908 972 857 807 Q838 746 831 626 L1283 626 Z " />
<glyph glyph-name="oslash" unicode="&#xf8;" horiz-adv-x="985" d="M178 138 Q96 287 96 535 Q96 1110 491 1110 Q637 1110 733 1031 L785 1115 L921 1115 L810 936 Q890 797 890 540 Q890 -32 495 -32 Q351 -32 256 44 L202 -43 L65 -43 L178 138 Z M281 305 L650 898 Q592 970 493 970 Q371 970 316.5 869 Q262 768 262 540 Q262 390 281 305 Z M706 768 L338 177 Q393 108 494 108 Q613 108 670 209 Q725 306 725 541 Q725 673 706 768 Z " />
<glyph glyph-name="questiondown" unicode="&#xbf;" horiz-adv-x="903" d="M527 951 L527 884 Q527 745 491 670 Q468 623 448 602 Q428 581 336 507 Q267 453 237 385.5 Q207 318 207 221 Q207 105 258 38 Q310 -30 410 -30 Q530 -30 585 81 Q616 142 630 276 L780 276 Q766 87 708 -13 Q611 -177 401 -177 Q233 -177 138 -73 Q40 35 40 224 Q40 413 121 520 Q151 560 282 659 Q340 704 359 745.5 Q378 787 378 870 L378 951 L527 951 Z M458 1389 Q508 1389 543.5 1353 Q579 1317 579 1268 Q579 1217 543 1181.5 Q507 1146 455 1146 Q404 1146 368 1181.5 Q332 1217 332 1268 Q332 1319 368.5 1354 Q405 1389 458 1389 Z " />
<glyph glyph-name="exclamdown" unicode="&#xa1;" horiz-adv-x="653" d="M399 951 L420 -144 L233 -144 L254 951 L399 951 Z M329 1389 Q378 1389 414 1353 Q450 1317 450 1268 Q450 1217 414 1181.5 Q378 1146 326 1146 Q275 1146 239 1181.5 Q203 1217 203 1268 Q203 1319 239.5 1354 Q276 1389 329 1389 Z " />
<glyph glyph-name="logicalnot" unicode="&#xac;" horiz-adv-x="1061" d="M124 667 L124 808 L879 808 L879 285 L736 285 L736 667 L124 667 Z " />
<glyph glyph-name="radical" unicode="&#x221a;" horiz-adv-x="1061" d="M423 0 L253 613 L132 613 L132 746 L375 746 L507 229 L858 1758 L1296 1758 L1296 1624 L980 1624 L597 0 L423 0 Z " />
<glyph glyph-name="florin" unicode="&#x192;" horiz-adv-x="1061" d="M274 733 L274 868 L458 868 L500 1175 Q523 1345 571 1416 Q632 1506 749 1506 Q838 1506 914 1460 L880 1332 Q807 1366 770 1366 Q720 1366 695.5 1324 Q671 1282 656 1168 L614 868 L766 868 L766 733 L593 733 L509 82 Q485 -100 447 -189 Q386 -333 238 -333 Q171 -333 82 -292 L114 -158 Q173 -190 214 -190 Q277 -190 307.5 -126.5 Q338 -63 360 115 L437 733 L274 733 Z " />
<glyph glyph-name="approxequal" unicode="&#x2248;" horiz-adv-x="1061" d="M263 777 L168 866 Q295 1041 415 1041 Q493 1041 584 981 Q656 933 677.5 923 Q699 913 729 913 Q794 913 884 1030 L978 945 Q851 766 731 766 Q663 766 563 831 Q465 894 419 894 Q379 894 348.5 871 Q318 848 263 777 Z M263 447 L168 536 Q295 710 417 710 Q494 710 584 650 Q655 603 677 593 Q699 583 729 583 Q795 583 884 700 L978 615 Q851 436 731 436 Q662 436 563 500 Q465 563 419 563 Q379 563 348 539.5 Q317 516 263 447 Z " />
<glyph glyph-name="increment" unicode="&#x2206;" horiz-adv-x="1061" d="M1075 0 L-15 0 L461 1475 L600 1475 L1075 0 Z M857 141 L530 1254 L204 141 L857 141 Z " />
<glyph glyph-name="guillemotleft" unicode="&#xab;" horiz-adv-x="756" d="M539 575 L747 207 L605 207 L386 575 L605 942 L747 942 L539 575 Z M222 575 L430 207 L289 207 L69 575 L289 942 L430 942 L222 575 Z " />
<glyph glyph-name="guillemotright" unicode="&#xbb;" horiz-adv-x="756" d="M217 575 L9 942 L150 942 L370 575 L150 207 L9 207 L217 575 Z M534 575 L326 942 L467 942 L687 575 L467 207 L326 207 L534 575 Z " />
<glyph glyph-name="ellipsis" unicode="&#x2026;" horiz-adv-x="1836" d="M304 214 Q353 214 389 178 Q425 142 425 93 Q425 42 389 6.5 Q353 -29 302 -29 Q250 -29 214 6.5 Q178 42 178 94 Q178 144 214.5 179 Q251 214 304 214 Z M921 214 Q970 214 1006 178 Q1042 142 1042 93 Q1042 42 1006 6.5 Q970 -29 919 -29 Q867 -29 831 6.5 Q795 42 795 94 Q795 144 831.5 179 Q868 214 921 214 Z M1537 214 Q1586 214 1622 178 Q1658 142 1658 93 Q1658 42 1622 6.5 Q1586 -29 1535 -29 Q1483 -29 1447 6.5 Q1411 42 1411 94 Q1411 144 1447.5 179 Q1484 214 1537 214 Z " />
<glyph glyph-name="Agrave" unicode="&#xc0;" horiz-adv-x="1122" d="M812 418 L312 418 L187 0 L17 0 L493 1475 L632 1475 L1108 0 L938 0 L812 418 Z M771 559 L562 1254 L354 559 L771 559 Z M521 1594 L304 1921 L477 1921 L632 1594 L521 1594 Z " />
<glyph glyph-name="Atilde" unicode="&#xc3;" horiz-adv-x="1122" d="M812 418 L312 418 L187 0 L17 0 L493 1475 L632 1475 L1108 0 L938 0 L812 418 Z M771 559 L562 1254 L354 559 L771 559 Z M409 1649 L313 1649 Q343 1848 470 1848 Q517 1848 577 1803 Q630 1763 652 1763 Q694 1763 713 1847 L809 1847 Q792 1753 765 1710 Q721 1643 644 1643 Q594 1643 514 1704 Q483 1728 464 1728 Q428 1728 409 1649 Z " />
<glyph glyph-name="Otilde" unicode="&#xd5;" horiz-adv-x="1184" d="M601 1504 Q785 1504 903 1392 Q1080 1225 1080 737 Q1080 404 993 210 Q936 82 818 21 Q720 -29 593 -29 Q398 -29 282 82 Q105 250 105 733 Q105 1077 192 1265 Q302 1504 601 1504 Z M587 1357 Q415 1357 344 1189 Q276 1026 276 737 Q276 450 344 286 Q415 118 593 118 Q771 118 841 286 Q909 451 909 732 Q909 1030 841 1189 Q803 1276 741.5 1316.5 Q680 1357 587 1357 Z M440 1649 L344 1649 Q374 1848 501 1848 Q548 1848 608 1803 Q661 1763 683 1763 Q725 1763 744 1847 L840 1847 Q823 1753 796 1710 Q752 1643 675 1643 Q625 1643 545 1704 Q514 1728 495 1728 Q459 1728 440 1649 Z " />
<glyph glyph-name="OE" unicode="&#x152;" horiz-adv-x="1696" d="M1008 141 L1587 141 L1587 0 L1005 0 Q948 0 848 -7 Q712 -17 660 -17 Q369 -17 237 180 Q105 377 105 738 Q105 1130 258 1324 Q391 1492 659 1492 Q715 1492 848 1482 Q949 1475 1009 1475 L1573 1475 L1573 1334 L1008 1334 L1008 837 L1472 837 L1472 696 L1008 696 L1008 141 Z M842 141 L842 1334 Q735 1349 662 1349 Q276 1349 276 733 Q276 126 664 126 Q730 126 842 141 Z " />
<glyph glyph-name="oe" unicode="&#x153;" horiz-adv-x="1594" d="M804 169 Q701 -32 487 -32 Q94 -32 94 540 Q94 806 181 950 Q228 1026 307.5 1068 Q387 1110 487 1110 Q705 1110 803 913 Q848 1008 928 1059 Q1008 1110 1113 1110 Q1243 1110 1336 1038 Q1435 961 1475 785 Q1499 682 1499 567 Q1499 537 1496 498 L881 498 Q885 360 907 285 Q934 195 986 153 Q1041 108 1133 108 Q1268 108 1387 233 L1478 113 Q1423 61 1389 39 Q1279 -32 1132 -32 Q909 -32 804 169 Z M487 970 Q356 970 304 849 Q260 745 260 538 Q260 342 300 238 Q351 108 491 108 Q613 108 667.5 209 Q722 310 722 535 Q722 754 673 858 Q620 970 487 970 Z M1335 626 Q1329 758 1304 825 Q1249 972 1109 972 Q959 972 908 807 Q889 746 882 626 L1335 626 Z " />
<glyph glyph-name="endash" unicode="&#x2013;" horiz-adv-x="737" d="M43 544 L43 685 L694 685 L694 544 L43 544 Z " />
<glyph glyph-name="emdash" unicode="&#x2014;" horiz-adv-x="1061" d="M-53 544 L-53 685 L1116 685 L1116 544 L-53 544 Z " />
<glyph glyph-name="quotedblleft" unicode="&#x201c;" horiz-adv-x="791" d="M90 1036 L257 1475 L386 1475 L281 1036 L90 1036 Z M403 1036 L570 1475 L699 1475 L593 1036 L403 1036 Z " />
<glyph glyph-name="quotedblright" unicode="&#x201d;" horiz-adv-x="789" d="M100 1036 L206 1475 L396 1475 L230 1036 L100 1036 Z M413 1036 L518 1475 L709 1475 L543 1036 L413 1036 Z " />
<glyph glyph-name="quoteleft" unicode="&#x2018;" horiz-adv-x="476" d="M88 1036 L255 1475 L384 1475 L279 1036 L88 1036 Z " />
<glyph glyph-name="quoteright" unicode="&#x2019;" horiz-adv-x="476" d="M100 1036 L206 1475 L396 1475 L230 1036 L100 1036 Z " />
<glyph glyph-name="divide" unicode="&#xf7;" horiz-adv-x="1061" d="M141 665 L141 806 L919 806 L919 665 L141 665 Z M534 1173 Q580 1173 613 1140 Q646 1107 646 1061 Q646 1014 613 981.5 Q580 949 532 949 Q484 949 451 981.5 Q418 1014 418 1062 Q418 1109 451.5 1141 Q485 1173 534 1173 Z M534 523 Q580 523 613 490 Q646 457 646 411 Q646 365 613 332 Q580 299 532 299 Q484 299 451 331.5 Q418 364 418 412 Q418 459 451.5 491 Q485 523 534 523 Z " />
<glyph glyph-name="lozenge" unicode="&#x25ca;" horiz-adv-x="989" d="M5 704 L494 1466 L984 704 L494 -58 L5 704 Z M166 704 L494 190 L823 704 L494 1218 L166 704 Z " />
<glyph glyph-name="ydieresis" unicode="&#xff;" horiz-adv-x="823" d="M338 22 L18 1078 L188 1078 L411 239 L635 1078 L805 1078 L469 -80 Q404 -305 326 -379 Q292 -412 244.5 -425 Q197 -438 106 -439 L106 -299 Q184 -299 217 -271 Q266 -228 299 -115 L338 22 Z M259 1482 Q302 1482 332.5 1451 Q363 1420 363 1376 Q363 1332 332 1301 Q301 1270 257 1270 Q213 1270 182 1301.5 Q151 1333 151 1377 Q151 1421 182.5 1451.5 Q214 1482 259 1482 Z M568 1482 Q611 1482 641.5 1451 Q672 1420 672 1376 Q672 1332 641 1301 Q610 1270 567 1270 Q523 1270 491.5 1301.5 Q460 1333 460 1377 Q460 1421 491.5 1451.5 Q523 1482 568 1482 Z " />
<glyph glyph-name="Ydieresis" unicode="&#x178;" horiz-adv-x="930" d="M383 0 L383 578 L-31 1475 L150 1475 L466 746 L781 1475 L962 1475 L549 578 L549 0 L383 0 Z M293 1849 Q336 1849 366.5 1818 Q397 1787 397 1743 Q397 1699 366 1668 Q335 1637 291 1637 Q247 1637 216 1668.5 Q185 1700 185 1744 Q185 1788 216.5 1818.5 Q248 1849 293 1849 Z M641 1849 Q684 1849 714.5 1818 Q745 1787 745 1743 Q745 1699 714 1668 Q683 1637 640 1637 Q595 1637 564 1668.5 Q533 1700 533 1744 Q533 1788 564.5 1818.5 Q596 1849 641 1849 Z " />
<glyph glyph-name="fraction" unicode="&#x2044;" horiz-adv-x="179" d="M-282 0 L325 1475 L461 1475 L-146 0 L-282 0 Z " />
<glyph glyph-name="Euro" unicode="&#x20ac;" horiz-adv-x="1061" d="M-4 514 L35 631 L168 631 Q165 682 165 746 Q165 768 167 785 L-4 785 L35 902 L172 902 Q182 1057 223 1188 Q320 1498 632 1498 Q1011 1498 1021 1059 L859 1059 Q849 1351 632 1351 Q460 1351 391 1155 Q360 1068 342 902 L873 902 L834 785 L337 785 Q336 755 336 728 Q336 685 339 631 L788 631 L749 514 L347 514 Q370 302 434.5 210 Q499 118 626 118 Q756 118 843 190 Q879 221 938 309 L1059 217 Q985 97 903 45 Q787 -29 627 -29 Q443 -29 335 76 Q277 131 244.5 204 Q212 277 191 395 Q181 453 175 514 L-4 514 Z " />
<glyph glyph-name="guilsinglleft" unicode="&#x2039;" horiz-adv-x="439" d="M222 575 L430 207 L289 207 L69 575 L289 942 L430 942 L222 575 Z " />
<glyph glyph-name="guilsinglright" unicode="&#x203a;" horiz-adv-x="439" d="M217 575 L9 942 L150 942 L370 575 L150 207 L9 207 L217 575 Z " />
<glyph glyph-name="fi" unicode="&#xfb01;" horiz-adv-x="1086" d="M201 0 L201 938 L76 938 L76 1078 L201 1078 L201 1168 Q201 1343 252 1428 Q313 1531 475 1531 Q538 1531 619 1516 L607 1381 Q540 1393 507 1393 Q409 1393 381 1326 Q362 1279 362 1164 L362 1078 L584 1078 L584 938 L362 938 L362 0 L201 0 Z M756 0 L756 1078 L917 1078 L917 0 L756 0 Z M839 1489 Q884 1489 916.5 1456 Q949 1423 949 1377 Q949 1330 916.5 1297 Q884 1264 837 1264 Q790 1264 757 1297 Q724 1330 724 1377 Q724 1424 757.5 1456.5 Q791 1489 839 1489 Z " />
<glyph glyph-name="fl" unicode="&#xfb02;" horiz-adv-x="1085" d="M201 0 L201 938 L76 938 L76 1078 L201 1078 L201 1168 Q201 1343 252 1428 Q313 1531 475 1531 Q538 1531 619 1516 L607 1381 Q540 1393 507 1393 Q409 1393 381 1326 Q362 1279 362 1164 L362 1078 L584 1078 L584 938 L362 938 L362 0 L201 0 Z M754 0 L754 1516 L915 1516 L915 0 L754 0 Z " />
<glyph glyph-name="daggerdbl" unicode="&#x2021;" horiz-adv-x="972" d="M415 951 L126 951 L126 1089 L415 1089 L415 1516 L561 1516 L561 1087 L845 1087 L845 949 L561 949 L561 378 L845 378 L845 240 L561 240 L561 -184 L415 -184 L415 240 L126 240 L126 378 L415 378 L415 951 Z " />
<glyph glyph-name="periodcentered" unicode="&#xb7;" horiz-adv-x="602" d="M305 737 Q354 737 390 701 Q426 665 426 616 Q426 565 390 529.5 Q354 494 303 494 Q251 494 215 529.5 Q179 565 179 616 Q179 667 215.5 702 Q252 737 305 737 Z " />
<glyph glyph-name="quotesinglbase" unicode="&#x201a;" horiz-adv-x="477" d="M84 -234 L190 205 L380 205 L214 -234 L84 -234 Z " />
<glyph glyph-name="quotedblbase" unicode="&#x201e;" horiz-adv-x="789" d="M87 -228 L193 211 L383 211 L217 -228 L87 -228 Z M400 -228 L505 211 L696 211 L530 -228 L400 -228 Z " />
<glyph glyph-name="perthousand" unicode="&#x2030;" horiz-adv-x="2127" d="M370 1506 Q516 1506 593 1397 Q666 1293 666 1119 Q666 947 593 842 Q517 733 365 733 Q213 733 137 842 Q64 947 64 1118 Q64 1293 137 1397 Q214 1506 370 1506 Z M362 1378 Q289 1378 250 1311 Q211 1244 211 1119 Q211 861 365 861 Q519 861 519 1118 Q519 1378 362 1378 Z M1090 744 Q1237 744 1314 635 Q1387 532 1387 357 Q1387 184 1314 80 Q1237 -29 1085 -29 Q932 -29 856 80 Q783 185 783 356 Q783 531 856 635 Q933 744 1090 744 Z M1082 616 Q930 616 930 357 Q930 99 1085 99 Q1240 99 1240 356 Q1240 616 1082 616 Z M1765 744 Q1912 744 1989 635 Q2062 531 2062 357 Q2062 185 1989 80 Q1913 -29 1760 -29 Q1608 -29 1532 80 Q1459 185 1459 356 Q1459 531 1532 635 Q1609 744 1765 744 Z M1758 616 Q1684 616 1645 549.5 Q1606 483 1606 357 Q1606 99 1761 99 Q1915 99 1915 356 Q1915 616 1758 616 Z M303 0 L998 1475 L1144 1475 L450 0 L303 0 Z " />
<glyph glyph-name="Acircumflex" unicode="&#xc2;" horiz-adv-x="1122" d="M812 418 L312 418 L187 0 L17 0 L493 1475 L632 1475 L1108 0 L938 0 L812 418 Z M771 559 L562 1254 L354 559 L771 559 Z M561 1808 L430 1594 L276 1594 L512 1921 L610 1921 L847 1594 L693 1594 L561 1808 Z " />
<glyph glyph-name="Ecircumflex" unicode="&#xca;" horiz-adv-x="1031" d="M179 0 L179 1475 L942 1475 L942 1334 L345 1334 L345 837 L838 837 L838 696 L345 696 L345 141 L955 141 L955 0 L179 0 Z M562 1808 L431 1594 L277 1594 L513 1921 L611 1921 L848 1594 L694 1594 L562 1808 Z " />
<glyph glyph-name="Aacute" unicode="&#xc1;" horiz-adv-x="1122" d="M812 418 L312 418 L187 0 L17 0 L493 1475 L632 1475 L1108 0 L938 0 L812 418 Z M771 559 L562 1254 L354 559 L771 559 Z M484 1594 L639 1921 L812 1921 L595 1594 L484 1594 Z " />
<glyph glyph-name="Edieresis" unicode="&#xcb;" horiz-adv-x="1031" d="M179 0 L179 1475 L942 1475 L942 1334 L345 1334 L345 837 L838 837 L838 696 L345 696 L345 141 L955 141 L955 0 L179 0 Z M385 1849 Q428 1849 458.5 1818 Q489 1787 489 1743 Q489 1699 458 1668 Q427 1637 383 1637 Q339 1637 308 1668.5 Q277 1700 277 1744 Q277 1788 308.5 1818.5 Q340 1849 385 1849 Z M733 1849 Q776 1849 806.5 1818 Q837 1787 837 1743 Q837 1699 806 1668 Q775 1637 732 1637 Q687 1637 656 1668.5 Q625 1700 625 1744 Q625 1788 656.5 1818.5 Q688 1849 733 1849 Z " />
<glyph glyph-name="Egrave" unicode="&#xc8;" horiz-adv-x="1031" d="M179 0 L179 1475 L942 1475 L942 1334 L345 1334 L345 837 L838 837 L838 696 L345 696 L345 141 L955 141 L955 0 L179 0 Z M580 1594 L363 1921 L536 1921 L691 1594 L580 1594 Z " />
<glyph glyph-name="Iacute" unicode="&#xcd;" horiz-adv-x="525" d="M172 0 L172 1475 L338 1475 L338 0 L172 0 Z M177 1594 L332 1921 L505 1921 L288 1594 L177 1594 Z " />
<glyph glyph-name="Icircumflex" unicode="&#xce;" horiz-adv-x="524" d="M179 0 L179 1475 L345 1475 L345 0 L179 0 Z M262 1808 L131 1594 L-23 1594 L213 1921 L311 1921 L548 1594 L394 1594 L262 1808 Z " />
<glyph glyph-name="Idieresis" unicode="&#xcf;" horiz-adv-x="524" d="M179 0 L179 1475 L345 1475 L345 0 L179 0 Z M90 1849 Q133 1849 163.5 1818 Q194 1787 194 1743 Q194 1699 163 1668 Q132 1637 88 1637 Q44 1637 13 1668.5 Q-18 1700 -18 1744 Q-18 1788 13.5 1818.5 Q45 1849 90 1849 Z M438 1849 Q481 1849 511.5 1818 Q542 1787 542 1743 Q542 1699 511 1668 Q480 1637 437 1637 Q392 1637 361 1668.5 Q330 1700 330 1744 Q330 1788 361.5 1818.5 Q393 1849 438 1849 Z " />
<glyph glyph-name="Igrave" unicode="&#xcc;" horiz-adv-x="525" d="M180 0 L180 1475 L346 1475 L346 0 L180 0 Z M233 1594 L16 1921 L189 1921 L344 1594 L233 1594 Z " />
<glyph glyph-name="Oacute" unicode="&#xd3;" horiz-adv-x="1184" d="M601 1504 Q785 1504 903 1392 Q1080 1225 1080 737 Q1080 404 993 210 Q936 82 818 21 Q720 -29 593 -29 Q398 -29 282 82 Q105 250 105 733 Q105 1077 192 1265 Q302 1504 601 1504 Z M587 1357 Q415 1357 344 1189 Q276 1026 276 737 Q276 450 344 286 Q415 118 593 118 Q771 118 841 286 Q909 451 909 732 Q909 1030 841 1189 Q803 1276 741.5 1316.5 Q680 1357 587 1357 Z M485 1594 L640 1921 L813 1921 L596 1594 L485 1594 Z " />
<glyph glyph-name="Ocircumflex" unicode="&#xd4;" horiz-adv-x="1184" d="M601 1504 Q785 1504 903 1392 Q1080 1225 1080 737 Q1080 404 993 210 Q936 82 818 21 Q720 -29 593 -29 Q398 -29 282 82 Q105 250 105 733 Q105 1077 192 1265 Q302 1504 601 1504 Z M587 1357 Q415 1357 344 1189 Q276 1026 276 737 Q276 450 344 286 Q415 118 593 118 Q771 118 841 286 Q909 451 909 732 Q909 1030 841 1189 Q803 1276 741.5 1316.5 Q680 1357 587 1357 Z M592 1808 L461 1594 L307 1594 L543 1921 L641 1921 L878 1594 L724 1594 L592 1808 Z " />
<glyph glyph-name="Ograve" unicode="&#xd2;" horiz-adv-x="1184" d="M601 1504 Q785 1504 903 1392 Q1080 1225 1080 737 Q1080 404 993 210 Q936 82 818 21 Q720 -29 593 -29 Q398 -29 282 82 Q105 250 105 733 Q105 1077 192 1265 Q302 1504 601 1504 Z M587 1357 Q415 1357 344 1189 Q276 1026 276 737 Q276 450 344 286 Q415 118 593 118 Q771 118 841 286 Q909 451 909 732 Q909 1030 841 1189 Q803 1276 741.5 1316.5 Q680 1357 587 1357 Z M589 1594 L372 1921 L545 1921 L700 1594 L589 1594 Z " />
<glyph glyph-name="Uacute" unicode="&#xda;" horiz-adv-x="1212" d="M170 1475 L336 1475 L336 473 Q336 280 397.5 199 Q459 118 606 118 Q753 118 814.5 199 Q876 280 876 473 L876 1475 L1042 1475 L1042 532 Q1042 364 1028.5 284.5 Q1015 205 976 139 Q875 -29 606 -29 Q336 -29 236 139 Q197 204 183.5 285 Q170 366 170 532 L170 1475 Z M515 1594 L670 1921 L843 1921 L626 1594 L515 1594 Z " />
<glyph glyph-name="Ucircumflex" unicode="&#xdb;" horiz-adv-x="1212" d="M170 1475 L336 1475 L336 473 Q336 280 397.5 199 Q459 118 606 118 Q753 118 814.5 199 Q876 280 876 473 L876 1475 L1042 1475 L1042 532 Q1042 364 1028.5 284.5 Q1015 205 976 139 Q875 -29 606 -29 Q336 -29 236 139 Q197 204 183.5 285 Q170 366 170 532 L170 1475 Z M606 1808 L475 1594 L321 1594 L557 1921 L655 1921 L892 1594 L738 1594 L606 1808 Z " />
<glyph glyph-name="Ugrave" unicode="&#xd9;" horiz-adv-x="1212" d="M170 1475 L336 1475 L336 473 Q336 280 397.5 199 Q459 118 606 118 Q753 118 814.5 199 Q876 280 876 473 L876 1475 L1042 1475 L1042 532 Q1042 364 1028.5 284.5 Q1015 205 976 139 Q875 -29 606 -29 Q336 -29 236 139 Q197 204 183.5 285 Q170 366 170 532 L170 1475 Z M603 1594 L386 1921 L559 1921 L714 1594 L603 1594 Z " />
<glyph glyph-name="dotlessi" unicode="&#x131;" horiz-adv-x="502" d="M171 0 L171 1078 L332 1078 L332 0 L171 0 Z " />
<glyph glyph-name="circumflex" unicode="&#x2c6;" horiz-adv-x="1024" d="M512 1435 L381 1221 L227 1221 L463 1549 L561 1549 L798 1221 L644 1221 L512 1435 Z " />
<glyph glyph-name="tilde" unicode="&#x2dc;" horiz-adv-x="1024" d="M359 1282 L263 1282 Q293 1481 421 1481 Q467 1481 527 1436 Q580 1396 602 1396 Q644 1396 663 1480 L759 1480 Q742 1385 715 1343 Q671 1276 593 1276 Q544 1276 464 1337 Q433 1361 415 1361 Q378 1361 359 1282 Z " />
<glyph glyph-name="overscore" unicode="&#xaf;" horiz-adv-x="1024" d="M295 1311 L295 1447 L727 1447 L727 1311 L295 1311 Z " />
<glyph glyph-name="breve" unicode="&#x2d8;" horiz-adv-x="1024" d="M274 1524 L373 1524 Q378 1447 401 1416 Q435 1370 512 1370 Q583 1370 614 1404.5 Q645 1439 651 1524 L751 1524 Q742 1378 701 1322 Q646 1244 513 1244 Q387 1244 334.5 1305 Q282 1366 274 1524 Z " />
<glyph glyph-name="dotaccent" unicode="&#x2d9;" horiz-adv-x="1024" d="M515 1489 Q560 1489 592.5 1456 Q625 1423 625 1377 Q625 1330 592.5 1297 Q560 1264 513 1264 Q466 1264 433 1297 Q400 1330 400 1377 Q400 1424 433.5 1456.5 Q467 1489 515 1489 Z " />
<glyph glyph-name="ring" unicode="&#x2da;" horiz-adv-x="1024" d="M516 1639 Q615 1639 673.5 1579.5 Q732 1520 732 1419 Q732 1316 673 1257 Q614 1198 512 1198 Q410 1198 351 1257 Q292 1316 292 1418 Q292 1522 351 1580.5 Q410 1639 516 1639 Z M510 1540 Q402 1540 402 1418 Q402 1297 511 1297 Q622 1297 622 1418 Q622 1540 510 1540 Z " />
<glyph glyph-name="cedilla" unicode="&#xb8;" horiz-adv-x="1024" d="M477 0 L597 0 L558 -95 Q623 -101 653 -118 Q727 -161 727 -277 Q727 -371 673.5 -423 Q620 -475 524 -475 Q419 -475 317 -436 L351 -320 Q439 -358 514 -358 Q594 -358 594 -275 Q594 -235 573.5 -217 Q553 -199 506 -199 Q486 -199 445 -203 L428 -113 L477 0 Z " />
<glyph glyph-name="hungarumlaut" unicode="&#x2dd;" horiz-adv-x="1024" d="M356 1221 L464 1549 L618 1549 L449 1221 L356 1221 Z M578 1221 L700 1549 L858 1549 L672 1221 L578 1221 Z " />
<glyph glyph-name="ogonek" unicode="&#x2db;" horiz-adv-x="1024" d="M551 0 L664 0 Q530 -127 530 -243 Q530 -320 595 -320 L680 -320 L680 -436 L592 -436 Q490 -436 445 -398 Q397 -356 397 -274 Q397 -184 468 -89 Q474 -81 551 0 Z " />
<glyph glyph-name="caron" unicode="&#x2c7;" horiz-adv-x="1024" d="M512 1334 L644 1549 L798 1549 L561 1221 L463 1221 L227 1549 L381 1549 L512 1334 Z " />
<glyph glyph-name="nbspace" unicode="&#xa0;" horiz-adv-x="410" d="" />
<glyph glyph-name="currency" unicode="&#xa4;" horiz-adv-x="1061" d="M189 313 L90 396 L237 557 Q185 663 185 806 Q185 957 237 1058 L90 1219 L189 1302 L320 1157 Q413 1222 530 1222 Q651 1222 741 1157 L873 1302 L972 1219 L824 1058 Q876 951 876 809 Q876 660 824 557 L972 396 L873 313 L741 457 Q651 393 530 393 Q413 393 320 457 L189 313 Z M527 1094 Q319 1094 319 807 Q319 521 530 521 Q742 521 742 806 Q742 951 688.5 1022.5 Q635 1094 527 1094 Z " />
<glyph glyph-name="brokenbar" unicode="&#xa6;" horiz-adv-x="671" d="M261 875 L261 1475 L410 1475 L410 875 L261 875 Z M261 0 L261 600 L410 600 L410 0 L261 0 Z " />
<glyph glyph-name="uni00AD" unicode="&#xad;" horiz-adv-x="674" d="M114 544 L114 685 L560 685 L560 544 L114 544 Z " />
<glyph glyph-name="twosuperior" unicode="&#xb2;" horiz-adv-x="661" d="M37 818 Q46 935 91.5 1008 Q137 1081 297 1233 Q374 1306 401.5 1351.5 Q429 1397 429 1451 Q429 1510 399.5 1543 Q370 1576 317 1576 Q249 1576 217.5 1536.5 Q186 1497 175 1396 L39 1396 Q52 1532 94 1595 Q162 1696 320 1696 Q444 1696 508.5 1635 Q573 1574 573 1455 Q573 1357 537 1295 Q501 1233 375 1111 Q298 1037 273 1007.5 Q248 978 227 935 L591 935 L591 818 L37 818 Z " />
<glyph glyph-name="threesuperior" unicode="&#xb3;" horiz-adv-x="662" d="M210 1214 L210 1326 Q317 1326 347 1332 Q423 1348 423 1457 Q423 1575 315 1575 Q257 1575 228 1546.5 Q199 1518 187 1449 L53 1449 Q68 1565 110 1615 Q175 1695 323 1695 Q448 1695 507.5 1638 Q567 1581 567 1461 Q567 1333 488 1277 Q594 1217 594 1063 Q594 803 318 803 Q138 803 74 909 Q41 963 35 1074 L171 1074 Q180 991 213 957 Q246 923 317 923 Q450 923 450 1065 Q450 1181 370 1202 Q336 1211 210 1214 Z " />
<glyph glyph-name="onesuperior" unicode="&#xb9;" horiz-adv-x="483" d="M181 819 L181 1539 L6 1464 L6 1590 L224 1683 L326 1683 L326 819 L181 819 Z " />
<glyph glyph-name="onequarter" unicode="&#xbc;" horiz-adv-x="1478" d="M283 614 L283 1335 L108 1260 L108 1386 L326 1478 L428 1478 L428 614 L283 614 Z M1118 0 L1118 179 L783 179 L783 274 L995 860 L1145 860 L938 297 L1118 297 L1118 618 L1260 618 L1260 297 L1367 297 L1367 179 L1260 179 L1260 0 L1118 0 Z M287 0 L894 1475 L1029 1475 L423 0 L287 0 Z " />
<glyph glyph-name="onehalf" unicode="&#xbd;" horiz-adv-x="1476" d="M281 614 L281 1335 L106 1260 L106 1386 L324 1478 L426 1478 L426 614 L281 614 Z M767 0 Q777 118 821.5 189 Q866 260 1027 414 Q1104 486 1131.5 532 Q1159 578 1159 631 Q1159 690 1129.5 723 Q1100 756 1047 756 Q980 756 948 716 Q916 676 905 576 L769 576 Q782 712 824 775 Q892 876 1050 876 Q1174 876 1238.5 814.5 Q1303 753 1303 634 Q1303 537 1267 474.5 Q1231 412 1105 292 Q1030 221 1003 189.5 Q976 158 957 117 L1321 117 L1321 0 L767 0 Z M257 0 L864 1475 L1000 1475 L393 0 L257 0 Z " />
<glyph glyph-name="threequarters" unicode="&#xbe;" horiz-adv-x="1478" d="M222 1009 L222 1121 Q329 1121 359 1127 Q435 1143 435 1252 Q435 1371 327 1371 Q269 1371 240 1342 Q211 1313 199 1244 L65 1244 Q80 1360 122 1411 Q187 1491 335 1491 Q460 1491 519.5 1434 Q579 1377 579 1257 Q579 1128 500 1072 Q606 1012 606 858 Q606 598 330 598 Q150 598 86 704 Q53 758 47 869 L183 869 Q192 786 225 752 Q258 718 329 718 Q462 718 462 860 Q462 975 382 997 Q348 1006 222 1009 Z M1178 0 L1178 179 L844 179 L844 274 L1055 860 L1205 860 L999 297 L1178 297 L1178 618 L1320 618 L1320 297 L1428 297 L1428 179 L1320 179 L1320 0 L1178 0 Z M384 0 L991 1475 L1127 1475 L520 0 L384 0 Z " />
<glyph glyph-name="Eth" unicode="&#xd0;" horiz-adv-x="1252" d="M186 844 L186 1475 L555 1475 Q839 1475 987 1311 Q1159 1120 1159 737 Q1159 354 987 164 Q909 77 804 38.5 Q699 0 539 0 L186 0 L186 714 L14 714 L14 844 L186 844 Z M352 844 L672 844 L672 714 L352 714 L352 141 L543 141 Q764 141 868 272 Q988 422 988 735 Q988 1054 868 1203 Q812 1272 733.5 1303 Q655 1334 534 1334 L352 1334 L352 844 Z " />
<glyph glyph-name="multiply" unicode="&#xd7;" horiz-adv-x="1061" d="M432 736 L161 995 L260 1093 L530 835 L801 1093 L900 995 L629 736 L900 477 L801 379 L530 637 L260 379 L161 477 L432 736 Z " />
<glyph glyph-name="Yacute" unicode="&#xdd;" horiz-adv-x="930" d="M383 0 L383 578 L-31 1475 L150 1475 L466 746 L781 1475 L962 1475 L549 578 L549 0 L383 0 Z M380 1594 L535 1921 L708 1921 L491 1594 L380 1594 Z " />
<glyph glyph-name="Thorn" unicode="&#xde;" horiz-adv-x="1093" d="M179 0 L179 1475 L345 1475 L345 1195 L514 1195 Q650 1195 729 1178 Q808 1161 866 1119 Q940 1064 980.5 967 Q1021 870 1021 744 Q1021 480 864 373 Q750 296 515 296 L345 296 L345 0 L179 0 Z M345 435 L538 435 Q695 435 765 501 Q850 580 850 747 Q850 907 773 986 Q706 1054 544 1054 L345 1054 L345 435 Z " />
<glyph glyph-name="eth" unicode="&#xf0;" horiz-adv-x="983" d="M591 1088 Q537 1196 458 1301 L283 1168 L220 1246 L394 1380 L381 1396 Q337 1447 275 1516 L367 1599 Q429 1537 502 1460 L672 1590 L736 1512 L569 1384 Q888 1004 888 534 Q888 -32 491 -32 Q94 -32 94 538 Q94 802 180 950 Q224 1026 300 1068 Q376 1110 470 1110 Q532 1110 591 1088 Z M488 970 Q368 970 314 868 Q260 766 260 539 Q260 291 323 195 Q380 108 491 108 Q612 108 669 209 Q723 306 723 540 Q723 787 660 883 Q603 970 488 970 Z " />
<glyph glyph-name="yacute" unicode="&#xfd;" horiz-adv-x="823" d="M338 22 L18 1078 L188 1078 L411 239 L635 1078 L805 1078 L469 -80 Q404 -305 326 -379 Q292 -412 244.5 -425 Q197 -438 106 -439 L106 -299 Q184 -299 217 -271 Q266 -228 299 -115 L338 22 Z M353 1221 L508 1549 L681 1549 L464 1221 L353 1221 Z " />
<glyph glyph-name="thorn" unicode="&#xfe;" horiz-adv-x="1037" d="M170 -439 L170 1516 L331 1516 L331 995 Q418 1110 579 1110 Q702 1110 789 1037 Q942 909 942 539 Q942 274 861 128 Q819 52 744.5 10 Q670 -32 578 -32 Q421 -32 331 84 L331 -439 L170 -439 Z M551 970 Q437 970 384 866.5 Q331 763 331 540 Q331 345 369 242 Q420 108 558 108 Q673 108 724.5 209 Q776 310 776 535 Q776 735 739 836 Q690 970 551 970 Z " />
<glyph glyph-name="Amacron" unicode="&#x100;" horiz-adv-x="1122" d="M812 418 L312 418 L187 0 L17 0 L493 1475 L632 1475 L1108 0 L938 0 L812 418 Z M771 559 L562 1254 L354 559 L771 559 Z M344 1683 L344 1819 L776 1819 L776 1683 L344 1683 Z " />
<glyph glyph-name="amacron" unicode="&#x101;" horiz-adv-x="1000" d="M701 125 Q669 58 609 21 Q523 -32 402 -32 Q253 -32 175 55 Q97 142 97 310 Q97 497 179 576 Q261 655 456 655 Q509 655 687 644 L687 710 Q687 843 655 900 Q615 972 492 972 Q406 972 369 936 Q332 900 315 799 L166 799 Q183 937 226 1000 Q302 1110 493 1110 Q665 1110 751 1036 Q799 995 820 926 Q841 857 841 742 L841 0 L701 0 L701 125 Z M689 511 Q601 523 472 523 Q349 523 304 474 Q261 427 261 312 Q261 102 431 102 Q554 102 622 178 Q689 254 689 400 L689 511 Z M287 1311 L287 1447 L719 1447 L719 1311 L287 1311 Z " />
<glyph glyph-name="Abreve" unicode="&#x102;" horiz-adv-x="1122" d="M812 418 L312 418 L187 0 L17 0 L493 1475 L632 1475 L1108 0 L938 0 L812 418 Z M771 559 L562 1254 L354 559 L771 559 Z M323 1891 L422 1891 Q427 1815 450 1783 Q484 1737 560 1737 Q632 1737 663 1771 Q694 1805 700 1891 L800 1891 Q791 1745 750 1689 Q695 1611 559 1611 Q435 1611 383 1672.5 Q331 1734 323 1891 Z " />
<glyph glyph-name="abreve" unicode="&#x103;" horiz-adv-x="1000" d="M701 125 Q669 58 609 21 Q523 -32 402 -32 Q253 -32 175 55 Q97 142 97 310 Q97 497 179 576 Q261 655 456 655 Q509 655 687 644 L687 710 Q687 843 655 900 Q615 972 492 972 Q406 972 369 936 Q332 900 315 799 L166 799 Q183 937 226 1000 Q302 1110 493 1110 Q665 1110 751 1036 Q799 995 820 926 Q841 857 841 742 L841 0 L701 0 L701 125 Z M689 511 Q601 523 472 523 Q349 523 304 474 Q261 427 261 312 Q261 102 431 102 Q554 102 622 178 Q689 254 689 400 L689 511 Z M264 1524 L363 1524 Q368 1447 391 1416 Q425 1370 502 1370 Q573 1370 604 1404.5 Q635 1439 641 1524 L741 1524 Q732 1378 691 1322 Q636 1244 503 1244 Q377 1244 324.5 1305 Q272 1366 264 1524 Z " />
<glyph glyph-name="Aogonek" unicode="&#x104;" horiz-adv-x="1122" d="M812 418 L312 418 L187 0 L17 0 L493 1475 L632 1475 L1108 0 Q1034 -70 1004 -125 Q974 -180 974 -243 Q974 -320 1038 -320 L1124 -320 L1124 -436 L1036 -436 Q933 -436 889 -398 Q841 -356 841 -274 Q841 -205 876.5 -141.5 Q912 -78 995 0 L938 0 L812 418 Z M771 559 L562 1254 L354 559 L771 559 Z " />
<glyph glyph-name="aogonek" unicode="&#x105;" horiz-adv-x="1016" d="M841 0 Q707 -127 707 -244 Q707 -320 772 -320 L857 -320 L857 -436 L769 -436 Q667 -436 622 -398 Q574 -356 574 -275 Q574 -138 728 0 L701 0 L701 125 Q669 58 609 21 Q523 -32 402 -32 Q253 -32 175 55 Q97 142 97 310 Q97 497 179 576 Q261 655 456 655 Q509 655 687 644 L687 710 Q687 843 655 900 Q615 972 492 972 Q406 972 369 936 Q332 900 315 799 L166 799 Q183 937 226 1000 Q302 1110 493 1110 Q665 1110 751 1036 Q799 995 820 926 Q841 857 841 742 L841 0 Z M689 511 Q601 523 472 523 Q349 523 304 474 Q261 427 261 312 Q261 102 431 102 Q554 102 622 178 Q689 254 689 400 L689 511 Z " />
<glyph glyph-name="Cacute" unicode="&#x106;" horiz-adv-x="1090" d="M846 427 L1008 427 Q1000 -29 591 -29 Q333 -29 216 161 Q105 342 105 734 Q105 1162 237 1340 Q355 1498 588 1498 Q986 1498 996 1048 L834 1048 Q821 1351 588 1351 Q424 1351 351 1198 Q276 1043 276 735 Q276 400 364 246 Q438 118 591 118 Q834 118 846 427 Z M470 1594 L625 1921 L798 1921 L581 1594 L470 1594 Z " />
<glyph glyph-name="cacute" unicode="&#x107;" horiz-adv-x="881" d="M729 229 L823 113 Q767 60 737 39 Q632 -32 488 -32 Q94 -32 94 539 Q94 805 182 952 Q227 1027 304.5 1068.5 Q382 1110 478 1110 Q683 1110 766 947 Q806 868 808 740 L652 740 Q636 970 479 970 Q402 970 348 913 Q301 865 280.5 776 Q260 687 260 536 Q260 291 323 195 Q380 108 489 108 Q615 108 729 229 Z M376 1221 L531 1549 L704 1549 L487 1221 L376 1221 Z " />
<glyph glyph-name="Ccircumflex" unicode="&#x108;" horiz-adv-x="1090" d="M846 427 L1008 427 Q1000 -29 591 -29 Q333 -29 216 161 Q105 342 105 734 Q105 1162 237 1340 Q355 1498 588 1498 Q986 1498 996 1048 L834 1048 Q821 1351 588 1351 Q424 1351 351 1198 Q276 1043 276 735 Q276 400 364 246 Q438 118 591 118 Q834 118 846 427 Z M577 1808 L446 1594 L292 1594 L528 1921 L626 1921 L863 1594 L709 1594 L577 1808 Z " />
<glyph glyph-name="ccircumflex" unicode="&#x109;" horiz-adv-x="881" d="M729 229 L823 113 Q767 60 737 39 Q632 -32 488 -32 Q94 -32 94 539 Q94 805 182 952 Q227 1027 304.5 1068.5 Q382 1110 478 1110 Q683 1110 766 947 Q806 868 808 740 L652 740 Q636 970 479 970 Q402 970 348 913 Q301 865 280.5 776 Q260 687 260 536 Q260 291 323 195 Q380 108 489 108 Q615 108 729 229 Z M476 1435 L345 1221 L191 1221 L427 1549 L525 1549 L762 1221 L608 1221 L476 1435 Z " />
<glyph glyph-name="Cdotaccent" unicode="&#x10a;" horiz-adv-x="1090" d="M846 427 L1008 427 Q1000 -29 591 -29 Q333 -29 216 161 Q105 342 105 734 Q105 1162 237 1340 Q355 1498 588 1498 Q986 1498 996 1048 L834 1048 Q821 1351 588 1351 Q424 1351 351 1198 Q276 1043 276 735 Q276 400 364 246 Q438 118 591 118 Q834 118 846 427 Z M588 1855 Q633 1855 665.5 1822 Q698 1789 698 1743 Q698 1696 665 1663 Q632 1630 586 1630 Q539 1630 506 1663.5 Q473 1697 473 1744 Q473 1790 506.5 1822.5 Q540 1855 588 1855 Z " />
<glyph glyph-name="cdotaccent" unicode="&#x10b;" horiz-adv-x="881" d="M729 229 L823 113 Q767 60 737 39 Q632 -32 488 -32 Q94 -32 94 539 Q94 805 182 952 Q227 1027 304.5 1068.5 Q382 1110 478 1110 Q683 1110 766 947 Q806 868 808 740 L652 740 Q636 970 479 970 Q402 970 348 913 Q301 865 280.5 776 Q260 687 260 536 Q260 291 323 195 Q380 108 489 108 Q615 108 729 229 Z M483 1489 Q528 1489 560.5 1456 Q593 1423 593 1377 Q593 1330 560.5 1297 Q528 1264 481 1264 Q434 1264 401 1297 Q368 1330 368 1377 Q368 1424 401.5 1456.5 Q435 1489 483 1489 Z " />
<glyph glyph-name="Ccaron" unicode="&#x10c;" horiz-adv-x="1090" d="M846 427 L1008 427 Q1000 -29 591 -29 Q333 -29 216 161 Q105 342 105 734 Q105 1162 237 1340 Q355 1498 588 1498 Q986 1498 996 1048 L834 1048 Q821 1351 588 1351 Q424 1351 351 1198 Q276 1043 276 735 Q276 400 364 246 Q438 118 591 118 Q834 118 846 427 Z M588 1707 L720 1921 L874 1921 L637 1594 L539 1594 L303 1921 L457 1921 L588 1707 Z " />
<glyph glyph-name="ccaron" unicode="&#x10d;" horiz-adv-x="881" d="M729 229 L823 113 Q767 60 737 39 Q632 -32 488 -32 Q94 -32 94 539 Q94 805 182 952 Q227 1027 304.5 1068.5 Q382 1110 478 1110 Q683 1110 766 947 Q806 868 808 740 L652 740 Q636 970 479 970 Q402 970 348 913 Q301 865 280.5 776 Q260 687 260 536 Q260 291 323 195 Q380 108 489 108 Q615 108 729 229 Z M489 1334 L621 1549 L775 1549 L538 1221 L440 1221 L204 1549 L358 1549 L489 1334 Z " />
<glyph glyph-name="Dcaron" unicode="&#x10e;" horiz-adv-x="1257" d="M179 0 L179 1475 L548 1475 Q832 1475 980 1311 Q1152 1121 1152 738 Q1152 354 980 164 Q902 77 797 38.5 Q692 0 532 0 L179 0 Z M345 141 L536 141 Q757 141 861 272 Q981 422 981 736 Q981 1054 861 1203 Q805 1272 726 1303 Q647 1334 527 1334 L345 1334 L345 141 Z M561 1707 L693 1921 L847 1921 L610 1594 L512 1594 L276 1921 L430 1921 L561 1707 Z " />
<glyph glyph-name="dcaron" unicode="&#x10f;" horiz-adv-x="1205" d="M725 0 L719 100 Q629 -32 458 -32 Q94 -32 94 539 Q94 1110 458 1110 Q615 1110 705 995 L705 1516 L866 1516 L866 0 L725 0 Z M475 970 Q361 970 310.5 867.5 Q260 765 260 537 Q260 346 297 242 Q345 108 479 108 Q597 108 651 210 Q705 312 705 535 Q705 741 663 842 Q609 970 475 970 Z M987 1110 L1080 1546 L1255 1546 L1108 1110 L987 1110 Z " />
<glyph glyph-name="Dcroat" unicode="&#x110;" horiz-adv-x="1252" d="M186 844 L186 1475 L555 1475 Q839 1475 987 1311 Q1159 1120 1159 737 Q1159 354 987 164 Q909 77 804 38.5 Q699 0 539 0 L186 0 L186 714 L14 714 L14 844 L186 844 Z M352 844 L672 844 L672 714 L352 714 L352 141 L543 141 Q764 141 868 272 Q988 422 988 735 Q988 1054 868 1203 Q812 1272 733.5 1303 Q655 1334 534 1334 L352 1334 L352 844 Z " />
<glyph glyph-name="dcroat" unicode="&#x111;" horiz-adv-x="1042" d="M723 0 L717 100 Q686 57 660 35 Q581 -32 458 -32 Q335 -32 247 41 Q94 168 94 539 Q94 1110 457 1110 Q616 1110 703 995 L703 1245 L462 1245 L462 1357 L703 1357 L703 1541 L866 1541 L866 1357 L1014 1357 L1014 1245 L866 1245 L866 0 L723 0 Z M475 970 Q361 970 310.5 867.5 Q260 765 260 537 Q260 346 297 242 Q345 108 479 108 Q596 108 649.5 209.5 Q703 311 703 535 Q703 743 661 842 Q607 970 475 970 Z " />
<glyph glyph-name="Emacron" unicode="&#x112;" horiz-adv-x="1031" d="M179 0 L179 1475 L942 1475 L942 1334 L345 1334 L345 837 L838 837 L838 696 L345 696 L345 141 L955 141 L955 0 L179 0 Z M342 1683 L342 1819 L774 1819 L774 1683 L342 1683 Z " />
<glyph glyph-name="emacron" unicode="&#x113;" horiz-adv-x="969" d="M872 498 L255 498 Q260 328 299 237 Q355 108 505 108 Q580 108 638.5 136.5 Q697 165 762 233 L854 113 Q798 61 764 39 Q655 -32 505 -32 Q94 -32 94 540 Q94 1110 484 1110 Q619 1110 712 1038 Q789 977 831.5 853 Q874 729 874 562 Q874 534 872 498 Z M712 626 Q705 761 681 825 Q625 972 484 972 Q334 972 283 807 Q265 751 257 626 L712 626 Z M271 1311 L271 1447 L703 1447 L703 1311 L271 1311 Z " />
<glyph glyph-name="Ebreve" unicode="&#x114;" horiz-adv-x="1031" d="M179 0 L179 1475 L942 1475 L942 1334 L345 1334 L345 837 L838 837 L838 696 L345 696 L345 141 L955 141 L955 0 L179 0 Z M320 1891 L419 1891 Q424 1815 447 1783 Q481 1737 557 1737 Q629 1737 660 1771 Q691 1805 697 1891 L797 1891 Q788 1745 747 1689 Q692 1611 556 1611 Q432 1611 380 1672.5 Q328 1734 320 1891 Z " />
<glyph glyph-name="ebreve" unicode="&#x115;" horiz-adv-x="969" d="M872 498 L255 498 Q260 328 299 237 Q355 108 505 108 Q580 108 638.5 136.5 Q697 165 762 233 L854 113 Q798 61 764 39 Q655 -32 505 -32 Q94 -32 94 540 Q94 1110 484 1110 Q619 1110 712 1038 Q789 977 831.5 853 Q874 729 874 562 Q874 534 872 498 Z M712 626 Q705 761 681 825 Q625 972 484 972 Q334 972 283 807 Q265 751 257 626 L712 626 Z M254 1524 L353 1524 Q358 1447 381 1416 Q415 1370 492 1370 Q563 1370 594 1404.5 Q625 1439 631 1524 L731 1524 Q722 1378 681 1322 Q626 1244 493 1244 Q367 1244 314.5 1305 Q262 1366 254 1524 Z " />
<glyph glyph-name="Edotaccent" unicode="&#x116;" horiz-adv-x="1031" d="M179 0 L179 1475 L942 1475 L942 1334 L345 1334 L345 837 L838 837 L838 696 L345 696 L345 141 L955 141 L955 0 L179 0 Z M575 1855 Q620 1855 652.5 1822 Q685 1789 685 1743 Q685 1696 652 1663 Q619 1630 573 1630 Q526 1630 493 1663.5 Q460 1697 460 1744 Q460 1790 493.5 1822.5 Q527 1855 575 1855 Z " />
<glyph glyph-name="edotaccent" unicode="&#x117;" horiz-adv-x="969" d="M872 498 L255 498 Q260 328 299 237 Q355 108 505 108 Q580 108 638.5 136.5 Q697 165 762 233 L854 113 Q798 61 764 39 Q655 -32 505 -32 Q94 -32 94 540 Q94 1110 484 1110 Q619 1110 712 1038 Q789 977 831.5 853 Q874 729 874 562 Q874 534 872 498 Z M712 626 Q705 761 681 825 Q625 972 484 972 Q334 972 283 807 Q265 751 257 626 L712 626 Z M500 1489 Q545 1489 577.5 1456 Q610 1423 610 1377 Q610 1330 577.5 1297 Q545 1264 498 1264 Q451 1264 418 1297 Q385 1330 385 1377 Q385 1424 418.5 1456.5 Q452 1489 500 1489 Z " />
<glyph glyph-name="Eogonek" unicode="&#x118;" horiz-adv-x="1031" d="M955 0 Q882 -69 851 -124.5 Q820 -180 820 -244 Q820 -320 885 -320 L971 -320 L971 -436 L883 -436 Q780 -436 736 -398 Q687 -356 687 -274 Q687 -207 715.5 -153.5 Q744 -100 824 -18 L835 -6 L841 0 L179 0 L179 1475 L942 1475 L942 1334 L345 1334 L345 837 L838 837 L838 696 L345 696 L345 141 L955 141 L955 0 Z " />
<glyph glyph-name="eogonek" unicode="&#x119;" horiz-adv-x="969" d="M872 498 L256 498 Q261 328 300 237 Q355 108 505 108 Q580 108 638.5 136.5 Q697 165 763 233 L854 114 Q725 11 675.5 -63 Q626 -137 626 -225 Q626 -320 697 -320 L776 -320 L776 -436 L688 -436 Q586 -436 541 -392 Q493 -346 493 -256 Q493 -130 586 -25 Q537 -32 497 -32 Q361 -32 265 40 Q94 168 94 540 Q94 1110 484 1110 Q619 1110 712 1038 Q789 977 831.5 853 Q874 729 874 561 Q874 535 872 498 Z M712 626 Q705 761 681 825 Q625 972 485 972 Q334 972 283 807 Q266 751 257 626 L712 626 Z " />
<glyph glyph-name="Ecaron" unicode="&#x11a;" horiz-adv-x="1031" d="M179 0 L179 1475 L942 1475 L942 1334 L345 1334 L345 837 L838 837 L838 696 L345 696 L345 141 L955 141 L955 0 L179 0 Z M568 1707 L700 1921 L854 1921 L617 1594 L519 1594 L283 1921 L437 1921 L568 1707 Z " />
<glyph glyph-name="ecaron" unicode="&#x11b;" horiz-adv-x="969" d="M872 498 L255 498 Q260 328 299 237 Q355 108 505 108 Q580 108 638.5 136.5 Q697 165 762 233 L854 113 Q798 61 764 39 Q655 -32 505 -32 Q94 -32 94 540 Q94 1110 484 1110 Q619 1110 712 1038 Q789 977 831.5 853 Q874 729 874 562 Q874 534 872 498 Z M712 626 Q705 761 681 825 Q625 972 484 972 Q334 972 283 807 Q265 751 257 626 L712 626 Z M502 1334 L634 1549 L788 1549 L551 1221 L453 1221 L217 1549 L371 1549 L502 1334 Z " />
<glyph glyph-name="Gcircumflex" unicode="&#x11c;" horiz-adv-x="1161" d="M623 602 L623 740 L1033 740 L1033 58 Q827 -29 586 -29 Q397 -29 293 54 Q105 203 105 720 Q105 1147 233 1328 Q353 1498 595 1498 Q1001 1498 1011 1048 L848 1048 Q833 1351 597 1351 Q428 1351 353 1197 Q276 1040 276 723 Q276 400 357 250 Q395 180 449 150 Q508 118 597 118 Q734 118 869 178 L869 602 L623 602 Z M598 1808 L467 1594 L313 1594 L549 1921 L647 1921 L884 1594 L730 1594 L598 1808 Z " />
<glyph glyph-name="gcircumflex" unicode="&#x11d;" horiz-adv-x="1038" d="M706 88 Q606 -22 460 -22 Q95 -22 95 544 Q95 806 176 951 Q218 1026 292.5 1068 Q367 1110 459 1110 Q544 1110 603.5 1081 Q663 1052 714 986 L714 1078 L868 1078 L868 155 Q868 -125 809 -260 Q765 -361 676.5 -415 Q588 -469 466 -469 Q358 -469 278.5 -442 Q199 -415 110 -348 L186 -222 Q277 -288 332 -309.5 Q387 -331 460 -331 Q619 -331 670 -190 Q706 -92 706 70 L706 88 Z M474 970 Q362 970 311.5 868.5 Q261 767 261 543 Q261 353 298 251 Q346 118 480 118 Q600 118 652 216 Q704 314 704 540 Q704 658 695.5 724 Q687 790 664 844 Q612 970 474 970 Z M518 1435 L387 1221 L233 1221 L469 1549 L567 1549 L804 1221 L650 1221 L518 1435 Z " />
<glyph glyph-name="Gbreve" unicode="&#x11e;" horiz-adv-x="1161" d="M623 602 L623 740 L1033 740 L1033 58 Q827 -29 586 -29 Q397 -29 293 54 Q105 203 105 720 Q105 1147 233 1328 Q353 1498 595 1498 Q1001 1498 1011 1048 L848 1048 Q833 1351 597 1351 Q428 1351 353 1197 Q276 1040 276 723 Q276 400 357 250 Q395 180 449 150 Q508 118 597 118 Q734 118 869 178 L869 602 L623 602 Z M347 1891 L446 1891 Q451 1815 474 1783 Q508 1737 584 1737 Q656 1737 687 1771 Q718 1805 724 1891 L824 1891 Q815 1745 774 1689 Q719 1611 583 1611 Q459 1611 407 1672.5 Q355 1734 347 1891 Z " />
<glyph glyph-name="gbreve" unicode="&#x11f;" horiz-adv-x="1038" d="M706 88 Q606 -22 460 -22 Q95 -22 95 544 Q95 806 176 951 Q218 1026 292.5 1068 Q367 1110 459 1110 Q544 1110 603.5 1081 Q663 1052 714 986 L714 1078 L868 1078 L868 155 Q868 -125 809 -260 Q765 -361 676.5 -415 Q588 -469 466 -469 Q358 -469 278.5 -442 Q199 -415 110 -348 L186 -222 Q277 -288 332 -309.5 Q387 -331 460 -331 Q619 -331 670 -190 Q706 -92 706 70 L706 88 Z M474 970 Q362 970 311.5 868.5 Q261 767 261 543 Q261 353 298 251 Q346 118 480 118 Q600 118 652 216 Q704 314 704 540 Q704 658 695.5 724 Q687 790 664 844 Q612 970 474 970 Z M274 1524 L373 1524 Q378 1447 401 1416 Q435 1370 512 1370 Q583 1370 614 1404.5 Q645 1439 651 1524 L751 1524 Q742 1378 701 1322 Q646 1244 513 1244 Q387 1244 334.5 1305 Q282 1366 274 1524 Z " />
<glyph glyph-name="Gdotaccent" unicode="&#x120;" horiz-adv-x="1161" d="M623 602 L623 740 L1033 740 L1033 58 Q827 -29 586 -29 Q397 -29 293 54 Q105 203 105 720 Q105 1147 233 1328 Q353 1498 595 1498 Q1001 1498 1011 1048 L848 1048 Q833 1351 597 1351 Q428 1351 353 1197 Q276 1040 276 723 Q276 400 357 250 Q395 180 449 150 Q508 118 597 118 Q734 118 869 178 L869 602 L623 602 Z M592 1855 Q637 1855 669.5 1822 Q702 1789 702 1743 Q702 1696 669 1663 Q636 1630 590 1630 Q543 1630 510 1663.5 Q477 1697 477 1744 Q477 1790 510.5 1822.5 Q544 1855 592 1855 Z " />
<glyph glyph-name="gdotaccent" unicode="&#x121;" horiz-adv-x="1038" d="M706 88 Q606 -22 460 -22 Q95 -22 95 544 Q95 806 176 951 Q218 1026 292.5 1068 Q367 1110 459 1110 Q544 1110 603.5 1081 Q663 1052 714 986 L714 1078 L868 1078 L868 155 Q868 -125 809 -260 Q765 -361 676.5 -415 Q588 -469 466 -469 Q358 -469 278.5 -442 Q199 -415 110 -348 L186 -222 Q277 -288 332 -309.5 Q387 -331 460 -331 Q619 -331 670 -190 Q706 -92 706 70 L706 88 Z M474 970 Q362 970 311.5 868.5 Q261 767 261 543 Q261 353 298 251 Q346 118 480 118 Q600 118 652 216 Q704 314 704 540 Q704 658 695.5 724 Q687 790 664 844 Q612 970 474 970 Z M512 1489 Q557 1489 589.5 1456 Q622 1423 622 1377 Q622 1330 589.5 1297 Q557 1264 510 1264 Q463 1264 430 1297 Q397 1330 397 1377 Q397 1424 430.5 1456.5 Q464 1489 512 1489 Z " />
<glyph glyph-name="Gcommaaccent" unicode="&#x122;" horiz-adv-x="1161" d="M623 602 L623 740 L1033 740 L1033 58 Q827 -29 586 -29 Q397 -29 293 54 Q105 203 105 720 Q105 1147 233 1328 Q353 1498 595 1498 Q1001 1498 1011 1048 L848 1048 Q833 1351 597 1351 Q428 1351 353 1197 Q276 1040 276 723 Q276 400 357 250 Q395 180 449 150 Q508 118 597 118 Q734 118 869 178 L869 602 L623 602 Z M418 -480 L525 -153 L693 -153 L527 -480 L418 -480 Z " />
<glyph glyph-name="gcommaaccent" unicode="&#x123;" horiz-adv-x="1038" d="M706 88 Q606 -22 460 -22 Q95 -22 95 544 Q95 806 176 951 Q218 1026 292.5 1068 Q367 1110 459 1110 Q544 1110 603.5 1081 Q663 1052 714 986 L714 1078 L868 1078 L868 155 Q868 -125 809 -260 Q765 -361 676.5 -415 Q588 -469 466 -469 Q358 -469 278.5 -442 Q199 -415 110 -348 L186 -222 Q277 -288 332 -309.5 Q387 -331 460 -331 Q619 -331 670 -190 Q706 -92 706 70 L706 88 Z M474 970 Q362 970 311.5 868.5 Q261 767 261 543 Q261 353 298 251 Q346 118 480 118 Q600 118 652 216 Q704 314 704 540 Q704 658 695.5 724 Q687 790 664 844 Q612 970 474 970 Z M749 1549 L594 1221 L421 1221 L638 1549 L749 1549 Z " />
<glyph glyph-name="Hcircumflex" unicode="&#x124;" horiz-adv-x="1254" d="M179 0 L179 1475 L345 1475 L345 847 L908 847 L908 1475 L1074 1475 L1074 0 L908 0 L908 706 L345 706 L345 0 L179 0 Z M626 1808 L495 1594 L341 1594 L577 1921 L675 1921 L912 1594 L758 1594 L626 1808 Z " />
<glyph glyph-name="hcircumflex" unicode="&#x125;" horiz-adv-x="1072" d="M170 0 L170 1516 L331 1516 L331 942 Q348 958 399 1008 Q449 1056 513.5 1083 Q578 1110 642 1110 Q814 1110 869 976 Q910 875 910 660 L910 0 L749 0 L749 656 Q749 835 718 899 Q687 963 602 963 Q484 963 331 774 L331 0 L170 0 Z M303 1808 L172 1594 L18 1594 L254 1921 L352 1921 L589 1594 L435 1594 L303 1808 Z " />
<glyph glyph-name="Hbar" unicode="&#x126;" horiz-adv-x="1186" d="M149 0 L149 1043 L15 1043 L15 1147 L149 1147 L149 1475 L315 1475 L315 1147 L871 1147 L871 1475 L1037 1475 L1037 1147 L1171 1147 L1171 1043 L1037 1043 L1037 0 L871 0 L871 706 L315 706 L315 0 L149 0 Z M315 847 L871 847 L871 1043 L315 1043 L315 847 Z " />
<glyph glyph-name="hbar" unicode="&#x127;" horiz-adv-x="1078" d="M175 0 L175 1231 L27 1231 L27 1343 L175 1343 L175 1516 L336 1516 L336 1343 L579 1343 L579 1231 L336 1231 L336 942 Q346 952 352 957 Q440 1043 504 1076.5 Q568 1110 645 1110 Q819 1110 874 976 Q915 876 915 660 L915 0 L754 0 L754 656 Q754 837 723.5 901 Q693 965 607 965 Q545 965 482.5 921 Q420 877 336 774 L336 0 L175 0 Z " />
<glyph glyph-name="Itilde" unicode="&#x128;" horiz-adv-x="525" d="M180 0 L180 1475 L346 1475 L346 0 L180 0 Z M110 1649 L14 1649 Q44 1848 171 1848 Q218 1848 278 1803 Q331 1763 353 1763 Q395 1763 414 1847 L510 1847 Q493 1753 466 1710 Q422 1643 345 1643 Q295 1643 215 1704 Q184 1728 165 1728 Q129 1728 110 1649 Z " />
<glyph glyph-name="itilde" unicode="&#x129;" horiz-adv-x="502" d="M171 0 L171 1078 L332 1078 L332 0 L171 0 Z M98 1282 L2 1282 Q32 1481 160 1481 Q206 1481 266 1436 Q319 1396 341 1396 Q383 1396 402 1480 L498 1480 Q481 1385 454 1343 Q410 1276 332 1276 Q283 1276 203 1337 Q172 1361 154 1361 Q117 1361 98 1282 Z " />
<glyph glyph-name="Imacron" unicode="&#x12a;" horiz-adv-x="525" d="M179 0 L179 1475 L345 1475 L345 0 L179 0 Z M45 1683 L45 1819 L477 1819 L477 1683 L45 1683 Z " />
<glyph glyph-name="imacron" unicode="&#x12b;" horiz-adv-x="502" d="M171 0 L171 1078 L332 1078 L332 0 L171 0 Z M34 1311 L34 1447 L466 1447 L466 1311 L34 1311 Z " />
<glyph glyph-name="Ibreve" unicode="&#x12c;" horiz-adv-x="525" d="M180 0 L180 1475 L346 1475 L346 0 L180 0 Z M24 1891 L123 1891 Q128 1815 151 1783 Q185 1737 261 1737 Q333 1737 364 1771 Q395 1805 401 1891 L501 1891 Q492 1745 451 1689 Q396 1611 260 1611 Q136 1611 84 1672.5 Q32 1734 24 1891 Z " />
<glyph glyph-name="ibreve" unicode="&#x12d;" horiz-adv-x="502" d="M171 0 L171 1078 L332 1078 L332 0 L171 0 Z M13 1524 L112 1524 Q117 1447 140 1416 Q174 1370 251 1370 Q322 1370 353 1404.5 Q384 1439 390 1524 L490 1524 Q481 1378 440 1322 Q385 1244 252 1244 Q126 1244 73.5 1305 Q21 1366 13 1524 Z " />
<glyph glyph-name="Iogonek" unicode="&#x12e;" horiz-adv-x="525" d="M345 1 Q211 -127 211 -243 Q211 -320 276 -320 L361 -320 L361 -436 L273 -436 Q171 -436 127 -398 Q78 -356 78 -274 Q78 -207 106.5 -153.5 Q135 -100 215 -18 Q228 -4 233 1 L180 1 L180 1475 L345 1475 L345 1 Z " />
<glyph glyph-name="iogonek" unicode="&#x12f;" horiz-adv-x="502" d="M172 1 L172 1078 L333 1078 L333 1 Q199 -125 199 -243 Q199 -320 264 -320 L349 -320 L349 -436 L261 -436 Q159 -436 115 -398 Q66 -356 66 -275 Q66 -204 101.5 -140.5 Q137 -77 221 1 L172 1 Z M255 1489 Q300 1489 332.5 1456 Q365 1423 365 1377 Q365 1330 332.5 1297 Q300 1264 253 1264 Q206 1264 173 1297 Q140 1330 140 1377 Q140 1424 173.5 1456.5 Q207 1489 255 1489 Z " />
<glyph glyph-name="Idot" unicode="&#x130;" horiz-adv-x="525" d="M179 0 L179 1475 L345 1475 L345 0 L179 0 Z M265 1855 Q310 1855 342.5 1822 Q375 1789 375 1743 Q375 1696 342 1663 Q309 1630 263 1630 Q216 1630 183 1663.5 Q150 1697 150 1744 Q150 1790 183.5 1822.5 Q217 1855 265 1855 Z " />
<glyph glyph-name="IJ" unicode="&#x132;" horiz-adv-x="1058" d="M179 0 L179 1475 L345 1475 L345 0 L179 0 Z M713 1475 L879 1475 L879 128 Q879 -5 862 -78 Q845 -151 802 -199 Q726 -284 559 -293 L559 -151 Q609 -146 633.5 -133.5 Q658 -121 677 -91 Q698 -58 705.5 -14 Q713 30 713 121 L713 1475 Z " />
<glyph glyph-name="ij" unicode="&#x133;" horiz-adv-x="1013" d="M173 0 L173 1078 L334 1078 L334 0 L173 0 Z M256 1489 Q301 1489 333.5 1456 Q366 1423 366 1377 Q366 1330 333.5 1297 Q301 1264 254 1264 Q207 1264 174 1297 Q141 1330 141 1377 Q141 1424 174.5 1456.5 Q208 1489 256 1489 Z M683 1078 L844 1078 L844 -4 Q845 -270 771 -358 Q695 -452 546 -464 L546 -324 Q590 -317 612.5 -300.5 Q635 -284 652 -247 Q671 -205 677 -158 Q683 -111 683 -4 L683 1078 Z M767 1489 Q812 1489 844.5 1456 Q877 1423 877 1377 Q877 1330 844.5 1297 Q812 1264 765 1264 Q718 1264 685 1297 Q652 1330 652 1377 Q652 1424 685.5 1456.5 Q719 1489 767 1489 Z " />
<glyph glyph-name="Jcircumflex" unicode="&#x134;" horiz-adv-x="534" d="M189 1475 L355 1475 L355 128 Q355 -5 338 -78 Q321 -151 278 -199 Q202 -284 35 -293 L35 -151 Q85 -146 109.5 -133.5 Q134 -121 153 -91 Q174 -58 181.5 -14 Q189 30 189 121 L189 1475 Z M267 1808 L136 1594 L-18 1594 L218 1921 L316 1921 L553 1594 L399 1594 L267 1808 Z " />
<glyph glyph-name="jcircumflex" unicode="&#x135;" horiz-adv-x="511" d="M180 1078 L341 1078 L341 -4 Q342 -270 268 -358 Q192 -452 43 -464 L43 -324 Q87 -317 109.5 -300.5 Q132 -284 149 -247 Q168 -205 174 -158 Q180 -111 180 -4 L180 1078 Z M255 1435 L124 1221 L-30 1221 L206 1549 L304 1549 L541 1221 L387 1221 L255 1435 Z " />
<glyph glyph-name="Kcommaaccent" unicode="&#x136;" horiz-adv-x="1022" d="M179 0 L179 1475 L345 1475 L345 784 L835 1475 L1024 1475 L522 781 L1075 0 L872 0 L345 766 L345 0 L179 0 Z M397 -480 L504 -153 L672 -153 L506 -480 L397 -480 Z " />
<glyph glyph-name="kcommaaccent" unicode="&#x137;" horiz-adv-x="899" d="M170 0 L170 1516 L331 1516 L331 643 L673 1078 L860 1078 L495 626 L921 0 L730 0 L331 608 L331 0 L170 0 Z M319 -480 L426 -153 L594 -153 L428 -480 L319 -480 Z " />
<glyph glyph-name="kgreenlandic" unicode="&#x138;" horiz-adv-x="899" d="M170 0 L170 1078 L331 1078 L331 633 L673 1078 L860 1078 L495 616 L922 0 L730 0 L331 599 L331 0 L170 0 Z " />
<glyph glyph-name="Lacute" unicode="&#x139;" horiz-adv-x="934" d="M179 0 L179 1475 L345 1475 L345 141 L889 141 L889 0 L179 0 Z M218 1594 L373 1921 L546 1921 L329 1594 L218 1594 Z " />
<glyph glyph-name="lacute" unicode="&#x13a;" horiz-adv-x="501" d="M170 0 L170 1516 L331 1516 L331 0 L170 0 Z M185 1634 L340 1962 L513 1962 L296 1634 L185 1634 Z " />
<glyph glyph-name="Lcommaaccent" unicode="&#x13b;" horiz-adv-x="934" d="M179 0 L179 1475 L345 1475 L345 141 L889 141 L889 0 L179 0 Z M347 -480 L454 -153 L622 -153 L456 -480 L347 -480 Z " />
<glyph glyph-name="lcommaaccent" unicode="&#x13c;" horiz-adv-x="501" d="M170 0 L170 1516 L331 1516 L331 0 L170 0 Z M63 -480 L170 -153 L338 -153 L172 -480 L63 -480 Z " />
<glyph glyph-name="Lcaron" unicode="&#x13d;" horiz-adv-x="934" d="M179 0 L179 1475 L345 1475 L345 141 L889 141 L889 0 L179 0 Z M498 1039 L589 1475 L766 1475 L619 1039 L498 1039 Z " />
<glyph glyph-name="lcaron" unicode="&#x13e;" horiz-adv-x="670" d="M170 0 L170 1516 L331 1516 L331 0 L170 0 Z M452 1110 L545 1546 L720 1546 L573 1110 L452 1110 Z " />
<glyph glyph-name="Ldot" unicode="&#x13f;" horiz-adv-x="934" d="M179 0 L179 1475 L345 1475 L345 141 L889 141 L889 0 L179 0 Z M731 848 Q780 848 816 812 Q852 776 852 727 Q852 676 816 640.5 Q780 605 729 605 Q677 605 641 640.5 Q605 676 605 727 Q605 778 641.5 813 Q678 848 731 848 Z " />
<glyph glyph-name="ldot" unicode="&#x140;" horiz-adv-x="646" d="M170 0 L170 1516 L331 1516 L331 0 L170 0 Z M580 813 Q629 813 665 777 Q701 741 701 692 Q701 641 665 605.5 Q629 570 578 570 Q526 570 490 605.5 Q454 641 454 692 Q454 743 490.5 778 Q527 813 580 813 Z " />
<glyph glyph-name="Lslash" unicode="&#x141;" horiz-adv-x="939" d="M184 0 L184 569 L16 440 L16 595 L184 724 L184 1475 L350 1475 L350 854 L581 1031 L581 877 L350 700 L350 141 L895 141 L895 0 L184 0 Z " />
<glyph glyph-name="lslash" unicode="&#x142;" horiz-adv-x="464" d="M152 0 L152 683 L-17 537 L-17 675 L152 821 L152 1553 L313 1553 L313 957 L480 1101 L480 963 L313 819 L313 0 L152 0 Z " />
<glyph glyph-name="Nacute" unicode="&#x143;" horiz-adv-x="1247" d="M179 0 L179 1475 L343 1475 L907 371 L907 1475 L1068 1475 L1068 -20 L944 -20 L339 1172 L339 0 L179 0 Z M550 1594 L705 1921 L878 1921 L661 1594 L550 1594 Z " />
<glyph glyph-name="nacute" unicode="&#x144;" horiz-adv-x="1072" d="M170 0 L170 1078 L331 1078 L331 942 Q351 960 406 1013 Q453 1058 516 1084 Q579 1110 641 1110 Q814 1110 869 976 Q910 875 910 660 L910 0 L749 0 L749 656 Q749 835 718.5 899 Q688 963 602 963 Q541 963 477 918.5 Q413 874 331 774 L331 0 L170 0 Z M444 1221 L599 1549 L772 1549 L555 1221 L444 1221 Z " />
<glyph glyph-name="Ncommaaccent" unicode="&#x145;" horiz-adv-x="1247" d="M179 0 L179 1475 L343 1475 L907 371 L907 1475 L1068 1475 L1068 -20 L944 -20 L339 1172 L339 0 L179 0 Z M451 -480 L558 -153 L726 -153 L560 -480 L451 -480 Z " />
<glyph glyph-name="ncommaaccent" unicode="&#x146;" horiz-adv-x="1072" d="M170 0 L170 1078 L331 1078 L331 942 Q351 960 406 1013 Q453 1058 516 1084 Q579 1110 641 1110 Q814 1110 869 976 Q910 875 910 660 L910 0 L749 0 L749 656 Q749 835 718.5 899 Q688 963 602 963 Q541 963 477 918.5 Q413 874 331 774 L331 0 L170 0 Z M376 -480 L483 -153 L651 -153 L485 -480 L376 -480 Z " />
<glyph glyph-name="Ncaron" unicode="&#x147;" horiz-adv-x="1247" d="M179 0 L179 1475 L343 1475 L907 371 L907 1475 L1068 1475 L1068 -20 L944 -20 L339 1172 L339 0 L179 0 Z M648 1707 L780 1921 L934 1921 L697 1594 L599 1594 L363 1921 L517 1921 L648 1707 Z " />
<glyph glyph-name="ncaron" unicode="&#x148;" horiz-adv-x="1072" d="M170 0 L170 1078 L331 1078 L331 942 Q351 960 406 1013 Q453 1058 516 1084 Q579 1110 641 1110 Q814 1110 869 976 Q910 875 910 660 L910 0 L749 0 L749 656 Q749 835 718.5 899 Q688 963 602 963 Q541 963 477 918.5 Q413 874 331 774 L331 0 L170 0 Z M528 1334 L660 1549 L814 1549 L577 1221 L479 1221 L243 1549 L397 1549 L528 1334 Z " />
<glyph glyph-name="napostrophe" unicode="&#x149;" horiz-adv-x="1094" d="M191 0 L191 1078 L352 1078 L352 942 Q371 959 427 1013 Q475 1058 537.5 1084 Q600 1110 662 1110 Q835 1110 890 976 Q931 876 931 660 L931 0 L770 0 L770 656 Q770 835 739.5 899 Q709 963 623 963 Q562 963 500 920 Q438 877 352 774 L352 0 L191 0 Z M-35 1104 L58 1578 L230 1578 L84 1104 L-35 1104 Z " />
<glyph glyph-name="Eng" unicode="&#x14a;" horiz-adv-x="1247" d="M179 0 L179 1475 L343 1475 L907 371 L907 1475 L1068 1475 L1068 -8 Q1068 -139 1051 -210.5 Q1034 -282 992 -328 Q916 -411 769 -421 L769 -280 Q814 -274 836.5 -260.5 Q859 -247 876 -217 Q895 -181 901 -140.5 Q907 -100 907 -9 L907 51 L339 1172 L339 0 L179 0 Z " />
<glyph glyph-name="eng" unicode="&#x14b;" horiz-adv-x="1072" d="M170 0 L170 1078 L331 1078 L331 942 Q348 958 356 966 Q443 1048 503.5 1079 Q564 1110 642 1110 Q814 1110 869 976 Q910 875 910 660 L910 20 Q910 -125 893.5 -204.5 Q877 -284 837 -334 Q762 -426 612 -439 L612 -299 Q656 -292 678.5 -276 Q701 -260 718 -223 Q737 -180 743 -132.5 Q749 -85 749 20 L749 656 Q749 835 718.5 899 Q688 963 603 963 Q541 963 478 919 Q415 875 331 774 L331 0 L170 0 Z " />
<glyph glyph-name="Omacron" unicode="&#x14c;" horiz-adv-x="1184" d="M601 1504 Q785 1504 903 1392 Q1080 1225 1080 737 Q1080 404 993 210 Q936 82 818 21 Q720 -29 593 -29 Q398 -29 282 82 Q105 250 105 733 Q105 1077 192 1265 Q302 1504 601 1504 Z M587 1357 Q415 1357 344 1189 Q276 1026 276 737 Q276 450 344 286 Q415 118 593 118 Q771 118 841 286 Q909 451 909 732 Q909 1030 841 1189 Q803 1276 741.5 1316.5 Q680 1357 587 1357 Z M375 1683 L375 1819 L807 1819 L807 1683 L375 1683 Z " />
<glyph glyph-name="omacron" unicode="&#x14d;" horiz-adv-x="983" d="M497 1110 Q628 1110 722 1037 Q888 909 888 539 Q888 -32 491 -32 Q94 -32 94 536 Q94 807 181 950 Q279 1110 497 1110 Z M487 970 Q367 970 313.5 868 Q260 766 260 539 Q260 342 301 238 Q352 108 490 108 Q613 108 668 208.5 Q723 309 723 534 Q723 739 682 840 Q630 970 487 970 Z M274 1311 L274 1447 L706 1447 L706 1311 L274 1311 Z " />
<glyph glyph-name="Obreve" unicode="&#x14e;" horiz-adv-x="1184" d="M601 1504 Q785 1504 903 1392 Q1080 1225 1080 737 Q1080 404 993 210 Q936 82 818 21 Q720 -29 593 -29 Q398 -29 282 82 Q105 250 105 733 Q105 1077 192 1265 Q302 1504 601 1504 Z M587 1357 Q415 1357 344 1189 Q276 1026 276 737 Q276 450 344 286 Q415 118 593 118 Q771 118 841 286 Q909 451 909 732 Q909 1030 841 1189 Q803 1276 741.5 1316.5 Q680 1357 587 1357 Z M354 1891 L453 1891 Q458 1815 481 1783 Q515 1737 591 1737 Q663 1737 694 1771 Q725 1805 731 1891 L831 1891 Q822 1745 781 1689 Q726 1611 590 1611 Q466 1611 414 1672.5 Q362 1734 354 1891 Z " />
<glyph glyph-name="obreve" unicode="&#x14f;" horiz-adv-x="983" d="M497 1110 Q628 1110 722 1037 Q888 909 888 539 Q888 -32 491 -32 Q94 -32 94 536 Q94 807 181 950 Q279 1110 497 1110 Z M487 970 Q367 970 313.5 868 Q260 766 260 539 Q260 342 301 238 Q352 108 490 108 Q613 108 668 208.5 Q723 309 723 534 Q723 739 682 840 Q630 970 487 970 Z M253 1524 L352 1524 Q357 1447 380 1416 Q414 1370 491 1370 Q562 1370 593 1404.5 Q624 1439 630 1524 L730 1524 Q721 1378 680 1322 Q625 1244 492 1244 Q366 1244 313.5 1305 Q261 1366 253 1524 Z " />
<glyph glyph-name="Ohungarumlaut" unicode="&#x150;" horiz-adv-x="1184" d="M601 1504 Q785 1504 903 1392 Q1080 1225 1080 737 Q1080 404 993 210 Q936 82 818 21 Q720 -29 593 -29 Q398 -29 282 82 Q105 250 105 733 Q105 1077 192 1265 Q302 1504 601 1504 Z M587 1357 Q415 1357 344 1189 Q276 1026 276 737 Q276 450 344 286 Q415 118 593 118 Q771 118 841 286 Q909 451 909 732 Q909 1030 841 1189 Q803 1276 741.5 1316.5 Q680 1357 587 1357 Z M431 1594 L539 1921 L693 1921 L524 1594 L431 1594 Z M653 1594 L775 1921 L933 1921 L747 1594 L653 1594 Z " />
<glyph glyph-name="ohungarumlaut" unicode="&#x151;" horiz-adv-x="983" d="M497 1110 Q628 1110 722 1037 Q888 909 888 539 Q888 -32 491 -32 Q94 -32 94 536 Q94 807 181 950 Q279 1110 497 1110 Z M487 970 Q367 970 313.5 868 Q260 766 260 539 Q260 342 301 238 Q352 108 490 108 Q613 108 668 208.5 Q723 309 723 534 Q723 739 682 840 Q630 970 487 970 Z M319 1221 L427 1549 L581 1549 L412 1221 L319 1221 Z M541 1221 L663 1549 L821 1549 L635 1221 L541 1221 Z " />
<glyph glyph-name="Racute" unicode="&#x154;" horiz-adv-x="1133" d="M167 0 L167 1475 L540 1475 Q764 1475 863 1408 Q933 1361 972.5 1267 Q1012 1173 1012 1053 Q1012 904 960 809 Q908 714 799 663 Q844 637 870 588 Q896 539 927 421 L1040 0 L861 0 L775 351 Q735 511 681.5 561.5 Q628 612 499 612 L333 612 L333 0 L167 0 Z M333 751 L551 751 Q700 751 761 807 Q841 882 841 1042 Q841 1199 761 1276 Q702 1334 554 1334 L333 1334 L333 751 Z M459 1594 L614 1921 L787 1921 L570 1594 L459 1594 Z " />
<glyph glyph-name="racute" unicode="&#x155;" horiz-adv-x="686" d="M170 0 L170 1078 L327 1078 L327 946 Q439 1093 603 1093 L635 1093 L635 935 L608 935 Q517 935 458 899 Q399 863 331 765 L331 0 L170 0 Z M326 1221 L481 1549 L654 1549 L437 1221 L326 1221 Z " />
<glyph glyph-name="Rcommaaccent" unicode="&#x156;" horiz-adv-x="1133" d="M167 0 L167 1475 L540 1475 Q764 1475 863 1408 Q933 1361 972.5 1267 Q1012 1173 1012 1053 Q1012 904 960 809 Q908 714 799 663 Q844 637 870 588 Q896 539 927 421 L1040 0 L861 0 L775 351 Q735 511 681.5 561.5 Q628 612 499 612 L333 612 L333 0 L167 0 Z M333 751 L551 751 Q700 751 761 807 Q841 882 841 1042 Q841 1199 761 1276 Q702 1334 554 1334 L333 1334 L333 751 Z M406 -480 L513 -153 L681 -153 L515 -480 L406 -480 Z " />
<glyph glyph-name="rcommaaccent" unicode="&#x157;" horiz-adv-x="686" d="M170 0 L170 1078 L327 1078 L327 946 Q439 1093 603 1093 L635 1093 L635 935 L608 935 Q517 935 458 899 Q399 863 331 765 L331 0 L170 0 Z M63 -480 L170 -153 L338 -153 L172 -480 L63 -480 Z " />
<glyph glyph-name="Rcaron" unicode="&#x158;" horiz-adv-x="1133" d="M167 0 L167 1475 L540 1475 Q764 1475 863 1408 Q933 1361 972.5 1267 Q1012 1173 1012 1053 Q1012 904 960 809 Q908 714 799 663 Q844 637 870 588 Q896 539 927 421 L1040 0 L861 0 L775 351 Q735 511 681.5 561.5 Q628 612 499 612 L333 612 L333 0 L167 0 Z M333 751 L551 751 Q700 751 761 807 Q841 882 841 1042 Q841 1199 761 1276 Q702 1334 554 1334 L333 1334 L333 751 Z M542 1707 L674 1921 L828 1921 L591 1594 L493 1594 L257 1921 L411 1921 L542 1707 Z " />
<glyph glyph-name="rcaron" unicode="&#x159;" horiz-adv-x="686" d="M170 0 L170 1078 L327 1078 L327 946 Q439 1093 603 1093 L635 1093 L635 935 L608 935 Q517 935 458 899 Q399 863 331 765 L331 0 L170 0 Z M401 1334 L533 1549 L687 1549 L450 1221 L352 1221 L116 1549 L270 1549 L401 1334 Z " />
<glyph glyph-name="Sacute" unicode="&#x15a;" horiz-adv-x="1063" d="M92 427 L253 427 Q258 284 306 218 Q379 118 530 118 Q676 118 746 199 Q812 275 812 395 Q812 504 754 571 Q719 612 667.5 637.5 Q616 663 496 700 Q303 759 228 825 Q125 916 125 1100 Q125 1267 209 1375 Q308 1504 509 1504 Q756 1504 852 1333 Q905 1238 907 1054 L746 1054 Q740 1198 702 1259 Q641 1357 514 1357 Q403 1357 345 1285 Q292 1221 292 1116 Q292 1007 349.5 953.5 Q407 900 578 849 Q711 810 778 774 Q845 738 890 681 Q979 571 979 405 Q979 218 874 98 Q763 -29 537 -29 Q312 -29 202.5 83 Q93 195 92 427 Z M428 1594 L583 1921 L756 1921 L539 1594 L428 1594 Z " />
<glyph glyph-name="sacute" unicode="&#x15b;" horiz-adv-x="864" d="M68 328 L215 328 Q224 228 252 187 Q309 103 429 103 Q625 103 625 291 Q625 382 579 425 Q541 462 407 491 Q322 509 275 529 Q228 549 192 581 Q107 658 107 796 Q107 939 189.5 1024.5 Q272 1110 411 1110 Q615 1110 694 953 Q730 882 733 769 L586 769 Q578 860 558 898 Q516 975 418 975 Q339 975 304 924 Q272 877 272 807 Q272 730 313 693.5 Q354 657 470 630 Q574 606 623 583.5 Q672 561 708 520 Q784 435 784 294 Q784 142 696 58 Q602 -32 434 -32 Q203 -32 114 121 Q70 196 68 328 Z M337 1221 L492 1549 L665 1549 L448 1221 L337 1221 Z " />
<glyph glyph-name="Scircumflex" unicode="&#x15c;" horiz-adv-x="1063" d="M92 427 L253 427 Q258 284 306 218 Q379 118 530 118 Q676 118 746 199 Q812 275 812 395 Q812 504 754 571 Q719 612 667.5 637.5 Q616 663 496 700 Q303 759 228 825 Q125 916 125 1100 Q125 1267 209 1375 Q308 1504 509 1504 Q756 1504 852 1333 Q905 1238 907 1054 L746 1054 Q740 1198 702 1259 Q641 1357 514 1357 Q403 1357 345 1285 Q292 1221 292 1116 Q292 1007 349.5 953.5 Q407 900 578 849 Q711 810 778 774 Q845 738 890 681 Q979 571 979 405 Q979 218 874 98 Q763 -29 537 -29 Q312 -29 202.5 83 Q93 195 92 427 Z M526 1808 L395 1594 L241 1594 L477 1921 L575 1921 L812 1594 L658 1594 L526 1808 Z " />
<glyph glyph-name="scircumflex" unicode="&#x15d;" horiz-adv-x="864" d="M68 328 L215 328 Q224 228 252 187 Q309 103 429 103 Q625 103 625 291 Q625 382 579 425 Q541 462 407 491 Q322 509 275 529 Q228 549 192 581 Q107 658 107 796 Q107 939 189.5 1024.5 Q272 1110 411 1110 Q615 1110 694 953 Q730 882 733 769 L586 769 Q578 860 558 898 Q516 975 418 975 Q339 975 304 924 Q272 877 272 807 Q272 730 313 693.5 Q354 657 470 630 Q574 606 623 583.5 Q672 561 708 520 Q784 435 784 294 Q784 142 696 58 Q602 -32 434 -32 Q203 -32 114 121 Q70 196 68 328 Z M429 1435 L298 1221 L144 1221 L380 1549 L478 1549 L715 1221 L561 1221 L429 1435 Z " />
<glyph glyph-name="Scedilla" unicode="&#x15e;" horiz-adv-x="1063" d="M593 -26 L565 -95 Q630 -101 660 -118 Q734 -160 734 -276 Q734 -370 680.5 -422.5 Q627 -475 531 -475 Q427 -475 324 -436 L358 -320 Q447 -358 522 -358 Q601 -358 601 -276 Q601 -235 580.5 -217 Q560 -199 512 -199 Q493 -199 452 -202 L436 -113 L474 -25 Q92 12 98 427 L259 427 Q264 284 312 218 Q385 118 536 118 Q682 118 752 199 Q818 275 818 395 Q818 505 760 571 Q724 612 673 637 Q622 662 502 699 Q310 758 234 825 Q131 916 131 1100 Q131 1267 215 1375 Q314 1504 515 1504 Q762 1504 858 1333 Q911 1238 913 1054 L752 1054 Q746 1198 708 1259 Q647 1357 520 1357 Q409 1357 351 1285 Q298 1221 298 1116 Q298 1007 355.5 953.5 Q413 900 584 849 Q717 810 784 774 Q851 738 896 681 Q985 571 985 405 Q985 263 921 155 Q870 69 798.5 29.5 Q727 -10 593 -26 Z " />
<glyph glyph-name="scedilla" unicode="&#x15f;" horiz-adv-x="864" d="M498 -28 L470 -95 Q535 -101 565 -118 Q639 -160 639 -277 Q639 -370 585.5 -422.5 Q532 -475 436 -475 Q332 -475 229 -436 L263 -320 Q352 -358 426 -358 Q506 -358 506 -276 Q506 -235 485.5 -217 Q465 -199 418 -199 Q400 -199 357 -202 L340 -113 L377 -28 Q68 9 71 328 L218 328 Q227 228 255 187 Q312 103 432 103 Q628 103 628 291 Q628 382 582 425 Q544 462 410 491 Q325 509 278 528.5 Q231 548 195 581 Q110 658 110 796 Q110 939 192.5 1024.5 Q275 1110 414 1110 Q618 1110 697 953 Q733 882 736 769 L589 769 Q581 860 561 898 Q519 975 421 975 Q342 975 307 924 Q275 877 275 807 Q275 730 316 693.5 Q357 657 473 630 Q577 606 626 583.5 Q675 561 711 520 Q787 435 787 294 Q787 13 498 -28 Z " />
<glyph glyph-name="Scaron" unicode="&#x160;" horiz-adv-x="1063" d="M92 427 L253 427 Q258 284 306 218 Q379 118 530 118 Q676 118 746 199 Q812 275 812 395 Q812 504 754 571 Q719 612 667.5 637.5 Q616 663 496 700 Q303 759 228 825 Q125 916 125 1100 Q125 1267 209 1375 Q308 1504 509 1504 Q756 1504 852 1333 Q905 1238 907 1054 L746 1054 Q740 1198 702 1259 Q641 1357 514 1357 Q403 1357 345 1285 Q292 1221 292 1116 Q292 1007 349.5 953.5 Q407 900 578 849 Q711 810 778 774 Q845 738 890 681 Q979 571 979 405 Q979 218 874 98 Q763 -29 537 -29 Q312 -29 202.5 83 Q93 195 92 427 Z M516 1707 L648 1921 L802 1921 L565 1594 L467 1594 L231 1921 L385 1921 L516 1707 Z " />
<glyph glyph-name="scaron" unicode="&#x161;" horiz-adv-x="864" d="M68 328 L215 328 Q224 228 252 187 Q309 103 429 103 Q625 103 625 291 Q625 382 579 425 Q541 462 407 491 Q322 509 275 529 Q228 549 192 581 Q107 658 107 796 Q107 939 189.5 1024.5 Q272 1110 411 1110 Q615 1110 694 953 Q730 882 733 769 L586 769 Q578 860 558 898 Q516 975 418 975 Q339 975 304 924 Q272 877 272 807 Q272 730 313 693.5 Q354 657 470 630 Q574 606 623 583.5 Q672 561 708 520 Q784 435 784 294 Q784 142 696 58 Q602 -32 434 -32 Q203 -32 114 121 Q70 196 68 328 Z M421 1334 L553 1549 L707 1549 L470 1221 L372 1221 L136 1549 L290 1549 L421 1334 Z " />
<glyph glyph-name="Tcommaaccent" unicode="&#x162;" horiz-adv-x="925" d="M379 0 L379 1334 L39 1334 L39 1475 L885 1475 L885 1334 L545 1334 L545 0 L379 0 Z M272 -480 L379 -153 L547 -153 L381 -480 L272 -480 Z " />
<glyph glyph-name="tcommaaccent" unicode="&#x163;" horiz-adv-x="630" d="M195 938 L70 938 L70 1078 L197 1078 L209 1399 L356 1399 L356 1078 L582 1078 L582 938 L356 938 L356 314 Q356 201 379 170.5 Q402 140 488 140 L602 140 L602 0 L502 0 Q389 0 342 11.5 Q295 23 260 60 Q222 100 208.5 151.5 Q195 203 195 308 L195 938 Z M155 -480 L262 -153 L430 -153 L264 -480 L155 -480 Z " />
<glyph glyph-name="Tcaron" unicode="&#x164;" horiz-adv-x="925" d="M379 0 L379 1334 L39 1334 L39 1475 L885 1475 L885 1334 L545 1334 L545 0 L379 0 Z M462 1707 L594 1921 L748 1921 L511 1594 L413 1594 L177 1921 L331 1921 L462 1707 Z " />
<glyph glyph-name="tcaron" unicode="&#x165;" horiz-adv-x="748" d="M195 938 L70 938 L70 1078 L197 1078 L209 1399 L356 1399 L356 1078 L582 1078 L582 938 L356 938 L356 314 Q356 201 379 170.5 Q402 140 488 140 L602 140 L602 0 L502 0 Q389 0 342 11.5 Q295 23 260 60 Q222 100 208.5 151.5 Q195 203 195 308 L195 938 Z M536 1193 L623 1615 L798 1615 L657 1193 L536 1193 Z " />
<glyph glyph-name="Tbar" unicode="&#x166;" horiz-adv-x="925" d="M379 0 L379 714 L133 714 L133 844 L379 844 L379 1334 L39 1334 L39 1475 L885 1475 L885 1334 L545 1334 L545 844 L791 844 L791 714 L545 714 L545 0 L379 0 Z " />
<glyph glyph-name="tbar" unicode="&#x167;" horiz-adv-x="631" d="M196 938 L71 938 L71 1078 L198 1078 L210 1399 L357 1399 L357 1078 L583 1078 L583 938 L357 938 L357 707 L583 707 L583 595 L357 595 L357 314 Q357 201 380 170.5 Q403 140 489 140 L603 140 L603 0 L503 0 Q390 0 343 12 Q296 24 261 60 Q223 100 209.5 151.5 Q196 203 196 308 L196 595 L71 595 L71 707 L196 707 L196 938 Z " />
<glyph glyph-name="Utilde" unicode="&#x168;" horiz-adv-x="1212" d="M170 1475 L336 1475 L336 473 Q336 280 397.5 199 Q459 118 606 118 Q753 118 814.5 199 Q876 280 876 473 L876 1475 L1042 1475 L1042 532 Q1042 364 1028.5 284.5 Q1015 205 976 139 Q875 -29 606 -29 Q336 -29 236 139 Q197 204 183.5 285 Q170 366 170 532 L170 1475 Z M453 1649 L357 1649 Q387 1848 514 1848 Q561 1848 621 1803 Q674 1763 696 1763 Q738 1763 757 1847 L853 1847 Q836 1753 809 1710 Q765 1643 688 1643 Q638 1643 558 1704 Q527 1728 508 1728 Q472 1728 453 1649 Z " />
<glyph glyph-name="utilde" unicode="&#x169;" horiz-adv-x="1040" d="M162 1078 L323 1078 L323 421 Q323 241 350.5 178 Q378 115 456 115 Q568 115 709 304 L709 1078 L870 1078 L870 0 L709 0 L709 136 Q623 42 558 5 Q493 -32 415 -32 Q252 -32 201 102 Q162 203 162 418 L162 1078 Z M367 1282 L271 1282 Q301 1481 429 1481 Q475 1481 535 1436 Q588 1396 610 1396 Q652 1396 671 1480 L767 1480 Q750 1385 723 1343 Q679 1276 601 1276 Q552 1276 472 1337 Q441 1361 423 1361 Q386 1361 367 1282 Z " />
<glyph glyph-name="Umacron" unicode="&#x16a;" horiz-adv-x="1212" d="M170 1475 L336 1475 L336 473 Q336 280 397.5 199 Q459 118 606 118 Q753 118 814.5 199 Q876 280 876 473 L876 1475 L1042 1475 L1042 532 Q1042 364 1028.5 284.5 Q1015 205 976 139 Q875 -29 606 -29 Q336 -29 236 139 Q197 204 183.5 285 Q170 366 170 532 L170 1475 Z M389 1683 L389 1819 L821 1819 L821 1683 L389 1683 Z " />
<glyph glyph-name="umacron" unicode="&#x16b;" horiz-adv-x="1040" d="M162 1078 L323 1078 L323 421 Q323 241 350.5 178 Q378 115 456 115 Q568 115 709 304 L709 1078 L870 1078 L870 0 L709 0 L709 136 Q623 42 558 5 Q493 -32 415 -32 Q252 -32 201 102 Q162 203 162 418 L162 1078 Z M302 1311 L302 1447 L734 1447 L734 1311 L302 1311 Z " />
<glyph glyph-name="Ubreve" unicode="&#x16c;" horiz-adv-x="1212" d="M170 1475 L336 1475 L336 473 Q336 280 397.5 199 Q459 118 606 118 Q753 118 814.5 199 Q876 280 876 473 L876 1475 L1042 1475 L1042 532 Q1042 364 1028.5 284.5 Q1015 205 976 139 Q875 -29 606 -29 Q336 -29 236 139 Q197 204 183.5 285 Q170 366 170 532 L170 1475 Z M368 1891 L467 1891 Q472 1815 495 1783 Q529 1737 605 1737 Q677 1737 708 1771 Q739 1805 745 1891 L845 1891 Q836 1745 795 1689 Q740 1611 604 1611 Q480 1611 428 1672.5 Q376 1734 368 1891 Z " />
<glyph glyph-name="ubreve" unicode="&#x16d;" horiz-adv-x="1040" d="M162 1078 L323 1078 L323 421 Q323 241 350.5 178 Q378 115 456 115 Q568 115 709 304 L709 1078 L870 1078 L870 0 L709 0 L709 136 Q623 42 558 5 Q493 -32 415 -32 Q252 -32 201 102 Q162 203 162 418 L162 1078 Z M281 1524 L380 1524 Q385 1447 408 1416 Q442 1370 519 1370 Q590 1370 621 1404.5 Q652 1439 658 1524 L758 1524 Q749 1378 708 1322 Q653 1244 520 1244 Q394 1244 341.5 1305 Q289 1366 281 1524 Z " />
<glyph glyph-name="Uring" unicode="&#x16e;" horiz-adv-x="1212" d="M170 1475 L336 1475 L336 473 Q336 280 397.5 199 Q459 118 606 118 Q753 118 814.5 199 Q876 280 876 473 L876 1475 L1042 1475 L1042 532 Q1042 364 1028.5 284.5 Q1015 205 976 139 Q875 -29 606 -29 Q336 -29 236 139 Q197 204 183.5 285 Q170 366 170 532 L170 1475 Z M610 2005 Q709 2005 767.5 1946 Q826 1887 826 1786 Q826 1683 767.5 1624.5 Q709 1566 606 1566 Q503 1566 444.5 1624.5 Q386 1683 386 1785 Q386 1889 445 1947 Q504 2005 610 2005 Z M604 1906 Q496 1906 496 1785 Q496 1665 605 1665 Q716 1665 716 1785 Q716 1906 604 1906 Z " />
<glyph glyph-name="uring" unicode="&#x16f;" horiz-adv-x="1040" d="M162 1078 L323 1078 L323 421 Q323 241 350.5 178 Q378 115 456 115 Q568 115 709 304 L709 1078 L870 1078 L870 0 L709 0 L709 136 Q623 42 558 5 Q493 -32 415 -32 Q252 -32 201 102 Q162 203 162 418 L162 1078 Z M524 1639 Q623 1639 681.5 1579.5 Q740 1520 740 1419 Q740 1316 681 1257 Q622 1198 520 1198 Q418 1198 359 1257 Q300 1316 300 1418 Q300 1522 359 1580.5 Q418 1639 524 1639 Z M518 1540 Q410 1540 410 1418 Q410 1297 519 1297 Q630 1297 630 1418 Q630 1540 518 1540 Z " />
<glyph glyph-name="Uhungarumlaut" unicode="&#x170;" horiz-adv-x="1212" d="M170 1475 L336 1475 L336 473 Q336 280 397.5 199 Q459 118 606 118 Q753 118 814.5 199 Q876 280 876 473 L876 1475 L1042 1475 L1042 532 Q1042 364 1028.5 284.5 Q1015 205 976 139 Q875 -29 606 -29 Q336 -29 236 139 Q197 204 183.5 285 Q170 366 170 532 L170 1475 Z M450 1594 L558 1921 L712 1921 L543 1594 L450 1594 Z M672 1594 L794 1921 L952 1921 L766 1594 L672 1594 Z " />
<glyph glyph-name="uhungarumlaut" unicode="&#x171;" horiz-adv-x="1040" d="M162 1078 L323 1078 L323 421 Q323 241 350.5 178 Q378 115 456 115 Q568 115 709 304 L709 1078 L870 1078 L870 0 L709 0 L709 136 Q623 42 558 5 Q493 -32 415 -32 Q252 -32 201 102 Q162 203 162 418 L162 1078 Z M364 1221 L472 1549 L626 1549 L457 1221 L364 1221 Z M586 1221 L708 1549 L866 1549 L680 1221 L586 1221 Z " />
<glyph glyph-name="Uogonek" unicode="&#x172;" horiz-adv-x="1212" d="M170 1475 L336 1475 L336 473 Q336 280 397.5 199 Q459 118 606 118 Q753 118 814.5 198.5 Q876 279 876 473 L876 1475 L1042 1475 L1042 532 Q1042 365 1028.5 284.5 Q1015 204 976 138 Q911 30 763 -10 Q638 -125 638 -244 Q638 -320 704 -320 L789 -320 L789 -436 L701 -436 Q598 -436 554 -398 Q505 -356 505 -275 Q505 -210 534 -153 Q563 -96 631 -29 Q374 -30 267 95 Q211 162 190.5 253 Q170 344 170 532 L170 1475 Z " />
<glyph glyph-name="uogonek" unicode="&#x173;" horiz-adv-x="1040" d="M870 0 Q797 -70 766.5 -125 Q736 -180 736 -243 Q736 -320 801 -320 L886 -320 L886 -436 L798 -436 Q696 -436 652 -398 Q603 -356 603 -274 Q603 -207 631.5 -154 Q660 -101 740 -18 Q752 -5 757 0 L709 0 L709 136 Q623 42 558 5 Q493 -32 415 -32 Q252 -32 201 102 Q162 203 162 418 L162 1078 L323 1078 L323 421 Q323 241 350.5 178 Q378 115 456 115 Q568 115 709 304 L709 1078 L870 1078 L870 0 Z " />
<glyph glyph-name="Wcircumflex" unicode="&#x174;" horiz-adv-x="1579" d="M374 -32 L73 1475 L242 1475 L452 322 L740 1483 L840 1483 L1128 322 L1337 1475 L1507 1475 L1206 -32 L1082 -32 L790 1138 L498 -32 L374 -32 Z M790 1808 L659 1594 L505 1594 L741 1921 L839 1921 L1076 1594 L922 1594 L790 1808 Z " />
<glyph glyph-name="wcircumflex" unicode="&#x175;" horiz-adv-x="1292" d="M301 -25 L50 1078 L213 1078 L378 268 L601 1078 L692 1078 L915 268 L1081 1078 L1243 1078 L992 -25 L871 -25 L647 793 L423 -25 L301 -25 Z M646 1435 L515 1221 L361 1221 L597 1549 L695 1549 L932 1221 L778 1221 L646 1435 Z " />
<glyph glyph-name="Ycircumflex" unicode="&#x176;" horiz-adv-x="930" d="M383 0 L383 578 L-31 1475 L150 1475 L466 746 L781 1475 L962 1475 L549 578 L549 0 L383 0 Z M464 1808 L333 1594 L179 1594 L415 1921 L513 1921 L750 1594 L596 1594 L464 1808 Z " />
<glyph glyph-name="ycircumflex" unicode="&#x177;" horiz-adv-x="823" d="M338 22 L18 1078 L188 1078 L411 239 L635 1078 L805 1078 L469 -80 Q404 -305 326 -379 Q292 -412 244.5 -425 Q197 -438 106 -439 L106 -299 Q184 -299 217 -271 Q266 -228 299 -115 L338 22 Z M411 1435 L280 1221 L126 1221 L362 1549 L460 1549 L697 1221 L543 1221 L411 1435 Z " />
<glyph glyph-name="Zacute" unicode="&#x179;" horiz-adv-x="947" d="M37 0 L37 127 L665 1334 L88 1334 L88 1475 L851 1475 L851 1368 L221 141 L885 141 L885 0 L37 0 Z M411 1594 L566 1921 L739 1921 L522 1594 L411 1594 Z " />
<glyph glyph-name="zacute" unicode="&#x17a;" horiz-adv-x="763" d="M34 0 L34 128 L507 938 L75 938 L75 1078 L692 1078 L692 961 L209 140 L704 140 L704 0 L34 0 Z M322 1221 L477 1549 L650 1549 L433 1221 L322 1221 Z " />
<glyph glyph-name="Zdotaccent" unicode="&#x17b;" horiz-adv-x="947" d="M37 0 L37 127 L665 1334 L88 1334 L88 1475 L851 1475 L851 1368 L221 141 L885 141 L885 0 L37 0 Z M495 1855 Q540 1855 572.5 1822 Q605 1789 605 1743 Q605 1696 572 1663 Q539 1630 493 1630 Q446 1630 413 1663.5 Q380 1697 380 1744 Q380 1790 413.5 1822.5 Q447 1855 495 1855 Z " />
<glyph glyph-name="zdotaccent" unicode="&#x17c;" horiz-adv-x="763" d="M34 0 L34 128 L507 938 L75 938 L75 1078 L692 1078 L692 961 L209 140 L704 140 L704 0 L34 0 Z M406 1489 Q451 1489 483.5 1456 Q516 1423 516 1377 Q516 1330 483.5 1297 Q451 1264 404 1264 Q357 1264 324 1297 Q291 1330 291 1377 Q291 1424 324.5 1456.5 Q358 1489 406 1489 Z " />
<glyph glyph-name="Zcaron" unicode="&#x17d;" horiz-adv-x="947" d="M37 0 L37 127 L665 1334 L88 1334 L88 1475 L851 1475 L851 1368 L221 141 L885 141 L885 0 L37 0 Z M499 1707 L631 1921 L785 1921 L548 1594 L450 1594 L214 1921 L368 1921 L499 1707 Z " />
<glyph glyph-name="zcaron" unicode="&#x17e;" horiz-adv-x="763" d="M34 0 L34 128 L507 938 L75 938 L75 1078 L692 1078 L692 961 L209 140 L704 140 L704 0 L34 0 Z M406 1334 L538 1549 L692 1549 L455 1221 L357 1221 L121 1549 L275 1549 L406 1334 Z " />
<glyph glyph-name="uni018F" unicode="&#x18f;" horiz-adv-x="1262" d="M106 840 L984 840 Q975 1015 937 1119 Q891 1244 817 1300.5 Q743 1357 625 1357 Q525 1357 459 1311 Q393 1265 343 1160 L191 1230 Q315 1504 632 1504 Q832 1504 959 1394 Q1158 1219 1158 737 Q1158 409 1058 209 Q994 83 869 21 Q767 -29 637 -29 Q390 -29 262 129 Q179 232 142 400 Q105 568 106 840 Z M278 702 Q286 479 321 374 Q365 241 440 179.5 Q515 118 632 118 Q782 118 866 223 Q979 364 987 702 L278 702 Z " />
<glyph glyph-name="uni01CD" unicode="&#x1cd;" horiz-adv-x="1122" d="M812 418 L312 418 L187 0 L17 0 L493 1475 L632 1475 L1108 0 L938 0 L812 418 Z M771 559 L562 1254 L354 559 L771 559 Z M561 1707 L693 1921 L847 1921 L610 1594 L512 1594 L276 1921 L430 1921 L561 1707 Z " />
<glyph glyph-name="uni01CE" unicode="&#x1ce;" horiz-adv-x="1000" d="M701 125 Q669 58 609 21 Q523 -32 402 -32 Q253 -32 175 55 Q97 142 97 310 Q97 497 179 576 Q261 655 456 655 Q509 655 687 644 L687 710 Q687 843 655 900 Q615 972 492 972 Q406 972 369 936 Q332 900 315 799 L166 799 Q183 937 226 1000 Q302 1110 493 1110 Q665 1110 751 1036 Q799 995 820 926 Q841 857 841 742 L841 0 L701 0 L701 125 Z M689 511 Q601 523 472 523 Q349 523 304 474 Q261 427 261 312 Q261 102 431 102 Q554 102 622 178 Q689 254 689 400 L689 511 Z M505 1334 L637 1549 L791 1549 L554 1221 L456 1221 L220 1549 L374 1549 L505 1334 Z " />
<glyph glyph-name="uni01D3" unicode="&#x1d3;" horiz-adv-x="1212" d="M170 1475 L336 1475 L336 473 Q336 280 397.5 199 Q459 118 606 118 Q753 118 814.5 199 Q876 280 876 473 L876 1475 L1042 1475 L1042 532 Q1042 364 1028.5 284.5 Q1015 205 976 139 Q875 -29 606 -29 Q336 -29 236 139 Q197 204 183.5 285 Q170 366 170 532 L170 1475 Z M606 1707 L738 1921 L892 1921 L655 1594 L557 1594 L321 1921 L475 1921 L606 1707 Z " />
<glyph glyph-name="uni01D4" unicode="&#x1d4;" horiz-adv-x="1040" d="M162 1078 L323 1078 L323 421 Q323 241 350.5 178 Q378 115 456 115 Q568 115 709 304 L709 1078 L870 1078 L870 0 L709 0 L709 136 Q623 42 558 5 Q493 -32 415 -32 Q252 -32 201 102 Q162 203 162 418 L162 1078 Z M519 1334 L651 1549 L805 1549 L568 1221 L470 1221 L234 1549 L388 1549 L519 1334 Z " />
<glyph glyph-name="uni01DD" unicode="&#x1dd;" horiz-adv-x="983" d="M93 620 L721 620 Q713 803 658 885.5 Q603 968 490 968 Q356 968 299 833 L154 896 Q257 1108 492 1108 Q888 1108 888 538 Q888 -32 493 -32 Q201 -32 124 274 Q103 358 93 620 Z M262 495 Q267 353 284 290 Q332 108 497 108 Q611 108 664 199 Q717 290 723 495 L262 495 Z " />
<glyph glyph-name="Gcaron" unicode="&#x1e6;" horiz-adv-x="1161" d="M623 602 L623 740 L1033 740 L1033 58 Q827 -29 586 -29 Q397 -29 293 54 Q105 203 105 720 Q105 1147 233 1328 Q353 1498 595 1498 Q1001 1498 1011 1048 L848 1048 Q833 1351 597 1351 Q428 1351 353 1197 Q276 1040 276 723 Q276 400 357 250 Q395 180 449 150 Q508 118 597 118 Q734 118 869 178 L869 602 L623 602 Z M593 1707 L725 1921 L879 1921 L642 1594 L544 1594 L308 1921 L462 1921 L593 1707 Z " />
<glyph glyph-name="gcaron" unicode="&#x1e7;" horiz-adv-x="1038" d="M706 88 Q606 -22 460 -22 Q95 -22 95 544 Q95 806 176 951 Q218 1026 292.5 1068 Q367 1110 459 1110 Q544 1110 603.5 1081 Q663 1052 714 986 L714 1078 L868 1078 L868 155 Q868 -125 809 -260 Q765 -361 676.5 -415 Q588 -469 466 -469 Q358 -469 278.5 -442 Q199 -415 110 -348 L186 -222 Q277 -288 332 -309.5 Q387 -331 460 -331 Q619 -331 670 -190 Q706 -92 706 70 L706 88 Z M474 970 Q362 970 311.5 868.5 Q261 767 261 543 Q261 353 298 251 Q346 118 480 118 Q600 118 652 216 Q704 314 704 540 Q704 658 695.5 724 Q687 790 664 844 Q612 970 474 970 Z M527 1334 L659 1549 L813 1549 L576 1221 L478 1221 L242 1549 L396 1549 L527 1334 Z " />
<glyph glyph-name="uni01F4" unicode="&#x1f4;" horiz-adv-x="1161" d="M623 602 L623 740 L1033 740 L1033 58 Q827 -29 586 -29 Q397 -29 293 54 Q105 203 105 720 Q105 1147 233 1328 Q353 1498 595 1498 Q1001 1498 1011 1048 L848 1048 Q833 1351 597 1351 Q428 1351 353 1197 Q276 1040 276 723 Q276 400 357 250 Q395 180 449 150 Q508 118 597 118 Q734 118 869 178 L869 602 L623 602 Z M482 1598 L637 1925 L810 1925 L593 1598 L482 1598 Z " />
<glyph glyph-name="uni01F5" unicode="&#x1f5;" horiz-adv-x="1038" d="M706 88 Q606 -22 460 -22 Q95 -22 95 544 Q95 806 176 951 Q218 1026 292.5 1068 Q367 1110 459 1110 Q544 1110 603.5 1081 Q663 1052 714 986 L714 1078 L868 1078 L868 155 Q868 -125 809 -260 Q765 -361 676.5 -415 Q588 -469 466 -469 Q358 -469 278.5 -442 Q199 -415 110 -348 L186 -222 Q277 -288 332 -309.5 Q387 -331 460 -331 Q619 -331 670 -190 Q706 -92 706 70 L706 88 Z M474 970 Q362 970 311.5 868.5 Q261 767 261 543 Q261 353 298 251 Q346 118 480 118 Q600 118 652 216 Q704 314 704 540 Q704 658 695.5 724 Q687 790 664 844 Q612 970 474 970 Z M446 1221 L601 1549 L774 1549 L557 1221 L446 1221 Z " />
<glyph glyph-name="Scommaaccent" unicode="&#x218;" horiz-adv-x="1063" d="M92 427 L253 427 Q258 284 306 218 Q379 118 530 118 Q676 118 746 199 Q812 275 812 395 Q812 504 754 571 Q719 612 667.5 637.5 Q616 663 496 700 Q303 759 228 825 Q125 916 125 1100 Q125 1267 209 1375 Q308 1504 509 1504 Q756 1504 852 1333 Q905 1238 907 1054 L746 1054 Q740 1198 702 1259 Q641 1357 514 1357 Q403 1357 345 1285 Q292 1221 292 1116 Q292 1007 349.5 953.5 Q407 900 578 849 Q711 810 778 774 Q845 738 890 681 Q979 571 979 405 Q979 218 874 98 Q763 -29 537 -29 Q312 -29 202.5 83 Q93 195 92 427 Z M363 -480 L470 -153 L638 -153 L472 -480 L363 -480 Z " />
<glyph glyph-name="scommaaccent" unicode="&#x219;" horiz-adv-x="864" d="M68 328 L215 328 Q224 228 252 187 Q309 103 429 103 Q625 103 625 291 Q625 382 579 425 Q541 462 407 491 Q322 509 275 529 Q228 549 192 581 Q107 658 107 796 Q107 939 189.5 1024.5 Q272 1110 411 1110 Q615 1110 694 953 Q730 882 733 769 L586 769 Q578 860 558 898 Q516 975 418 975 Q339 975 304 924 Q272 877 272 807 Q272 730 313 693.5 Q354 657 470 630 Q574 606 623 583.5 Q672 561 708 520 Q784 435 784 294 Q784 142 696 58 Q602 -32 434 -32 Q203 -32 114 121 Q70 196 68 328 Z M245 -480 L352 -153 L520 -153 L354 -480 L245 -480 Z " />
<glyph glyph-name="uni021A" unicode="&#x21a;" horiz-adv-x="925" d="M379 0 L379 1334 L39 1334 L39 1475 L885 1475 L885 1334 L545 1334 L545 0 L379 0 Z M272 -480 L379 -153 L547 -153 L381 -480 L272 -480 Z " />
<glyph glyph-name="uni021B" unicode="&#x21b;" horiz-adv-x="630" d="M195 938 L70 938 L70 1078 L197 1078 L209 1399 L356 1399 L356 1078 L582 1078 L582 938 L356 938 L356 314 Q356 201 379 170.5 Q402 140 488 140 L602 140 L602 0 L502 0 Q389 0 342 11.5 Q295 23 260 60 Q222 100 208.5 151.5 Q195 203 195 308 L195 938 Z M155 -480 L262 -153 L430 -153 L264 -480 L155 -480 Z " />
<glyph glyph-name="uni0226" unicode="&#x226;" horiz-adv-x="1122" d="M812 418 L312 418 L187 0 L17 0 L493 1475 L632 1475 L1108 0 L938 0 L812 418 Z M771 559 L562 1254 L354 559 L771 559 Z M564 1855 Q609 1855 641.5 1822 Q674 1789 674 1743 Q674 1696 641 1663 Q608 1630 562 1630 Q515 1630 482 1663.5 Q449 1697 449 1744 Q449 1790 482.5 1822.5 Q516 1855 564 1855 Z " />
<glyph glyph-name="uni0227" unicode="&#x227;" horiz-adv-x="1000" d="M701 125 Q669 58 609 21 Q523 -32 402 -32 Q253 -32 175 55 Q97 142 97 310 Q97 497 179 576 Q261 655 456 655 Q509 655 687 644 L687 710 Q687 843 655 900 Q615 972 492 972 Q406 972 369 936 Q332 900 315 799 L166 799 Q183 937 226 1000 Q302 1110 493 1110 Q665 1110 751 1036 Q799 995 820 926 Q841 857 841 742 L841 0 L701 0 L701 125 Z M689 511 Q601 523 472 523 Q349 523 304 474 Q261 427 261 312 Q261 102 431 102 Q554 102 622 178 Q689 254 689 400 L689 511 Z M497 1489 Q542 1489 574.5 1456 Q607 1423 607 1377 Q607 1330 574.5 1297 Q542 1264 495 1264 Q448 1264 415 1297 Q382 1330 382 1377 Q382 1424 415.5 1456.5 Q449 1489 497 1489 Z " />
<glyph glyph-name="uni0237" unicode="&#x237;" horiz-adv-x="511" d="M180 1078 L341 1078 L341 -4 Q342 -270 268 -358 Q192 -452 43 -464 L43 -324 Q87 -317 109.5 -300.5 Q132 -284 149 -247 Q168 -205 174 -158 Q180 -111 180 -4 L180 1078 Z " />
<glyph glyph-name="uni0259" unicode="&#x259;" horiz-adv-x="983" d="M93 620 L721 620 Q713 803 658 885.5 Q603 968 490 968 Q356 968 299 833 L154 896 Q257 1108 492 1108 Q888 1108 888 538 Q888 -32 493 -32 Q201 -32 124 274 Q103 358 93 620 Z M262 495 Q267 353 284 290 Q332 108 497 108 Q611 108 664 199 Q717 290 723 495 L262 495 Z " />
<glyph glyph-name="uni02C9" unicode="&#x2c9;" horiz-adv-x="1024" d="M295 1311 L295 1447 L727 1447 L727 1311 L295 1311 Z " />
<glyph glyph-name="uni0312" unicode="&#x312;" horiz-adv-x="1024" d="M726 1549 L571 1221 L398 1221 L615 1549 L726 1549 Z " />
<glyph glyph-name="uni0313" unicode="&#x313;" horiz-adv-x="169" d="M-50 1110 L43 1546 L218 1546 L71 1110 L-50 1110 Z " />
<glyph glyph-name="uni031B" unicode="&#x31b;" horiz-adv-x="169" d="M-50 1110 L43 1546 L218 1546 L71 1110 L-50 1110 Z " />
<glyph glyph-name="commaaccent" unicode="&#x326;" horiz-adv-x="1024" d="M352 -480 L459 -153 L627 -153 L461 -480 L352 -480 Z " />
<glyph glyph-name="uni037E" unicode="&#x37e;" horiz-adv-x="594" d="M168 -271 L289 211 L487 211 L307 -271 L168 -271 Z M401 907 Q450 907 486 871 Q522 835 522 786 Q522 735 486 699.5 Q450 664 398 664 Q347 664 311 699.5 Q275 735 275 787 Q275 837 311.5 872 Q348 907 401 907 Z " />
<glyph glyph-name="uni0387" unicode="&#x387;" horiz-adv-x="602" d="M305 737 Q354 737 390 701 Q426 665 426 616 Q426 565 390 529.5 Q354 494 303 494 Q251 494 215 529.5 Q179 565 179 616 Q179 667 215.5 702 Q252 737 305 737 Z " />
<glyph glyph-name="uni0400" unicode="&#x400;" horiz-adv-x="1031" d="M179 0 L179 1475 L942 1475 L942 1334 L345 1334 L345 837 L838 837 L838 696 L345 696 L345 141 L955 141 L955 0 L179 0 Z M565 1594 L348 1921 L521 1921 L676 1594 L565 1594 Z " />
<glyph glyph-name="afii10023" unicode="&#x401;" horiz-adv-x="1031" d="M179 0 L179 1475 L942 1475 L942 1334 L345 1334 L345 837 L838 837 L838 696 L345 696 L345 141 L955 141 L955 0 L179 0 Z M379 1849 Q422 1849 452.5 1818 Q483 1787 483 1743 Q483 1699 452 1668 Q421 1637 377 1637 Q333 1637 302 1668.5 Q271 1700 271 1744 Q271 1788 302.5 1818.5 Q334 1849 379 1849 Z M727 1849 Q770 1849 800.5 1818 Q831 1787 831 1743 Q831 1699 800 1668 Q769 1637 726 1637 Q681 1637 650 1668.5 Q619 1700 619 1744 Q619 1788 650.5 1818.5 Q682 1849 727 1849 Z " />
<glyph glyph-name="afii10051" unicode="&#x402;" horiz-adv-x="1308" d="M364 0 L364 1334 L47 1334 L47 1475 L917 1475 L917 1334 L530 1334 L530 854 Q554 876 566 887 Q643 960 698 989 Q782 1032 876 1032 Q1055 1032 1114 900 Q1156 805 1156 584 L1156 -42 Q1156 -165 1139.5 -233 Q1123 -301 1082 -343 Q1008 -421 860 -430 L860 -289 Q903 -284 924.5 -272.5 Q946 -261 961 -234 Q979 -202 985 -165.5 Q991 -129 991 -50 L991 586 Q991 757 957.5 821 Q924 885 834 885 Q698 885 530 676 L530 0 L364 0 Z " />
<glyph glyph-name="afii10052" unicode="&#x403;" horiz-adv-x="933" d="M179 0 L179 1475 L884 1475 L884 1334 L345 1334 L345 0 L179 0 Z M446 1594 L601 1921 L774 1921 L557 1594 L446 1594 Z " />
<glyph glyph-name="afii10053" unicode="&#x404;" horiz-adv-x="1139" d="M767 707 L275 707 Q278 506 318 368 Q358 233 424.5 174 Q491 115 604 115 Q681 115 744 146 Q807 177 841 231 Q880 293 886 427 L1046 427 Q1043 212 959 112 Q903 46 808 8.5 Q713 -29 601 -29 Q411 -29 292 80 Q105 251 105 737 Q105 1504 608 1504 Q1014 1504 1022 1061 L862 1061 Q845 1360 614 1360 Q464 1360 387 1257 Q297 1136 279 845 L767 845 L767 707 Z " />
<glyph glyph-name="afii10054" unicode="&#x405;" horiz-adv-x="1063" d="M92 427 L253 427 Q258 284 306 218 Q379 118 530 118 Q676 118 746 199 Q812 275 812 395 Q812 504 754 571 Q719 612 667.5 637.5 Q616 663 496 700 Q303 759 228 825 Q125 916 125 1100 Q125 1267 209 1375 Q308 1504 509 1504 Q756 1504 852 1333 Q905 1238 907 1054 L746 1054 Q740 1198 702 1259 Q641 1357 514 1357 Q403 1357 345 1285 Q292 1221 292 1116 Q292 1007 349.5 953.5 Q407 900 578 849 Q711 810 778 774 Q845 738 890 681 Q979 571 979 405 Q979 218 874 98 Q763 -29 537 -29 Q312 -29 202.5 83 Q93 195 92 427 Z " />
<glyph glyph-name="afii10055" unicode="&#x406;" horiz-adv-x="525" d="M179 0 L179 1475 L345 1475 L345 0 L179 0 Z " />
<glyph glyph-name="afii10056" unicode="&#x407;" horiz-adv-x="540" d="M187 0 L187 1475 L353 1475 L353 0 L187 0 Z M93 1849 Q136 1849 167 1818 Q198 1787 198 1743 Q198 1699 166.5 1668 Q135 1637 91 1637 Q46 1637 14.5 1668.5 Q-17 1700 -17 1744 Q-17 1788 15 1818.5 Q47 1849 93 1849 Z M452 1849 Q496 1849 527 1818 Q558 1787 558 1743 Q558 1699 526.5 1668 Q495 1637 450 1637 Q406 1637 374 1668.5 Q342 1700 342 1744 Q342 1788 374 1818.5 Q406 1849 452 1849 Z " />
<glyph glyph-name="afii10057" unicode="&#x408;" horiz-adv-x="534" d="M189 1475 L355 1475 L355 128 Q355 -5 338 -78 Q321 -151 278 -199 Q202 -284 35 -293 L35 -151 Q85 -146 109.5 -133.5 Q134 -121 153 -91 Q174 -58 181.5 -14 Q189 30 189 121 L189 1475 Z " />
<glyph glyph-name="afii10058" unicode="&#x409;" horiz-adv-x="1741" d="M830 0 L830 1334 L444 1334 Q420 924 401 747 Q382 570 344 393 Q287 123 184 48 Q119 0 -5 0 L-31 0 L-31 141 L-6 141 Q40 141 67.5 159 Q95 177 121 225 Q260 506 286 1475 L996 1475 L996 881 L1230 881 Q1432 881 1532 794 Q1661 682 1661 440 Q1661 198 1532 87 Q1432 0 1230 0 L830 0 Z M996 141 L1194 141 Q1343 141 1410 202 Q1490 276 1490 440 Q1490 598 1419.5 669 Q1349 740 1194 740 L996 740 L996 141 Z " />
<glyph glyph-name="afii10059" unicode="&#x40a;" horiz-adv-x="1765" d="M179 0 L179 1475 L345 1475 L345 847 L843 847 L843 1475 L1009 1475 L1009 853 L1251 853 Q1454 853 1555 769 Q1684 661 1684 427 Q1684 192 1555 84 Q1455 0 1251 0 L843 0 L843 706 L345 706 L345 0 L179 0 Z M1009 141 L1215 141 Q1365 141 1432 199 Q1513 269 1513 427 Q1513 577 1442.5 644.5 Q1372 712 1215 712 L1009 712 L1009 141 Z " />
<glyph glyph-name="afii10060" unicode="&#x40b;" horiz-adv-x="1308" d="M364 0 L364 1334 L47 1334 L47 1475 L917 1475 L917 1334 L530 1334 L530 854 Q631 955 706 993.5 Q781 1032 876 1032 Q1055 1032 1114 900 Q1156 805 1156 584 L1156 0 L991 0 L991 586 Q991 757 957.5 821 Q924 885 834 885 Q697 885 530 676 L530 0 L364 0 Z " />
<glyph glyph-name="afii10061" unicode="&#x40c;" horiz-adv-x="1084" d="M179 0 L179 1475 L345 1475 L345 844 L551 844 L883 1475 L1056 1475 L691 790 Q734 757 765.5 704 Q797 651 844 529 L1050 0 L866 0 L709 439 Q651 602 616 646 Q567 707 478 707 L345 707 L345 0 L179 0 Z M512 1594 L667 1921 L840 1921 L623 1594 L512 1594 Z " />
<glyph glyph-name="uni040D" unicode="&#x40d;" horiz-adv-x="1239" d="M179 0 L179 1475 L337 1475 L337 333 L914 1475 L1059 1475 L1059 0 L901 0 L901 1135 L324 0 L179 0 Z M590 1594 L373 1921 L546 1921 L701 1594 L590 1594 Z " />
<glyph glyph-name="afii10062" unicode="&#x40e;" horiz-adv-x="929" d="M401 436 L8 1475 L187 1475 L485 620 L778 1475 L949 1475 L408 0 L237 0 L401 436 Z M333 1911 Q342 1822 375.5 1784.5 Q409 1747 479 1747 Q552 1747 587 1785.5 Q622 1824 628 1911 L750 1911 Q740 1790 703 1733 Q639 1636 480 1636 Q344 1636 280.5 1700 Q217 1764 209 1911 L333 1911 Z " />
<glyph glyph-name="afii10145" unicode="&#x40f;" horiz-adv-x="1178" d="M179 0 L179 1475 L345 1475 L345 141 L832 141 L832 1475 L998 1475 L998 0 L674 0 L650 -360 L527 -360 L503 0 L179 0 Z " />
<glyph glyph-name="afii10017" unicode="&#x410;" horiz-adv-x="1122" d="M812 418 L312 418 L187 0 L17 0 L493 1475 L632 1475 L1108 0 L938 0 L812 418 Z M771 559 L562 1254 L354 559 L771 559 Z " />
<glyph glyph-name="afii10018" unicode="&#x411;" horiz-adv-x="1102" d="M179 0 L179 1475 L927 1475 L927 1334 L343 1334 L343 881 L571 881 Q777 881 878 794 Q1005 684 1005 440 Q1005 212 900.5 106 Q796 0 571 0 L179 0 Z M343 141 L566 141 Q702 141 763 203 Q836 276 836 440 Q836 597 772 668.5 Q708 740 566 740 L343 740 L343 141 Z " />
<glyph glyph-name="afii10019" unicode="&#x412;" horiz-adv-x="1162" d="M179 0 L179 1475 L598 1475 Q995 1475 995 1107 Q995 996 956.5 925 Q918 854 831 805 Q924 776 983 698 Q1059 599 1059 433 Q1059 201 910 87 Q797 0 588 0 L179 0 Z M343 863 L599 863 Q711 863 769.5 922.5 Q828 982 828 1095 Q828 1338 595 1338 L343 1338 L343 863 Z M343 136 L565 136 Q726 136 801 199 Q888 272 888 431 Q888 570 816.5 647.5 Q745 725 616 725 L343 725 L343 136 Z " />
<glyph glyph-name="afii10020" unicode="&#x413;" horiz-adv-x="933" d="M179 0 L179 1475 L884 1475 L884 1334 L345 1334 L345 0 L179 0 Z " />
<glyph glyph-name="afii10021" unicode="&#x414;" horiz-adv-x="1182" d="M954 0 L129 0 L99 -360 L-28 -360 L-30 141 L67 141 Q268 489 287 1475 L999 1475 L999 141 L1111 141 L1111 -360 L985 -360 L954 0 Z M833 141 L833 1334 L447 1334 Q419 872 392 685 Q343 341 245 141 L833 141 Z " />
<glyph glyph-name="afii10022" unicode="&#x415;" horiz-adv-x="1031" d="M179 0 L179 1475 L942 1475 L942 1334 L345 1334 L345 837 L838 837 L838 696 L345 696 L345 141 L955 141 L955 0 L179 0 Z " />
<glyph glyph-name="afii10024" unicode="&#x416;" horiz-adv-x="1529" d="M682 0 L682 707 L606 707 Q521 707 478.5 657.5 Q436 608 376 439 L219 0 L34 0 L241 529 Q288 650 319.5 703.5 Q351 757 394 790 L29 1475 L199 1475 L534 844 L682 844 L682 1475 L843 1475 L843 844 L991 844 L1326 1475 L1496 1475 L1130 790 Q1173 757 1205 703 Q1237 649 1284 529 L1490 0 L1306 0 L1149 439 Q1091 602 1056 646 Q1007 707 918 707 L843 707 L843 0 L682 0 Z " />
<glyph glyph-name="afii10025" unicode="&#x417;" horiz-adv-x="1090" d="M352 710 L352 848 L500 848 Q631 848 694 907 Q774 980 774 1110 Q774 1360 526 1360 Q292 1360 279 1061 L118 1061 Q122 1259 198 1363 Q300 1504 539 1504 Q943 1504 943 1125 Q943 899 794 803 Q988 714 988 429 Q988 -29 554 -29 Q263 -29 156 142 Q98 235 94 427 L255 427 Q261 280 308 216 Q381 115 532 115 Q819 115 819 423 Q819 574 751 642 Q683 710 533 710 L352 710 Z " />
<glyph glyph-name="afii10026" unicode="&#x418;" horiz-adv-x="1239" d="M179 0 L179 1475 L337 1475 L337 333 L914 1475 L1059 1475 L1059 0 L901 0 L901 1135 L324 0 L179 0 Z " />
<glyph glyph-name="afii10027" unicode="&#x419;" horiz-adv-x="1239" d="M179 0 L179 1475 L337 1475 L337 333 L914 1475 L1059 1475 L1059 0 L901 0 L901 1135 L324 0 L179 0 Z M476 1911 Q485 1822 518.5 1784.5 Q552 1747 622 1747 Q695 1747 730 1785.5 Q765 1824 771 1911 L894 1911 Q883 1790 846 1733 Q782 1636 623 1636 Q487 1636 423.5 1700 Q360 1764 352 1911 L476 1911 Z " />
<glyph glyph-name="afii10028" unicode="&#x41a;" horiz-adv-x="1084" d="M179 0 L179 1475 L345 1475 L345 844 L551 844 L883 1475 L1056 1475 L691 790 Q734 757 765.5 704 Q797 651 844 529 L1050 0 L866 0 L709 439 Q651 602 616 646 Q567 707 478 707 L345 707 L345 0 L179 0 Z " />
<glyph glyph-name="afii10029" unicode="&#x41b;" horiz-adv-x="1182" d="M830 0 L830 1334 L444 1334 Q419 923 400.5 746.5 Q382 570 344 394 Q287 123 184 48 Q119 0 -5 0 L-31 0 L-31 141 L-6 141 Q39 141 67 159.5 Q95 178 121 225 Q260 506 286 1475 L996 1475 L996 0 L830 0 Z " />
<glyph glyph-name="afii10030" unicode="&#x41c;" horiz-adv-x="1505" d="M133 0 L234 1475 L400 1475 L752 295 L1104 1475 L1270 1475 L1371 0 L1211 0 L1140 1131 L806 0 L699 0 L364 1131 L294 0 L133 0 Z " />
<glyph glyph-name="afii10031" unicode="&#x41d;" horiz-adv-x="1254" d="M179 0 L179 1475 L345 1475 L345 847 L908 847 L908 1475 L1074 1475 L1074 0 L908 0 L908 706 L345 706 L345 0 L179 0 Z " />
<glyph glyph-name="afii10032" unicode="&#x41e;" horiz-adv-x="1184" d="M601 1504 Q785 1504 903 1392 Q1080 1225 1080 737 Q1080 404 993 210 Q936 82 818 21 Q720 -29 593 -29 Q398 -29 282 82 Q105 250 105 733 Q105 1077 192 1265 Q302 1504 601 1504 Z M587 1357 Q415 1357 344 1189 Q276 1026 276 737 Q276 450 344 286 Q415 118 593 118 Q771 118 841 286 Q909 451 909 732 Q909 1030 841 1189 Q803 1276 741.5 1316.5 Q680 1357 587 1357 Z " />
<glyph glyph-name="afii10033" unicode="&#x41f;" horiz-adv-x="1234" d="M179 0 L179 1475 L1054 1475 L1054 0 L888 0 L888 1334 L345 1334 L345 0 L179 0 Z " />
<glyph glyph-name="afii10034" unicode="&#x420;" horiz-adv-x="1093" d="M179 0 L179 1475 L514 1475 Q650 1475 729.5 1458 Q809 1441 866 1399 Q940 1345 980.5 1247 Q1021 1149 1021 1024 Q1021 759 864 652 Q750 575 515 575 L345 575 L345 0 L179 0 Z M345 714 L538 714 Q695 714 765 780 Q850 859 850 1027 Q850 1187 773 1266 Q706 1334 544 1334 L345 1334 L345 714 Z " />
<glyph glyph-name="afii10035" unicode="&#x421;" horiz-adv-x="1090" d="M846 427 L1008 427 Q1000 -29 591 -29 Q333 -29 216 161 Q105 342 105 734 Q105 1162 237 1340 Q355 1498 588 1498 Q986 1498 996 1048 L834 1048 Q821 1351 588 1351 Q424 1351 351 1198 Q276 1043 276 735 Q276 400 364 246 Q438 118 591 118 Q834 118 846 427 Z " />
<glyph glyph-name="afii10036" unicode="&#x422;" horiz-adv-x="925" d="M379 0 L379 1334 L39 1334 L39 1475 L885 1475 L885 1334 L545 1334 L545 0 L379 0 Z " />
<glyph glyph-name="afii10037" unicode="&#x423;" horiz-adv-x="929" d="M401 436 L8 1475 L187 1475 L485 620 L778 1475 L949 1475 L408 0 L237 0 L401 436 Z " />
<glyph glyph-name="afii10038" unicode="&#x424;" horiz-adv-x="1533" d="M681 -41 L681 148 Q462 167 347 245 Q109 404 109 738 Q109 949 210 1096 Q327 1266 541 1309 Q595 1320 681 1328 L681 1516 L838 1516 L838 1328 Q1064 1311 1186 1230 Q1424 1072 1424 738 Q1424 527 1323 380 Q1245 267 1138 216 Q1031 165 838 148 L838 -41 L681 -41 Z M681 288 L681 1188 Q280 1163 280 738 Q280 525 379 414 Q478 303 681 288 Z M838 287 Q1009 300 1094 362 Q1253 477 1253 738 Q1253 953 1150.5 1064.5 Q1048 1176 838 1188 L838 287 Z " />
<glyph glyph-name="afii10039" unicode="&#x425;" horiz-adv-x="1012" d="M411 773 L44 1475 L224 1475 L528 898 L783 1475 L967 1475 L604 749 L995 0 L816 0 L486 624 L200 0 L14 0 L411 773 Z " />
<glyph glyph-name="afii10040" unicode="&#x426;" horiz-adv-x="1204" d="M179 0 L179 1475 L345 1475 L345 141 L854 141 L854 1475 L1020 1475 L1020 141 L1133 141 L1133 -360 L1006 -360 L975 0 L179 0 Z " />
<glyph glyph-name="afii10041" unicode="&#x427;" horiz-adv-x="1150" d="M804 0 L804 683 Q736 638 720 629 Q601 563 453 563 Q281 563 206 674 Q131 785 131 1039 L131 1475 L297 1475 L297 1027 Q297 861 328 799 Q373 710 502 710 Q584 710 654.5 742 Q725 774 804 848 L804 1475 L970 1475 L970 0 L804 0 Z " />
<glyph glyph-name="afii10042" unicode="&#x428;" horiz-adv-x="1683" d="M179 0 L179 1475 L345 1475 L345 141 L758 141 L758 1475 L924 1475 L924 141 L1337 141 L1337 1475 L1503 1475 L1503 0 L179 0 Z " />
<glyph glyph-name="afii10043" unicode="&#x429;" horiz-adv-x="1687" d="M179 0 L179 1475 L345 1475 L345 142 L758 142 L758 1475 L924 1475 L924 142 L1337 142 L1337 1475 L1503 1475 L1503 142 L1616 142 L1616 -360 L1489 -360 L1458 0 L179 0 Z " />
<glyph glyph-name="afii10044" unicode="&#x42a;" horiz-adv-x="1271" d="M359 0 L359 1334 L-7 1334 L-7 1475 L525 1475 L525 881 L759 881 Q961 881 1061 794 Q1190 682 1190 440 Q1190 199 1061 87 Q961 0 759 0 L359 0 Z M525 141 L722 141 Q872 141 939 202 Q1019 275 1019 440 Q1019 598 948.5 669 Q878 740 722 740 L525 740 L525 141 Z " />
<glyph glyph-name="afii10045" unicode="&#x42b;" horiz-adv-x="1503" d="M179 0 L179 1475 L345 1475 L345 881 L579 881 Q781 881 881 794 Q1010 682 1010 440 Q1010 198 881 87 Q781 0 579 0 L179 0 Z M345 141 L543 141 Q692 141 759 202 Q839 276 839 440 Q839 597 768.5 668.5 Q698 740 543 740 L345 740 L345 141 Z M1157 0 L1157 1475 L1323 1475 L1323 0 L1157 0 Z " />
<glyph glyph-name="afii10046" unicode="&#x42c;" horiz-adv-x="1091" d="M179 0 L179 1475 L345 1475 L345 881 L579 881 Q781 881 881 794 Q1010 682 1010 440 Q1010 198 881 87 Q781 0 579 0 L179 0 Z M345 141 L543 141 Q692 141 759 202 Q839 276 839 440 Q839 597 768.5 668.5 Q698 740 543 740 L345 740 L345 141 Z " />
<glyph glyph-name="afii10047" unicode="&#x42d;" horiz-adv-x="1140" d="M373 707 L373 845 L861 845 Q850 1020 817 1125 Q778 1250 712 1305 Q646 1360 536 1360 Q295 1360 278 1061 L118 1061 Q121 1256 203 1363 Q312 1504 541 1504 Q828 1504 940 1264 Q1035 1063 1035 739 Q1035 392 927 187 Q866 71 749 15 Q655 -29 532 -29 Q394 -29 288 25 Q186 78 141 170.5 Q96 263 94 427 L254 427 Q260 279 309 214 Q383 115 526 115 Q676 115 753 221 Q861 368 865 707 L373 707 Z " />
<glyph glyph-name="afii10048" unicode="&#x42e;" horiz-adv-x="1773" d="M179 0 L179 1475 L345 1475 L345 847 L621 847 Q637 1057 680 1176 Q798 1504 1147 1504 Q1668 1504 1668 737 Q1668 409 1568 210 Q1503 81 1379 21 Q1275 -29 1143 -29 Q907 -29 777 119 Q626 293 618 706 L345 706 L345 0 L179 0 Z M1136 1357 Q787 1357 787 737 Q787 118 1142 118 Q1497 118 1497 733 Q1497 1028 1416 1188 Q1331 1357 1136 1357 Z " />
<glyph glyph-name="afii10049" unicode="&#x42f;" horiz-adv-x="1111" d="M765 639 L629 639 Q550 639 509 625.5 Q468 612 439 577 Q393 521 359 378 L268 0 L89 0 L206 448 Q237 567 262.5 615.5 Q288 664 332 690 Q245 732 203 788 Q125 891 125 1067 Q125 1184 163.5 1274.5 Q202 1365 271 1410 Q370 1475 590 1475 L931 1475 L931 0 L765 0 L765 639 Z M765 778 L765 1334 L587 1334 Q424 1334 363 1265 Q296 1190 296 1056 Q296 886 393 819 Q454 778 590 778 L765 778 Z " />
<glyph glyph-name="afii10065" unicode="&#x430;" horiz-adv-x="1000" d="M701 125 Q669 58 609 21 Q523 -32 402 -32 Q253 -32 175 55 Q97 142 97 310 Q97 497 179 576 Q261 655 456 655 Q509 655 687 644 L687 710 Q687 843 655 900 Q615 972 492 972 Q406 972 369 936 Q332 900 315 799 L166 799 Q183 937 226 1000 Q302 1110 493 1110 Q665 1110 751 1036 Q799 995 820 926 Q841 857 841 742 L841 0 L701 0 L701 125 Z M689 511 Q601 523 472 523 Q349 523 304 474 Q261 427 261 312 Q261 102 431 102 Q554 102 622 178 Q689 254 689 400 L689 511 Z " />
<glyph glyph-name="afii10066" unicode="&#x431;" horiz-adv-x="994" d="M250 779 Q282 880 330 927 Q398 993 518 993 Q704 993 809 845 Q908 707 908 486 Q908 248 794 106 Q686 -29 509 -29 Q385 -29 293.5 38.5 Q202 106 158 230 Q109 369 109 632 Q109 898 161 1045 Q223 1218 368 1306 Q444 1352 587 1393 Q654 1412 675 1434.5 Q696 1457 700 1516 L836 1516 Q831 1398 790 1348 Q746 1293 610 1252 Q490 1215 433 1185 Q376 1155 340 1109 Q303 1060 283.5 989.5 Q264 919 250 779 Z M505 854 Q400 854 338.5 757 Q277 660 277 493 Q277 329 333 229 Q395 120 512 120 Q628 120 688 225 Q744 324 744 489 Q744 651 690 743 Q625 854 505 854 Z " />
<glyph glyph-name="afii10067" unicode="&#x432;" horiz-adv-x="997" d="M170 0 L170 1078 L566 1078 Q732 1078 798 1028 Q879 966 879 811 Q879 714 851 658 Q823 602 756 566 Q836 538 872.5 474 Q909 410 909 298 Q909 142 827.5 71 Q746 0 569 0 L170 0 Z M331 621 L505 621 Q619 621 657 649 Q713 692 713 802 Q713 883 675 914 Q637 945 537 945 L331 945 L331 621 Z M331 134 L526 134 Q643 134 687 162 Q744 200 744 307 Q744 415 692.5 454.5 Q641 494 500 494 L331 494 L331 134 Z " />
<glyph glyph-name="afii10068" unicode="&#x433;" horiz-adv-x="791" d="M170 0 L170 1078 L748 1078 L748 938 L331 938 L331 0 L170 0 Z " />
<glyph glyph-name="afii10069" unicode="&#x434;" horiz-adv-x="996" d="M779 0 L113 0 L80 -353 L-36 -353 L-36 141 L48 141 Q191 419 242 1078 L822 1078 L822 141 L929 141 L929 -353 L811 -353 L779 0 Z M661 141 L661 938 L384 938 Q333 409 218 141 L661 141 Z " />
<glyph glyph-name="afii10070" unicode="&#x435;" horiz-adv-x="969" d="M872 498 L255 498 Q260 328 299 237 Q355 108 505 108 Q580 108 638.5 136.5 Q697 165 762 233 L854 113 Q798 61 764 39 Q655 -32 505 -32 Q94 -32 94 540 Q94 1110 484 1110 Q619 1110 712 1038 Q789 977 831.5 853 Q874 729 874 562 Q874 534 872 498 Z M712 626 Q705 761 681 825 Q625 972 484 972 Q334 972 283 807 Q265 751 257 626 L712 626 Z " />
<glyph glyph-name="afii10072" unicode="&#x436;" horiz-adv-x="1320" d="M583 0 L583 495 L559 495 Q494 495 457 461 Q420 427 371 323 L217 0 L24 0 L266 444 Q316 537 360 565 L45 1078 L226 1078 L488 623 L583 623 L583 1078 L738 1078 L738 623 L832 623 L1095 1078 L1275 1078 L961 565 Q1004 538 1055 444 L1297 0 L1104 0 L950 323 Q901 427 863.5 461 Q826 495 762 495 L738 495 L738 0 L583 0 Z " />
<glyph glyph-name="afii10073" unicode="&#x437;" horiz-adv-x="842" d="M266 491 L266 620 L413 620 Q563 620 563 792 Q563 975 393 975 Q306 975 263.5 928.5 Q221 882 212 778 L65 778 Q69 913 120 986 Q206 1110 408 1110 Q556 1110 640 1040 Q729 964 729 817 Q729 727 704.5 669.5 Q680 612 628 577 Q683 554 709 521 Q766 451 766 309 Q766 -32 415 -32 Q304 -32 221 6.5 Q138 45 98 115 Q57 188 56 318 L203 318 Q211 221 238 181 Q292 103 410 103 Q600 103 600 305 Q600 418 547 462 Q513 491 418 491 L266 491 Z " />
<glyph glyph-name="afii10074" unicode="&#x438;" horiz-adv-x="1063" d="M170 0 L170 1078 L329 1078 L329 275 L735 1078 L894 1078 L894 0 L735 0 L735 800 L329 0 L170 0 Z " />
<glyph glyph-name="afii10075" unicode="&#x439;" horiz-adv-x="1063" d="M170 0 L170 1078 L329 1078 L329 275 L735 1078 L894 1078 L894 0 L735 0 L735 800 L329 0 L170 0 Z M383 1533 Q392 1444 425.5 1406.5 Q459 1369 529 1369 Q602 1369 637 1407.5 Q672 1446 678 1533 L801 1533 Q790 1412 753 1355 Q689 1258 530 1258 Q394 1258 330.5 1322 Q267 1386 259 1533 L383 1533 Z " />
<glyph glyph-name="afii10076" unicode="&#x43a;" horiz-adv-x="970" d="M171 0 L171 1078 L332 1078 L332 623 L483 623 L746 1078 L926 1078 L611 565 Q655 538 706 444 L947 0 L754 0 L601 323 Q551 427 514 461 Q477 495 412 495 L332 495 L332 0 L171 0 Z " />
<glyph glyph-name="afii10077" unicode="&#x43b;" horiz-adv-x="1017" d="M687 0 L687 938 L404 938 Q358 490 307 298 Q266 141 202 70.5 Q138 0 37 0 L2 0 L2 141 L21 141 Q58 141 78.5 155 Q99 169 119 208 Q216 402 263 1078 L848 1078 L848 0 L687 0 Z " />
<glyph glyph-name="afii10078" unicode="&#x43c;" horiz-adv-x="1294" d="M93 0 L206 1078 L375 1078 L647 271 L920 1078 L1088 1078 L1202 0 L1047 0 L967 809 L695 0 L599 0 L328 809 L248 0 L93 0 Z " />
<glyph glyph-name="afii10079" unicode="&#x43d;" horiz-adv-x="1068" d="M170 0 L170 1078 L331 1078 L331 629 L737 629 L737 1078 L898 1078 L898 0 L737 0 L737 489 L331 489 L331 0 L170 0 Z " />
<glyph glyph-name="afii10080" unicode="&#x43e;" horiz-adv-x="983" d="M497 1110 Q628 1110 722 1037 Q888 909 888 539 Q888 -32 491 -32 Q94 -32 94 536 Q94 807 181 950 Q279 1110 497 1110 Z M487 970 Q367 970 313.5 868 Q260 766 260 539 Q260 342 301 238 Q352 108 490 108 Q613 108 668 208.5 Q723 309 723 534 Q723 739 682 840 Q630 970 487 970 Z " />
<glyph glyph-name="afii10081" unicode="&#x43f;" horiz-adv-x="1060" d="M170 0 L170 1078 L891 1078 L891 0 L730 0 L730 937 L331 937 L331 0 L170 0 Z " />
<glyph glyph-name="afii10082" unicode="&#x440;" horiz-adv-x="1037" d="M170 -439 L170 1078 L321 1078 L321 985 Q414 1110 578 1110 Q942 1110 942 539 Q942 274 861 128 Q819 53 744.5 10.5 Q670 -32 579 -32 Q422 -32 331 84 L331 -439 L170 -439 Z M551 970 Q437 970 384 866.5 Q331 763 331 540 Q331 345 369 242 Q420 108 558 108 Q673 108 724.5 209 Q776 310 776 535 Q776 735 739 836 Q690 970 551 970 Z " />
<glyph glyph-name="afii10083" unicode="&#x441;" horiz-adv-x="881" d="M729 229 L823 113 Q767 60 737 39 Q632 -32 488 -32 Q94 -32 94 539 Q94 805 182 952 Q227 1027 304.5 1068.5 Q382 1110 478 1110 Q683 1110 766 947 Q806 868 808 740 L652 740 Q636 970 479 970 Q402 970 348 913 Q301 865 280.5 776 Q260 687 260 536 Q260 291 323 195 Q380 108 489 108 Q615 108 729 229 Z " />
<glyph glyph-name="afii10084" unicode="&#x442;" horiz-adv-x="836" d="M338 0 L338 939 L45 939 L45 1078 L792 1078 L792 939 L499 939 L499 0 L338 0 Z " />
<glyph glyph-name="afii10085" unicode="&#x443;" horiz-adv-x="823" d="M338 22 L18 1078 L188 1078 L411 239 L635 1078 L805 1078 L469 -80 Q404 -305 326 -379 Q292 -412 244.5 -425 Q197 -438 106 -439 L106 -299 Q184 -299 217 -271 Q266 -228 299 -115 L338 22 Z " />
<glyph glyph-name="afii10086" unicode="&#x444;" horiz-adv-x="1325" d="M591 -439 L591 80 Q544 16 503 -8 Q462 -32 398 -32 Q239 -32 171 108 Q94 265 94 541 Q94 815 170 970 Q239 1110 396 1110 Q462 1110 503 1086.5 Q544 1063 591 997 L591 1516 L731 1516 L731 997 Q784 1066 822 1088 Q860 1110 927 1110 Q1084 1110 1153 970 Q1229 814 1229 540 Q1229 264 1152 108 Q1084 -32 926 -32 Q861 -32 819.5 -8 Q778 16 732 80 L732 -439 L591 -439 Z M591 451 L591 626 Q591 793 544.5 885.5 Q498 978 414 978 Q244 978 244 539 Q244 100 415 100 Q498 100 544.5 192.5 Q591 285 591 451 Z M732 626 L732 451 Q732 285 778 192.5 Q824 100 907 100 Q1076 100 1076 539 Q1076 978 907 978 Q824 978 778 885.5 Q732 793 732 626 Z " />
<glyph glyph-name="afii10087" unicode="&#x445;" horiz-adv-x="808" d="M308 578 L27 1078 L199 1078 L417 691 L607 1078 L776 1078 L484 572 L806 0 L634 0 L376 457 L166 0 L-4 0 L308 578 Z " />
<glyph glyph-name="afii10088" unicode="&#x446;" horiz-adv-x="1059" d="M170 0 L170 1078 L331 1078 L331 141 L724 141 L724 1078 L885 1078 L885 141 L992 141 L992 -353 L875 -353 L842 0 L170 0 Z " />
<glyph glyph-name="afii10089" unicode="&#x447;" horiz-adv-x="996" d="M666 0 L666 450 Q544 361 403 361 Q202 361 139 527 Q110 604 110 800 L110 1078 L271 1078 L271 757 Q271 613 307.5 557 Q344 501 439 501 Q567 501 666 606 L666 1078 L827 1078 L827 0 L666 0 Z " />
<glyph glyph-name="afii10090" unicode="&#x448;" horiz-adv-x="1490" d="M170 0 L170 1078 L331 1078 L331 141 L665 141 L665 1078 L826 1078 L826 141 L1159 141 L1159 1078 L1320 1078 L1320 0 L170 0 Z " />
<glyph glyph-name="afii10091" unicode="&#x449;" horiz-adv-x="1494" d="M170 0 L170 1078 L331 1078 L331 142 L665 142 L665 1078 L826 1078 L826 142 L1159 142 L1159 1078 L1320 1078 L1320 142 L1427 142 L1427 -353 L1310 -353 L1277 0 L170 0 Z " />
<glyph glyph-name="afii10092" unicode="&#x44a;" horiz-adv-x="1063" d="M290 0 L290 937 L9 937 L9 1078 L451 1078 L451 683 L655 683 Q839 683 912 613 Q1000 530 1000 340 Q1000 138 895 57 Q821 0 655 0 L290 0 Z M451 136 L636 136 Q743 136 783 169 Q834 210 834 343 Q834 466 793.5 508.5 Q753 551 636 551 L451 551 L451 136 Z " />
<glyph glyph-name="afii10093" unicode="&#x44b;" horiz-adv-x="1362" d="M171 0 L171 1078 L332 1078 L332 683 L535 683 Q720 683 793 613 Q881 530 881 341 Q881 138 776 57 Q702 0 535 0 L171 0 Z M332 136 L517 136 Q625 136 665 169 Q716 211 716 342 Q716 465 675.5 508 Q635 551 517 551 L332 551 L332 136 Z M1031 0 L1031 1078 L1192 1078 L1192 0 L1031 0 Z " />
<glyph glyph-name="afii10094" unicode="&#x44c;" horiz-adv-x="944" d="M171 0 L171 1078 L332 1078 L332 683 L535 683 Q720 683 793 613 Q881 530 881 341 Q881 138 776 57 Q702 0 535 0 L171 0 Z M332 136 L517 136 Q625 136 665 169 Q716 211 716 342 Q716 465 675.5 508 Q635 551 517 551 L332 551 L332 136 Z " />
<glyph glyph-name="afii10095" unicode="&#x44d;" horiz-adv-x="874" d="M268 491 L268 619 L612 619 Q606 740 584 807 Q533 967 391 967 Q286 967 241 881 Q217 834 212 778 L59 778 Q66 912 123 987 Q213 1107 392 1107 Q780 1107 780 539 Q780 -31 388 -31 Q226 -31 137.5 60 Q49 151 50 318 L203 318 Q210 225 239 183 Q291 109 387 109 Q500 109 554 200 Q608 291 613 491 L268 491 Z " />
<glyph glyph-name="afii10096" unicode="&#x44e;" horiz-adv-x="1381" d="M171 0 L171 1078 L332 1078 L332 625 L496 625 Q512 799 546 882 Q641 1110 890 1110 Q1287 1110 1287 538 Q1287 -32 890 -32 Q511 -32 494 492 L332 492 L332 0 L171 0 Z M886 970 Q766 970 712 867.5 Q658 765 658 538 Q658 323 709 217 Q762 108 890 108 Q1012 108 1067 209 Q1122 310 1122 534 Q1122 759 1071 861 Q1016 970 886 970 Z " />
<glyph glyph-name="afii10097" unicode="&#x44f;" horiz-adv-x="1003" d="M671 450 L509 450 Q451 450 424 417.5 Q397 385 346 256 L246 0 L67 0 L226 345 Q260 420 271 439 Q282 458 303 477 Q219 505 179 550 Q109 629 109 767 Q109 942 206 1022 Q274 1078 426 1078 L832 1078 L832 0 L671 0 L671 450 Z M671 579 L671 944 L450 944 Q350 944 312 901 Q275 858 275 770 Q275 672 317 625.5 Q359 579 448 579 L671 579 Z " />
<glyph glyph-name="uni0450" unicode="&#x450;" horiz-adv-x="969" d="M872 498 L255 498 Q260 328 299 237 Q355 108 505 108 Q580 108 638.5 136.5 Q697 165 762 233 L854 113 Q798 61 764 39 Q655 -32 505 -32 Q94 -32 94 540 Q94 1110 484 1110 Q619 1110 712 1038 Q789 977 831.5 853 Q874 729 874 562 Q874 534 872 498 Z M712 626 Q705 761 681 825 Q625 972 484 972 Q334 972 283 807 Q265 751 257 626 L712 626 Z M479 1236 L262 1564 L435 1564 L590 1236 L479 1236 Z " />
<glyph glyph-name="afii10071" unicode="&#x451;" horiz-adv-x="969" d="M872 498 L255 498 Q260 328 299 237 Q355 108 505 108 Q580 108 638.5 136.5 Q697 165 762 233 L854 113 Q798 61 764 39 Q655 -32 505 -32 Q94 -32 94 540 Q94 1110 484 1110 Q619 1110 712 1038 Q789 977 831.5 853 Q874 729 874 562 Q874 534 872 498 Z M712 626 Q705 761 681 825 Q625 972 484 972 Q334 972 283 807 Q265 751 257 626 L712 626 Z M341 1499 Q384 1499 414.5 1468 Q445 1437 445 1393 Q445 1349 414 1318 Q383 1287 339 1287 Q295 1287 264 1318.5 Q233 1350 233 1394 Q233 1438 264.5 1468.5 Q296 1499 341 1499 Z M650 1499 Q693 1499 723.5 1468 Q754 1437 754 1393 Q754 1349 723 1318 Q692 1287 649 1287 Q605 1287 573.5 1318.5 Q542 1350 542 1394 Q542 1438 573.5 1468.5 Q605 1499 650 1499 Z " />
<glyph glyph-name="afii10099" unicode="&#x452;" horiz-adv-x="1078" d="M175 0 L175 1231 L27 1231 L27 1343 L175 1343 L175 1515 L336 1515 L336 1343 L579 1343 L579 1231 L336 1231 L336 940 Q347 951 352 956 Q443 1043 505 1075.5 Q567 1108 645 1108 Q819 1108 874 975 Q915 874 915 659 L915 26 Q915 -122 899 -202.5 Q883 -283 844 -332 Q770 -425 621 -439 L621 -298 Q665 -290 686 -274 Q707 -258 724 -220 Q742 -177 748 -129.5 Q754 -82 754 28 L754 655 Q754 836 723.5 899.5 Q693 963 607 963 Q545 963 481.5 918 Q418 873 336 773 L336 0 L175 0 Z " />
<glyph glyph-name="afii10100" unicode="&#x453;" horiz-adv-x="791" d="M170 0 L170 1078 L748 1078 L748 938 L331 938 L331 0 L170 0 Z M351 1233 L512 1572 L687 1572 L463 1233 L351 1233 Z " />
<glyph glyph-name="afii10101" unicode="&#x454;" horiz-adv-x="874" d="M606 491 L261 491 Q264 360 287 282 Q337 109 487 109 Q656 109 671 318 L825 318 Q822 170 763 91 Q672 -31 486 -31 Q94 -31 94 540 Q94 1107 482 1107 Q635 1107 721 1022.5 Q807 938 815 778 L662 778 Q654 868 607 917.5 Q560 967 483 967 Q273 967 262 619 L606 619 L606 491 Z " />
<glyph glyph-name="afii10102" unicode="&#x455;" horiz-adv-x="864" d="M68 328 L215 328 Q224 228 252 187 Q309 103 429 103 Q625 103 625 291 Q625 382 579 425 Q541 462 407 491 Q322 509 275 529 Q228 549 192 581 Q107 658 107 796 Q107 939 189.5 1024.5 Q272 1110 411 1110 Q615 1110 694 953 Q730 882 733 769 L586 769 Q578 860 558 898 Q516 975 418 975 Q339 975 304 924 Q272 877 272 807 Q272 730 313 693.5 Q354 657 470 630 Q574 606 623 583.5 Q672 561 708 520 Q784 435 784 294 Q784 142 696 58 Q602 -32 434 -32 Q203 -32 114 121 Q70 196 68 328 Z " />
<glyph glyph-name="afii10103" unicode="&#x456;" horiz-adv-x="502" d="M172 0 L172 1078 L333 1078 L333 0 L172 0 Z M254 1507 Q299 1507 332 1473.5 Q365 1440 365 1393 Q365 1347 332 1313.5 Q299 1280 252 1280 Q205 1280 171.5 1313.5 Q138 1347 138 1394 Q138 1441 171.5 1474 Q205 1507 254 1507 Z " />
<glyph glyph-name="afii10104" unicode="&#x457;" horiz-adv-x="516" d="M178 0 L178 1078 L339 1078 L339 0 L178 0 Z M101 1501 Q144 1501 175 1469.5 Q206 1438 206 1394 Q206 1349 174.5 1317.5 Q143 1286 99 1286 Q54 1286 22.5 1318 Q-9 1350 -9 1395 Q-9 1439 23 1470 Q55 1501 101 1501 Z M420 1501 Q463 1501 494 1469.5 Q525 1438 525 1394 Q525 1349 493.5 1317.5 Q462 1286 418 1286 Q373 1286 341.5 1318 Q310 1350 310 1395 Q310 1439 342 1470 Q374 1501 420 1501 Z " />
<glyph glyph-name="afii10105" unicode="&#x458;" horiz-adv-x="511" d="M180 1078 L341 1078 L341 -4 Q342 -270 268 -358 Q192 -452 43 -464 L43 -324 Q87 -317 109.5 -300.5 Q132 -284 149 -247 Q168 -205 174 -158 Q180 -111 180 -4 L180 1078 Z M262 1507 Q307 1507 340 1473.5 Q373 1440 373 1393 Q373 1347 340 1313.5 Q307 1280 260 1280 Q213 1280 179.5 1313.5 Q146 1347 146 1394 Q146 1442 179.5 1474.5 Q213 1507 262 1507 Z " />
<glyph glyph-name="afii10106" unicode="&#x459;" horiz-adv-x="1460" d="M688 0 L688 937 L404 937 Q359 493 308 298 Q265 140 201.5 70 Q138 0 37 0 L2 0 L2 141 L21 141 Q58 141 78.5 155 Q99 169 119 208 Q165 300 204.5 539.5 Q244 779 263 1078 L849 1078 L849 683 L1053 683 Q1237 683 1310 613 Q1398 530 1398 339 Q1398 138 1293 57 Q1219 0 1053 0 L688 0 Z M849 136 L1034 136 Q1143 136 1181 168 Q1232 210 1232 342 Q1232 466 1191.5 508.5 Q1151 551 1034 551 L849 551 L849 136 Z " />
<glyph glyph-name="afii10107" unicode="&#x45a;" horiz-adv-x="1510" d="M170 0 L170 1078 L331 1078 L331 645 L737 645 L737 1078 L898 1078 L898 652 L1102 652 Q1286 652 1359 589 Q1447 512 1447 335 Q1447 156 1366.5 78 Q1286 0 1102 0 L737 0 L737 511 L331 511 L331 0 L170 0 Z M898 136 L1083 136 Q1191 136 1231 168 Q1282 209 1282 339 Q1282 446 1240.5 484 Q1199 522 1083 522 L898 522 L898 136 Z " />
<glyph glyph-name="afii10108" unicode="&#x45b;" horiz-adv-x="1078" d="M175 0 L175 1231 L27 1231 L27 1343 L175 1343 L175 1515 L336 1515 L336 1343 L579 1343 L579 1231 L336 1231 L336 940 Q347 951 352 956 Q443 1043 505 1075.5 Q567 1108 645 1108 Q819 1108 874 975 Q915 874 915 659 L915 0 L754 0 L754 655 Q754 836 723.5 899.5 Q693 963 607 963 Q545 963 481.5 918 Q418 873 336 773 L336 0 L175 0 Z " />
<glyph glyph-name="afii10109" unicode="&#x45c;" horiz-adv-x="970" d="M171 0 L171 1078 L332 1078 L332 623 L483 623 L746 1078 L926 1078 L611 565 Q655 538 706 444 L947 0 L754 0 L601 323 Q551 427 514 461 Q477 495 412 495 L332 495 L332 0 L171 0 Z M429 1233 L590 1572 L764 1572 L541 1233 L429 1233 Z " />
<glyph glyph-name="uni045D" unicode="&#x45d;" horiz-adv-x="1063" d="M523 1233 L299 1572 L473 1572 L634 1233 L523 1233 Z M170 0 L170 1078 L329 1078 L329 275 L735 1078 L894 1078 L894 0 L735 0 L735 800 L329 0 L170 0 Z " />
<glyph glyph-name="afii10110" unicode="&#x45e;" horiz-adv-x="823" d="M338 22 L18 1078 L188 1078 L411 239 L635 1078 L805 1078 L469 -80 Q404 -305 326 -379 Q292 -412 244.5 -425 Q197 -438 106 -439 L106 -299 Q184 -299 217 -271 Q266 -228 299 -115 L338 22 Z M254 1533 Q262 1444 295.5 1406.5 Q329 1369 399 1369 Q473 1369 508 1407.5 Q543 1446 548 1533 L671 1533 Q661 1412 623 1355 Q560 1258 401 1258 Q264 1258 201 1322 Q138 1386 129 1533 L254 1533 Z " />
<glyph glyph-name="afii10193" unicode="&#x45f;" horiz-adv-x="1055" d="M170 0 L170 1078 L331 1078 L331 141 L724 141 L724 1078 L885 1078 L885 0 L610 0 L582 -353 L473 -353 L446 0 L170 0 Z " />
<glyph glyph-name="uni0462" unicode="&#x462;" horiz-adv-x="1253" d="M479 1349 L865 1349 L865 1208 L479 1208 L479 881 L713 881 Q917 881 1017 794 Q1146 681 1146 440 Q1146 199 1017 87 Q917 0 713 0 L313 0 L313 1208 L44 1208 L44 1349 L313 1349 L313 1541 L479 1541 L479 1349 Z M479 141 L677 141 Q826 141 894 202 Q975 275 975 440 Q975 597 904 668 Q833 739 677 739 L479 739 L479 141 Z " />
<glyph glyph-name="uni0463" unicode="&#x463;" horiz-adv-x="1033" d="M221 940 L-1 940 L-1 1078 L221 1078 L221 1420 L382 1420 L382 1078 L741 1078 L741 940 L382 940 L382 683 L586 683 Q783 683 861 596 Q932 517 932 339 Q932 152 845 73 Q764 0 586 0 L221 0 L221 940 Z M382 136 L568 136 Q683 136 724.5 179.5 Q766 223 766 344 Q766 472 720 514 Q678 551 568 551 L382 551 L382 136 Z " />
<glyph glyph-name="afii10050" unicode="&#x490;" horiz-adv-x="933" d="M179 0 L179 1475 L715 1475 L746 1835 L884 1835 L884 1334 L345 1334 L345 0 L179 0 Z " />
<glyph glyph-name="afii10098" unicode="&#x491;" horiz-adv-x="791" d="M171 0 L171 1078 L591 1078 L620 1425 L749 1425 L749 938 L332 938 L332 0 L171 0 Z " />
<glyph glyph-name="uni0492" unicode="&#x492;" horiz-adv-x="956" d="M201 0 L201 717 L31 717 L31 844 L201 844 L201 1475 L906 1475 L906 1334 L367 1334 L367 844 L652 844 L652 717 L367 717 L367 0 L201 0 Z " />
<glyph glyph-name="uni0493" unicode="&#x493;" horiz-adv-x="784" d="M164 0 L164 440 L24 440 L24 558 L164 558 L164 1078 L742 1078 L742 937 L325 937 L325 558 L517 558 L517 440 L325 440 L325 0 L164 0 Z " />
<glyph glyph-name="uni0496" unicode="&#x496;" horiz-adv-x="1516" d="M682 0 L682 707 L606 707 Q521 707 478.5 657.5 Q436 608 376 439 L219 0 L34 0 L241 529 Q288 650 319.5 703.5 Q351 757 394 790 L29 1475 L199 1475 L534 844 L682 844 L682 1475 L843 1475 L843 844 L991 844 L1326 1475 L1495 1475 L1130 790 Q1173 758 1205 704 Q1237 650 1284 529 L1435 141 L1512 141 L1512 -360 L1385 -360 L1355 0 L1306 0 L1149 439 Q1090 602 1056 646 Q1007 707 918 707 L843 707 L843 0 L682 0 Z " />
<glyph glyph-name="uni0497" unicode="&#x497;" horiz-adv-x="1318" d="M583 0 L583 495 L559 495 Q494 495 457 461 Q420 427 371 324 L217 0 L24 0 L266 444 Q316 537 360 565 L45 1078 L226 1078 L488 623 L583 623 L583 1078 L738 1078 L738 623 L832 623 L1095 1078 L1276 1078 L961 565 Q986 549 1003.5 526.5 Q1021 504 1056 444 L1227 142 L1340 142 L1340 -353 L1223 -353 L1190 0 L1104 0 L950 324 Q901 427 864 461 Q827 495 762 495 L738 495 L738 0 L583 0 Z " />
<glyph glyph-name="uni0498" unicode="&#x498;" horiz-adv-x="1090" d="M616 -26 L588 -95 Q652 -101 683 -118 Q757 -160 757 -276 Q757 -370 703.5 -422.5 Q650 -475 554 -475 Q448 -475 347 -436 L381 -320 Q469 -358 544 -358 Q624 -358 624 -275 Q624 -198 540 -198 Q520 -198 475 -202 L458 -113 L496 -26 Q326 -13 231 60 Q160 115 128.5 199 Q97 283 94 427 L255 427 Q261 280 308 216 Q381 115 532 115 Q819 115 819 423 Q819 574 751 642 Q683 710 533 710 L352 710 L352 848 L500 848 Q631 848 694 907 Q774 980 774 1110 Q774 1360 526 1360 Q292 1360 279 1061 L118 1061 Q122 1259 198 1363 Q300 1504 539 1504 Q943 1504 943 1125 Q943 899 794 803 Q988 714 988 430 Q988 97 762 5 Q707 -18 616 -26 Z " />
<glyph glyph-name="uni0499" unicode="&#x499;" horiz-adv-x="842" d="M490 -27 L461 -97 Q529 -104 559 -120 Q634 -163 634 -281 Q634 -376 579.5 -429 Q525 -482 429 -482 Q320 -482 218 -442 L252 -326 Q343 -364 418 -364 Q501 -364 501 -279 Q501 -201 411 -201 Q391 -201 348 -205 L331 -115 L369 -30 Q234 -20 151 50 Q58 129 56 318 L203 318 Q211 221 238 181 Q292 103 410 103 Q600 103 600 305 Q600 418 547 462 Q513 491 418 491 L266 491 L266 620 L413 620 Q563 620 563 792 Q563 975 393 975 Q306 975 263.5 928.5 Q221 882 212 778 L65 778 Q69 913 120 986 Q206 1110 408 1110 Q556 1110 640 1040 Q729 964 729 817 Q729 727 704.5 669.5 Q680 612 628 577 Q684 554 709 521 Q766 451 766 309 Q766 157 698.5 75 Q631 -7 490 -27 Z " />
<glyph glyph-name="uni049A" unicode="&#x49a;" horiz-adv-x="1078" d="M179 0 L179 1475 L345 1475 L345 844 L551 844 L883 1475 L1056 1475 L691 790 Q734 757 765 704.5 Q796 652 844 529 L996 141 L1090 141 L1090 -360 L964 -360 L933 0 L866 0 L709 439 Q651 602 616 646 Q567 707 478 707 L345 707 L345 0 L179 0 Z " />
<glyph glyph-name="uni049B" unicode="&#x49b;" horiz-adv-x="970" d="M171 0 L171 1078 L332 1078 L332 623 L483 623 L746 1078 L926 1078 L611 565 Q637 549 654.5 526.5 Q672 504 706 444 L877 141 L964 141 L964 -353 L845 -353 L809 0 L754 0 L601 323 Q551 427 514 461 Q477 495 412 495 L332 495 L332 0 L171 0 Z " />
<glyph glyph-name="uni049C" unicode="&#x49c;" horiz-adv-x="1084" d="M430 707 L345 707 L345 0 L179 0 L179 1475 L345 1475 L345 844 L430 844 L430 1099 L524 1099 L524 844 L551 844 L883 1475 L1055 1475 L690 790 Q734 757 765.5 703.5 Q797 650 844 530 L1050 0 L866 0 L709 439 Q655 591 620 640.5 Q585 690 524 703 L524 444 L430 444 L430 707 Z " />
<glyph glyph-name="uni049D" unicode="&#x49d;" horiz-adv-x="970" d="M402 495 L332 495 L332 0 L171 0 L171 1078 L332 1078 L332 623 L402 623 L402 833 L485 833 L485 623 L491 623 L754 1078 L926 1078 L611 565 Q655 538 706 444 L948 0 L755 0 L601 323 Q538 455 485 480 L485 283 L402 283 L402 495 Z " />
<glyph glyph-name="uni04A2" unicode="&#x4a2;" horiz-adv-x="1258" d="M179 0 L179 1475 L345 1475 L345 847 L908 847 L908 1475 L1074 1475 L1074 142 L1186 142 L1186 -360 L1059 -360 L1029 0 L908 0 L908 706 L345 706 L345 0 L179 0 Z " />
<glyph glyph-name="uni04A3" unicode="&#x4a3;" horiz-adv-x="1072" d="M170 0 L170 1078 L331 1078 L331 629 L737 629 L737 1078 L898 1078 L898 142 L1005 142 L1005 -353 L888 -353 L852 0 L737 0 L737 489 L331 489 L331 0 L170 0 Z " />
<glyph glyph-name="uni04AA" unicode="&#x4aa;" horiz-adv-x="1090" d="M846 427 L1008 427 Q1004 202 900 87 Q825 4 691 -18 Q667 -22 632 -26 L603 -95 Q668 -101 698 -118 Q772 -160 772 -276 Q772 -370 718.5 -422.5 Q665 -475 569 -475 Q464 -475 362 -436 L396 -320 Q484 -358 560 -358 Q639 -358 639 -276 Q639 -235 618.5 -217 Q598 -199 550 -199 Q531 -199 490 -202 L473 -113 L512 -23 Q369 -3 283 79 Q105 248 105 734 Q105 1162 237 1340 Q355 1498 588 1498 Q986 1498 996 1048 L834 1048 Q821 1351 588 1351 Q424 1351 351 1198 Q276 1043 276 735 Q276 400 364 246 Q438 118 591 118 Q834 118 846 427 Z " />
<glyph glyph-name="uni04AB" unicode="&#x4ab;" horiz-adv-x="881" d="M512 -31 L485 -97 Q553 -103 582 -120 Q657 -163 657 -281 Q657 -376 603 -429 Q549 -482 452 -482 Q344 -482 242 -442 L276 -326 Q366 -364 441 -364 Q523 -364 523 -279 Q523 -201 434 -201 Q415 -201 372 -205 L355 -115 L396 -22 Q94 45 94 539 Q94 805 182 952 Q227 1027 304.5 1068.5 Q382 1110 478 1110 Q683 1110 766 947 Q806 868 808 740 L652 740 Q636 970 479 970 Q402 970 348 913 Q301 865 280.5 776 Q260 687 260 536 Q260 292 323 195 Q380 109 489 109 Q615 109 729 230 L823 113 Q736 30 668 3 Q597 -26 512 -31 Z " />
<glyph glyph-name="uni04AE" unicode="&#x4ae;" horiz-adv-x="930" d="M383 0 L383 578 L-31 1475 L150 1475 L466 746 L781 1475 L962 1475 L549 578 L549 0 L383 0 Z " />
<glyph glyph-name="uni04AF" unicode="&#x4af;" horiz-adv-x="805" d="M322 -3 L18 1078 L188 1078 L402 191 L616 1078 L787 1078 L483 -3 L483 -439 L322 -439 L322 -3 Z " />
<glyph glyph-name="uni04B0" unicode="&#x4b0;" horiz-adv-x="906" d="M371 0 L371 539 L180 539 L180 671 L326 671 L-31 1475 L150 1475 L454 746 L757 1475 L938 1475 L581 671 L727 671 L727 539 L537 539 L537 0 L371 0 Z " />
<glyph glyph-name="uni04B1" unicode="&#x4b1;" horiz-adv-x="803" d="M286 108 L19 1078 L188 1078 L402 191 L616 1078 L786 1078 L519 108 L665 108 L665 0 L483 0 L483 -439 L322 -439 L322 0 L140 0 L140 108 L286 108 Z " />
<glyph glyph-name="uni04B2" unicode="&#x4b2;" horiz-adv-x="988" d="M411 773 L44 1475 L224 1475 L528 898 L782 1475 L967 1475 L603 750 L921 142 L1023 142 L1023 -360 L897 -360 L867 0 L815 0 L486 625 L200 0 L14 0 L411 773 Z " />
<glyph glyph-name="uni04B3" unicode="&#x4b3;" horiz-adv-x="807" d="M307 578 L26 1077 L198 1077 L417 690 L606 1077 L776 1077 L484 572 L726 141 L824 141 L824 -353 L707 -353 L671 0 L634 0 L375 456 L166 0 L-5 0 L307 578 Z " />
<glyph glyph-name="uni04B6" unicode="&#x4b6;" horiz-adv-x="1154" d="M804 0 L804 683 Q740 641 720 629 Q601 563 453 563 Q281 563 206 674 Q131 785 131 1040 L131 1475 L297 1475 L297 1027 Q297 861 328 799 Q373 710 502 710 Q615 710 718 779 Q761 808 804 849 L804 1475 L970 1475 L970 142 L1082 142 L1082 -360 L956 -360 L926 0 L804 0 Z " />
<glyph glyph-name="uni04B7" unicode="&#x4b7;" horiz-adv-x="1001" d="M666 0 L666 450 Q545 362 403 362 Q202 362 139 527 Q110 604 110 800 L110 1078 L271 1078 L271 757 Q271 613 307.5 557.5 Q344 502 439 502 Q566 502 666 606 L666 1078 L827 1078 L827 142 L933 142 L933 -353 L817 -353 L781 0 L666 0 Z " />
<glyph glyph-name="uni04B8" unicode="&#x4b8;" horiz-adv-x="1150" d="M602 722 Q698 749 804 848 L804 1475 L970 1475 L970 0 L804 0 L804 682 Q731 634 694 615.5 Q657 597 602 582 L602 337 L499 337 L499 564 Q477 562 455 562 Q241 562 170 741 Q131 841 131 1039 L131 1475 L297 1475 L297 1026 Q297 914 308.5 857.5 Q320 801 350 766 Q396 711 499 709 L499 991 L602 991 L602 722 Z " />
<glyph glyph-name="uni04B9" unicode="&#x4b9;" horiz-adv-x="996" d="M666 0 L666 450 Q586 392 514 375 L514 172 L424 172 L424 362 Q405 361 395 361 Q201 361 139 527 Q110 604 110 800 L110 1078 L271 1078 L271 757 Q271 601 317 545 Q346 510 424 502 L424 713 L514 713 L514 511 Q597 534 666 606 L666 1078 L827 1078 L827 0 L666 0 Z " />
<glyph glyph-name="uni04BA" unicode="&#x4ba;" horiz-adv-x="1124" d="M179 0 L179 1475 L345 1475 L345 854 Q446 955 521 993.5 Q596 1032 691 1032 Q870 1032 929 899 Q971 805 971 583 L971 0 L806 0 L806 587 Q806 757 772.5 821 Q739 885 649 885 Q512 885 345 675 L345 0 L179 0 Z " />
<glyph glyph-name="uni04BB" unicode="&#x4bb;" horiz-adv-x="1072" d="M170 0 L170 1578 L331 1578 L331 942 Q348 958 399 1008 Q449 1056 513.5 1083 Q578 1110 642 1110 Q814 1110 869 976 Q910 875 910 660 L910 0 L749 0 L749 656 Q749 835 718 899 Q687 963 602 963 Q484 963 331 774 L331 0 L170 0 Z " />
<glyph glyph-name="uni04C0" unicode="&#x4c0;" horiz-adv-x="525" d="M179 0 L179 1475 L345 1475 L345 0 L179 0 Z " />
<glyph glyph-name="uni04C1" unicode="&#x4c1;" horiz-adv-x="1529" d="M682 0 L682 707 L606 707 Q521 707 478.5 657.5 Q436 608 376 439 L219 0 L34 0 L241 529 Q288 650 319.5 703.5 Q351 757 394 790 L29 1475 L199 1475 L534 844 L682 844 L682 1475 L843 1475 L843 844 L991 844 L1326 1475 L1496 1475 L1130 790 Q1173 757 1205 703 Q1237 649 1284 529 L1490 0 L1306 0 L1149 439 Q1091 602 1056 646 Q1007 707 918 707 L843 707 L843 0 L682 0 Z M614 1911 Q623 1822 656.5 1784.5 Q690 1747 760 1747 Q834 1747 868.5 1785.5 Q903 1824 909 1911 L1032 1911 Q1021 1790 984 1733 Q921 1636 761 1636 Q625 1636 562 1700 Q499 1764 490 1911 L614 1911 Z " />
<glyph glyph-name="uni04C2" unicode="&#x4c2;" horiz-adv-x="1320" d="M583 0 L583 495 L559 495 Q494 495 457 461 Q420 427 371 323 L217 0 L24 0 L266 444 Q316 537 360 565 L45 1078 L226 1078 L488 623 L583 623 L583 1078 L738 1078 L738 623 L832 623 L1095 1078 L1275 1078 L961 565 Q1004 538 1055 444 L1297 0 L1104 0 L950 323 Q901 427 863.5 461 Q826 495 762 495 L738 495 L738 0 L583 0 Z M503 1533 Q512 1444 545 1406.5 Q578 1369 649 1369 Q722 1369 757 1407.5 Q792 1446 797 1533 L920 1533 Q910 1412 872 1355 Q809 1258 650 1258 Q514 1258 450.5 1322 Q387 1386 379 1533 L503 1533 Z " />
<glyph glyph-name="uni04CF" unicode="&#x4cf;" horiz-adv-x="525" d="M179 0 L179 1475 L345 1475 L345 0 L179 0 Z " />
<glyph glyph-name="uni04D4" unicode="&#x4d4;" horiz-adv-x="1663" d="M809 483 L355 483 L108 0 L-70 0 L707 1475 L1540 1475 L1540 1334 L975 1334 L975 837 L1439 837 L1439 696 L975 696 L975 141 L1554 141 L1554 0 L809 0 L809 483 Z M809 621 L809 1362 L438 621 L809 621 Z " />
<glyph glyph-name="uni04D5" unicode="&#x4d5;" horiz-adv-x="1541" d="M666 642 L666 710 Q666 845 635 902 Q597 975 473 975 Q395 975 358.5 936.5 Q322 898 306 799 L157 799 Q171 928 218 1000 Q289 1110 475 1110 Q595 1110 660 1074 Q725 1038 766 950 Q857 1110 1060 1110 Q1191 1110 1284 1038 Q1385 960 1425 778 Q1447 678 1447 562 Q1447 535 1445 498 L830 498 Q832 367 854 289 Q906 108 1082 108 Q1215 108 1336 233 L1427 113 Q1371 61 1337 39 Q1228 -32 1079 -32 Q849 -32 746 174 Q613 -32 392 -32 Q246 -32 168 51 Q86 138 86 301 Q86 515 199 601 Q269 653 446 653 Q504 653 666 642 Z M668 511 Q585 523 450 523 Q339 523 300 481 Q252 428 252 307 Q252 106 415 106 Q497 106 550 136 Q603 166 636 231 Q668 294 668 400 L668 511 Z M1283 626 Q1276 762 1252 825 Q1197 972 1057 972 Q908 972 857 807 Q838 746 831 626 L1283 626 Z " />
<glyph glyph-name="uni04D8" unicode="&#x4d8;" horiz-adv-x="1262" d="M106 840 L984 840 Q975 1015 937 1119 Q891 1244 817 1300.5 Q743 1357 625 1357 Q525 1357 459 1311 Q393 1265 343 1160 L191 1230 Q315 1504 632 1504 Q832 1504 959 1394 Q1158 1219 1158 737 Q1158 409 1058 209 Q994 83 869 21 Q767 -29 637 -29 Q390 -29 262 129 Q179 232 142 400 Q105 568 106 840 Z M278 702 Q286 479 321 374 Q365 241 440 179.5 Q515 118 632 118 Q782 118 866 223 Q979 364 987 702 L278 702 Z " />
<glyph glyph-name="afii10846" unicode="&#x4d9;" horiz-adv-x="983" d="M93 620 L721 620 Q713 803 658 885.5 Q603 968 490 968 Q356 968 299 833 L154 896 Q257 1108 492 1108 Q888 1108 888 538 Q888 -32 493 -32 Q201 -32 124 274 Q103 358 93 620 Z M262 495 Q267 353 284 290 Q332 108 497 108 Q611 108 664 199 Q717 290 723 495 L262 495 Z " />
<glyph glyph-name="uni04E2" unicode="&#x4e2;" horiz-adv-x="1239" d="M179 0 L179 1475 L337 1475 L337 333 L914 1475 L1059 1475 L1059 0 L901 0 L901 1135 L324 0 L179 0 Z M395 1683 L395 1819 L827 1819 L827 1683 L395 1683 Z " />
<glyph glyph-name="uni04E3" unicode="&#x4e3;" horiz-adv-x="1063" d="M170 0 L170 1078 L329 1078 L329 275 L735 1078 L894 1078 L894 0 L735 0 L735 800 L329 0 L170 0 Z M308 1328 L308 1464 L740 1464 L740 1328 L308 1328 Z " />
<glyph glyph-name="uni04E8" unicode="&#x4e8;" horiz-adv-x="1262" d="M641 1504 Q1157 1504 1157 736 Q1157 409 1057 209 Q992 81 867 21 Q763 -29 631 -29 Q429 -29 304 81 Q105 256 105 732 Q105 1070 205 1265 Q328 1504 641 1504 Z M279 840 L983 840 Q972 1015 934 1120 Q891 1242 817 1299.5 Q743 1357 631 1357 Q401 1357 320 1098 Q289 1002 279 840 Z M986 702 L276 702 Q282 496 321 374 Q367 232 450 171 Q522 118 631 118 Q976 118 986 702 Z " />
<glyph glyph-name="uni04E9" unicode="&#x4e9;" horiz-adv-x="983" d="M498 1108 Q629 1108 722 1036 Q888 908 888 538 Q888 -32 491 -32 Q94 -32 94 534 Q94 806 181 948 Q279 1108 498 1108 Z M261 620 L720 620 Q714 756 682 838 Q630 968 491 968 Q378 968 324.5 887 Q271 806 261 620 Z M260 495 Q266 326 300 238 Q351 108 491 108 Q609 108 662 197.5 Q715 287 722 495 L260 495 Z " />
<glyph glyph-name="uni04EE" unicode="&#x4ee;" horiz-adv-x="929" d="M401 436 L8 1475 L187 1475 L485 620 L778 1475 L949 1475 L408 0 L237 0 L401 436 Z M253 1683 L253 1819 L685 1819 L685 1683 L253 1683 Z " />
<glyph glyph-name="uni04EF" unicode="&#x4ef;" horiz-adv-x="823" d="M338 22 L18 1078 L188 1078 L411 239 L635 1078 L805 1078 L469 -80 Q404 -305 326 -379 Q292 -412 244.5 -425 Q197 -438 106 -439 L106 -299 Q184 -299 217 -271 Q266 -228 299 -115 L338 22 Z M184 1328 L184 1464 L616 1464 L616 1328 L184 1328 Z " />
<glyph glyph-name="uni1E1E" unicode="&#x1e1e;" horiz-adv-x="986" d="M179 0 L179 1475 L941 1475 L941 1334 L345 1334 L345 829 L838 829 L838 688 L345 688 L345 0 L179 0 Z M581 1860 Q626 1860 658.5 1827 Q691 1794 691 1748 Q691 1701 658 1668 Q625 1635 579 1635 Q532 1635 499 1668.5 Q466 1702 466 1749 Q466 1795 499.5 1827.5 Q533 1860 581 1860 Z " />
<glyph glyph-name="Wdieresis" unicode="&#x1e84;" horiz-adv-x="1579" d="M374 -32 L73 1475 L242 1475 L452 322 L740 1483 L840 1483 L1128 322 L1337 1475 L1507 1475 L1206 -32 L1082 -32 L790 1138 L498 -32 L374 -32 Z M618 1849 Q661 1849 691.5 1818 Q722 1787 722 1743 Q722 1699 691.5 1668 Q661 1637 617 1637 Q572 1637 541 1668.5 Q510 1700 510 1744 Q510 1788 541.5 1818.5 Q573 1849 618 1849 Z M966 1849 Q1009 1849 1039.5 1818 Q1070 1787 1070 1743 Q1070 1699 1039 1668 Q1008 1637 965 1637 Q920 1637 889 1668.5 Q858 1700 858 1744 Q858 1788 889.5 1818.5 Q921 1849 966 1849 Z " />
<glyph glyph-name="wdieresis" unicode="&#x1e85;" horiz-adv-x="1292" d="M301 -25 L50 1078 L213 1078 L378 268 L601 1078 L692 1078 L915 268 L1081 1078 L1243 1078 L992 -25 L871 -25 L647 793 L423 -25 L301 -25 Z M494 1482 Q537 1482 567.5 1451 Q598 1420 598 1376 Q598 1332 567 1301 Q536 1270 492 1270 Q448 1270 417 1301.5 Q386 1333 386 1377 Q386 1421 417.5 1451.5 Q449 1482 494 1482 Z M803 1482 Q846 1482 876.5 1451 Q907 1420 907 1376 Q907 1332 876 1301 Q845 1270 802 1270 Q758 1270 726.5 1301.5 Q695 1333 695 1377 Q695 1421 726.5 1451.5 Q758 1482 803 1482 Z " />
<glyph glyph-name="uni2007" unicode="&#x2007;" horiz-adv-x="1061" d="" />
<glyph glyph-name="uni2011" unicode="&#x2011;" horiz-adv-x="674" d="M114 544 L114 685 L560 685 L560 544 L114 544 Z " />
<glyph glyph-name="figuredash" unicode="&#x2012;" horiz-adv-x="737" d="M43 544 L43 685 L694 685 L694 544 L43 544 Z " />
<glyph glyph-name="afii00208" unicode="&#x2015;" horiz-adv-x="1061" d="M-53 544 L-53 685 L1116 685 L1116 544 L-53 544 Z " />
<glyph glyph-name="zerosuperior" unicode="&#x2070;" horiz-adv-x="658" d="M333 1696 Q500 1696 563 1554 Q611 1446 611 1250 Q611 1032 552 922 Q487 803 329 803 Q158 803 95 945 Q47 1054 47 1251 Q47 1485 115 1590.5 Q183 1696 333 1696 Z M327 1576 Q247 1576 218 1484 Q191 1397 191 1250 Q191 1086 223 1001 Q252 923 329 923 Q411 923 440 1015 Q467 1102 467 1250 Q467 1413 435 1498 Q406 1576 327 1576 Z " />
<glyph glyph-name="foursuperior" unicode="&#x2074;" horiz-adv-x="654" d="M380 819 L380 998 L45 998 L45 1093 L257 1679 L407 1679 L200 1116 L380 1116 L380 1437 L522 1437 L522 1116 L629 1116 L629 998 L522 998 L522 819 L380 819 Z " />
<glyph glyph-name="fivesuperior" unicode="&#x2075;" horiz-adv-x="663" d="M81 1224 L109 1679 L557 1679 L557 1562 L237 1562 L223 1346 Q288 1370 349 1370 Q487 1370 544 1297 Q603 1223 603 1090 Q603 803 321 803 Q179 803 113 866.5 Q47 930 40 1074 L176 1074 Q184 1000 207 970 Q243 923 319 923 Q386 923 422.5 965.5 Q459 1008 459 1086 Q459 1167 424 1212 Q389 1257 327 1257 Q256 1257 172 1179 L81 1224 Z " />
<glyph glyph-name="sixsuperior" unicode="&#x2076;" horiz-adv-x="660" d="M208 1323 Q252 1352 280 1361 Q308 1370 358 1370 Q483 1370 542 1294 Q602 1218 602 1093 Q602 956 533 881.5 Q464 807 338 807 Q197 807 133.5 894 Q70 981 70 1173 Q70 1414 126 1546 Q189 1692 355 1692 Q466 1692 520 1636 Q574 1580 584 1452 L455 1452 Q444 1583 350 1583 Q265 1583 236 1484 Q217 1419 208 1323 Z M334 1261 Q274 1261 240 1215.5 Q206 1170 206 1090 Q206 916 337 916 Q398 916 432 961.5 Q466 1007 466 1089 Q466 1261 334 1261 Z " />
<glyph glyph-name="sevensuperior" unicode="&#x2077;" horiz-adv-x="498" d="M339 1562 L-11 1562 L-11 1679 L473 1679 L473 1586 L197 819 L39 819 L339 1562 Z " />
<glyph glyph-name="eightsuperior" unicode="&#x2078;" horiz-adv-x="657" d="M154 1276 Q69 1332 69 1459 Q69 1571 137 1633.5 Q205 1696 328 1696 Q451 1696 519 1633.5 Q587 1571 587 1458 Q587 1332 502 1276 Q615 1210 615 1061 Q615 938 540 870.5 Q465 803 328 803 Q191 803 116 870.5 Q41 938 41 1061 Q41 1209 154 1276 Z M326 1583 Q269 1583 237 1549 Q205 1515 205 1454 Q205 1393 237 1359.5 Q269 1326 328 1326 Q386 1326 418.5 1359.5 Q451 1393 451 1454 Q451 1583 326 1583 Z M326 1217 Q258 1217 219.5 1177.5 Q181 1138 181 1069 Q181 998 220 959 Q259 920 328 920 Q397 920 436 959 Q475 998 475 1068 Q475 1139 436 1178 Q397 1217 326 1217 Z " />
<glyph glyph-name="ninesuperior" unicode="&#x2079;" horiz-adv-x="665" d="M449 1190 Q407 1160 379.5 1150.5 Q352 1141 306 1141 Q69 1141 69 1406 Q69 1546 134.5 1619 Q200 1692 327 1692 Q468 1692 534 1590 Q585 1511 585 1314 Q585 1036 521.5 921 Q458 806 306 806 Q189 806 136 861 Q83 916 71 1050 L199 1050 Q213 971 236 943 Q259 915 308 915 Q377 915 406.5 973 Q436 1031 449 1190 Z M324 1579 Q205 1579 205 1412 Q205 1250 324 1250 Q449 1250 449 1416 Q449 1579 324 1579 Z " />
<glyph glyph-name="zeroinferior" unicode="&#x2080;" horiz-adv-x="658" d="M333 672 Q500 672 563 530 Q611 422 611 226 Q611 8 552 -102 Q487 -221 329 -221 Q158 -221 95 -79 Q47 30 47 227 Q47 461 115 566.5 Q183 672 333 672 Z M327 552 Q247 552 218 460 Q191 373 191 226 Q191 62 223 -23 Q252 -101 329 -101 Q411 -101 440 -9 Q467 78 467 226 Q467 389 435 474 Q406 552 327 552 Z " />
<glyph glyph-name="oneinferior" unicode="&#x2081;" horiz-adv-x="483" d="M181 -205 L181 515 L6 440 L6 566 L224 659 L326 659 L326 -205 L181 -205 Z " />
<glyph glyph-name="twoinferior" unicode="&#x2082;" horiz-adv-x="661" d="M37 -205 Q46 -88 91.5 -15 Q137 58 297 209 Q374 282 401.5 327.5 Q429 373 429 427 Q429 486 399.5 519 Q370 552 317 552 Q249 552 217.5 512.5 Q186 473 175 372 L39 372 Q52 508 94 571 Q162 672 320 672 Q444 672 508.5 611 Q573 550 573 431 Q573 333 536.5 270.5 Q500 208 375 88 Q299 15 273 -15.5 Q247 -46 227 -88 L591 -88 L591 -205 L37 -205 Z " />
<glyph glyph-name="threeinferior" unicode="&#x2083;" horiz-adv-x="662" d="M210 190 L210 302 Q317 302 347 308 Q423 324 423 433 Q423 551 315 551 Q257 551 228 522.5 Q199 494 187 425 L53 425 Q68 541 110 591 Q175 671 323 671 Q448 671 507.5 614 Q567 557 567 437 Q567 309 488 253 Q594 193 594 39 Q594 -221 318 -221 Q138 -221 74 -115 Q41 -61 35 50 L171 50 Q180 -33 213 -67 Q246 -101 317 -101 Q450 -101 450 41 Q450 157 370 178 Q336 187 210 190 Z " />
<glyph glyph-name="fourinferior" unicode="&#x2084;" horiz-adv-x="654" d="M380 -205 L380 -26 L45 -26 L45 69 L257 655 L407 655 L200 92 L380 92 L380 413 L522 413 L522 92 L629 92 L629 -26 L522 -26 L522 -205 L380 -205 Z " />
<glyph glyph-name="fiveinferior" unicode="&#x2085;" horiz-adv-x="663" d="M81 200 L109 655 L557 655 L557 538 L237 538 L223 322 Q288 346 349 346 Q487 346 544 273 Q603 199 603 66 Q603 -221 321 -221 Q179 -221 113 -157.5 Q47 -94 40 50 L176 50 Q184 -24 207 -54 Q243 -101 319 -101 Q386 -101 422.5 -58.5 Q459 -16 459 62 Q459 143 424 188 Q389 233 327 233 Q256 233 172 155 L81 200 Z " />
<glyph glyph-name="sixinferior" unicode="&#x2086;" horiz-adv-x="660" d="M208 299 Q252 328 280 337 Q308 346 358 346 Q483 346 542 270 Q602 194 602 69 Q602 -68 533 -142.5 Q464 -217 338 -217 Q197 -217 133.5 -130 Q70 -43 70 149 Q70 390 126 522 Q189 668 355 668 Q466 668 520 612 Q574 556 584 428 L455 428 Q444 559 350 559 Q265 559 236 460 Q217 395 208 299 Z M334 237 Q274 237 240 191.5 Q206 146 206 66 Q206 -108 337 -108 Q398 -108 432 -62.5 Q466 -17 466 65 Q466 237 334 237 Z " />
<glyph glyph-name="seveninferior" unicode="&#x2087;" horiz-adv-x="498" d="M339 538 L-11 538 L-11 655 L473 655 L473 562 L197 -205 L39 -205 L339 538 Z " />
<glyph glyph-name="eightinferior" unicode="&#x2088;" horiz-adv-x="657" d="M154 252 Q69 308 69 435 Q69 547 137 609.5 Q205 672 328 672 Q451 672 519 609.5 Q587 547 587 434 Q587 308 502 252 Q615 186 615 37 Q615 -86 540 -153.5 Q465 -221 328 -221 Q191 -221 116 -153.5 Q41 -86 41 37 Q41 185 154 252 Z M326 559 Q269 559 237 525 Q205 491 205 430 Q205 369 237 335.5 Q269 302 328 302 Q386 302 418.5 335.5 Q451 369 451 430 Q451 559 326 559 Z M326 193 Q258 193 219.5 153.5 Q181 114 181 45 Q181 -26 220 -65 Q259 -104 328 -104 Q397 -104 436 -65 Q475 -26 475 44 Q475 115 436 154 Q397 193 326 193 Z " />
<glyph glyph-name="nineinferior" unicode="&#x2089;" horiz-adv-x="665" d="M449 167 Q407 136 379.5 126.5 Q352 117 306 117 Q69 117 69 382 Q69 523 134.5 596 Q200 669 326 669 Q464 669 524.5 581 Q585 493 585 291 Q585 12 522 -103 Q459 -218 306 -218 Q189 -218 136 -163 Q83 -108 71 26 L199 26 Q213 -53 236 -81 Q259 -109 308 -109 Q377 -109 406.5 -51 Q436 7 449 167 Z M324 556 Q205 556 205 388 Q205 226 324 226 Q449 226 449 393 Q449 556 324 556 Z " />
<glyph glyph-name="afii61289" unicode="&#x2113;" horiz-adv-x="983" d="M465 592 Q440 460 420 318 Q400 176 400 133 Q400 79 438 79 Q471 79 505 122.5 Q539 166 559 234 L629 203 Q544 -40 395 -40 Q321 -40 278.5 13 Q236 66 236 158 Q236 230 255 433 L133 325 L96 386 Q105 392 148 437 Q223 514 272 570 Q351 992 450 1240 Q559 1510 715 1510 Q781 1510 822 1460 Q863 1410 863 1328 Q863 1132 720 903 Q643 778 465 592 Z M485 718 Q587 830 646 931 Q701 1024 737 1136.5 Q773 1249 773 1326 Q773 1362 757.5 1385 Q742 1408 717 1408 Q657 1408 618 1306 Q558 1147 485 718 Z " />
<glyph glyph-name="afii61352" unicode="&#x2116;" horiz-adv-x="2039" d="M179 0 L179 1475 L343 1475 L911 371 L911 1475 L1071 1475 L1071 -20 L948 -20 L339 1172 L339 0 L179 0 Z M1545 1212 Q1705 1212 1793 1085 Q1876 966 1876 745 Q1876 525 1793 405 Q1705 277 1540 277 Q1378 277 1290.5 398 Q1203 519 1203 743 Q1203 967 1286 1085 Q1376 1212 1545 1212 Z M1536 1075 Q1364 1075 1364 746 Q1364 414 1540 414 Q1715 414 1715 744 Q1715 1075 1536 1075 Z M1216 0 L1216 138 L1866 138 L1866 0 L1216 0 Z " />
<glyph glyph-name="estimated" unicode="&#x212e;" horiz-adv-x="1501" d="M1336 607 L393 607 L393 356 Q413 287 433 250.5 Q453 214 486 184 Q580 100 748 100 Q900 100 997 162 Q1094 224 1151 357 L1287 357 Q1181 -24 748 -24 Q467 -24 314 154 Q164 327 164 625 Q164 942 329 1120 Q489 1292 755 1292 Q975 1292 1127 1179 Q1313 1040 1332 758 Q1334 728 1336 607 Z M1114 709 L1114 928 Q1094 985 1060 1025 Q995 1101 921 1134.5 Q847 1168 744 1168 Q580 1168 487 1069 Q444 1023 399 928 L399 709 L1114 709 Z " />
<glyph glyph-name="onethird" unicode="&#x2153;" horiz-adv-x="1476" d="M280 614 L280 1335 L105 1260 L105 1386 L323 1478 L425 1478 L425 614 L280 614 Z M939 395 L939 507 Q1046 507 1075 513 Q1152 529 1152 638 Q1152 756 1044 756 Q986 756 957.5 728 Q929 700 916 630 L782 630 Q797 746 838 796 Q904 876 1052 876 Q1296 876 1296 644 Q1296 514 1217 458 Q1323 398 1323 243 Q1323 -16 1047 -16 Q866 -16 802 90 Q772 140 764 255 L899 255 Q908 173 941.5 138.5 Q975 104 1046 104 Q1179 104 1179 246 Q1179 362 1099 383 Q1065 392 939 395 Z M256 0 L863 1475 L999 1475 L392 0 L256 0 Z " />
<glyph glyph-name="twothirds" unicode="&#x2154;" horiz-adv-x="1477" d="M43 613 Q50 728 96.5 801.5 Q143 875 303 1028 Q380 1101 407.5 1146.5 Q435 1192 435 1246 Q435 1305 405 1338 Q375 1371 322 1371 Q255 1371 223.5 1331 Q192 1291 180 1191 L45 1191 Q58 1328 100 1390 Q168 1491 325 1491 Q450 1491 514.5 1430 Q579 1369 579 1250 Q579 1152 543 1089.5 Q507 1027 380 906 Q305 833 279 802.5 Q253 772 232 730 L585 730 L585 613 L43 613 Z M1027 395 L1027 507 Q1134 507 1164 513 Q1240 529 1240 638 Q1240 756 1132 756 Q1074 756 1045.5 728 Q1017 700 1004 630 L870 630 Q885 746 926 796 Q992 876 1140 876 Q1384 876 1384 644 Q1384 514 1305 458 Q1411 398 1411 243 Q1411 -16 1135 -16 Q954 -16 891 90 Q860 141 852 255 L988 255 Q997 172 1030 138 Q1063 104 1134 104 Q1267 104 1267 246 Q1267 361 1187 383 Q1153 392 1027 395 Z M368 0 L975 1475 L1110 1475 L503 0 L368 0 Z " />
<glyph glyph-name="uni2155" unicode="&#x2155;" horiz-adv-x="1476" d="M279 614 L279 1335 L104 1260 L104 1386 L322 1478 L424 1478 L424 614 L279 614 Z M808 405 L836 860 L1284 860 L1284 743 L964 743 L951 527 Q1014 551 1077 551 Q1215 551 1271 478 Q1330 404 1330 271 Q1330 -16 1049 -16 Q906 -16 840 47.5 Q774 111 768 255 L904 255 Q911 175 944.5 139.5 Q978 104 1047 104 Q1113 104 1149.5 147 Q1186 190 1186 268 Q1186 348 1151.5 393 Q1117 438 1054 438 Q984 438 900 360 L808 405 Z M255 0 L862 1475 L998 1475 L391 0 L255 0 Z " />
<glyph glyph-name="uni2156" unicode="&#x2156;" horiz-adv-x="1477" d="M43 613 Q50 728 96.5 801.5 Q143 875 303 1028 Q380 1101 407.5 1146.5 Q435 1192 435 1246 Q435 1305 405 1338 Q375 1371 322 1371 Q255 1371 223.5 1331 Q192 1291 180 1191 L45 1191 Q58 1328 100 1390 Q168 1491 325 1491 Q450 1491 514.5 1430 Q579 1369 579 1250 Q579 1152 543 1089.5 Q507 1027 380 906 Q305 833 279 802.5 Q253 772 232 730 L585 730 L585 613 L43 613 Z M897 405 L925 860 L1373 860 L1373 743 L1053 743 L1039 527 Q1103 551 1166 551 Q1303 551 1360 478 Q1419 404 1419 271 Q1419 -16 1138 -16 Q995 -16 929.5 47.5 Q864 111 856 255 L993 255 Q1000 174 1033.5 139 Q1067 104 1136 104 Q1202 104 1238.5 146.5 Q1275 189 1275 268 Q1275 349 1240.5 393.5 Q1206 438 1143 438 Q1073 438 989 360 L897 405 Z M368 0 L975 1475 L1110 1475 L503 0 L368 0 Z " />
<glyph glyph-name="uni2157" unicode="&#x2157;" horiz-adv-x="1477" d="M208 1009 L208 1121 Q315 1121 345 1127 Q421 1143 421 1252 Q421 1371 313 1371 Q255 1371 226 1342 Q197 1313 185 1244 L51 1244 Q66 1360 108 1411 Q173 1491 321 1491 Q446 1491 505.5 1434 Q565 1377 565 1257 Q565 1128 486 1072 Q592 1012 592 858 Q592 598 316 598 Q136 598 72 704 Q39 758 33 869 L169 869 Q178 786 211 752 Q244 718 315 718 Q448 718 448 860 Q448 975 368 997 Q334 1006 208 1009 Z M897 405 L925 860 L1373 860 L1373 743 L1053 743 L1039 527 Q1103 551 1166 551 Q1303 551 1360 478 Q1419 404 1419 272 Q1419 -16 1138 -16 Q995 -16 929.5 47.5 Q864 111 856 255 L992 255 Q1001 174 1034 139 Q1067 104 1136 104 Q1202 104 1238.5 146.5 Q1275 189 1275 267 Q1275 348 1240.5 393 Q1206 438 1143 438 Q1074 438 989 360 L897 405 Z M358 0 L965 1475 L1100 1475 L493 0 L358 0 Z " />
</font>
</svg>
