<?xml version="1.0" encoding="UTF-8"?>
<svg xmlns="http://www.w3.org/2000/svg" xmlns:xlink="http://www.w3.org/1999/xlink" version="1.2" >
<font id="A1 Serif Light">
<font-face  font-family="A1 Serif" units-per-em="2048" ascent="1536" descent="-512" font-style="normal" font-weight="300" font-stretch="normal" cap-height="1475" x-height="945" underline-position="-379" underline-thickness="86" />
<missing-glyph  horiz-adv-x="573" d="M57 0 L57 1475 L516 1475 L516 0 L57 0 Z M459 57 L459 1418 L114 1418 L114 57 L459 57 Z " />
<glyph glyph-name="space" unicode="&#x20;" horiz-adv-x="573" d="" />
<glyph glyph-name="exclam" unicode="&#x21;" horiz-adv-x="571" d="M214 0 L214 154 L362 154 L362 0 L214 0 Z M236 335 L221 1475 L349 1475 L333 335 L236 335 Z " />
<glyph glyph-name="quotedbl" unicode="&#x22;" horiz-adv-x="558" d="M100 920 L100 1475 L192 1475 L192 920 L100 920 Z M366 920 L366 1475 L458 1475 L458 920 L366 920 Z " />
<glyph glyph-name="numbersign" unicode="&#x23;" horiz-adv-x="1147" d="M280 494 L63 494 L76 586 L293 586 L332 865 L115 865 L128 957 L345 957 L415 1455 L525 1455 L455 957 L757 957 L827 1455 L936 1455 L866 957 L1083 957 L1070 865 L853 865 L814 586 L1031 586 L1018 494 L801 494 L732 0 L622 0 L692 494 L390 494 L320 0 L211 0 L280 494 Z M403 586 L705 586 L744 865 L442 865 L403 586 Z " />
<glyph glyph-name="dollar" unicode="&#x24;" horiz-adv-x="1147" d="M76 0 L76 414 L171 414 L171 379 Q160 112 533 84 L533 726 Q343 775 261 824 Q116 913 116 1110 Q116 1328 289 1430 Q371 1478 533 1485 L533 1639 L616 1639 L616 1484 Q777 1466 875 1374 L875 1475 L968 1475 L968 1062 L874 1062 L874 1096 Q874 1225 814 1292 Q754 1359 616 1383 L616 821 Q738 790 793 770 Q848 750 899 718 Q977 668 1021 584.5 Q1065 501 1065 401 Q1065 264 992 156 Q886 0 616 -17 L616 -159 L533 -159 L533 -14 Q394 -4 316 20.5 Q238 45 170 101 L170 0 L76 0 Z M533 842 L533 1388 Q406 1384 336 1335 Q226 1258 226 1118 Q226 969 346 907 Q410 874 533 842 Z M616 705 L616 82 Q748 93 819 139 Q952 223 952 390 Q952 516 874 593 Q828 637 749 666 Q736 671 629 701 L616 705 Z " />
<glyph glyph-name="percent" unicode="&#x25;" horiz-adv-x="1618" d="M424 1506 Q562 1506 660 1407 Q758 1309 758 1167 Q758 1026 660 928 Q563 829 419 829 Q276 829 179 928 Q81 1027 81 1167 Q81 1311 179 1407 Q279 1506 424 1506 Z M416 1421 Q312 1421 241 1337 Q181 1266 181 1167 Q181 1069 241 998 Q312 914 419 914 Q527 914 598 998 Q658 1069 658 1167 Q658 1267 598 1337 Q526 1421 416 1421 Z M304 0 L1203 1475 L1314 1475 L414 0 L304 0 Z M1203 645 Q1341 645 1439 546 Q1537 448 1537 307 Q1537 167 1439 68 Q1342 -31 1199 -31 Q1055 -31 958 68 Q860 167 860 306 Q860 450 958 546 Q1058 645 1203 645 Z M1195 560 Q1091 560 1020 476 Q960 405 960 307 Q960 209 1020 138 Q1091 54 1199 54 Q1306 54 1377 138 Q1437 209 1437 306 Q1437 406 1377 476 Q1305 560 1195 560 Z " />
<glyph glyph-name="ampersand" unicode="&#x26;" horiz-adv-x="1259" d="M599 885 L935 413 Q1010 606 1065 821 L1169 821 Q1084 496 1004 315 L1227 0 L1105 0 L952 216 Q887 112 823 62 Q703 -31 535 -31 Q358 -31 247 62 Q108 180 108 394 Q108 499 145 578 Q182 657 272 744 Q316 787 459 904 Q358 1037 327 1098.5 Q296 1160 296 1230 Q296 1347 377 1427 Q457 1506 575 1506 Q694 1506 775 1426 Q855 1347 855 1230 Q855 1111 745 1007 Q716 980 599 885 Z M539 968 Q673 1071 710 1118 Q747 1165 747 1231 Q747 1307 697.5 1358 Q648 1409 575 1409 Q503 1409 455 1359 Q404 1308 404 1236 Q404 1184 427.5 1137.5 Q451 1091 539 968 Z M519 823 Q369 702 326 658 Q267 599 242.5 540 Q218 481 218 401 Q218 239 311 149 Q396 67 537 67 Q655 67 735.5 122.5 Q816 178 886 308 L519 823 Z " />
<glyph glyph-name="quotesingle" unicode="&#x27;" horiz-adv-x="288" d="M98 920 L98 1475 L190 1475 L190 920 L98 920 Z " />
<glyph glyph-name="parenleft" unicode="&#x28;" horiz-adv-x="819" d="M638 -437 L533 -437 Q403 -231 336 -44 Q237 236 237 533 Q237 791 308.5 1022 Q380 1253 533 1490 L638 1490 Q511 1292 444 1107 Q347 835 347 533 Q347 268 416 37.5 Q485 -193 638 -437 Z " />
<glyph glyph-name="parenright" unicode="&#x29;" horiz-adv-x="819" d="M286 -437 L181 -437 Q309 -232 375 -47 Q472 230 472 533 Q472 797 402.5 1025 Q333 1253 181 1490 L286 1490 Q416 1287 483 1104 Q582 828 582 533 Q582 272 511.5 41 Q441 -190 286 -437 Z " />
<glyph glyph-name="asterisk" unicode="&#x2a;" horiz-adv-x="1147" d="M198 1207 L233 1299 L532 1193 L524 1507 L622 1507 L614 1193 L913 1298 L948 1206 L638 1115 L845 855 L764 797 L573 1069 L382 797 L301 855 L509 1115 L198 1207 Z " />
<glyph glyph-name="plus" unicode="&#x2b;" horiz-adv-x="1147" d="M140 690 L140 784 L527 784 L527 1186 L621 1186 L621 784 L1008 784 L1008 690 L621 690 L621 288 L527 288 L527 690 L140 690 Z " />
<glyph glyph-name="comma" unicode="&#x2c;" horiz-adv-x="573" d="M115 -258 L221 162 L371 162 L228 -258 L115 -258 Z " />
<glyph glyph-name="hyphen" unicode="&#x2d;" horiz-adv-x="717" d="M92 494 L92 588 L625 588 L625 494 L92 494 Z " />
<glyph glyph-name="period" unicode="&#x2e;" horiz-adv-x="573" d="M215 0 L215 162 L363 162 L363 0 L215 0 Z " />
<glyph glyph-name="slash" unicode="&#x2f;" horiz-adv-x="887" d="M104 -190 L659 1506 L758 1506 L203 -190 L104 -190 Z " />
<glyph glyph-name="zero" unicode="0" horiz-adv-x="1147" d="M580 1504 Q752 1504 872 1369 Q1049 1168 1049 738 Q1049 445 964 255 Q837 -29 573 -29 Q288 -29 166 297 Q98 476 98 739 Q98 1031 183 1220 Q309 1504 580 1504 Z M568 1406 Q399 1406 303.5 1228.5 Q208 1051 208 737 Q208 465 280 296 Q377 69 573 69 Q787 69 881 333 Q939 494 939 739 Q939 1010 867 1179 Q771 1406 568 1406 Z " />
<glyph glyph-name="one" unicode="1" horiz-adv-x="1147" d="M528 94 L528 1369 L219 1236 L184 1322 L538 1475 L636 1475 L636 94 L943 94 L943 0 L205 0 L205 94 L528 94 Z " />
<glyph glyph-name="two" unicode="2" horiz-adv-x="1147" d="M100 0 Q118 131 182 236 Q252 352 478 556 Q644 706 694.5 757.5 Q745 809 781 863 Q856 979 856 1102 Q856 1235 777 1319 Q691 1410 549 1410 Q380 1410 288 1280 Q235 1204 213 1052 L110 1052 Q123 1159 140 1213.5 Q157 1268 193 1323 Q312 1504 551 1504 Q746 1504 862 1391 Q974 1284 974 1105 Q974 923 858 779 Q807 716 762.5 672 Q718 628 563 489 Q389 332 328.5 258.5 Q268 185 237 94 L917 94 L917 379 L1012 379 L1012 0 L100 0 Z " />
<glyph glyph-name="three" unicode="3" horiz-adv-x="1147" d="M411 733 L411 827 Q434 827 446 827 Q603 827 702 870 Q871 944 871 1124 Q871 1266 763 1347 Q683 1406 562 1406 Q300 1406 243 1141 L137 1141 Q160 1280 233 1368 Q348 1504 563 1504 Q747 1504 860 1405 Q984 1296 984 1119 Q984 988 915 905.5 Q846 823 701 781 Q788 757 840.5 726.5 Q893 696 938 643 Q1028 538 1028 389 Q1028 186 885 69 Q766 -29 562 -29 Q134 -29 98 378 L205 378 Q223 225 313.5 147 Q404 69 564 69 Q706 69 792 133 Q914 225 914 390 Q914 725 411 733 Z " />
<glyph glyph-name="four" unicode="4" horiz-adv-x="1147" d="M485 0 L485 94 L720 94 L720 384 L100 384 L100 479 L515 1475 L633 1475 L212 478 L720 478 L720 1048 L827 1048 L827 478 L1073 478 L1073 384 L827 384 L827 94 L1049 94 L1049 0 L485 0 Z " />
<glyph glyph-name="five" unicode="5" horiz-adv-x="1147" d="M92 378 L199 378 Q212 269 265 196 Q356 69 538 69 Q710 69 812 188 Q899 291 899 437 Q899 518 870.5 593.5 Q842 669 794 717 Q699 811 546 811 Q461 811 399.5 782 Q338 753 245 670 L175 708 L217 1475 L924 1475 L924 1149 L829 1149 L829 1377 L319 1377 L283 819 Q406 909 559 909 Q742 909 862 803 Q934 739 973.5 644 Q1013 549 1013 440 Q1013 241 895 113 Q763 -29 536 -29 Q339 -29 224.5 76 Q110 181 92 378 Z " />
<glyph glyph-name="six" unicode="6" horiz-adv-x="1147" d="M239 744 Q305 836 383 876 Q461 916 575 916 Q750 916 858 825 Q1014 694 1014 448 Q1014 213 871 78 Q759 -29 569 -29 Q341 -29 219 131 Q121 259 121 551 Q121 1002 220 1237 Q332 1504 598 1504 Q820 1504 917 1347 Q968 1264 978 1139 L871 1139 Q836 1406 595 1406 Q478 1406 405.5 1333.5 Q333 1261 289 1100 Q256 979 239 744 Z M564 818 Q417 818 331 726 Q234 623 234 447 Q234 270 333 162 Q418 69 569 69 Q720 69 805 162 Q904 270 904 445 Q904 620 814 719 Q724 818 564 818 Z " />
<glyph glyph-name="seven" unicode="7" horiz-adv-x="1147" d="M886 1377 L253 1377 L253 1146 L158 1146 L158 1475 L994 1475 L994 1379 L472 0 L351 0 L886 1377 Z " />
<glyph glyph-name="eight" unicode="8" horiz-adv-x="1147" d="M391 781 Q284 822 229 883 Q148 974 148 1115 Q148 1300 271 1406 Q384 1504 573 1504 Q778 1504 893 1390 Q998 1285 998 1115 Q998 990 939.5 910 Q881 830 755 781 Q1048 682 1048 390 Q1048 191 909 77 Q781 -29 573 -29 Q349 -29 219 93 Q98 206 98 389 Q98 682 391 781 Z M569 1406 Q422 1406 341.5 1330.5 Q261 1255 261 1117 Q261 980 344 903 Q426 827 573 827 Q732 827 815 916 Q885 991 885 1118 Q885 1257 803.5 1331.5 Q722 1406 569 1406 Z M569 729 Q407 729 309 641 Q212 554 212 406 Q212 243 320 153 Q415 73 573 73 Q745 73 842 167 Q934 256 934 406 Q934 566 822 654 Q726 729 569 729 Z " />
<glyph glyph-name="nine" unicode="9" horiz-adv-x="1147" d="M908 762 Q842 676 764 638 Q686 600 572 600 Q398 600 289 685 Q197 758 158 880 Q132 961 132 1047 Q132 1272 275 1402 Q387 1504 577 1504 Q805 1504 926 1350 Q978 1285 1001.5 1186 Q1025 1087 1025 934 Q1025 484 943 246 Q848 -29 554 -29 Q189 -29 155 336 L262 336 Q296 69 559 69 Q653 69 712 103 Q771 137 811 214 Q852 293 879 445.5 Q906 598 908 762 Z M572 1406 Q426 1406 341 1318 Q242 1216 242 1049 Q242 886 332 792 Q422 698 577 698 Q729 698 815 785 Q912 883 912 1048 Q912 1217 813 1318 Q727 1406 572 1406 Z " />
<glyph glyph-name="colon" unicode="&#x3a;" horiz-adv-x="574" d="M216 0 L216 162 L364 162 L364 0 L216 0 Z M216 630 L216 792 L364 792 L364 630 L216 630 Z " />
<glyph glyph-name="semicolon" unicode="&#x3b;" horiz-adv-x="574" d="M217 630 L217 792 L365 792 L365 630 L217 630 Z M111 -258 L217 162 L367 162 L224 -258 L111 -258 Z " />
<glyph glyph-name="less" unicode="&#x3c;" horiz-adv-x="1147" d="M253 738 L1007 327 L1007 222 L139 705 L139 771 L1007 1255 L1007 1149 L253 738 Z " />
<glyph glyph-name="equal" unicode="&#x3d;" horiz-adv-x="1147" d="M140 544 L140 638 L1008 638 L1008 544 L140 544 Z M140 836 L140 931 L1008 931 L1008 836 L140 836 Z " />
<glyph glyph-name="greater" unicode="&#x3e;" horiz-adv-x="1147" d="M894 738 L140 1149 L140 1255 L1008 771 L1008 705 L140 222 L140 327 L894 738 Z " />
<glyph glyph-name="question" unicode="&#x3f;" horiz-adv-x="998" d="M378 0 L378 154 L526 154 L526 0 L378 0 Z M400 335 L400 747 Q571 748 673 805 Q820 887 820 1075 Q820 1218 726 1313 Q630 1410 488 1410 Q331 1410 241 1289 Q186 1216 161 1067 L56 1067 Q72 1177 95.5 1240 Q119 1303 167 1361 Q288 1508 491 1508 Q673 1508 795 1393 Q930 1268 930 1069 Q930 880 793 765 Q734 716 672 692.5 Q610 669 495 652 L495 335 L400 335 Z " />
<glyph glyph-name="at" unicode="&#x40;" horiz-adv-x="2062" d="M1332 423 Q1224 236 996 236 Q818 236 711 355 Q612 464 612 632 Q612 801 711 911 Q817 1029 993 1029 Q1222 1029 1330 843 L1331 1017 L1423 1017 L1423 467 Q1423 398 1439 367 Q1465 318 1552 318 Q1690 318 1762 435 Q1830 545 1830 723 Q1830 1053 1613 1238 Q1400 1421 1058 1421 Q639 1421 414 1141 Q233 916 233 587 Q233 258 416 80 Q647 -145 1109 -145 Q1454 -145 1758 -20 L1793 -97 Q1479 -229 1114 -229 Q649 -229 390 -25 Q123 185 123 591 Q123 961 346 1212 Q606 1505 1058 1505 Q1406 1505 1640 1333 Q1803 1213 1881 1031 Q1939 894 1939 734 Q1939 503 1839 374 Q1732 236 1541 236 Q1435 236 1388 278.5 Q1341 321 1332 423 Z M1001 934 Q877 934 800 852 Q721 768 721 632 Q721 497 800 413 Q879 330 1009 330 Q1152 330 1240 428 Q1317 514 1317 631 Q1317 752 1240 836 Q1150 934 1001 934 Z " />
<glyph glyph-name="A" unicode="A" horiz-adv-x="1451" d="M1061 444 L381 444 L254 94 L430 94 L430 0 L9 0 L9 94 L137 94 L652 1475 L787 1475 L1308 94 L1442 94 L1442 0 L1014 0 L1014 94 L1192 94 L1061 444 Z M1025 538 L716 1365 L416 538 L1025 538 Z " />
<glyph glyph-name="B" unicode="B" horiz-adv-x="1312" d="M240 94 L240 1381 L93 1381 L93 1475 L633 1475 Q854 1475 976 1390 Q1112 1295 1112 1110 Q1112 998 1059.5 928 Q1007 858 889 811 Q962 798 1007.5 775 Q1053 752 1096 708 Q1202 597 1202 424 Q1202 292 1137 191 Q1071 88 956 44 Q841 0 640 0 L93 0 L93 94 L240 94 Z M350 847 L664 847 Q819 847 906 915 Q998 987 998 1111 Q998 1243 904.5 1315 Q811 1387 640 1387 L350 1387 L350 847 Z M350 88 L615 88 Q1087 88 1087 420 Q1087 598 954 686 Q853 753 691 753 L350 753 L350 88 Z " />
<glyph glyph-name="C" unicode="C" horiz-adv-x="1491" d="M1296 312 L1375 244 Q1268 99 1131.5 34 Q995 -31 799 -31 Q439 -31 260 195 Q100 396 100 720 Q100 1083 296 1300 Q393 1406 515.5 1456 Q638 1506 802 1506 Q1084 1506 1237 1375 L1237 1475 L1331 1475 L1331 1062 L1236 1062 L1236 1096 Q1236 1212 1193 1267 Q1143 1331 1035 1369 Q927 1407 796 1407 Q507 1407 352 1197 Q215 1011 215 719 Q215 421 371 240 Q520 68 807 68 Q1001 68 1144 163 Q1212 207 1296 312 Z " />
<glyph glyph-name="D" unicode="D" horiz-adv-x="1485" d="M240 94 L240 1381 L93 1381 L93 1475 L604 1475 Q933 1475 1138 1314 Q1384 1122 1384 738 Q1384 353 1138 161 Q933 0 604 0 L93 0 L93 94 L240 94 Z M351 94 L592 94 Q893 94 1067 235 Q1269 399 1269 738 Q1269 1076 1067 1240 Q893 1381 592 1381 L351 1381 L351 94 Z " />
<glyph glyph-name="E" unicode="E" horiz-adv-x="1173" d="M240 94 L240 1381 L93 1381 L93 1475 L1040 1475 L1040 1139 L945 1139 L945 1381 L351 1381 L351 811 L857 811 L857 717 L351 717 L351 94 L961 94 L961 371 L1056 371 L1056 0 L93 0 L93 94 L240 94 Z " />
<glyph glyph-name="F" unicode="F" horiz-adv-x="1089" d="M240 94 L240 1381 L93 1381 L93 1475 L1040 1475 L1040 1139 L945 1139 L945 1381 L351 1381 L351 810 L857 810 L857 716 L351 716 L351 94 L529 94 L529 0 L93 0 L93 94 L240 94 Z " />
<glyph glyph-name="G" unicode="G" horiz-adv-x="1677" d="M789 604 L789 698 L1472 698 L1472 56 Q1216 -31 904 -31 Q643 -31 466 67 Q285 166 191 344 Q101 516 101 733 Q101 966 211 1152 Q420 1506 877 1506 Q1169 1506 1325 1375 L1325 1475 L1419 1475 L1419 1062 L1324 1062 L1324 1096 Q1324 1212 1281 1267 Q1230 1332 1121 1369.5 Q1012 1407 874 1407 Q691 1407 566 1344 Q392 1257 301 1085 Q216 926 216 732 Q216 434 405 246 Q511 140 658 99 Q767 68 919 68 Q1038 68 1133.5 85 Q1229 102 1363 147 L1363 604 L789 604 Z " />
<glyph glyph-name="H" unicode="H" horiz-adv-x="1457" d="M240 94 L240 1381 L93 1381 L93 1475 L497 1475 L497 1381 L351 1381 L351 825 L1106 825 L1106 1381 L960 1381 L960 1475 L1364 1475 L1364 1381 L1217 1381 L1217 94 L1364 94 L1364 0 L960 0 L960 94 L1106 94 L1106 731 L351 731 L351 94 L497 94 L497 0 L93 0 L93 94 L240 94 Z " />
<glyph glyph-name="I" unicode="I" horiz-adv-x="598" d="M244 94 L244 1381 L97 1381 L97 1475 L502 1475 L502 1381 L355 1381 L355 94 L502 94 L502 0 L97 0 L97 94 L244 94 Z " />
<glyph glyph-name="J" unicode="J" horiz-adv-x="590" d="M242 1381 L94 1381 L94 1475 L499 1475 L499 1381 L353 1381 L353 94 Q365 -251 59 -259 L59 -165 Q170 -155 206 -101 Q242 -47 242 109 L242 1381 Z " />
<glyph glyph-name="K" unicode="K" horiz-adv-x="1215" d="M240 94 L240 1381 L93 1381 L93 1475 L497 1475 L497 1381 L351 1381 L351 777 L915 1381 L773 1381 L773 1475 L1164 1475 L1164 1381 L1052 1381 L483 775 L1100 94 L1249 94 L1249 0 L810 0 L810 94 L959 94 L351 766 L351 94 L496 94 L496 0 L93 0 L93 94 L240 94 Z " />
<glyph glyph-name="L" unicode="L" horiz-adv-x="1135" d="M240 94 L240 1381 L93 1381 L93 1475 L500 1475 L500 1381 L351 1381 L351 94 L952 94 L952 380 L1047 380 L1047 0 L93 0 L93 94 L240 94 Z " />
<glyph glyph-name="M" unicode="M" horiz-adv-x="1793" d="M210 94 L292 1381 L145 1381 L145 1475 L417 1475 L852 313 Q880 238 899 165 Q911 222 941 303 L1380 1475 L1645 1475 L1645 1381 L1498 1381 L1580 94 L1725 94 L1725 0 L1326 0 L1326 94 L1470 94 L1410 1103 L1405 1289 Q1361 1139 1350 1110 L928 0 L865 0 L446 1098 L385 1289 L380 1096 L320 94 L467 94 L467 0 L65 0 L65 94 L210 94 Z " />
<glyph glyph-name="N" unicode="N" horiz-adv-x="1442" d="M240 94 L240 1381 L93 1381 L93 1475 L350 1475 L1019 396 Q1045 354 1103 244 Q1099 354 1099 423 L1099 1381 L951 1381 L951 1475 L1356 1475 L1356 1381 L1208 1381 L1208 -21 L1151 -21 L410 1176 Q393 1204 345 1298 Q349 1217 349 1172 L349 94 L495 94 L495 0 L93 0 L93 94 L240 94 Z " />
<glyph glyph-name="O" unicode="O" horiz-adv-x="1712" d="M866 1506 Q1078 1506 1259 1391 Q1446 1271 1539 1072 Q1611 917 1611 737 Q1611 421 1399 199 Q1179 -31 856 -31 Q533 -31 313 199 Q101 421 101 736 Q101 1060 313 1276 Q539 1506 866 1506 Z M848 1407 Q665 1407 510 1306 Q345 1199 269 1019 Q216 894 216 737 Q216 457 389 270 Q577 68 856 68 Q1135 68 1322 270 Q1496 457 1496 736 Q1496 1023 1322 1205 Q1130 1407 848 1407 Z " />
<glyph glyph-name="P" unicode="P" horiz-adv-x="1208" d="M240 94 L240 1381 L93 1381 L93 1475 L549 1475 Q696 1475 787.5 1460 Q879 1445 949 1409 Q1042 1361 1093 1263 Q1144 1165 1144 1035 Q1144 869 1062 759 Q974 640 787 612 Q685 596 549 596 L351 596 L351 94 L529 94 L529 0 L93 0 L93 94 L240 94 Z M351 690 L570 690 Q695 690 774 708 Q853 726 907 767 Q1029 860 1029 1036 Q1029 1211 908 1303 Q839 1356 723 1372 Q658 1381 570 1381 L351 1381 L351 690 Z " />
<glyph glyph-name="Q" unicode="Q" horiz-adv-x="1712" d="M491 -261 L443 -173 Q605 -26 759 -24 Q557 3 403 119 Q252 234 173 404 Q101 558 101 738 Q101 1054 313 1276 Q533 1506 856 1506 Q1179 1506 1399 1276 Q1611 1054 1611 738 Q1611 421 1399 200 Q1222 15 978 -21 Q923 -29 825 -31 Q880 -43 1039 -117 Q1203 -194 1284 -194 Q1377 -194 1468 -131 L1520 -221 Q1402 -293 1287 -293 Q1229 -293 1173 -276.5 Q1117 -260 1005 -210 Q877 -153 831.5 -137.5 Q786 -122 743 -122 Q639 -122 491 -261 Z M848 1407 Q665 1407 510 1306 Q345 1199 269 1019 Q216 895 216 738 Q216 458 389 271 Q577 69 856 69 Q1135 69 1322 271 Q1496 458 1496 736 Q1496 1023 1322 1205 Q1130 1407 848 1407 Z " />
<glyph glyph-name="R" unicode="R" horiz-adv-x="1282" d="M240 94 L240 1381 L93 1381 L93 1475 L554 1475 Q697 1475 785.5 1461.5 Q874 1448 943 1416 Q1034 1373 1084.5 1284 Q1135 1195 1135 1077 Q1135 784 844 702 Q898 672 931.5 623 Q965 574 1004 470 L1144 94 L1288 94 L1288 0 L1056 0 L888 452 Q840 582 768.5 629 Q697 676 547 676 L351 676 L351 94 L528 94 L528 0 L93 0 L93 94 L240 94 Z M351 770 L571 770 Q789 770 884 826 Q1021 907 1021 1073 Q1021 1234 899 1317 Q805 1381 573 1381 L351 1381 L351 770 Z " />
<glyph glyph-name="S" unicode="S" horiz-adv-x="1224" d="M110 0 L110 414 L205 414 L205 379 Q205 263 246 207 Q293 143 394 105.5 Q495 68 620 68 Q827 68 935 163 Q1032 249 1032 389 Q1032 516 946 594 Q904 632 833 658.5 Q762 685 614 719 Q432 761 351 794 Q270 827 218 880 Q134 966 134 1111 Q134 1271 232 1376 Q354 1506 586 1506 Q820 1506 946 1375 L946 1475 L1040 1475 L1040 1062 L945 1062 L945 1096 Q945 1211 910 1267 Q870 1330 781.5 1368.5 Q693 1407 586 1407 Q416 1407 323 1314 Q244 1235 244 1120 Q244 990 342 925 Q413 878 632 828 Q821 785 904.5 750.5 Q988 716 1044 657 Q1146 552 1146 399 Q1146 312 1113 230.5 Q1080 149 1022 94 Q889 -31 616 -31 Q347 -31 204 100 L204 0 L110 0 Z " />
<glyph glyph-name="T" unicode="T" horiz-adv-x="1154" d="M521 94 L521 1381 L132 1381 L132 1103 L37 1103 L37 1475 L1116 1475 L1116 1103 L1021 1103 L1021 1381 L632 1381 L632 94 L814 94 L814 0 L339 0 L339 94 L521 94 Z " />
<glyph glyph-name="U" unicode="U" horiz-adv-x="1423" d="M82 1381 L82 1475 L486 1475 L486 1381 L340 1381 L340 550 Q340 343 393 235 Q433 155 516 111.5 Q599 68 712 68 Q863 68 957 144 Q1022 197 1052 293.5 Q1082 390 1082 550 L1082 1381 L937 1381 L937 1475 L1340 1475 L1340 1381 L1193 1381 L1193 620 Q1193 431 1177.5 334.5 Q1162 238 1121 165 Q1010 -31 712 -31 Q413 -31 301 165 Q260 237 244.5 335 Q229 433 229 620 L229 1381 L82 1381 Z " />
<glyph glyph-name="V" unicode="V" horiz-adv-x="1215" d="M-24 1381 L-24 1475 L417 1475 L417 1381 L237 1381 L559 362 Q583 287 603 203 Q621 282 649 364 L985 1381 L812 1381 L812 1475 L1242 1475 L1242 1381 L1096 1381 L624 -35 L576 -35 L122 1381 L-24 1381 Z " />
<glyph glyph-name="W" unicode="W" horiz-adv-x="1846" d="M-8 1381 L-8 1475 L435 1475 L435 1381 L243 1381 L489 490 Q520 379 556 226 Q596 390 626 497 L905 1506 L955 1506 L1230 493 Q1262 375 1296 226 Q1331 375 1364 495 L1605 1381 L1422 1381 L1422 1475 L1856 1475 L1856 1381 L1713 1381 L1320 -33 L1270 -33 L981 1019 Q956 1112 928 1235 Q897 1104 875 1024 L579 -33 L524 -33 L130 1381 L-8 1381 Z " />
<glyph glyph-name="X" unicode="X" horiz-adv-x="1248" d="M181 94 L568 767 L217 1381 L43 1381 L43 1475 L495 1475 L495 1381 L341 1381 L635 863 L926 1381 L764 1381 L764 1475 L1201 1475 L1201 1381 L1046 1381 L693 766 L1076 94 L1261 94 L1261 0 L788 0 L788 94 L951 94 L625 669 L302 94 L473 94 L473 0 L-11 0 L-11 94 L181 94 Z " />
<glyph glyph-name="Y" unicode="Y" horiz-adv-x="1053" d="M471 94 L471 670 L109 1381 L-36 1381 L-36 1475 L399 1475 L399 1381 L230 1381 L530 788 L828 1381 L661 1381 L661 1475 L1087 1475 L1087 1381 L941 1381 L582 669 L582 94 L756 94 L756 0 L296 0 L296 94 L471 94 Z " />
<glyph glyph-name="Z" unicode="Z" horiz-adv-x="1137" d="M76 0 L76 93 L887 1381 L201 1381 L201 1103 L106 1103 L106 1475 L1026 1475 L1026 1406 L200 94 L936 94 L936 379 L1031 379 L1031 0 L76 0 Z " />
<glyph glyph-name="bracketleft" unicode="&#x5b;" horiz-adv-x="819" d="M322 -422 L322 1475 L611 1475 L611 1382 L432 1382 L432 -329 L611 -329 L611 -422 L322 -422 Z " />
<glyph glyph-name="backslash" unicode="&#x5c;" horiz-adv-x="887" d="M658 -190 L103 1506 L202 1506 L757 -190 L658 -190 Z " />
<glyph glyph-name="bracketright" unicode="&#x5d;" horiz-adv-x="819" d="M208 -422 L208 -329 L387 -329 L387 1382 L208 1382 L208 1475 L497 1475 L497 -422 L208 -422 Z " />
<glyph glyph-name="asciicircum" unicode="&#x5e;" horiz-adv-x="1147" d="M574 1379 L212 916 L79 916 L510 1475 L637 1475 L1068 916 L935 916 L574 1379 Z " />
<glyph glyph-name="underscore" unicode="&#x5f;" horiz-adv-x="1024" d="M-1 -422 L-1 -328 L1025 -328 L1025 -422 L-1 -422 Z " />
<glyph glyph-name="grave" unicode="&#x60;" horiz-adv-x="1024" d="M550 1104 L280 1452 L421 1452 L635 1104 L550 1104 Z " />
<glyph glyph-name="a" unicode="a" horiz-adv-x="1158" d="M831 564 L831 616 Q831 756 778 812 Q712 882 526 882 Q384 882 327 830 Q292 796 284 706 L180 706 Q184 846 256 906 Q338 975 527 975 Q766 975 860 882 Q904 839 921.5 774 Q939 709 939 593 L939 94 L1096 94 L1096 0 L832 0 L832 121 Q702 -29 449 -29 Q85 -29 85 263 Q85 464 244 535 Q330 574 549 574 Q602 574 811 565 L831 564 Z M831 469 Q717 482 538 482 Q351 482 284 444 Q195 394 195 268 Q195 167 252 120 Q318 65 461 65 Q686 65 787 196 Q813 230 822 265 Q831 300 831 367 L831 469 Z " />
<glyph glyph-name="b" unicode="b" horiz-adv-x="1218" d="M173 0 L173 1381 L16 1381 L16 1475 L281 1475 L281 761 Q423 974 665 974 Q879 974 1008 824 Q1127 686 1127 472 Q1127 259 1008 121 Q879 -29 664 -29 Q420 -29 279 185 L268 0 L173 0 Z M647 880 Q478 880 372 747 Q281 631 281 472 Q281 314 372 198 Q477 65 652 65 Q830 65 933 197 Q1017 306 1017 471 Q1017 656 917 767 Q814 880 647 880 Z " />
<glyph glyph-name="c" unicode="c" horiz-adv-x="1020" d="M903 197 L966 116 Q791 -29 553 -29 Q345 -29 221 96 Q91 228 91 463 Q91 697 219 837 Q343 974 552 974 Q715 974 825 883 L825 945 L918 945 L918 641 L824 641 L824 675 Q824 759 780 802 Q700 880 556 880 Q378 880 285 756 Q201 644 201 463 Q201 257 316 153 Q410 66 562 66 Q744 66 903 197 Z " />
<glyph glyph-name="d" unicode="d" horiz-adv-x="1269" d="M939 0 L939 185 Q801 -29 554 -29 Q339 -29 210 121 Q91 258 91 472 Q91 686 210 824 Q340 974 554 974 Q796 974 938 761 L938 1381 L750 1381 L750 1475 L1046 1475 L1046 94 L1200 94 L1200 0 L939 0 Z M560 880 Q403 880 302 767 Q201 655 201 473 Q201 305 286 197 Q389 65 566 65 Q742 65 846 198 Q938 314 938 471 Q938 633 846 747 Q790 817 722 848.5 Q654 880 560 880 Z " />
<glyph glyph-name="e" unicode="e" horiz-adv-x="1115" d="M1028 452 L201 452 Q208 328 254 245 Q356 65 578 65 Q768 65 942 196 L1004 115 Q813 -29 575 -29 Q352 -29 217 121 Q90 261 90 473 Q90 684 212 824 Q344 974 561 974 Q773 974 901 831 Q1029 688 1028 452 Z M914 545 Q897 657 847 731 Q746 880 559 880 Q350 880 252 700 Q217 636 205 545 L914 545 Z " />
<glyph glyph-name="f" unicode="f" horiz-adv-x="621" d="M230 94 L230 851 L71 851 L71 945 L230 946 L230 1111 Q230 1289 276 1370 Q343 1487 520 1487 Q590 1487 661 1475 L653 1382 Q581 1393 528 1393 Q445 1393 405 1361 Q338 1308 338 1118 L338 945 L584 945 L584 851 L338 851 L338 94 L532 94 L532 0 L71 0 L71 94 L230 94 Z " />
<glyph glyph-name="g" unicode="g" horiz-adv-x="1272" d="M938 191 Q795 -17 554 -17 Q340 -17 210 132 Q91 268 91 479 Q91 690 210 825 Q339 974 554 974 Q802 974 939 760 L939 945 L1224 945 L1224 851 L1046 851 L1046 93 Q1046 -142 982 -260 Q879 -452 574 -452 Q375 -452 277 -380 Q179 -308 171 -156 L274 -156 Q281 -242 323 -287 Q391 -359 580 -359 Q797 -359 878 -228 Q911 -174 924.5 -104 Q938 -34 938 89 L938 191 Z M560 880 Q403 880 302 769 Q201 659 201 479 Q201 315 286 208 Q389 77 566 77 Q742 77 847 206 Q938 320 938 473 Q938 633 847 747 Q791 817 723 848.5 Q655 880 560 880 Z " />
<glyph glyph-name="h" unicode="h" horiz-adv-x="1245" d="M234 94 L234 1381 L77 1381 L77 1475 L342 1475 L342 757 Q425 844 488 888 Q612 974 743 974 Q913 974 980 846 Q1007 795 1016 735.5 Q1025 676 1025 549 L1025 94 L1182 94 L1182 0 L772 0 L772 94 L917 94 L917 554 Q917 700 897 763 Q861 871 721 871 Q608 871 487 775 Q419 721 342 630 L342 94 L492 94 L492 0 L77 0 L77 94 L234 94 Z " />
<glyph glyph-name="i" unicode="i" horiz-adv-x="572" d="M243 94 L243 851 L85 851 L85 945 L351 945 L351 94 L502 94 L502 0 L84 0 L84 94 L243 94 Z M222 1184 L222 1332 L369 1332 L369 1184 L222 1184 Z " />
<glyph glyph-name="j" unicode="j" horiz-adv-x="534" d="M59 851 L59 945 L331 945 L331 -74 Q343 -414 42 -422 L42 -328 Q155 -318 191 -259 Q210 -228 216.5 -188 Q223 -148 223 -59 L223 851 L59 851 Z M201 1184 L201 1332 L348 1332 L348 1184 L201 1184 Z " />
<glyph glyph-name="k" unicode="k" horiz-adv-x="1024" d="M230 94 L230 1381 L71 1381 L71 1475 L338 1475 L338 555 L704 852 L574 852 L574 945 L967 945 L967 851 L846 851 L474 546 L941 94 L1059 94 L1059 0 L674 0 L674 93 L807 93 L338 549 L338 93 L493 93 L493 0 L71 0 L71 94 L230 94 Z " />
<glyph glyph-name="l" unicode="l" horiz-adv-x="568" d="M238 94 L238 1381 L80 1381 L80 1475 L346 1475 L346 94 L497 94 L497 0 L79 0 L79 94 L238 94 Z " />
<glyph glyph-name="m" unicode="m" horiz-adv-x="1801" d="M242 94 L242 851 L85 851 L85 945 L350 945 L350 757 Q450 873 535 923.5 Q620 974 716 974 Q914 974 956 747 Q1068 874 1151 924 Q1234 974 1332 974 Q1483 974 1542 847 Q1566 796 1574 736.5 Q1582 677 1582 549 L1582 94 L1738 94 L1738 0 L1329 0 L1329 94 L1474 94 L1474 554 Q1474 700 1457 763 Q1427 872 1310 872 Q1153 872 966 630 L966 94 L1122 94 L1122 0 L713 0 L713 94 L858 94 L858 554 Q858 701 841 763 Q811 872 693 872 Q528 872 350 630 L350 94 L497 94 L497 0 L85 0 L85 94 L242 94 Z " />
<glyph glyph-name="n" unicode="n" horiz-adv-x="1253" d="M242 94 L242 851 L85 851 L85 945 L350 945 L350 757 Q437 847 496 888 Q620 974 751 974 Q920 974 989 847 Q1016 797 1025 736.5 Q1034 676 1034 549 L1034 94 L1190 94 L1190 0 L780 0 L780 94 L926 94 L926 554 Q926 701 905 763 Q869 872 729 872 Q546 872 350 630 L350 94 L498 94 L498 0 L85 0 L85 94 L242 94 Z " />
<glyph glyph-name="o" unicode="o" horiz-adv-x="1188" d="M602 974 Q825 974 966 824 Q1098 684 1098 472 Q1098 261 966 121 Q825 -29 594 -29 Q363 -29 222 121 Q91 261 91 471 Q91 688 222 824 Q367 974 602 974 Z M589 880 Q403 880 291 747 Q201 639 201 472 Q201 306 291 198 Q402 65 595 65 Q787 65 898 198 Q988 306 988 471 Q988 641 898 747 Q784 880 589 880 Z " />
<glyph glyph-name="p" unicode="p" horiz-adv-x="1271" d="M226 -328 L226 851 L71 851 L71 945 L332 945 L332 760 Q475 974 717 974 Q932 974 1061 824 Q1180 686 1180 473 Q1180 259 1061 121 Q931 -29 717 -29 Q474 -29 334 184 L334 -328 L515 -328 L515 -422 L71 -422 L71 -328 L226 -328 Z M700 880 Q530 880 425 747 Q334 631 334 472 Q334 314 425 198 Q530 65 705 65 Q883 65 986 197 Q1070 306 1070 471 Q1070 657 970 767 Q867 880 700 880 Z " />
<glyph glyph-name="q" unicode="q" horiz-adv-x="1273" d="M938 -328 L938 184 Q795 -29 553 -29 Q339 -29 210 121 Q91 259 91 473 Q91 686 210 824 Q339 974 554 974 Q801 974 939 760 L939 945 L1202 945 L1202 851 L1046 851 L1046 -328 L1202 -328 L1202 -422 L758 -422 L758 -328 L938 -328 Z M560 880 Q403 880 302 767 Q201 655 201 473 Q201 306 286 197 Q388 65 566 65 Q741 65 846 198 Q938 314 938 471 Q938 633 846 747 Q790 817 722 848.5 Q654 880 560 880 Z " />
<glyph glyph-name="r" unicode="r" horiz-adv-x="798" d="M242 94 L242 851 L85 851 L85 945 L349 945 L349 756 Q423 873 489 916 Q576 974 700 974 L747 974 L747 870 L716 870 Q626 870 569 849.5 Q512 829 466 779 Q398 706 350 595 L350 94 L509 94 L509 0 L85 0 L85 94 L242 94 Z " />
<glyph glyph-name="s" unicode="s" horiz-adv-x="949" d="M97 0 L97 292 L191 292 L191 258 Q191 177 242 137 Q335 64 507 64 Q623 64 690 105 Q767 153 767 254 Q767 338 707 384 Q681 405 632 417.5 Q583 430 454 449 Q331 468 273.5 488 Q216 508 178 545 Q112 610 112 711 Q112 828 199 902 Q283 974 432 974 Q587 974 697 886 L697 945 L789 945 L789 667 L695 667 L695 689 Q695 769 650 809 Q568 881 430 881 Q330 881 274 837 Q218 793 218 714 Q218 637 285 597 Q328 570 479 547 Q625 525 685.5 507 Q746 489 787 454 Q872 384 872 253 Q872 116 777 43.5 Q682 -29 502 -29 Q314 -29 190 59 L190 0 L97 0 Z " />
<glyph glyph-name="t" unicode="t" horiz-adv-x="637" d="M227 851 L68 851 L68 945 L227 945 L227 1327 L335 1327 L335 945 L581 945 L581 851 L335 851 L335 259 Q335 169 369.5 131.5 Q404 94 487 94 L600 94 L600 0 L478 0 Q353 0 289 68 Q227 133 227 249 L227 851 Z " />
<glyph glyph-name="u" unicode="u" horiz-adv-x="1191" d="M219 851 L63 851 L63 945 L327 945 L327 391 Q327 249 345 190 Q377 86 504 86 Q677 86 862 315 L862 851 L714 851 L714 945 L970 945 L970 94 L1127 94 L1127 0 L862 0 L862 188 Q778 102 723 65 Q606 -16 482 -16 Q323 -16 261 107 Q235 158 227 214.5 Q219 271 219 396 L219 851 Z " />
<glyph glyph-name="v" unicode="v" horiz-adv-x="998" d="M124 851 L6 851 L6 945 L394 945 L394 851 L236 851 L460 281 Q480 231 500 161 Q522 237 540 282 L764 851 L606 851 L606 945 L994 945 L994 851 L876 851 L520 -25 L479 -25 L124 851 Z " />
<glyph glyph-name="w" unicode="w" horiz-adv-x="1562" d="M130 851 L9 851 L9 945 L415 945 L415 851 L238 851 L435 302 Q458 238 480 156 Q506 250 524 300 L755 945 L804 945 L1030 311 Q1055 241 1078 156 Q1106 253 1124 304 L1320 851 L1143 851 L1143 945 L1548 945 L1548 851 L1427 851 L1111 -21 L1053 -21 L814 652 Q795 707 779 773 Q763 708 744 653 L505 -21 L447 -21 L130 851 Z " />
<glyph glyph-name="x" unicode="x" horiz-adv-x="1090" d="M159 94 L491 503 L214 851 L55 851 L55 945 L497 945 L497 853 L333 853 L556 564 L797 853 L633 853 L633 945 L1063 945 L1063 851 L914 851 L613 501 L936 94 L1085 94 L1085 0 L623 0 L623 93 L817 93 L549 440 L273 93 L465 93 L465 0 L6 0 L6 94 L159 94 Z " />
<glyph glyph-name="y" unicode="y" horiz-adv-x="1041" d="M117 851 L3 851 L3 945 L437 945 L437 851 L227 851 L495 279 Q503 261 538 182 Q554 225 579 288 L810 851 L614 851 L614 945 L1034 945 L1034 851 L917 851 L477 -211 Q425 -337 361.5 -379 Q298 -421 158 -422 L158 -328 Q261 -326 301 -301 Q349 -270 390 -170 L488 69 L117 851 Z " />
<glyph glyph-name="z" unicode="z" horiz-adv-x="948" d="M61 0 L61 91 L696 851 L208 851 L208 661 L114 661 L114 945 L836 945 L836 870 L190 94 L757 94 L757 285 L851 285 L851 0 L61 0 Z " />
<glyph glyph-name="braceleft" unicode="&#x7b;" horiz-adv-x="819" d="M242 552 Q362 512 398 435 Q433 360 433 200 L433 -43 Q433 -149 443.5 -200.5 Q454 -252 481 -279 Q530 -329 661 -329 L700 -329 L700 -421 L653 -421 Q544 -421 484 -404 Q424 -387 387 -344 Q323 -270 323 -47 L323 181 Q323 353 284 417 Q256 463 210 482.5 Q164 502 74 506 L74 599 Q164 602 210.5 622 Q257 642 285 689 Q323 752 323 924 L323 1101 Q323 1337 397 1409 Q434 1445 492 1460 Q550 1475 653 1475 L700 1475 L700 1383 L661 1383 Q520 1383 476.5 1328.5 Q433 1274 433 1096 L433 903 Q433 733 394 661.5 Q355 590 242 552 Z " />
<glyph glyph-name="bar" unicode="&#x7c;" horiz-adv-x="1024" d="M462 -480 L462 1565 L559 1565 L559 -480 L462 -480 Z " />
<glyph glyph-name="braceright" unicode="&#x7d;" horiz-adv-x="819" d="M577 552 Q457 592 421 669 Q386 744 386 903 L386 1096 Q386 1202 375.5 1253.5 Q365 1305 338 1332 Q289 1383 158 1383 L119 1383 L119 1475 L166 1475 Q276 1475 336 1457.5 Q396 1440 433 1397 Q496 1323 496 1101 L496 924 Q496 750 534 689 Q563 642 609 622 Q655 602 745 599 L745 506 Q655 502 609 482.5 Q563 463 535 417 Q496 353 496 181 L496 -47 Q496 -284 420 -356 Q383 -392 325.5 -406.5 Q268 -421 166 -421 L119 -421 L119 -329 L158 -329 Q299 -329 342.5 -274.5 Q386 -220 386 -43 L386 200 Q386 371 424.5 442.5 Q463 514 577 552 Z " />
<glyph glyph-name="asciitilde" unicode="&#x7e;" horiz-adv-x="1147" d="M200 640 L135 701 Q206 782 261.5 814.5 Q317 847 382 847 Q472 847 586 787 Q670 743 698 732.5 Q726 722 764 722 Q853 722 950 835 L1012 779 Q894 627 765 627 Q718 627 673.5 641 Q629 655 552 695 Q443 751 386 751 Q298 751 200 640 Z " />
<glyph glyph-name="Adieresis" unicode="&#xc4;" horiz-adv-x="1451" d="M1061 444 L381 444 L254 94 L430 94 L430 0 L9 0 L9 94 L137 94 L652 1475 L787 1475 L1308 94 L1442 94 L1442 0 L1014 0 L1014 94 L1192 94 L1061 444 Z M1025 538 L716 1365 L416 538 L1025 538 Z M470 1667 L470 1820 L607 1820 L607 1667 L470 1667 Z M844 1667 L844 1820 L981 1820 L981 1667 L844 1667 Z " />
<glyph glyph-name="Aring" unicode="&#xc5;" horiz-adv-x="1451" d="M1061 444 L381 444 L254 94 L430 94 L430 0 L9 0 L9 94 L137 94 L652 1475 L787 1475 L1308 94 L1442 94 L1442 0 L1014 0 L1014 94 L1192 94 L1061 444 Z M1025 538 L716 1365 L416 538 L1025 538 Z M729 1985 Q827 1985 884 1927 Q941 1869 941 1770 Q941 1669 883.5 1612 Q826 1555 725 1555 Q625 1555 567.5 1612 Q510 1669 510 1769 Q510 1872 567.5 1928.5 Q625 1985 729 1985 Z M723 1912 Q661 1912 627.5 1875 Q594 1838 594 1770 Q594 1628 724 1628 Q857 1628 857 1770 Q857 1912 723 1912 Z " />
<glyph glyph-name="Ccedilla" unicode="&#xc7;" horiz-adv-x="1491" d="M1296 311 L1375 244 Q1179 -32 804 -31 L764 -102 Q850 -106 888 -120 Q989 -160 989 -275 Q989 -365 928 -413.5 Q867 -462 752 -462 Q664 -462 518 -424 L518 -324 Q531 -329 538 -331 Q667 -373 753 -373 Q887 -373 887 -277 Q887 -185 749 -185 Q717 -185 680 -188 L680 -116 L726 -28 Q497 -12 352 103 Q101 303 101 720 Q101 1083 297 1300 Q393 1406 516 1456 Q639 1506 803 1506 Q1084 1506 1237 1375 L1237 1475 L1331 1475 L1331 1062 L1236 1062 L1236 1096 Q1236 1212 1193 1267 Q1143 1331 1035 1369 Q927 1407 797 1407 Q508 1407 353 1197 Q216 1011 216 719 Q216 421 372 240 Q521 68 808 68 Q1001 68 1144 162 Q1212 207 1296 311 Z " />
<glyph glyph-name="Eacute" unicode="&#xc9;" horiz-adv-x="1173" d="M240 94 L240 1381 L93 1381 L93 1475 L1040 1475 L1040 1139 L945 1139 L945 1381 L351 1381 L351 811 L857 811 L857 717 L351 717 L351 94 L961 94 L961 371 L1056 371 L1056 0 L93 0 L93 94 L240 94 Z M529 1588 L704 1898 L845 1898 L614 1588 L529 1588 Z " />
<glyph glyph-name="Ntilde" unicode="&#xd1;" horiz-adv-x="1442" d="M240 94 L240 1381 L93 1381 L93 1475 L350 1475 L1019 396 Q1045 354 1103 244 Q1099 354 1099 423 L1099 1381 L951 1381 L951 1475 L1356 1475 L1356 1381 L1208 1381 L1208 -21 L1151 -21 L410 1176 Q393 1204 345 1298 Q349 1217 349 1172 L349 94 L495 94 L495 0 L93 0 L93 94 L240 94 Z M517 1659 L440 1659 Q490 1834 614 1834 Q666 1834 747 1785 Q819 1741 840 1741 Q898 1741 939 1832 L1016 1832 Q959 1653 835 1653 Q774 1653 673 1718 Q629 1746 603 1746 Q552 1746 517 1659 Z " />
<glyph glyph-name="Odieresis" unicode="&#xd6;" horiz-adv-x="1712" d="M866 1506 Q1078 1506 1259 1391 Q1446 1271 1539 1072 Q1611 917 1611 737 Q1611 421 1399 199 Q1179 -31 856 -31 Q533 -31 313 199 Q101 421 101 736 Q101 1060 313 1276 Q539 1506 866 1506 Z M848 1407 Q665 1407 510 1306 Q345 1199 269 1019 Q216 894 216 737 Q216 457 389 270 Q577 68 856 68 Q1135 68 1322 270 Q1496 457 1496 736 Q1496 1023 1322 1205 Q1130 1407 848 1407 Z M600 1667 L600 1820 L737 1820 L737 1667 L600 1667 Z M974 1667 L974 1820 L1111 1820 L1111 1667 L974 1667 Z " />
<glyph glyph-name="Udieresis" unicode="&#xdc;" horiz-adv-x="1423" d="M82 1381 L82 1475 L486 1475 L486 1381 L340 1381 L340 550 Q340 343 393 235 Q433 155 516 111.5 Q599 68 712 68 Q863 68 957 144 Q1022 197 1052 293.5 Q1082 390 1082 550 L1082 1381 L937 1381 L937 1475 L1340 1475 L1340 1381 L1193 1381 L1193 620 Q1193 431 1177.5 334.5 Q1162 238 1121 165 Q1010 -31 712 -31 Q413 -31 301 165 Q260 237 244.5 335 Q229 433 229 620 L229 1381 L82 1381 Z M456 1667 L456 1820 L593 1820 L593 1667 L456 1667 Z M830 1667 L830 1820 L967 1820 L967 1667 L830 1667 Z " />
<glyph glyph-name="aacute" unicode="&#xe1;" horiz-adv-x="1158" d="M831 564 L831 616 Q831 756 778 812 Q712 882 526 882 Q384 882 327 830 Q292 796 284 706 L180 706 Q184 846 256 906 Q338 975 527 975 Q766 975 860 882 Q904 839 921.5 774 Q939 709 939 593 L939 94 L1096 94 L1096 0 L832 0 L832 121 Q702 -29 449 -29 Q85 -29 85 263 Q85 464 244 535 Q330 574 549 574 Q602 574 811 565 L831 564 Z M831 469 Q717 482 538 482 Q351 482 284 444 Q195 394 195 268 Q195 167 252 120 Q318 65 461 65 Q686 65 787 196 Q813 230 822 265 Q831 300 831 367 L831 469 Z M458 1104 L672 1452 L813 1452 L543 1104 L458 1104 Z " />
<glyph glyph-name="agrave" unicode="&#xe0;" horiz-adv-x="1158" d="M831 564 L831 616 Q831 756 778 812 Q712 882 526 882 Q384 882 327 830 Q292 796 284 706 L180 706 Q184 846 256 906 Q338 975 527 975 Q766 975 860 882 Q904 839 921.5 774 Q939 709 939 593 L939 94 L1096 94 L1096 0 L832 0 L832 121 Q702 -29 449 -29 Q85 -29 85 263 Q85 464 244 535 Q330 574 549 574 Q602 574 811 565 L831 564 Z M831 469 Q717 482 538 482 Q351 482 284 444 Q195 394 195 268 Q195 167 252 120 Q318 65 461 65 Q686 65 787 196 Q813 230 822 265 Q831 300 831 367 L831 469 Z M616 1104 L346 1452 L487 1452 L701 1104 L616 1104 Z " />
<glyph glyph-name="acircumflex" unicode="&#xe2;" horiz-adv-x="1158" d="M831 564 L831 616 Q831 756 778 812 Q712 882 526 882 Q384 882 327 830 Q292 796 284 706 L180 706 Q184 846 256 906 Q338 975 527 975 Q766 975 860 882 Q904 839 921.5 774 Q939 709 939 593 L939 94 L1096 94 L1096 0 L832 0 L832 121 Q702 -29 449 -29 Q85 -29 85 263 Q85 464 244 535 Q330 574 549 574 Q602 574 811 565 L831 564 Z M831 469 Q717 482 538 482 Q351 482 284 444 Q195 394 195 268 Q195 167 252 120 Q318 65 461 65 Q686 65 787 196 Q813 230 822 265 Q831 300 831 367 L831 469 Z M560 1374 L370 1104 L283 1104 L492 1452 L629 1452 L836 1104 L751 1104 L560 1374 Z " />
<glyph glyph-name="adieresis" unicode="&#xe4;" horiz-adv-x="1158" d="M831 564 L831 616 Q831 756 778 812 Q712 882 526 882 Q384 882 327 830 Q292 796 284 706 L180 706 Q184 846 256 906 Q338 975 527 975 Q766 975 860 882 Q904 839 921.5 774 Q939 709 939 593 L939 94 L1096 94 L1096 0 L832 0 L832 121 Q702 -29 449 -29 Q85 -29 85 263 Q85 464 244 535 Q330 574 549 574 Q602 574 811 565 L831 564 Z M831 469 Q717 482 538 482 Q351 482 284 444 Q195 394 195 268 Q195 167 252 120 Q318 65 461 65 Q686 65 787 196 Q813 230 822 265 Q831 300 831 367 L831 469 Z M332 1183 L332 1336 L469 1336 L469 1183 L332 1183 Z M666 1183 L666 1336 L803 1336 L803 1183 L666 1183 Z " />
<glyph glyph-name="atilde" unicode="&#xe3;" horiz-adv-x="1158" d="M831 564 L831 616 Q831 756 778 812 Q712 882 526 882 Q384 882 327 830 Q292 796 284 706 L180 706 Q184 846 256 906 Q338 975 527 975 Q766 975 860 882 Q904 839 921.5 774 Q939 709 939 593 L939 94 L1096 94 L1096 0 L832 0 L832 121 Q702 -29 449 -29 Q85 -29 85 263 Q85 464 244 535 Q330 574 549 574 Q602 574 811 565 L831 564 Z M831 469 Q717 482 538 482 Q351 482 284 444 Q195 394 195 268 Q195 167 252 120 Q318 65 461 65 Q686 65 787 196 Q813 230 822 265 Q831 300 831 367 L831 469 Z M345 1175 L269 1175 Q319 1349 442 1349 Q474 1349 499.5 1339.5 Q525 1330 574 1300 Q646 1256 667 1256 Q724 1256 766 1347 L842 1347 Q784 1169 662 1169 Q601 1169 501 1234 Q457 1262 431 1262 Q381 1262 345 1175 Z " />
<glyph glyph-name="aring" unicode="&#xe5;" horiz-adv-x="1158" d="M831 564 L831 616 Q831 756 778 812 Q712 882 526 882 Q384 882 327 830 Q292 796 284 706 L180 706 Q184 846 256 906 Q338 975 527 975 Q766 975 860 882 Q904 839 921.5 774 Q939 709 939 593 L939 94 L1096 94 L1096 0 L832 0 L832 121 Q702 -29 449 -29 Q85 -29 85 263 Q85 464 244 535 Q330 574 549 574 Q602 574 811 565 L831 564 Z M831 469 Q717 482 538 482 Q351 482 284 444 Q195 394 195 268 Q195 167 252 120 Q318 65 461 65 Q686 65 787 196 Q813 230 822 265 Q831 300 831 367 L831 469 Z M578 1502 Q676 1502 733 1444 Q790 1386 790 1287 Q790 1186 732.5 1129 Q675 1072 574 1072 Q474 1072 416.5 1129 Q359 1186 359 1286 Q359 1389 416.5 1445.5 Q474 1502 578 1502 Z M572 1428 Q510 1428 476.5 1391 Q443 1354 443 1286 Q443 1145 573 1145 Q706 1145 706 1286 Q706 1428 572 1428 Z " />
<glyph glyph-name="ccedilla" unicode="&#xe7;" horiz-adv-x="1020" d="M903 197 L966 117 Q797 -24 570 -28 L529 -101 Q616 -105 653 -119 Q755 -159 755 -274 Q755 -364 693.5 -412.5 Q632 -461 517 -461 Q428 -461 283 -424 L283 -324 Q296 -328 303 -330 Q432 -372 518 -372 Q653 -372 653 -277 Q653 -184 506 -184 Q486 -184 445 -187 L445 -116 L492 -25 Q361 -10 273 52 Q91 182 91 463 Q91 697 219 837 Q343 974 553 974 Q715 974 825 883 L825 945 L918 945 L918 641 L824 641 L824 675 Q824 759 780 802 Q700 880 556 880 Q378 880 285 756 Q201 644 201 463 Q201 257 316 153 Q410 66 562 66 Q744 66 903 197 Z " />
<glyph glyph-name="eacute" unicode="&#xe9;" horiz-adv-x="1115" d="M1028 452 L201 452 Q208 328 254 245 Q356 65 578 65 Q768 65 942 196 L1004 115 Q813 -29 575 -29 Q352 -29 217 121 Q90 261 90 473 Q90 684 212 824 Q344 974 561 974 Q773 974 901 831 Q1029 688 1028 452 Z M914 545 Q897 657 847 731 Q746 880 559 880 Q350 880 252 700 Q217 636 205 545 L914 545 Z M453 1104 L667 1452 L808 1452 L538 1104 L453 1104 Z " />
<glyph glyph-name="egrave" unicode="&#xe8;" horiz-adv-x="1115" d="M1028 452 L201 452 Q208 328 254 245 Q356 65 578 65 Q768 65 942 196 L1004 115 Q813 -29 575 -29 Q352 -29 217 121 Q90 261 90 473 Q90 684 212 824 Q344 974 561 974 Q773 974 901 831 Q1029 688 1028 452 Z M914 545 Q897 657 847 731 Q746 880 559 880 Q350 880 252 700 Q217 636 205 545 L914 545 Z M596 1104 L326 1452 L467 1452 L681 1104 L596 1104 Z " />
<glyph glyph-name="ecircumflex" unicode="&#xea;" horiz-adv-x="1115" d="M1028 452 L201 452 Q208 328 254 245 Q356 65 578 65 Q768 65 942 196 L1004 115 Q813 -29 575 -29 Q352 -29 217 121 Q90 261 90 473 Q90 684 212 824 Q344 974 561 974 Q773 974 901 831 Q1029 688 1028 452 Z M914 545 Q897 657 847 731 Q746 880 559 880 Q350 880 252 700 Q217 636 205 545 L914 545 Z M558 1374 L368 1104 L281 1104 L490 1452 L627 1452 L834 1104 L749 1104 L558 1374 Z " />
<glyph glyph-name="edieresis" unicode="&#xeb;" horiz-adv-x="1115" d="M1028 452 L201 452 Q208 328 254 245 Q356 65 578 65 Q768 65 942 196 L1004 115 Q813 -29 575 -29 Q352 -29 217 121 Q90 261 90 473 Q90 684 212 824 Q344 974 561 974 Q773 974 901 831 Q1029 688 1028 452 Z M914 545 Q897 657 847 731 Q746 880 559 880 Q350 880 252 700 Q217 636 205 545 L914 545 Z M324 1183 L324 1336 L461 1336 L461 1183 L324 1183 Z M658 1183 L658 1336 L795 1336 L795 1183 L658 1183 Z " />
<glyph glyph-name="iacute" unicode="&#xed;" horiz-adv-x="572" d="M243 94 L243 851 L85 851 L85 945 L351 945 L351 94 L502 94 L502 0 L84 0 L84 94 L243 94 Z M163 1104 L377 1452 L518 1452 L248 1104 L163 1104 Z " />
<glyph glyph-name="igrave" unicode="&#xec;" horiz-adv-x="572" d="M244 94 L244 851 L86 851 L86 945 L352 945 L352 94 L503 94 L503 0 L85 0 L85 94 L244 94 Z M323 1104 L53 1452 L194 1452 L408 1104 L323 1104 Z " />
<glyph glyph-name="icircumflex" unicode="&#xee;" horiz-adv-x="572" d="M244 94 L244 851 L86 851 L86 945 L352 945 L352 94 L503 94 L503 0 L85 0 L85 94 L244 94 Z M262 1374 L72 1104 L-15 1104 L194 1452 L331 1452 L538 1104 L453 1104 L262 1374 Z " />
<glyph glyph-name="idieresis" unicode="&#xef;" horiz-adv-x="572" d="M244 94 L244 851 L86 851 L86 945 L352 945 L352 94 L503 94 L503 0 L85 0 L85 94 L244 94 Z M51 1183 L51 1336 L188 1336 L188 1183 L51 1183 Z M385 1183 L385 1336 L522 1336 L522 1183 L385 1183 Z " />
<glyph glyph-name="ntilde" unicode="&#xf1;" horiz-adv-x="1253" d="M242 94 L242 851 L85 851 L85 945 L350 945 L350 757 Q437 847 496 888 Q620 974 751 974 Q920 974 989 847 Q1016 797 1025 736.5 Q1034 676 1034 549 L1034 94 L1190 94 L1190 0 L780 0 L780 94 L926 94 L926 554 Q926 701 905 763 Q869 872 729 872 Q546 872 350 630 L350 94 L498 94 L498 0 L85 0 L85 94 L242 94 Z M391 1175 L315 1175 Q365 1349 488 1349 Q520 1349 545.5 1339.5 Q571 1330 620 1300 Q692 1256 713 1256 Q770 1256 812 1347 L888 1347 Q830 1169 708 1169 Q647 1169 547 1234 Q503 1262 477 1262 Q427 1262 391 1175 Z " />
<glyph glyph-name="oacute" unicode="&#xf3;" horiz-adv-x="1188" d="M602 974 Q825 974 966 824 Q1098 684 1098 472 Q1098 261 966 121 Q825 -29 594 -29 Q363 -29 222 121 Q91 261 91 471 Q91 688 222 824 Q367 974 602 974 Z M589 880 Q403 880 291 747 Q201 639 201 472 Q201 306 291 198 Q402 65 595 65 Q787 65 898 198 Q988 306 988 471 Q988 641 898 747 Q784 880 589 880 Z M471 1104 L685 1452 L826 1452 L556 1104 L471 1104 Z " />
<glyph glyph-name="ograve" unicode="&#xf2;" horiz-adv-x="1188" d="M602 974 Q825 974 966 824 Q1098 684 1098 472 Q1098 261 966 121 Q825 -29 594 -29 Q363 -29 222 121 Q91 261 91 471 Q91 688 222 824 Q367 974 602 974 Z M589 880 Q403 880 291 747 Q201 639 201 472 Q201 306 291 198 Q402 65 595 65 Q787 65 898 198 Q988 306 988 471 Q988 641 898 747 Q784 880 589 880 Z M632 1104 L362 1452 L503 1452 L717 1104 L632 1104 Z " />
<glyph glyph-name="ocircumflex" unicode="&#xf4;" horiz-adv-x="1188" d="M602 974 Q825 974 966 824 Q1098 684 1098 472 Q1098 261 966 121 Q825 -29 594 -29 Q363 -29 222 121 Q91 261 91 471 Q91 688 222 824 Q367 974 602 974 Z M589 880 Q403 880 291 747 Q201 639 201 472 Q201 306 291 198 Q402 65 595 65 Q787 65 898 198 Q988 306 988 471 Q988 641 898 747 Q784 880 589 880 Z M594 1374 L404 1104 L317 1104 L526 1452 L663 1452 L870 1104 L785 1104 L594 1374 Z " />
<glyph glyph-name="odieresis" unicode="&#xf6;" horiz-adv-x="1188" d="M602 974 Q825 974 966 824 Q1098 684 1098 472 Q1098 261 966 121 Q825 -29 594 -29 Q363 -29 222 121 Q91 261 91 471 Q91 688 222 824 Q367 974 602 974 Z M589 880 Q403 880 291 747 Q201 639 201 472 Q201 306 291 198 Q402 65 595 65 Q787 65 898 198 Q988 306 988 471 Q988 641 898 747 Q784 880 589 880 Z M359 1183 L359 1336 L496 1336 L496 1183 L359 1183 Z M693 1183 L693 1336 L830 1336 L830 1183 L693 1183 Z " />
<glyph glyph-name="otilde" unicode="&#xf5;" horiz-adv-x="1188" d="M602 974 Q825 974 966 824 Q1098 684 1098 472 Q1098 261 966 121 Q825 -29 594 -29 Q363 -29 222 121 Q91 261 91 471 Q91 688 222 824 Q367 974 602 974 Z M589 880 Q403 880 291 747 Q201 639 201 472 Q201 306 291 198 Q402 65 595 65 Q787 65 898 198 Q988 306 988 471 Q988 641 898 747 Q784 880 589 880 Z M383 1175 L307 1175 Q357 1349 480 1349 Q512 1349 537.5 1339.5 Q563 1330 612 1300 Q684 1256 705 1256 Q762 1256 804 1347 L880 1347 Q822 1169 700 1169 Q639 1169 539 1234 Q495 1262 469 1262 Q419 1262 383 1175 Z " />
<glyph glyph-name="uacute" unicode="&#xfa;" horiz-adv-x="1191" d="M219 851 L63 851 L63 945 L327 945 L327 391 Q327 249 345 190 Q377 86 504 86 Q677 86 862 315 L862 851 L714 851 L714 945 L970 945 L970 94 L1127 94 L1127 0 L862 0 L862 188 Q778 102 723 65 Q606 -16 482 -16 Q323 -16 261 107 Q235 158 227 214.5 Q219 271 219 396 L219 851 Z M472 1104 L686 1452 L827 1452 L557 1104 L472 1104 Z " />
<glyph glyph-name="ugrave" unicode="&#xf9;" horiz-adv-x="1191" d="M219 851 L63 851 L63 945 L327 945 L327 391 Q327 249 345 190 Q377 86 504 86 Q677 86 862 315 L862 851 L714 851 L714 945 L970 945 L970 94 L1127 94 L1127 0 L862 0 L862 188 Q778 102 723 65 Q606 -16 482 -16 Q323 -16 261 107 Q235 158 227 214.5 Q219 271 219 396 L219 851 Z M598 1104 L328 1452 L469 1452 L683 1104 L598 1104 Z " />
<glyph glyph-name="ucircumflex" unicode="&#xfb;" horiz-adv-x="1191" d="M219 851 L63 851 L63 945 L327 945 L327 391 Q327 249 345 190 Q377 86 504 86 Q677 86 862 315 L862 851 L714 851 L714 945 L970 945 L970 94 L1127 94 L1127 0 L862 0 L862 188 Q778 102 723 65 Q606 -16 482 -16 Q323 -16 261 107 Q235 158 227 214.5 Q219 271 219 396 L219 851 Z M576 1374 L386 1104 L299 1104 L508 1452 L645 1452 L852 1104 L767 1104 L576 1374 Z " />
<glyph glyph-name="udieresis" unicode="&#xfc;" horiz-adv-x="1191" d="M219 851 L63 851 L63 945 L327 945 L327 391 Q327 249 345 190 Q377 86 504 86 Q677 86 862 315 L862 851 L714 851 L714 945 L970 945 L970 94 L1127 94 L1127 0 L862 0 L862 188 Q778 102 723 65 Q606 -16 482 -16 Q323 -16 261 107 Q235 158 227 214.5 Q219 271 219 396 L219 851 Z M342 1183 L342 1336 L479 1336 L479 1183 L342 1183 Z M676 1183 L676 1336 L813 1336 L813 1183 L676 1183 Z " />
<glyph glyph-name="dagger" unicode="&#x2020;" horiz-adv-x="1147" d="M524 932 L143 932 L143 1025 L524 1025 L524 1475 L619 1475 L619 1025 L1004 1025 L1004 932 L619 932 L619 -197 L524 -197 L524 932 Z " />
<glyph glyph-name="degree" unicode="&#xb0;" horiz-adv-x="678" d="M336 1456 Q249 1456 197.5 1401 Q146 1346 146 1253 Q146 1159 198 1104.5 Q250 1050 339 1050 Q428 1050 480 1104.5 Q532 1159 532 1252 Q532 1348 480 1402 Q428 1456 336 1456 Z M343 1530 Q467 1530 542 1453.5 Q617 1377 617 1252 Q617 1135 550 1060 Q474 974 339 974 Q204 974 127 1060 Q60 1135 60 1251 Q60 1380 136 1455 Q212 1530 343 1530 Z " />
<glyph glyph-name="cent" unicode="&#xa2;" horiz-adv-x="1147" d="M584 270 Q450 281 356 344 Q165 473 165 760 Q165 939 242 1067 Q354 1249 584 1270 L584 1599 L667 1599 L667 1270 Q809 1260 904 1180 L904 1243 L996 1243 L996 938 L903 938 L903 972 Q903 1029 886.5 1062.5 Q870 1096 827 1125 Q765 1167 667 1177 L667 364 Q836 376 980 494 L1042 414 Q886 283 667 270 L667 -23 L584 -23 L584 270 Z M584 367 L584 1175 Q476 1162 400 1096 Q275 986 275 760 Q275 418 584 367 Z " />
<glyph glyph-name="sterling" unicode="&#xa3;" horiz-adv-x="1147" d="M74 -23 L74 79 Q145 95 187.5 122 Q230 149 264 199 Q329 292 329 449 Q329 545 296 697 L74 697 L74 789 L273 789 Q222 989 222 1083 Q222 1287 352 1404 Q463 1504 637 1504 Q833 1504 939 1374 L939 1475 L1032 1475 L1032 1062 L938 1062 L938 1096 Q938 1210 908 1266 Q875 1329 800.5 1367 Q726 1405 637 1405 Q514 1405 434 1337 Q331 1249 331 1098 Q331 990 383 789 L673 789 L673 697 L405 697 Q439 545 439 423 Q439 306 379 190 Q566 78 728 78 Q893 78 974 188 Q1028 262 1038 385 L1143 385 Q1103 -21 726 -21 Q527 -21 328 106 Q215 -14 74 -23 Z " />
<glyph glyph-name="section" unicode="&#xa7;" horiz-adv-x="1147" d="M284 -200 L284 118 L377 118 L377 -107 L524 -107 Q638 -107 689 -77.5 Q740 -48 740 18 Q740 126 614 244 L354 490 Q261 578 226 625 Q163 711 163 800 Q163 904 237.5 968 Q312 1032 435 1033 Q340 1156 340 1264 Q340 1376 428 1425.5 Q516 1475 715 1475 L880 1475 L880 1162 L795 1162 L795 1382 L652 1382 Q452 1382 452 1255 Q452 1203 488.5 1145.5 Q525 1088 621 991 L815 795 Q907 702 948.5 627 Q990 552 990 477 Q990 379 932 318 Q874 257 762 236 Q854 123 854 17 Q854 -97 770.5 -148.5 Q687 -200 501 -200 L284 -200 Z M773 676 L625 830 Q563 894 512.5 923.5 Q462 953 414 953 Q349 953 305 912 Q261 871 261 810 Q261 766 283 729 Q305 692 371 626 L554 443 Q604 393 656.5 363 Q709 333 747 333 Q803 333 842.5 374.5 Q882 416 882 476 Q882 564 773 676 Z " />
<glyph glyph-name="bullet" unicode="&#x2022;" horiz-adv-x="1147" d="M295 472 L295 1046 L852 1046 L852 472 L295 472 Z " />
<glyph glyph-name="paragraph" unicode="&#xb6;" horiz-adv-x="1237" d="M469 -328 L469 689 Q377 698 328.5 712.5 Q280 727 230 761 Q68 869 68 1080 Q68 1265 197 1376 Q261 1430 336.5 1452.5 Q412 1475 535 1475 L1092 1475 L1092 1381 L964 1381 L964 -328 L1146 -328 L1146 -422 L315 -422 L315 -328 L469 -328 Z M575 -328 L858 -328 L858 1381 L575 1381 L575 -328 Z " />
<glyph glyph-name="germandbls" unicode="&#xdf;" horiz-adv-x="1268" d="M242 94 L242 851 L85 851 L85 945 L242 945 L242 1073 Q242 1293 367 1408 Q473 1504 651 1504 Q838 1504 945 1397 Q1039 1303 1039 1156 Q1039 1036 984.5 954.5 Q930 873 824 832 Q953 803 1027 746 Q1178 632 1178 427 Q1178 230 1052 119 Q960 37 806 11 Q751 2 639 -1 L640 93 Q744 96 807 109 Q870 122 925 153 Q1068 234 1068 426 Q1068 646 884 726 Q796 764 639 772 L639 865 Q757 876 820 916 Q930 988 930 1148 Q930 1262 859 1332 Q782 1410 652 1410 Q566 1410 497 1374 Q428 1338 392 1273 Q350 1197 350 1041 L350 94 L483 94 L483 0 L85 0 L85 94 L242 94 Z " />
<glyph glyph-name="registered" unicode="&#xae;" horiz-adv-x="1254" d="M462 1017 L462 1402 L406 1402 L406 1475 L605 1475 Q707 1475 762 1454 Q848 1420 848 1322 Q848 1231 761 1191 Q779 1172 797 1130 L845 1017 L907 1017 L907 945 L783 945 L713 1107 Q697 1145 675 1157 Q653 1169 602 1169 L544 1169 L544 1017 L615 1017 L615 945 L406 945 L406 1017 L462 1017 Z M544 1241 L611 1241 Q691 1241 726.5 1260 Q762 1279 762 1321 Q762 1364 727 1383 Q692 1402 612 1402 L544 1402 L544 1241 Z M634 1765 Q857 1765 1016 1601 Q1172 1441 1172 1208 Q1172 977 1016 816 Q857 652 626 652 Q396 652 237 816 Q81 977 81 1207 Q81 1444 237 1601 Q400 1765 634 1765 Z M620 1688 Q426 1688 290 1544 Q165 1411 165 1208 Q165 1007 290 874 Q426 729 626 729 Q827 729 963 874 Q1088 1007 1088 1207 Q1088 1414 963 1544 Q823 1688 620 1688 Z " />
<glyph glyph-name="copyright" unicode="&#xa9;" horiz-adv-x="1714" d="M1142 1068 L1142 848 L1053 848 L1053 998 Q961 1035 871 1035 Q734 1035 657 939 Q587 851 587 721 Q587 586 658 505 Q728 425 860 425 Q1003 425 1138 525 L1193 452 Q1035 338 870 338 Q679 338 576 457 Q487 559 487 723 Q487 901 600 1017 Q703 1123 875 1123 Q997 1123 1142 1068 Z M866 1508 Q1077 1508 1257 1394 Q1445 1275 1539 1075 Q1612 919 1612 737 Q1612 418 1396 195 Q1176 -33 857 -33 Q537 -33 317 195 Q101 418 101 736 Q101 1063 317 1280 Q543 1508 866 1508 Z M848 1419 Q662 1419 504 1316 Q335 1206 257 1023 Q204 896 204 737 Q204 452 381 262 Q572 56 857 56 Q1141 56 1332 262 Q1509 452 1509 736 Q1509 1028 1332 1213 Q1135 1419 848 1419 Z " />
<glyph glyph-name="trademark" unicode="&#x2122;" horiz-adv-x="1483" d="M270 841 L270 1403 L115 1403 L115 1267 L35 1267 L35 1475 L592 1475 L592 1267 L512 1267 L512 1403 L357 1403 L357 841 L445 841 L445 769 L182 769 L182 841 L270 841 Z M663 841 L701 1403 L631 1403 L631 1475 L794 1475 L995 967 L1014 916 L1032 965 L1233 1475 L1392 1475 L1392 1403 L1322 1403 L1360 841 L1431 841 L1431 769 L1204 769 L1204 841 L1273 841 L1245 1279 L1041 769 L984 769 L779 1279 L751 841 L821 841 L821 769 L593 769 L593 841 L663 841 Z " />
<glyph glyph-name="acute" unicode="&#xb4;" horiz-adv-x="1024" d="M389 1104 L603 1452 L744 1452 L474 1104 L389 1104 Z " />
<glyph glyph-name="dieresis" unicode="&#xa8;" horiz-adv-x="1024" d="M277 1183 L277 1336 L414 1336 L414 1183 L277 1183 Z M611 1183 L611 1336 L748 1336 L748 1183 L611 1183 Z " />
<glyph glyph-name="notequal" unicode="&#x2260;" horiz-adv-x="1147" d="M140 836 L140 931 L608 931 L713 1154 L809 1115 L722 931 L1008 931 L1008 836 L678 836 L585 638 L1008 638 L1008 544 L540 544 L435 321 L338 359 L425 544 L140 544 L140 638 L470 638 L563 836 L140 836 Z " />
<glyph glyph-name="AE" unicode="&#xc6;" horiz-adv-x="1935" d="M1001 504 L447 504 L192 94 L401 94 L401 0 L-86 0 L-86 94 L77 94 L850 1381 L718 1381 L718 1475 L1801 1475 L1801 1138 L1706 1138 L1706 1381 L1112 1381 L1112 811 L1619 811 L1619 717 L1112 717 L1112 94 L1722 94 L1722 372 L1817 372 L1817 0 L798 0 L798 94 L1001 94 L1001 504 Z M1001 598 L1001 1381 L962 1381 L498 598 L1001 598 Z " />
<glyph glyph-name="Oslash" unicode="&#xd8;" horiz-adv-x="1712" d="M333 175 Q252 258 209 329 Q99 509 99 740 Q99 1054 311 1276 Q531 1506 855 1506 Q1101 1506 1299 1363 L1453 1552 L1574 1552 L1371 1303 Q1609 1067 1609 737 Q1609 421 1397 200 Q1177 -31 855 -31 Q603 -31 405 115 L239 -89 L119 -89 L333 175 Z M400 257 L1235 1284 Q1061 1407 854 1407 Q575 1407 387 1205 Q214 1018 214 737 Q214 453 400 257 Z M1305 1222 L470 194 Q648 68 853 68 Q1133 68 1320 270 Q1494 457 1494 738 Q1494 887 1449.5 1001 Q1405 1115 1305 1222 Z " />
<glyph glyph-name="infinity" unicode="&#x221e;" horiz-adv-x="1548" d="M774 665 Q638 442 438 442 Q303 442 219 525 Q136 607 136 736 Q136 867 219 948 Q305 1031 441 1031 Q639 1031 774 808 Q908 1031 1108 1031 Q1244 1031 1330 948 Q1413 867 1413 737 Q1413 607 1330 525 Q1246 442 1111 442 Q909 442 774 665 Z M724 736 L714 755 Q671 842 598.5 896 Q526 950 451 950 Q355 950 294 890 Q233 830 233 736 Q233 639 294 581 Q357 522 451 522 Q547 522 623 597 Q685 657 715 718 L724 736 Z M825 736 L834 718 Q876 632 950 577 Q1024 522 1098 522 Q1194 522 1255 582 Q1316 642 1316 736 Q1316 833 1255 891 Q1193 950 1098 950 Q1002 950 925 876 Q866 817 834 755 L825 736 Z " />
<glyph glyph-name="plusminus" unicode="&#xb1;" horiz-adv-x="1147" d="M140 697 L140 791 L527 791 L527 1192 L621 1192 L621 791 L1008 791 L1008 697 L621 697 L621 294 L527 294 L527 697 L140 697 Z M140 0 L140 94 L1008 94 L1008 0 L140 0 Z " />
<glyph glyph-name="lessequal" unicode="&#x2264;" horiz-adv-x="1147" d="M253 744 L1007 335 L1007 230 L139 711 L139 777 L1007 1259 L1007 1153 L253 744 Z M139 0 L139 94 L1007 94 L1007 0 L139 0 Z " />
<glyph glyph-name="greaterequal" unicode="&#x2265;" horiz-adv-x="1147" d="M894 744 L140 1153 L140 1259 L1008 777 L1008 711 L140 230 L140 335 L894 744 Z M140 0 L140 94 L1008 94 L1008 0 L140 0 Z " />
<glyph glyph-name="yen" unicode="&#xa5;" horiz-adv-x="1147" d="M519 93 L519 382 L172 382 L172 467 L519 467 L519 592 L172 592 L172 677 L513 677 L158 1381 L12 1381 L12 1475 L447 1475 L447 1381 L278 1381 L578 788 L876 1381 L709 1381 L709 1475 L1135 1475 L1135 1381 L989 1381 L636 677 L975 677 L975 592 L630 592 L630 467 L975 467 L975 382 L630 382 L630 93 L805 93 L805 0 L344 0 L344 93 L519 93 Z " />
<glyph glyph-name="mu" unicode="&#xb5;" horiz-adv-x="1147" d="M42 851 L42 945 L306 945 L307 391 Q308 248 325 190 Q357 86 483 86 Q656 86 841 315 L841 851 L693 851 L693 945 L949 945 L949 94 L1106 94 L1106 0 L841 0 L841 188 Q757 102 702 65 Q585 -16 462 -16 Q369 -16 306 29 L306 -328 L488 -328 L488 -422 L44 -422 L44 -328 L198 -328 L198 851 L42 851 Z " />
<glyph glyph-name="partialdiff" unicode="&#x2202;" horiz-adv-x="1147" d="M364 1497 L421 1558 Q655 1366 781 1220 Q1078 873 1078 478 Q1078 262 945 121 Q804 -29 573 -29 Q343 -29 201 121 Q70 261 70 471 Q70 682 201 822 Q342 972 568 972 Q738 972 846 885 Q885 853 940 781 Q855 979 740 1121.5 Q625 1264 364 1497 Z M567 878 Q382 878 270 745 Q180 637 180 471 Q180 306 270 198 Q381 65 573 65 Q765 65 876 198 Q966 306 966 476 Q966 645 879 745 Q762 878 567 878 Z " />
<glyph glyph-name="summation" unicode="&#x2211;" horiz-adv-x="1306" d="M685 642 L127 1494 L127 1572 L1206 1572 L1206 1201 L1111 1201 L1111 1478 L261 1478 L810 640 L190 -262 L1131 -262 L1131 23 L1226 23 L1226 -356 L65 -356 L65 -270 L685 642 Z " />
<glyph glyph-name="product" unicode="&#x220f;" horiz-adv-x="1475" d="M271 -262 L271 1478 L124 1478 L124 1572 L1350 1572 L1350 1478 L1203 1478 L1203 -262 L1350 -262 L1350 -356 L946 -356 L946 -262 L1092 -262 L1092 1478 L382 1478 L382 -262 L528 -262 L528 -356 L124 -356 L124 -262 L271 -262 Z " />
<glyph glyph-name="integral" unicode="&#x222b;" horiz-adv-x="702" d="M39 -349 L59 -249 Q98 -262 137 -262 Q244 -262 277 -182 Q293 -141 293 -14 L293 1225 Q293 1394 328 1461 Q357 1516 419 1547.5 Q481 1579 561 1579 Q605 1579 658 1567 L638 1468 Q597 1482 556 1482 Q452 1482 420 1400 Q404 1359 404 1264 L404 -5 Q404 -127 394 -180 Q384 -233 354 -273 Q288 -359 116 -359 Q72 -359 39 -349 Z " />
<glyph glyph-name="ordfeminine" unicode="&#xaa;" horiz-adv-x="741" d="M512 883 L512 953 Q427 867 287 867 Q58 867 58 1054 Q58 1184 160 1227 Q215 1250 351 1250 Q396 1250 498 1246 L498 1292 Q498 1419 342 1419 Q252 1419 144 1377 L102 1460 Q218 1506 345 1506 Q481 1506 542.5 1453.5 Q604 1401 604 1284 L604 970 L696 970 L696 883 L512 883 Z M498 1159 Q432 1165 344 1165 Q246 1165 211 1144 Q164 1116 164 1056 Q164 952 302 952 Q418 952 474 1022 Q498 1053 498 1106 L498 1159 Z " />
<glyph glyph-name="ordmasculine" unicode="&#xba;" horiz-adv-x="742" d="M376 1506 Q519 1506 609 1411 Q690 1325 690 1186 Q690 1046 609 961 Q520 866 371 866 Q223 866 133 961 Q52 1047 52 1185 Q52 1326 133 1411 Q224 1506 376 1506 Z M368 1419 Q269 1419 209 1341 Q158 1276 158 1186 Q158 1085 218 1019 Q278 953 371 953 Q473 953 533 1031 Q584 1096 584 1185 Q584 1289 523.5 1354 Q463 1419 368 1419 Z " />
<glyph glyph-name="Omega" unicode="&#x2126;" horiz-adv-x="1712" d="M50 0 L50 289 L145 289 L145 94 L501 94 Q389 153 309 234 Q101 447 101 752 Q101 1067 313 1282 Q534 1506 857 1506 Q1179 1506 1399 1282 Q1611 1066 1611 752 Q1611 447 1403 234 Q1324 153 1212 94 L1567 94 L1567 289 L1662 289 L1662 0 L1020 0 L1020 125 Q1136 159 1203 202 Q1366 307 1443 483 Q1496 605 1496 758 Q1496 1030 1323 1211 Q1136 1407 857 1407 Q577 1407 390 1211 Q216 1030 216 758 Q216 486 390 302 Q454 234 519.5 195.5 Q585 157 693 125 L693 0 L50 0 Z " />
<glyph glyph-name="ae" unicode="&#xe6;" horiz-adv-x="1852" d="M831 564 L831 620 Q831 749 774 806 Q700 882 526 882 Q384 882 327 830 Q291 796 284 706 L181 706 Q185 845 257 906 Q339 975 527 975 Q855 975 913 759 Q1045 974 1299 974 Q1512 974 1639.5 831 Q1767 688 1766 452 L939 452 Q946 327 992 245 Q1095 65 1316 65 Q1506 65 1680 196 L1742 115 Q1551 -29 1317 -29 Q1029 -29 902 226 Q873 138 806 80 Q678 -29 450 -29 Q85 -29 85 263 Q85 464 244 535 Q331 574 549 574 Q603 574 811 565 L831 564 Z M831 469 Q714 482 539 482 Q351 482 284 444 Q195 394 195 268 Q195 167 252 120 Q318 65 460 65 Q696 65 787 194 Q831 256 831 360 L831 469 Z M1652 545 Q1637 654 1587 729 Q1487 880 1298 880 Q1153 880 1058 790.5 Q963 701 943 545 L1652 545 Z " />
<glyph glyph-name="oslash" unicode="&#xf8;" horiz-adv-x="1188" d="M243 98 Q89 244 89 472 Q89 684 220 824 Q362 974 590 974 Q757 974 880 896 L978 1019 L1083 1019 L944 845 Q1096 694 1096 474 Q1096 261 964 121 Q824 -29 592 -29 Q432 -29 308 47 L206 -80 L102 -80 L243 98 Z M307 178 L817 817 Q715 880 592 880 Q400 880 289 747 Q199 639 199 473 Q199 296 307 178 Z M880 764 L370 126 Q472 65 592 65 Q785 65 896 198 Q986 306 986 472 Q986 647 880 764 Z " />
<glyph glyph-name="questiondown" unicode="&#xbf;" horiz-adv-x="998" d="M621 1333 L621 1179 L473 1179 L473 1333 L621 1333 Z M598 948 L598 490 Q427 489 324 432 Q255 393 216.5 322 Q178 251 178 161 Q178 19 272 -75 Q368 -172 510 -172 Q666 -172 757 -51 Q811 22 837 170 L942 170 Q926 61 902 -2 Q878 -65 831 -123 Q710 -270 507 -270 Q324 -270 202 -156 Q68 -30 68 168 Q68 357 205 472 Q263 520 326.5 544 Q390 568 503 584 L503 948 L598 948 Z " />
<glyph glyph-name="exclamdown" unicode="&#xa1;" horiz-adv-x="571" d="M221 -234 L236 945 L333 945 L349 -234 L221 -234 Z M212 1179 L212 1333 L360 1333 L360 1179 L212 1179 Z " />
<glyph glyph-name="logicalnot" unicode="&#xac;" horiz-adv-x="1147" d="M140 690 L140 784 L930 784 L930 288 L832 288 L832 690 L140 690 Z " />
<glyph glyph-name="radical" unicode="&#x221a;" horiz-adv-x="1303" d="M554 0 L295 635 L130 635 L130 722 L384 722 L594 199 L1035 1713 L1532 1713 L1532 1625 L1122 1625 L643 0 L554 0 Z " />
<glyph glyph-name="florin" unicode="&#x192;" horiz-adv-x="1147" d="M331 756 L331 849 L534 849 L608 1221 Q634 1353 671 1411 Q733 1506 860 1506 Q950 1506 1031 1462 L993 1376 Q912 1409 864 1409 Q797 1409 765 1367.5 Q733 1326 710 1209 L638 849 L819 849 L819 756 L623 756 L498 15 Q474 -125 434 -203 Q365 -335 227 -335 Q155 -335 65 -297 L101 -210 Q168 -237 211 -237 Q286 -237 330.5 -174 Q375 -111 398 30 L519 756 L331 756 Z " />
<glyph glyph-name="approxequal" unicode="&#x2248;" horiz-adv-x="1147" d="M200 490 L135 551 Q207 632 262 664.5 Q317 697 382 697 Q472 697 586 637 Q669 593 698 582.5 Q727 572 765 572 Q853 572 950 684 L1012 628 Q894 477 764 477 Q718 477 673.5 491 Q629 505 552 545 Q442 601 386 601 Q338 601 295.5 575.5 Q253 550 200 490 Z M200 789 L135 850 Q207 931 262 963.5 Q317 996 382 996 Q472 996 586 936 Q669 892 698 881.5 Q727 871 765 871 Q853 871 950 983 L1012 927 Q894 776 764 776 Q718 776 673.5 790 Q629 804 552 844 Q442 900 386 900 Q338 900 295.5 874.5 Q253 849 200 789 Z " />
<glyph glyph-name="increment" unicode="&#x2206;" horiz-adv-x="1451" d="M1349 0 L102 0 L651 1475 L787 1475 L1349 0 Z M1192 94 L716 1365 L253 94 L1192 94 Z " />
<glyph glyph-name="guillemotleft" unicode="&#xab;" horiz-adv-x="659" d="M173 450 L364 99 L259 99 L63 450 L254 801 L364 801 L173 450 Z M433 450 L625 99 L520 99 L323 450 L514 801 L625 801 L433 450 Z " />
<glyph glyph-name="guillemotright" unicode="&#xbb;" horiz-adv-x="659" d="M495 450 L303 801 L414 801 L605 450 L408 99 L303 99 L495 450 Z M234 450 L43 801 L153 801 L344 450 L148 99 L43 99 L234 450 Z " />
<glyph glyph-name="ellipsis" unicode="&#x2026;" horiz-adv-x="1568" d="M216 0 L216 162 L364 162 L364 0 L216 0 Z M710 0 L710 162 L858 162 L858 0 L710 0 Z M1205 0 L1205 162 L1352 162 L1352 0 L1205 0 Z " />
<glyph glyph-name="Agrave" unicode="&#xc0;" horiz-adv-x="1451" d="M1061 444 L381 444 L254 94 L430 94 L430 0 L9 0 L9 94 L137 94 L652 1475 L787 1475 L1308 94 L1442 94 L1442 0 L1014 0 L1014 94 L1192 94 L1061 444 Z M1025 538 L716 1365 L416 538 L1025 538 Z M716 1588 L485 1898 L626 1898 L801 1588 L716 1588 Z " />
<glyph glyph-name="Atilde" unicode="&#xc3;" horiz-adv-x="1451" d="M1061 444 L381 444 L254 94 L430 94 L430 0 L9 0 L9 94 L137 94 L652 1475 L787 1475 L1308 94 L1442 94 L1442 0 L1014 0 L1014 94 L1192 94 L1061 444 Z M1025 538 L716 1365 L416 538 L1025 538 Z M515 1659 L438 1659 Q488 1834 612 1834 Q664 1834 745 1785 Q817 1741 838 1741 Q896 1741 937 1832 L1014 1832 Q957 1653 833 1653 Q772 1653 671 1718 Q627 1746 601 1746 Q550 1746 515 1659 Z " />
<glyph glyph-name="Otilde" unicode="&#xd5;" horiz-adv-x="1712" d="M866 1506 Q1078 1506 1259 1391 Q1446 1271 1539 1072 Q1611 917 1611 737 Q1611 421 1399 199 Q1179 -31 856 -31 Q533 -31 313 199 Q101 421 101 736 Q101 1060 313 1276 Q539 1506 866 1506 Z M848 1407 Q665 1407 510 1306 Q345 1199 269 1019 Q216 894 216 737 Q216 457 389 270 Q577 68 856 68 Q1135 68 1322 270 Q1496 457 1496 736 Q1496 1023 1322 1205 Q1130 1407 848 1407 Z M645 1659 L568 1659 Q618 1834 742 1834 Q794 1834 875 1785 Q947 1741 968 1741 Q1026 1741 1067 1832 L1144 1832 Q1087 1653 963 1653 Q902 1653 801 1718 Q757 1746 731 1746 Q680 1746 645 1659 Z " />
<glyph glyph-name="OE" unicode="&#x152;" horiz-adv-x="2085" d="M1262 94 L1872 94 L1872 372 L1967 372 L1967 0 L1276 0 Q1199 0 986 -14 Q930 -17 873 -17 Q517 -17 322 162 Q90 374 90 739 Q90 1131 355 1341 Q544 1492 872 1492 Q929 1492 1085 1482 Q1199 1475 1285 1475 L1952 1475 L1952 1138 L1857 1138 L1857 1381 L1262 1381 L1262 811 L1769 811 L1769 717 L1262 717 L1262 94 Z M1151 94 L1151 1381 Q987 1397 885 1397 Q690 1397 559 1338 Q205 1180 205 740 Q205 394 424 219 Q601 77 887 77 Q987 77 1151 94 Z " />
<glyph glyph-name="oe" unicode="&#x153;" horiz-adv-x="2011" d="M1043 269 Q1005 179 951 119 Q815 -29 592 -29 Q363 -29 222 121 Q91 261 91 473 Q91 684 222 824 Q363 974 592 974 Q815 974 950 826 Q1005 767 1042 678 Q1075 766 1126 826 Q1253 974 1461 974 Q1672 974 1798.5 831.5 Q1925 689 1925 452 L1098 452 Q1105 328 1152 245 Q1254 65 1475 65 Q1666 65 1839 196 L1901 115 Q1710 -29 1474 -29 Q1260 -29 1130 119 Q1077 181 1043 269 Z M588 880 Q403 880 291 747 Q201 639 201 473 Q201 307 291 198 Q402 65 594 65 Q786 65 897 198 Q987 307 987 472 Q987 641 897 747 Q784 880 588 880 Z M1811 545 Q1795 653 1750 724 Q1649 880 1457 880 Q1248 880 1150 700 Q1115 635 1102 545 L1811 545 Z " />
<glyph glyph-name="endash" unicode="&#x2013;" horiz-adv-x="1024" d="M82 494 L82 588 L942 588 L942 494 L82 494 Z " />
<glyph glyph-name="emdash" unicode="&#x2014;" horiz-adv-x="1024" d="M-123 494 L-123 588 L1147 588 L1147 494 L-123 494 Z " />
<glyph glyph-name="quotedblleft" unicode="&#x201c;" horiz-adv-x="781" d="M112 1085 L254 1475 L367 1475 L264 1085 L112 1085 Z M402 1085 L543 1475 L657 1475 L552 1085 L402 1085 Z " />
<glyph glyph-name="quotedblright" unicode="&#x201d;" horiz-adv-x="781" d="M92 1085 L195 1475 L347 1475 L205 1085 L92 1085 Z M382 1085 L485 1475 L637 1475 L495 1085 L382 1085 Z " />
<glyph glyph-name="quoteleft" unicode="&#x2018;" horiz-adv-x="491" d="M111 1085 L253 1475 L366 1475 L263 1085 L111 1085 Z " />
<glyph glyph-name="quoteright" unicode="&#x2019;" horiz-adv-x="491" d="M92 1085 L195 1475 L347 1475 L205 1085 L92 1085 Z " />
<glyph glyph-name="divide" unicode="&#xf7;" horiz-adv-x="1147" d="M140 690 L140 784 L1008 784 L1008 690 L140 690 Z M501 997 L501 1158 L647 1158 L647 997 L501 997 Z M501 317 L501 478 L647 478 L647 317 L501 317 Z " />
<glyph glyph-name="lozenge" unicode="&#x25ca;" horiz-adv-x="1147" d="M29 704 L573 1475 L1117 704 L573 -66 L29 704 Z M142 704 L573 105 L1004 704 L573 1304 L142 704 Z " />
<glyph glyph-name="ydieresis" unicode="&#xff;" horiz-adv-x="1041" d="M117 851 L3 851 L3 945 L437 945 L437 851 L227 851 L495 279 Q503 261 538 182 Q554 225 579 288 L810 851 L614 851 L614 945 L1034 945 L1034 851 L917 851 L477 -211 Q425 -337 361.5 -379 Q298 -421 158 -422 L158 -328 Q261 -326 301 -301 Q349 -270 390 -170 L488 69 L117 851 Z M298 1183 L298 1336 L435 1336 L435 1183 L298 1183 Z M632 1183 L632 1336 L769 1336 L769 1183 L632 1183 Z " />
<glyph glyph-name="Ydieresis" unicode="&#x178;" horiz-adv-x="1053" d="M471 94 L471 670 L109 1381 L-36 1381 L-36 1475 L399 1475 L399 1381 L230 1381 L530 788 L828 1381 L661 1381 L661 1475 L1087 1475 L1087 1381 L941 1381 L582 669 L582 94 L756 94 L756 0 L296 0 L296 94 L471 94 Z M289 1667 L289 1820 L426 1820 L426 1667 L289 1667 Z M663 1667 L663 1820 L800 1820 L800 1667 L663 1667 Z " />
<glyph glyph-name="fraction" unicode="&#x2044;" horiz-adv-x="287" d="M-280 0 L456 1475 L566 1475 L-169 0 L-280 0 Z " />
<glyph glyph-name="Euro" unicode="&#x20ac;" horiz-adv-x="1490" d="M27 532 L27 617 L211 617 Q207 675 207 721 Q207 752 209 801 L27 801 L27 886 L217 886 Q241 1066 325 1210 Q498 1506 854 1506 Q1103 1506 1238 1375 L1238 1475 L1332 1475 L1332 1062 L1237 1062 L1237 1096 Q1237 1211 1199 1267 Q1156 1330 1060 1368.5 Q964 1407 849 1407 Q560 1407 420 1155 Q355 1038 333 886 L1003 886 L1003 801 L324 801 Q322 761 322 727 Q322 679 325 617 L930 617 L930 532 L337 532 Q362 411 413 318 Q486 186 601 124 Q703 68 859 68 Q1003 68 1102 123 Q1201 178 1297 312 L1376 244 Q1280 100 1155 34.5 Q1030 -31 851 -31 Q481 -31 320 247 Q244 379 221 532 L27 532 Z " />
<glyph glyph-name="guilsinglleft" unicode="&#x2039;" horiz-adv-x="394" d="M173 450 L364 99 L259 99 L63 450 L254 801 L364 801 L173 450 Z " />
<glyph glyph-name="guilsinglright" unicode="&#x203a;" horiz-adv-x="399" d="M254 450 L63 801 L173 801 L364 450 L168 99 L63 99 L254 450 Z " />
<glyph glyph-name="fi" unicode="&#xfb01;" horiz-adv-x="1193" d="M230 94 L230 851 L71 851 L71 945 L230 946 L230 1111 Q230 1289 276 1370 Q343 1487 520 1487 Q590 1487 661 1475 L653 1382 Q581 1393 528 1393 Q445 1393 405 1361 Q338 1308 338 1118 L338 945 L584 945 L584 851 L338 851 L338 94 L532 94 L532 0 L71 0 L71 94 L230 94 Z M865 94 L865 851 L707 851 L707 945 L973 945 L973 94 L1124 94 L1124 0 L706 0 L706 94 L865 94 Z M844 1184 L844 1332 L991 1332 L991 1184 L844 1184 Z " />
<glyph glyph-name="fl" unicode="&#xfb02;" horiz-adv-x="1189" d="M230 94 L230 851 L71 851 L71 945 L230 946 L230 1111 Q230 1289 276 1370 Q343 1487 520 1487 Q590 1487 661 1475 L653 1382 Q581 1393 528 1393 Q445 1393 405 1361 Q338 1308 338 1118 L338 945 L584 945 L584 851 L338 851 L338 94 L532 94 L532 0 L71 0 L71 94 L230 94 Z M859 94 L859 1381 L701 1381 L701 1475 L967 1475 L967 94 L1118 94 L1118 0 L700 0 L700 94 L859 94 Z " />
<glyph glyph-name="daggerdbl" unicode="&#x2021;" horiz-adv-x="1147" d="M524 938 L143 938 L143 1031 L524 1031 L524 1477 L619 1477 L619 1029 L1004 1029 L1004 936 L619 936 L619 346 L1004 346 L1004 252 L619 252 L619 -195 L524 -195 L524 250 L143 250 L143 344 L524 344 L524 938 Z " />
<glyph glyph-name="periodcentered" unicode="&#xb7;" horiz-adv-x="574" d="M216 460 L216 622 L364 622 L364 460 L216 460 Z " />
<glyph glyph-name="quotesinglbase" unicode="&#x201a;" horiz-adv-x="491" d="M92 -235 L195 154 L347 154 L205 -235 L92 -235 Z " />
<glyph glyph-name="quotedblbase" unicode="&#x201e;" horiz-adv-x="781" d="M92 -227 L195 162 L347 162 L205 -227 L92 -227 Z M382 -227 L485 162 L637 162 L495 -227 L382 -227 Z " />
<glyph glyph-name="perthousand" unicode="&#x2030;" horiz-adv-x="2400" d="M424 1506 Q562 1506 660 1407 Q758 1309 758 1167 Q758 1026 660 928 Q563 829 419 829 Q276 829 179 928 Q81 1027 81 1167 Q81 1311 179 1407 Q279 1506 424 1506 Z M416 1421 Q312 1421 241 1337 Q181 1266 181 1167 Q181 1069 241 998 Q312 914 419 914 Q527 914 598 998 Q658 1069 658 1167 Q658 1267 598 1337 Q526 1421 416 1421 Z M304 0 L1203 1475 L1314 1475 L414 0 L304 0 Z M1203 645 Q1341 645 1439 546 Q1537 448 1537 307 Q1537 167 1439 68 Q1342 -31 1199 -31 Q1055 -31 958 68 Q860 167 860 306 Q860 450 958 546 Q1058 645 1203 645 Z M1195 560 Q1091 560 1020 476 Q960 405 960 307 Q960 209 1020 138 Q1091 54 1199 54 Q1306 54 1377 138 Q1437 209 1437 306 Q1437 406 1377 476 Q1305 560 1195 560 Z M1985 645 Q2123 645 2221 546 Q2319 448 2319 307 Q2319 167 2221 68 Q2124 -31 1980 -31 Q1837 -31 1740 68 Q1642 167 1642 306 Q1642 450 1740 546 Q1840 645 1985 645 Z M1977 560 Q1873 560 1802 476 Q1742 405 1742 307 Q1742 209 1802 138 Q1873 54 1981 54 Q2088 54 2159 138 Q2219 209 2219 307 Q2219 406 2159 476 Q2087 560 1977 560 Z " />
<glyph glyph-name="Acircumflex" unicode="&#xc2;" horiz-adv-x="1451" d="M1061 444 L381 444 L254 94 L430 94 L430 0 L9 0 L9 94 L137 94 L652 1475 L787 1475 L1308 94 L1442 94 L1442 0 L1014 0 L1014 94 L1192 94 L1061 444 Z M1025 538 L716 1365 L416 538 L1025 538 Z M726 1819 L555 1588 L468 1588 L658 1898 L795 1898 L982 1588 L897 1588 L726 1819 Z " />
<glyph glyph-name="Ecircumflex" unicode="&#xca;" horiz-adv-x="1173" d="M240 94 L240 1381 L93 1381 L93 1475 L1040 1475 L1040 1139 L945 1139 L945 1381 L351 1381 L351 811 L857 811 L857 717 L351 717 L351 94 L961 94 L961 371 L1056 371 L1056 0 L93 0 L93 94 L240 94 Z M617 1819 L446 1588 L359 1588 L549 1898 L686 1898 L873 1588 L788 1588 L617 1819 Z " />
<glyph glyph-name="Aacute" unicode="&#xc1;" horiz-adv-x="1451" d="M1061 444 L381 444 L254 94 L430 94 L430 0 L9 0 L9 94 L137 94 L652 1475 L787 1475 L1308 94 L1442 94 L1442 0 L1014 0 L1014 94 L1192 94 L1061 444 Z M1025 538 L716 1365 L416 538 L1025 538 Z M651 1588 L826 1898 L967 1898 L736 1588 L651 1588 Z " />
<glyph glyph-name="Edieresis" unicode="&#xcb;" horiz-adv-x="1173" d="M240 94 L240 1381 L93 1381 L93 1475 L1040 1475 L1040 1139 L945 1139 L945 1381 L351 1381 L351 811 L857 811 L857 717 L351 717 L351 94 L961 94 L961 371 L1056 371 L1056 0 L93 0 L93 94 L240 94 Z M332 1667 L332 1820 L469 1820 L469 1667 L332 1667 Z M706 1667 L706 1820 L843 1820 L843 1667 L706 1667 Z " />
<glyph glyph-name="Egrave" unicode="&#xc8;" horiz-adv-x="1173" d="M240 94 L240 1381 L93 1381 L93 1475 L1040 1475 L1040 1139 L945 1139 L945 1381 L351 1381 L351 811 L857 811 L857 717 L351 717 L351 94 L961 94 L961 371 L1056 371 L1056 0 L93 0 L93 94 L240 94 Z M626 1588 L395 1898 L536 1898 L711 1588 L626 1588 Z " />
<glyph glyph-name="Iacute" unicode="&#xcd;" horiz-adv-x="598" d="M244 94 L244 1381 L97 1381 L97 1475 L502 1475 L502 1381 L355 1381 L355 94 L502 94 L502 0 L97 0 L97 94 L244 94 Z M207 1588 L382 1898 L523 1898 L292 1588 L207 1588 Z " />
<glyph glyph-name="Icircumflex" unicode="&#xce;" horiz-adv-x="598" d="M244 94 L244 1381 L97 1381 L97 1475 L502 1475 L502 1381 L355 1381 L355 94 L502 94 L502 0 L97 0 L97 94 L244 94 Z M299 1819 L128 1588 L41 1588 L231 1898 L368 1898 L555 1588 L470 1588 L299 1819 Z " />
<glyph glyph-name="Idieresis" unicode="&#xcf;" horiz-adv-x="598" d="M244 94 L244 1381 L97 1381 L97 1475 L502 1475 L502 1381 L355 1381 L355 94 L502 94 L502 0 L97 0 L97 94 L244 94 Z M44 1667 L44 1820 L181 1820 L181 1667 L44 1667 Z M418 1667 L418 1820 L555 1820 L555 1667 L418 1667 Z " />
<glyph glyph-name="Igrave" unicode="&#xcc;" horiz-adv-x="598" d="M243 94 L243 1381 L96 1381 L96 1475 L501 1475 L501 1381 L354 1381 L354 94 L501 94 L501 0 L96 0 L96 94 L243 94 Z M302 1588 L71 1898 L212 1898 L387 1588 L302 1588 Z " />
<glyph glyph-name="Oacute" unicode="&#xd3;" horiz-adv-x="1712" d="M866 1506 Q1078 1506 1259 1391 Q1446 1271 1539 1072 Q1611 917 1611 737 Q1611 421 1399 199 Q1179 -31 856 -31 Q533 -31 313 199 Q101 421 101 736 Q101 1060 313 1276 Q539 1506 866 1506 Z M848 1407 Q665 1407 510 1306 Q345 1199 269 1019 Q216 894 216 737 Q216 457 389 270 Q577 68 856 68 Q1135 68 1322 270 Q1496 457 1496 736 Q1496 1023 1322 1205 Q1130 1407 848 1407 Z M732 1588 L907 1898 L1048 1898 L817 1588 L732 1588 Z " />
<glyph glyph-name="Ocircumflex" unicode="&#xd4;" horiz-adv-x="1712" d="M866 1506 Q1078 1506 1259 1391 Q1446 1271 1539 1072 Q1611 917 1611 737 Q1611 421 1399 199 Q1179 -31 856 -31 Q533 -31 313 199 Q101 421 101 736 Q101 1060 313 1276 Q539 1506 866 1506 Z M848 1407 Q665 1407 510 1306 Q345 1199 269 1019 Q216 894 216 737 Q216 457 389 270 Q577 68 856 68 Q1135 68 1322 270 Q1496 457 1496 736 Q1496 1023 1322 1205 Q1130 1407 848 1407 Z M855 1819 L684 1588 L597 1588 L787 1898 L924 1898 L1111 1588 L1026 1588 L855 1819 Z " />
<glyph glyph-name="Ograve" unicode="&#xd2;" horiz-adv-x="1712" d="M866 1506 Q1078 1506 1259 1391 Q1446 1271 1539 1072 Q1611 917 1611 737 Q1611 421 1399 199 Q1179 -31 856 -31 Q533 -31 313 199 Q101 421 101 736 Q101 1060 313 1276 Q539 1506 866 1506 Z M848 1407 Q665 1407 510 1306 Q345 1199 269 1019 Q216 894 216 737 Q216 457 389 270 Q577 68 856 68 Q1135 68 1322 270 Q1496 457 1496 736 Q1496 1023 1322 1205 Q1130 1407 848 1407 Z M893 1588 L662 1898 L803 1898 L978 1588 L893 1588 Z " />
<glyph glyph-name="Uacute" unicode="&#xda;" horiz-adv-x="1423" d="M82 1381 L82 1475 L486 1475 L486 1381 L340 1381 L340 550 Q340 343 393 235 Q433 155 516 111.5 Q599 68 712 68 Q863 68 957 144 Q1022 197 1052 293.5 Q1082 390 1082 550 L1082 1381 L937 1381 L937 1475 L1340 1475 L1340 1381 L1193 1381 L1193 620 Q1193 431 1177.5 334.5 Q1162 238 1121 165 Q1010 -31 712 -31 Q413 -31 301 165 Q260 237 244.5 335 Q229 433 229 620 L229 1381 L82 1381 Z M670 1588 L845 1898 L986 1898 L755 1588 L670 1588 Z " />
<glyph glyph-name="Ucircumflex" unicode="&#xdb;" horiz-adv-x="1423" d="M82 1381 L82 1475 L486 1475 L486 1381 L340 1381 L340 550 Q340 343 393 235 Q433 155 516 111.5 Q599 68 712 68 Q863 68 957 144 Q1022 197 1052 293.5 Q1082 390 1082 550 L1082 1381 L937 1381 L937 1475 L1340 1475 L1340 1381 L1193 1381 L1193 620 Q1193 431 1177.5 334.5 Q1162 238 1121 165 Q1010 -31 712 -31 Q413 -31 301 165 Q260 237 244.5 335 Q229 433 229 620 L229 1381 L82 1381 Z M713 1819 L542 1588 L455 1588 L645 1898 L782 1898 L969 1588 L884 1588 L713 1819 Z " />
<glyph glyph-name="Ugrave" unicode="&#xd9;" horiz-adv-x="1423" d="M82 1381 L82 1475 L486 1475 L486 1381 L340 1381 L340 550 Q340 343 393 235 Q433 155 516 111.5 Q599 68 712 68 Q863 68 957 144 Q1022 197 1052 293.5 Q1082 390 1082 550 L1082 1381 L937 1381 L937 1475 L1340 1475 L1340 1381 L1193 1381 L1193 620 Q1193 431 1177.5 334.5 Q1162 238 1121 165 Q1010 -31 712 -31 Q413 -31 301 165 Q260 237 244.5 335 Q229 433 229 620 L229 1381 L82 1381 Z M732 1588 L501 1898 L642 1898 L817 1588 L732 1588 Z " />
<glyph glyph-name="dotlessi" unicode="&#x131;" horiz-adv-x="572" d="M243 94 L243 851 L85 851 L85 945 L351 945 L351 94 L502 94 L502 0 L84 0 L84 94 L243 94 Z " />
<glyph glyph-name="circumflex" unicode="&#x2c6;" horiz-adv-x="1024" d="M512 1374 L322 1104 L235 1104 L444 1452 L581 1452 L788 1104 L703 1104 L512 1374 Z " />
<glyph glyph-name="tilde" unicode="&#x2dc;" horiz-adv-x="1024" d="M301 1175 L225 1175 Q275 1349 398 1349 Q430 1349 455.5 1339.5 Q481 1330 530 1300 Q602 1256 623 1256 Q680 1256 722 1347 L798 1347 Q740 1169 618 1169 Q557 1169 457 1234 Q413 1262 387 1262 Q337 1262 301 1175 Z " />
<glyph glyph-name="overscore" unicode="&#xaf;" horiz-adv-x="1024" d="M264 1206 L264 1315 L760 1315 L760 1206 L264 1206 Z " />
<glyph glyph-name="breve" unicode="&#x2d8;" horiz-adv-x="1024" d="M243 1406 L310 1406 Q318 1319 365.5 1280 Q413 1241 512 1241 Q612 1241 658 1279 Q704 1317 712 1406 L781 1406 Q766 1262 700 1203 Q635 1146 512 1146 Q381 1146 318 1206.5 Q255 1267 243 1406 Z " />
<glyph glyph-name="dotaccent" unicode="&#x2d9;" horiz-adv-x="1024" d="M439 1185 L439 1333 L586 1333 L586 1185 L439 1185 Z " />
<glyph glyph-name="ring" unicode="&#x2da;" horiz-adv-x="1024" d="M515 1502 Q613 1502 670 1444 Q727 1386 727 1287 Q727 1186 669.5 1129 Q612 1072 511 1072 Q411 1072 353.5 1129 Q296 1186 296 1286 Q296 1389 353.5 1445.5 Q411 1502 515 1502 Z M509 1428 Q447 1428 413.5 1391 Q380 1354 380 1286 Q380 1145 510 1145 Q643 1145 643 1286 Q643 1428 509 1428 Z " />
<glyph glyph-name="cedilla" unicode="&#xb8;" horiz-adv-x="1024" d="M507 0 L588 0 L532 -101 Q618 -105 655 -120 Q757 -160 757 -274 Q757 -365 695.5 -413 Q634 -461 519 -461 Q427 -461 285 -424 L285 -324 Q298 -328 305 -330 Q434 -372 520 -372 Q654 -372 654 -277 Q654 -185 516 -185 Q486 -185 447 -188 L447 -116 L507 0 Z " />
<glyph glyph-name="hungarumlaut" unicode="&#x2dd;" horiz-adv-x="1024" d="M338 1104 L489 1452 L614 1452 L406 1104 L338 1104 Z M572 1104 L744 1452 L870 1452 L642 1104 L572 1104 Z " />
<glyph glyph-name="ogonek" unicode="&#x2db;" horiz-adv-x="1024" d="M573 0 L676 0 Q577 -75 537.5 -130 Q498 -185 498 -245 Q498 -293 521.5 -314 Q545 -335 599 -335 L672 -335 L672 -424 L610 -424 Q395 -424 395 -261 Q395 -197 435.5 -137.5 Q476 -78 573 0 Z " />
<glyph glyph-name="caron" unicode="&#x2c7;" horiz-adv-x="1024" d="M512 1183 L703 1452 L788 1452 L581 1104 L444 1104 L235 1452 L322 1452 L512 1183 Z " />
<glyph glyph-name="nbspace" unicode="&#xa0;" horiz-adv-x="573" d="" />
<glyph glyph-name="currency" unicode="&#xa4;" horiz-adv-x="1147" d="M109 281 L47 345 L254 550 Q162 667 162 810 Q162 950 253 1067 L47 1271 L109 1335 L314 1129 Q430 1222 575 1222 Q718 1222 835 1129 L1039 1335 L1102 1271 L897 1067 Q987 948 987 810 Q987 667 896 550 L1102 345 L1039 281 L834 488 Q715 396 575 396 Q432 396 315 488 L109 281 Z M571 1135 Q437 1135 341 1036 Q249 941 249 809 Q249 677 341 582 Q436 483 575 483 Q713 483 808 582 Q900 678 900 808 Q900 942 808 1036 Q711 1135 571 1135 Z " />
<glyph glyph-name="brokenbar" unicode="&#xa6;" horiz-adv-x="579" d="M242 848 L242 1434 L337 1434 L337 848 L242 848 Z M242 0 L242 586 L337 586 L337 0 L242 0 Z " />
<glyph glyph-name="uni00AD" unicode="&#xad;" horiz-adv-x="717" d="M92 494 L92 588 L625 588 L625 494 L92 494 Z " />
<glyph glyph-name="twosuperior" unicode="&#xb2;" horiz-adv-x="737" d="M65 820 Q74 888 87 922.5 Q100 957 133 1000 Q189 1073 387 1241 Q515 1351 515 1457 Q515 1526 470 1567.5 Q425 1609 350 1609 Q271 1609 231.5 1563.5 Q192 1518 174 1407 L71 1409 Q88 1531 127 1589 Q198 1696 355 1696 Q482 1696 554 1632.5 Q626 1569 626 1457 Q626 1342 555 1259 Q510 1207 379 1095 Q232 970 200 907 L553 907 L553 1079 L649 1079 L649 820 L65 820 Z " />
<glyph glyph-name="threesuperior" unicode="&#xb3;" horiz-adv-x="737" d="M253 1230 L253 1317 Q268 1317 275 1317 Q290 1317 295 1317 Q377 1317 432 1341 Q523 1380 523 1469 Q523 1531 478 1569 Q433 1607 359 1607 Q217 1607 192 1458 L86 1460 Q125 1696 362 1696 Q489 1696 560 1634.5 Q631 1573 631 1464 Q631 1331 506 1275 Q657 1210 657 1056 Q657 934 580.5 868.5 Q504 803 362 803 Q72 803 66 1064 L169 1065 Q190 893 364 893 Q440 893 486 927 Q549 972 549 1051 Q549 1178 400 1216 Q350 1228 253 1230 Z " />
<glyph glyph-name="onesuperior" unicode="&#xb9;" horiz-adv-x="737" d="M321 907 L321 1572 L163 1507 L129 1593 L336 1679 L426 1679 L426 907 L586 907 L586 820 L152 820 L152 907 L321 907 Z " />
<glyph glyph-name="onequarter" unicode="&#xbc;" horiz-adv-x="1761" d="M333 702 L333 1368 L175 1303 L141 1389 L348 1475 L438 1475 L438 702 L598 702 L598 615 L164 615 L164 702 L333 702 Z M417 0 L1152 1475 L1263 1475 L527 0 L417 0 Z M1383 0 L1383 199 L991 199 L991 279 L1263 860 L1374 860 L1102 286 L1383 286 L1383 611 L1487 611 L1487 286 L1620 286 L1620 199 L1487 199 L1487 0 L1383 0 Z " />
<glyph glyph-name="onehalf" unicode="&#xbd;" horiz-adv-x="1761" d="M320 702 L320 1368 L162 1303 L128 1389 L335 1475 L425 1475 L425 702 L585 702 L585 615 L151 615 L151 702 L320 702 Z M397 0 L1133 1475 L1243 1475 L507 0 L397 0 Z M1029 0 Q1038 68 1051 102.5 Q1064 137 1096 180 Q1132 228 1176.5 270.5 Q1221 313 1350 422 Q1479 532 1479 639 Q1479 707 1433.5 748.5 Q1388 790 1313 790 Q1234 790 1195 744.5 Q1156 699 1138 588 L1035 590 Q1051 712 1090 770 Q1162 877 1318 877 Q1445 877 1517.5 813.5 Q1590 750 1590 637 Q1590 523 1518 440 Q1475 390 1343 276 Q1196 151 1163 87 L1517 87 L1517 260 L1613 260 L1613 0 L1029 0 Z " />
<glyph glyph-name="threequarters" unicode="&#xbe;" horiz-adv-x="1761" d="M287 1026 L287 1113 L309 1113 L325 1113 Q411 1113 466 1137 Q557 1176 557 1265 Q557 1326 512 1364 Q467 1402 393 1402 Q250 1402 226 1254 L120 1256 Q159 1491 396 1491 Q522 1491 593.5 1430 Q665 1369 665 1260 Q665 1127 540 1070 Q691 1006 691 851 Q691 729 614.5 663.5 Q538 598 396 598 Q106 598 100 859 L203 861 Q224 688 397 688 Q474 688 520 722 Q583 767 583 846 Q583 973 434 1011 Q384 1024 287 1026 Z M491 0 L1227 1475 L1338 1475 L602 0 L491 0 Z M1422 0 L1422 199 L1030 199 L1030 279 L1302 860 L1413 860 L1141 286 L1422 286 L1422 611 L1526 611 L1526 286 L1659 286 L1659 199 L1526 199 L1526 0 L1422 0 Z " />
<glyph glyph-name="Eth" unicode="&#xd0;" horiz-adv-x="1456" d="M240 94 L240 730 L16 730 L16 823 L240 823 L240 1381 L93 1381 L93 1475 L576 1475 Q904 1475 1109 1314 Q1355 1122 1355 737 Q1355 353 1109 161 Q904 0 576 0 L93 0 L93 94 L240 94 Z M351 94 L563 94 Q864 94 1038 235 Q1240 399 1240 737 Q1240 1076 1038 1240 Q864 1381 563 1381 L351 1381 L351 823 L797 823 L797 730 L351 730 L351 94 Z " />
<glyph glyph-name="multiply" unicode="&#xd7;" horiz-adv-x="1147" d="M507 737 L194 1050 L261 1116 L573 804 L886 1116 L953 1050 L640 737 L953 425 L886 358 L573 670 L261 358 L194 425 L507 737 Z " />
<glyph glyph-name="Yacute" unicode="&#xdd;" horiz-adv-x="1053" d="M471 94 L471 670 L109 1381 L-36 1381 L-36 1475 L399 1475 L399 1381 L230 1381 L530 788 L828 1381 L661 1381 L661 1475 L1087 1475 L1087 1381 L941 1381 L582 669 L582 94 L756 94 L756 0 L296 0 L296 94 L471 94 Z M499 1588 L674 1898 L815 1898 L584 1588 L499 1588 Z " />
<glyph glyph-name="Thorn" unicode="&#xde;" horiz-adv-x="1208" d="M240 94 L240 1381 L93 1381 L93 1475 L496 1475 L496 1381 L351 1381 L351 1185 L550 1185 Q696 1185 787.5 1170 Q879 1155 949 1119 Q1042 1072 1093 974.5 Q1144 877 1144 748 Q1144 583 1063 473 Q975 356 788 327 Q688 312 550 312 L351 312 L351 94 L499 94 L499 0 L93 0 L93 94 L240 94 Z M351 405 L571 405 Q697 405 775.5 423 Q854 441 908 482 Q1029 574 1029 748 Q1029 922 908 1014 Q839 1066 723 1082 Q658 1091 571 1091 L351 1091 L351 405 Z " />
<glyph glyph-name="eth" unicode="&#xf0;" horiz-adv-x="1188" d="M363 1115 L321 1170 L560 1337 Q511 1385 385 1497 L442 1558 Q571 1453 636 1390 L876 1558 L919 1503 L687 1341 Q825 1207 919 1063 Q1002 937 1045 800 Q1099 631 1099 478 Q1099 262 966 121 Q825 -29 594 -29 Q364 -29 222 121 Q91 261 91 471 Q91 682 222 822 Q363 972 589 972 Q759 972 867 885 Q906 853 961 781 Q839 1065 611 1288 L363 1115 Z M588 878 Q403 878 291 745 Q201 637 201 471 Q201 306 291 198 Q402 65 594 65 Q786 65 897 198 Q987 306 987 476 Q987 645 900 745 Q783 878 588 878 Z " />
<glyph glyph-name="yacute" unicode="&#xfd;" horiz-adv-x="1041" d="M117 851 L3 851 L3 945 L437 945 L437 851 L227 851 L495 279 Q503 261 538 182 Q554 225 579 288 L810 851 L614 851 L614 945 L1034 945 L1034 851 L917 851 L477 -211 Q425 -337 361.5 -379 Q298 -421 158 -422 L158 -328 Q261 -326 301 -301 Q349 -270 390 -170 L488 69 L117 851 Z M464 1104 L678 1452 L819 1452 L549 1104 L464 1104 Z " />
<glyph glyph-name="thorn" unicode="&#xfe;" horiz-adv-x="1295" d="M225 -328 L225 1381 L66 1381 L66 1475 L333 1475 L333 761 Q483 974 729 974 Q949 974 1082 824 Q1204 686 1204 473 Q1204 259 1082 121 Q949 -29 729 -29 Q481 -29 333 184 L333 -328 L513 -328 L513 -422 L70 -422 L70 -328 L225 -328 Z M711 880 Q537 880 428 747 Q333 632 333 472 Q333 314 428 198 Q536 65 717 65 Q900 65 1007 197 Q1094 306 1094 472 Q1094 657 990 767 Q884 880 711 880 Z " />
<glyph glyph-name="Amacron" unicode="&#x100;" horiz-adv-x="1451" d="M1061 444 L381 444 L254 94 L430 94 L430 0 L9 0 L9 94 L137 94 L652 1475 L787 1475 L1308 94 L1442 94 L1442 0 L1014 0 L1014 94 L1192 94 L1061 444 Z M1025 538 L716 1365 L416 538 L1025 538 Z M460 1690 L460 1799 L956 1799 L956 1690 L460 1690 Z " />
<glyph glyph-name="amacron" unicode="&#x101;" horiz-adv-x="1158" d="M831 564 L831 616 Q831 756 778 812 Q712 882 526 882 Q384 882 327 830 Q292 796 284 706 L180 706 Q184 846 256 906 Q338 975 527 975 Q766 975 860 882 Q904 839 921.5 774 Q939 709 939 593 L939 94 L1096 94 L1096 0 L832 0 L832 121 Q702 -29 449 -29 Q85 -29 85 263 Q85 464 244 535 Q330 574 549 574 Q602 574 811 565 L831 564 Z M831 469 Q717 482 538 482 Q351 482 284 444 Q195 394 195 268 Q195 167 252 120 Q318 65 461 65 Q686 65 787 196 Q813 230 822 265 Q831 300 831 367 L831 469 Z M331 1206 L331 1315 L827 1315 L827 1206 L331 1206 Z " />
<glyph glyph-name="Abreve" unicode="&#x102;" horiz-adv-x="1451" d="M1061 444 L381 444 L254 94 L430 94 L430 0 L9 0 L9 94 L137 94 L652 1475 L787 1475 L1308 94 L1442 94 L1442 0 L1014 0 L1014 94 L1192 94 L1061 444 Z M1025 538 L716 1365 L416 538 L1025 538 Z M457 1890 L524 1890 Q532 1803 579.5 1764 Q627 1725 726 1725 Q826 1725 872 1763 Q918 1801 926 1890 L995 1890 Q980 1746 914 1687 Q849 1630 727 1630 Q595 1630 532 1691 Q469 1752 457 1890 Z " />
<glyph glyph-name="abreve" unicode="&#x103;" horiz-adv-x="1158" d="M831 564 L831 616 Q831 756 778 812 Q712 882 526 882 Q384 882 327 830 Q292 796 284 706 L180 706 Q184 846 256 906 Q338 975 527 975 Q766 975 860 882 Q904 839 921.5 774 Q939 709 939 593 L939 94 L1096 94 L1096 0 L832 0 L832 121 Q702 -29 449 -29 Q85 -29 85 263 Q85 464 244 535 Q330 574 549 574 Q602 574 811 565 L831 564 Z M831 469 Q717 482 538 482 Q351 482 284 444 Q195 394 195 268 Q195 167 252 120 Q318 65 461 65 Q686 65 787 196 Q813 230 822 265 Q831 300 831 367 L831 469 Z M293 1406 L360 1406 Q368 1319 415.5 1280 Q463 1241 562 1241 Q662 1241 708 1279 Q754 1317 762 1406 L831 1406 Q816 1262 750 1203 Q685 1146 562 1146 Q431 1146 368 1206.5 Q305 1267 293 1406 Z " />
<glyph glyph-name="Aogonek" unicode="&#x104;" horiz-adv-x="1451" d="M1061 444 L381 444 L254 94 L430 94 L430 0 L9 0 L9 94 L137 94 L652 1475 L787 1475 L1309 94 L1442 94 L1442 0 Q1433 -7 1399 -34 Q1265 -141 1265 -245 Q1265 -293 1288.5 -314 Q1312 -335 1366 -335 L1439 -335 L1439 -424 L1377 -424 Q1162 -424 1162 -261 Q1162 -197 1203 -137 Q1244 -77 1340 0 L1014 0 L1014 94 L1192 94 L1061 444 Z M1025 538 L716 1365 L416 538 L1025 538 Z " />
<glyph glyph-name="aogonek" unicode="&#x105;" horiz-adv-x="1158" d="M831 564 L831 616 Q831 756 778 812 Q712 882 526 882 Q384 882 327 830 Q292 796 284 706 L180 706 Q184 846 256 906 Q338 975 527 975 Q766 975 860 882 Q904 839 921.5 774 Q939 709 939 593 L939 94 L1096 94 L1096 0 Q1002 -70 960 -127.5 Q918 -185 918 -245 Q918 -293 941.5 -314 Q965 -335 1019 -335 L1092 -335 L1092 -424 L1030 -424 Q816 -424 816 -261 Q816 -196 855.5 -138 Q895 -80 993 0 L832 0 L832 121 Q702 -29 449 -29 Q85 -29 85 263 Q85 464 244 535 Q330 574 549 574 Q602 574 811 565 L831 564 Z M831 469 Q717 482 538 482 Q351 482 284 444 Q195 394 195 268 Q195 167 252 120 Q318 65 461 65 Q686 65 787 196 Q813 230 822 265 Q831 300 831 367 L831 469 Z " />
<glyph glyph-name="Cacute" unicode="&#x106;" horiz-adv-x="1491" d="M1296 312 L1375 244 Q1268 99 1131.5 34 Q995 -31 799 -31 Q439 -31 260 195 Q100 396 100 720 Q100 1083 296 1300 Q393 1406 515.5 1456 Q638 1506 802 1506 Q1084 1506 1237 1375 L1237 1475 L1331 1475 L1331 1062 L1236 1062 L1236 1096 Q1236 1212 1193 1267 Q1143 1331 1035 1369 Q927 1407 796 1407 Q507 1407 352 1197 Q215 1011 215 719 Q215 421 371 240 Q520 68 807 68 Q1001 68 1144 163 Q1212 207 1296 312 Z M708 1588 L883 1898 L1024 1898 L793 1588 L708 1588 Z " />
<glyph glyph-name="cacute" unicode="&#x107;" horiz-adv-x="1020" d="M903 197 L966 116 Q791 -29 553 -29 Q345 -29 221 96 Q91 228 91 463 Q91 697 219 837 Q343 974 552 974 Q715 974 825 883 L825 945 L918 945 L918 641 L824 641 L824 675 Q824 759 780 802 Q700 880 556 880 Q378 880 285 756 Q201 644 201 463 Q201 257 316 153 Q410 66 562 66 Q744 66 903 197 Z M466 1104 L680 1452 L821 1452 L551 1104 L466 1104 Z " />
<glyph glyph-name="Ccircumflex" unicode="&#x108;" horiz-adv-x="1491" d="M1296 312 L1375 244 Q1268 99 1131.5 34 Q995 -31 799 -31 Q439 -31 260 195 Q100 396 100 720 Q100 1083 296 1300 Q393 1406 515.5 1456 Q638 1506 802 1506 Q1084 1506 1237 1375 L1237 1475 L1331 1475 L1331 1062 L1236 1062 L1236 1096 Q1236 1212 1193 1267 Q1143 1331 1035 1369 Q927 1407 796 1407 Q507 1407 352 1197 Q215 1011 215 719 Q215 421 371 240 Q520 68 807 68 Q1001 68 1144 163 Q1212 207 1296 312 Z M799 1819 L628 1588 L541 1588 L731 1898 L868 1898 L1055 1588 L970 1588 L799 1819 Z " />
<glyph glyph-name="ccircumflex" unicode="&#x109;" horiz-adv-x="1020" d="M903 197 L966 116 Q791 -29 553 -29 Q345 -29 221 96 Q91 228 91 463 Q91 697 219 837 Q343 974 552 974 Q715 974 825 883 L825 945 L918 945 L918 641 L824 641 L824 675 Q824 759 780 802 Q700 880 556 880 Q378 880 285 756 Q201 644 201 463 Q201 257 316 153 Q410 66 562 66 Q744 66 903 197 Z M552 1374 L362 1104 L275 1104 L484 1452 L621 1452 L828 1104 L743 1104 L552 1374 Z " />
<glyph glyph-name="Cdotaccent" unicode="&#x10a;" horiz-adv-x="1491" d="M1296 312 L1375 244 Q1268 99 1131.5 34 Q995 -31 799 -31 Q439 -31 260 195 Q100 396 100 720 Q100 1083 296 1300 Q393 1406 515.5 1456 Q638 1506 802 1506 Q1084 1506 1237 1375 L1237 1475 L1331 1475 L1331 1062 L1236 1062 L1236 1096 Q1236 1212 1193 1267 Q1143 1331 1035 1369 Q927 1407 796 1407 Q507 1407 352 1197 Q215 1011 215 719 Q215 421 371 240 Q520 68 807 68 Q1001 68 1144 163 Q1212 207 1296 312 Z M733 1669 L733 1817 L880 1817 L880 1669 L733 1669 Z " />
<glyph glyph-name="cdotaccent" unicode="&#x10b;" horiz-adv-x="1020" d="M903 197 L966 116 Q791 -29 553 -29 Q345 -29 221 96 Q91 228 91 463 Q91 697 219 837 Q343 974 552 974 Q715 974 825 883 L825 945 L918 945 L918 641 L824 641 L824 675 Q824 759 780 802 Q700 880 556 880 Q378 880 285 756 Q201 644 201 463 Q201 257 316 153 Q410 66 562 66 Q744 66 903 197 Z M474 1185 L474 1333 L621 1333 L621 1185 L474 1185 Z " />
<glyph glyph-name="Ccaron" unicode="&#x10c;" horiz-adv-x="1491" d="M1296 312 L1375 244 Q1268 99 1131.5 34 Q995 -31 799 -31 Q439 -31 260 195 Q100 396 100 720 Q100 1083 296 1300 Q393 1406 515.5 1456 Q638 1506 802 1506 Q1084 1506 1237 1375 L1237 1475 L1331 1475 L1331 1062 L1236 1062 L1236 1096 Q1236 1212 1193 1267 Q1143 1331 1035 1369 Q927 1407 796 1407 Q507 1407 352 1197 Q215 1011 215 719 Q215 421 371 240 Q520 68 807 68 Q1001 68 1144 163 Q1212 207 1296 312 Z M812 1667 L983 1898 L1070 1898 L881 1588 L744 1588 L556 1898 L641 1898 L812 1667 Z " />
<glyph glyph-name="ccaron" unicode="&#x10d;" horiz-adv-x="1020" d="M903 197 L966 116 Q791 -29 553 -29 Q345 -29 221 96 Q91 228 91 463 Q91 697 219 837 Q343 974 552 974 Q715 974 825 883 L825 945 L918 945 L918 641 L824 641 L824 675 Q824 759 780 802 Q700 880 556 880 Q378 880 285 756 Q201 644 201 463 Q201 257 316 153 Q410 66 562 66 Q744 66 903 197 Z M554 1183 L745 1452 L830 1452 L623 1104 L486 1104 L277 1452 L364 1452 L554 1183 Z " />
<glyph glyph-name="Dcaron" unicode="&#x10e;" horiz-adv-x="1485" d="M240 94 L240 1381 L93 1381 L93 1475 L604 1475 Q933 1475 1138 1314 Q1384 1122 1384 738 Q1384 353 1138 161 Q933 0 604 0 L93 0 L93 94 L240 94 Z M351 94 L592 94 Q893 94 1067 235 Q1269 399 1269 738 Q1269 1076 1067 1240 Q893 1381 592 1381 L351 1381 L351 94 Z M650 1667 L821 1898 L908 1898 L719 1588 L582 1588 L394 1898 L479 1898 L650 1667 Z " />
<glyph glyph-name="dcaron" unicode="&#x10f;" horiz-adv-x="1413" d="M939 0 L939 185 Q801 -29 554 -29 Q339 -29 210 121 Q91 258 91 472 Q91 686 210 824 Q340 974 554 974 Q796 974 938 761 L938 1381 L750 1381 L750 1475 L1046 1475 L1046 94 L1200 94 L1200 0 L939 0 Z M560 880 Q403 880 302 767 Q201 655 201 473 Q201 305 286 197 Q389 65 566 65 Q742 65 846 198 Q938 314 938 471 Q938 633 846 747 Q790 817 722 848.5 Q654 880 560 880 Z M1228 1085 L1325 1475 L1454 1475 L1312 1085 L1228 1085 Z " />
<glyph glyph-name="Dcroat" unicode="&#x110;" horiz-adv-x="1456" d="M240 94 L240 730 L16 730 L16 823 L240 823 L240 1381 L93 1381 L93 1475 L576 1475 Q904 1475 1109 1314 Q1355 1122 1355 737 Q1355 353 1109 161 Q904 0 576 0 L93 0 L93 94 L240 94 Z M351 94 L563 94 Q864 94 1038 235 Q1240 399 1240 737 Q1240 1076 1038 1240 Q864 1381 563 1381 L351 1381 L351 823 L797 823 L797 730 L351 730 L351 94 Z " />
<glyph glyph-name="dcroat" unicode="&#x111;" horiz-adv-x="1269" d="M938 1138 L621 1138 L621 1223 L938 1223 L938 1383 L750 1383 L750 1475 L1046 1475 L1046 1223 L1200 1223 L1200 1138 L1046 1138 L1046 94 L1200 94 L1200 0 L939 0 L939 185 Q801 -29 554 -29 Q339 -29 210 121 Q91 258 91 472 Q91 686 210 824 Q339 974 554 974 Q796 974 938 761 L938 1138 Z M560 880 Q403 880 302 767 Q201 655 201 473 Q201 306 286 197 Q388 65 566 65 Q742 65 846 198 Q938 314 938 471 Q938 633 846 747 Q790 817 722 848.5 Q654 880 560 880 Z " />
<glyph glyph-name="Emacron" unicode="&#x112;" horiz-adv-x="1173" d="M240 94 L240 1381 L93 1381 L93 1475 L1040 1475 L1040 1139 L945 1139 L945 1381 L351 1381 L351 811 L857 811 L857 717 L351 717 L351 94 L961 94 L961 371 L1056 371 L1056 0 L93 0 L93 94 L240 94 Z M340 1690 L340 1799 L836 1799 L836 1690 L340 1690 Z " />
<glyph glyph-name="emacron" unicode="&#x113;" horiz-adv-x="1115" d="M1028 452 L201 452 Q208 328 254 245 Q356 65 578 65 Q768 65 942 196 L1004 115 Q813 -29 575 -29 Q352 -29 217 121 Q90 261 90 473 Q90 684 212 824 Q344 974 561 974 Q773 974 901 831 Q1029 688 1028 452 Z M914 545 Q897 657 847 731 Q746 880 559 880 Q350 880 252 700 Q217 636 205 545 L914 545 Z M326 1206 L326 1315 L822 1315 L822 1206 L326 1206 Z " />
<glyph glyph-name="Ebreve" unicode="&#x114;" horiz-adv-x="1173" d="M240 94 L240 1381 L93 1381 L93 1475 L1040 1475 L1040 1139 L945 1139 L945 1381 L351 1381 L351 811 L857 811 L857 717 L351 717 L351 94 L961 94 L961 371 L1056 371 L1056 0 L93 0 L93 94 L240 94 Z M348 1890 L415 1890 Q423 1803 470.5 1764 Q518 1725 617 1725 Q717 1725 763 1763 Q809 1801 817 1890 L886 1890 Q871 1746 805 1687 Q740 1630 618 1630 Q486 1630 423 1691 Q360 1752 348 1890 Z " />
<glyph glyph-name="ebreve" unicode="&#x115;" horiz-adv-x="1115" d="M1028 452 L201 452 Q208 328 254 245 Q356 65 578 65 Q768 65 942 196 L1004 115 Q813 -29 575 -29 Q352 -29 217 121 Q90 261 90 473 Q90 684 212 824 Q344 974 561 974 Q773 974 901 831 Q1029 688 1028 452 Z M914 545 Q897 657 847 731 Q746 880 559 880 Q350 880 252 700 Q217 636 205 545 L914 545 Z M295 1406 L362 1406 Q370 1319 417.5 1280 Q465 1241 564 1241 Q664 1241 710 1279 Q756 1317 764 1406 L833 1406 Q818 1262 752 1203 Q687 1146 564 1146 Q433 1146 370 1206.5 Q307 1267 295 1406 Z " />
<glyph glyph-name="Edotaccent" unicode="&#x116;" horiz-adv-x="1173" d="M240 94 L240 1381 L93 1381 L93 1475 L1040 1475 L1040 1139 L945 1139 L945 1381 L351 1381 L351 811 L857 811 L857 717 L351 717 L351 94 L961 94 L961 371 L1056 371 L1056 0 L93 0 L93 94 L240 94 Z M567 1669 L567 1817 L714 1817 L714 1669 L567 1669 Z " />
<glyph glyph-name="edotaccent" unicode="&#x117;" horiz-adv-x="1115" d="M1028 452 L201 452 Q208 328 254 245 Q356 65 578 65 Q768 65 942 196 L1004 115 Q813 -29 575 -29 Q352 -29 217 121 Q90 261 90 473 Q90 684 212 824 Q344 974 561 974 Q773 974 901 831 Q1029 688 1028 452 Z M914 545 Q897 657 847 731 Q746 880 559 880 Q350 880 252 700 Q217 636 205 545 L914 545 Z M495 1185 L495 1333 L642 1333 L642 1185 L495 1185 Z " />
<glyph glyph-name="Eogonek" unicode="&#x118;" horiz-adv-x="1173" d="M240 94 L240 1381 L93 1381 L93 1475 L1040 1475 L1040 1139 L945 1139 L945 1381 L351 1381 L351 811 L857 811 L857 717 L351 717 L351 94 L961 94 L961 371 L1056 371 L1056 0 Q959 -73 918 -129 Q877 -185 877 -246 Q877 -293 901 -314 Q925 -335 979 -335 L1052 -335 L1052 -424 L990 -424 Q775 -424 775 -261 Q775 -141 953 0 L93 0 L93 94 L240 94 Z " />
<glyph glyph-name="eogonek" unicode="&#x119;" horiz-adv-x="1115" d="M1028 452 L201 452 Q208 328 254 246 Q356 66 577 66 Q766 66 942 196 L1004 115 Q847 -3 634 -26 Q557 -88 523.5 -139.5 Q490 -191 490 -245 Q490 -293 513.5 -314 Q537 -335 591 -335 L664 -335 L664 -424 L602 -424 Q387 -424 387 -261 Q387 -151 532 -27 Q384 -16 276 67 Q90 210 90 473 Q90 684 212 824 Q344 974 561 974 Q773 974 901 831 Q1029 688 1028 452 Z M913 545 Q897 657 847 731 Q746 880 559 880 Q350 880 252 700 Q217 636 205 545 L913 545 Z " />
<glyph glyph-name="Ecaron" unicode="&#x11a;" horiz-adv-x="1173" d="M240 94 L240 1381 L93 1381 L93 1475 L1040 1475 L1040 1139 L945 1139 L945 1381 L351 1381 L351 811 L857 811 L857 717 L351 717 L351 94 L961 94 L961 371 L1056 371 L1056 0 L93 0 L93 94 L240 94 Z M623 1667 L794 1898 L881 1898 L692 1588 L555 1588 L367 1898 L452 1898 L623 1667 Z " />
<glyph glyph-name="ecaron" unicode="&#x11b;" horiz-adv-x="1115" d="M1028 452 L201 452 Q208 328 254 245 Q356 65 578 65 Q768 65 942 196 L1004 115 Q813 -29 575 -29 Q352 -29 217 121 Q90 261 90 473 Q90 684 212 824 Q344 974 561 974 Q773 974 901 831 Q1029 688 1028 452 Z M914 545 Q897 657 847 731 Q746 880 559 880 Q350 880 252 700 Q217 636 205 545 L914 545 Z M557 1183 L748 1452 L833 1452 L626 1104 L489 1104 L280 1452 L367 1452 L557 1183 Z " />
<glyph glyph-name="Gcircumflex" unicode="&#x11c;" horiz-adv-x="1677" d="M789 604 L789 698 L1472 698 L1472 56 Q1216 -31 904 -31 Q643 -31 466 67 Q285 166 191 344 Q101 516 101 733 Q101 966 211 1152 Q420 1506 877 1506 Q1169 1506 1325 1375 L1325 1475 L1419 1475 L1419 1062 L1324 1062 L1324 1096 Q1324 1212 1281 1267 Q1230 1332 1121 1369.5 Q1012 1407 874 1407 Q691 1407 566 1344 Q392 1257 301 1085 Q216 926 216 732 Q216 434 405 246 Q511 140 658 99 Q767 68 919 68 Q1038 68 1133.5 85 Q1229 102 1363 147 L1363 604 L789 604 Z M892 1819 L721 1588 L634 1588 L824 1898 L961 1898 L1148 1588 L1063 1588 L892 1819 Z " />
<glyph glyph-name="gcircumflex" unicode="&#x11d;" horiz-adv-x="1272" d="M938 191 Q795 -17 554 -17 Q340 -17 210 132 Q91 268 91 479 Q91 690 210 825 Q339 974 554 974 Q802 974 939 760 L939 945 L1224 945 L1224 851 L1046 851 L1046 93 Q1046 -142 982 -260 Q879 -452 574 -452 Q375 -452 277 -380 Q179 -308 171 -156 L274 -156 Q281 -242 323 -287 Q391 -359 580 -359 Q797 -359 878 -228 Q911 -174 924.5 -104 Q938 -34 938 89 L938 191 Z M560 880 Q403 880 302 769 Q201 659 201 479 Q201 315 286 208 Q389 77 566 77 Q742 77 847 206 Q938 320 938 473 Q938 633 847 747 Q791 817 723 848.5 Q655 880 560 880 Z M613 1374 L423 1104 L336 1104 L545 1452 L682 1452 L889 1104 L804 1104 L613 1374 Z " />
<glyph glyph-name="Gbreve" unicode="&#x11e;" horiz-adv-x="1677" d="M789 604 L789 698 L1472 698 L1472 56 Q1216 -31 904 -31 Q643 -31 466 67 Q285 166 191 344 Q101 516 101 733 Q101 966 211 1152 Q420 1506 877 1506 Q1169 1506 1325 1375 L1325 1475 L1419 1475 L1419 1062 L1324 1062 L1324 1096 Q1324 1212 1281 1267 Q1230 1332 1121 1369.5 Q1012 1407 874 1407 Q691 1407 566 1344 Q392 1257 301 1085 Q216 926 216 732 Q216 434 405 246 Q511 140 658 99 Q767 68 919 68 Q1038 68 1133.5 85 Q1229 102 1363 147 L1363 604 L789 604 Z M611 1890 L678 1890 Q686 1803 733.5 1764 Q781 1725 880 1725 Q980 1725 1026 1763 Q1072 1801 1080 1890 L1149 1890 Q1134 1746 1068 1687 Q1003 1630 881 1630 Q749 1630 686 1691 Q623 1752 611 1890 Z " />
<glyph glyph-name="gbreve" unicode="&#x11f;" horiz-adv-x="1272" d="M938 191 Q795 -17 554 -17 Q340 -17 210 132 Q91 268 91 479 Q91 690 210 825 Q339 974 554 974 Q802 974 939 760 L939 945 L1224 945 L1224 851 L1046 851 L1046 93 Q1046 -142 982 -260 Q879 -452 574 -452 Q375 -452 277 -380 Q179 -308 171 -156 L274 -156 Q281 -242 323 -287 Q391 -359 580 -359 Q797 -359 878 -228 Q911 -174 924.5 -104 Q938 -34 938 89 L938 191 Z M560 880 Q403 880 302 769 Q201 659 201 479 Q201 315 286 208 Q389 77 566 77 Q742 77 847 206 Q938 320 938 473 Q938 633 847 747 Q791 817 723 848.5 Q655 880 560 880 Z M352 1406 L419 1406 Q427 1319 474.5 1280 Q522 1241 621 1241 Q721 1241 767 1279 Q813 1317 821 1406 L890 1406 Q875 1262 809 1203 Q744 1146 621 1146 Q490 1146 427 1206.5 Q364 1267 352 1406 Z " />
<glyph glyph-name="Gdotaccent" unicode="&#x120;" horiz-adv-x="1677" d="M789 604 L789 698 L1472 698 L1472 56 Q1216 -31 904 -31 Q643 -31 466 67 Q285 166 191 344 Q101 516 101 733 Q101 966 211 1152 Q420 1506 877 1506 Q1169 1506 1325 1375 L1325 1475 L1419 1475 L1419 1062 L1324 1062 L1324 1096 Q1324 1212 1281 1267 Q1230 1332 1121 1369.5 Q1012 1407 874 1407 Q691 1407 566 1344 Q392 1257 301 1085 Q216 926 216 732 Q216 434 405 246 Q511 140 658 99 Q767 68 919 68 Q1038 68 1133.5 85 Q1229 102 1363 147 L1363 604 L789 604 Z M807 1669 L807 1817 L954 1817 L954 1669 L807 1669 Z " />
<glyph glyph-name="gdotaccent" unicode="&#x121;" horiz-adv-x="1272" d="M938 191 Q795 -17 554 -17 Q340 -17 210 132 Q91 268 91 479 Q91 690 210 825 Q339 974 554 974 Q802 974 939 760 L939 945 L1224 945 L1224 851 L1046 851 L1046 93 Q1046 -142 982 -260 Q879 -452 574 -452 Q375 -452 277 -380 Q179 -308 171 -156 L274 -156 Q281 -242 323 -287 Q391 -359 580 -359 Q797 -359 878 -228 Q911 -174 924.5 -104 Q938 -34 938 89 L938 191 Z M560 880 Q403 880 302 769 Q201 659 201 479 Q201 315 286 208 Q389 77 566 77 Q742 77 847 206 Q938 320 938 473 Q938 633 847 747 Q791 817 723 848.5 Q655 880 560 880 Z M537 1185 L537 1333 L684 1333 L684 1185 L537 1185 Z " />
<glyph glyph-name="Gcommaaccent" unicode="&#x122;" horiz-adv-x="1677" d="M789 604 L789 698 L1472 698 L1472 56 Q1216 -31 904 -31 Q643 -31 466 67 Q285 166 191 344 Q101 516 101 733 Q101 966 211 1152 Q420 1506 877 1506 Q1169 1506 1325 1375 L1325 1475 L1419 1475 L1419 1062 L1324 1062 L1324 1096 Q1324 1212 1281 1267 Q1230 1332 1121 1369.5 Q1012 1407 874 1407 Q691 1407 566 1344 Q392 1257 301 1085 Q216 926 216 732 Q216 434 405 246 Q511 140 658 99 Q767 68 919 68 Q1038 68 1133.5 85 Q1229 102 1363 147 L1363 604 L789 604 Z M640 -464 L814 -116 L956 -116 L725 -464 L640 -464 Z " />
<glyph glyph-name="gcommaaccent" unicode="&#x123;" horiz-adv-x="1272" d="M938 191 Q795 -17 554 -17 Q340 -17 210 132 Q91 268 91 479 Q91 690 210 825 Q339 974 554 974 Q802 974 939 760 L939 945 L1224 945 L1224 851 L1046 851 L1046 93 Q1046 -142 982 -260 Q879 -452 574 -452 Q375 -452 277 -380 Q179 -308 171 -156 L274 -156 Q281 -242 323 -287 Q391 -359 580 -359 Q797 -359 878 -228 Q911 -174 924.5 -104 Q938 -34 938 89 L938 191 Z M560 880 Q403 880 302 769 Q201 659 201 479 Q201 315 286 208 Q389 77 566 77 Q742 77 847 206 Q938 320 938 473 Q938 633 847 747 Q791 817 723 848.5 Q655 880 560 880 Z M851 1452 L637 1104 L496 1104 L766 1452 L851 1452 Z " />
<glyph glyph-name="Hcircumflex" unicode="&#x124;" horiz-adv-x="1457" d="M240 94 L240 1381 L93 1381 L93 1475 L497 1475 L497 1381 L351 1381 L351 825 L1106 825 L1106 1381 L960 1381 L960 1475 L1364 1475 L1364 1381 L1217 1381 L1217 94 L1364 94 L1364 0 L960 0 L960 94 L1106 94 L1106 731 L351 731 L351 94 L497 94 L497 0 L93 0 L93 94 L240 94 Z M729 1819 L558 1588 L471 1588 L661 1898 L798 1898 L985 1588 L900 1588 L729 1819 Z " />
<glyph glyph-name="hcircumflex" unicode="&#x125;" horiz-adv-x="1245" d="M233 94 L233 1381 L76 1381 L76 1475 L341 1475 L341 757 Q424 844 487 888 Q611 974 742 974 Q912 974 979 846 Q1006 795 1015 735.5 Q1024 676 1024 549 L1024 94 L1181 94 L1181 0 L771 0 L771 94 L916 94 L916 554 Q916 700 896 763 Q860 871 720 871 Q607 871 486 775 Q418 721 341 630 L341 94 L491 94 L491 0 L76 0 L76 94 L233 94 Z M273 1819 L102 1588 L15 1588 L205 1898 L342 1898 L529 1588 L444 1588 L273 1819 Z " />
<glyph glyph-name="Hbar" unicode="&#x126;" horiz-adv-x="1457" d="M93 0 L93 94 L240 94 L240 1058 L92 1058 L92 1140 L240 1140 L240 1381 L93 1381 L93 1475 L497 1475 L497 1381 L351 1381 L351 1140 L1106 1140 L1106 1381 L960 1381 L960 1475 L1364 1475 L1364 1381 L1217 1381 L1217 1140 L1365 1140 L1365 1058 L1217 1058 L1217 94 L1364 94 L1364 0 L960 0 L960 94 L1106 94 L1106 731 L351 731 L351 94 L497 94 L497 0 L93 0 Z M351 824 L1106 824 L1106 1058 L351 1058 L351 824 Z " />
<glyph glyph-name="hbar" unicode="&#x127;" horiz-adv-x="1245" d="M234 1138 L77 1138 L77 1223 L234 1223 L234 1383 L77 1383 L77 1475 L342 1475 L342 1223 L656 1223 L656 1138 L342 1138 L342 757 Q456 876 547 925 Q638 974 743 974 Q913 974 980 846 Q1007 795 1016 735.5 Q1025 676 1025 549 L1025 94 L1182 94 L1182 0 L772 0 L772 94 L917 94 L917 554 Q917 700 897 763 Q861 871 720 871 Q608 871 487 775 Q419 721 342 630 L342 94 L492 94 L492 0 L77 0 L77 94 L234 94 L234 1138 Z " />
<glyph glyph-name="Itilde" unicode="&#x128;" horiz-adv-x="598" d="M244 94 L244 1381 L97 1381 L97 1475 L502 1475 L502 1381 L355 1381 L355 94 L502 94 L502 0 L97 0 L97 94 L244 94 Z M89 1659 L12 1659 Q62 1834 186 1834 Q238 1834 319 1785 Q391 1741 412 1741 Q470 1741 511 1832 L588 1832 Q531 1653 407 1653 Q346 1653 245 1718 Q201 1746 175 1746 Q124 1746 89 1659 Z " />
<glyph glyph-name="itilde" unicode="&#x129;" horiz-adv-x="572" d="M243 94 L243 851 L85 851 L85 945 L351 945 L351 94 L502 94 L502 0 L84 0 L84 94 L243 94 Z M74 1175 L-2 1175 Q48 1349 171 1349 Q203 1349 228.5 1339.5 Q254 1330 303 1300 Q375 1256 396 1256 Q453 1256 495 1347 L571 1347 Q513 1169 391 1169 Q330 1169 230 1234 Q186 1262 160 1262 Q110 1262 74 1175 Z " />
<glyph glyph-name="Imacron" unicode="&#x12a;" horiz-adv-x="598" d="M244 94 L244 1381 L97 1381 L97 1475 L502 1475 L502 1381 L355 1381 L355 94 L502 94 L502 0 L97 0 L97 94 L244 94 Z M51 1690 L51 1799 L547 1799 L547 1690 L51 1690 Z " />
<glyph glyph-name="imacron" unicode="&#x12b;" horiz-adv-x="572" d="M244 94 L244 851 L86 851 L86 945 L352 945 L352 94 L503 94 L503 0 L85 0 L85 94 L244 94 Z M19 1206 L19 1315 L515 1315 L515 1206 L19 1206 Z " />
<glyph glyph-name="Ibreve" unicode="&#x12c;" horiz-adv-x="598" d="M244 94 L244 1381 L97 1381 L97 1475 L502 1475 L502 1381 L355 1381 L355 94 L502 94 L502 0 L97 0 L97 94 L244 94 Z M30 1890 L97 1890 Q105 1803 152.5 1764 Q200 1725 299 1725 Q399 1725 445 1763 Q491 1801 499 1890 L568 1890 Q553 1746 487 1687 Q422 1630 300 1630 Q168 1630 105 1691 Q42 1752 30 1890 Z " />
<glyph glyph-name="ibreve" unicode="&#x12d;" horiz-adv-x="572" d="M243 94 L243 851 L85 851 L85 945 L351 945 L351 94 L502 94 L502 0 L84 0 L84 94 L243 94 Z M10 1406 L77 1406 Q85 1319 132.5 1280 Q180 1241 279 1241 Q379 1241 425 1279 Q471 1317 479 1406 L548 1406 Q533 1262 467 1203 Q402 1146 279 1146 Q148 1146 85 1206.5 Q22 1267 10 1406 Z " />
<glyph glyph-name="Iogonek" unicode="&#x12e;" horiz-adv-x="598" d="M244 94 L244 1381 L97 1381 L97 1475 L502 1475 L502 1381 L355 1381 L355 94 L502 94 L502 0 Q405 -73 364.5 -129 Q324 -185 324 -245 Q324 -293 347.5 -314 Q371 -335 425 -335 L498 -335 L498 -424 L436 -424 Q221 -424 221 -261 Q221 -197 262 -137.5 Q303 -78 400 0 L97 0 L97 94 L244 94 Z " />
<glyph glyph-name="iogonek" unicode="&#x12f;" horiz-adv-x="572" d="M243 94 L243 851 L85 851 L85 945 L351 945 L351 94 L502 94 L502 0 Q402 -77 363 -131 Q324 -185 324 -245 Q324 -293 348 -314 Q372 -335 425 -335 L499 -335 L499 -424 L437 -424 Q222 -424 222 -261 Q222 -196 263 -136 Q304 -76 400 0 L84 0 L84 94 L243 94 Z M222 1185 L222 1333 L369 1333 L369 1185 L222 1185 Z " />
<glyph glyph-name="Idot" unicode="&#x130;" horiz-adv-x="598" d="M244 94 L244 1381 L97 1381 L97 1475 L502 1475 L502 1381 L355 1381 L355 94 L502 94 L502 0 L97 0 L97 94 L244 94 Z M226 1669 L226 1817 L373 1817 L373 1669 L226 1669 Z " />
<glyph glyph-name="IJ" unicode="&#x132;" horiz-adv-x="1188" d="M244 94 L244 1381 L97 1381 L97 1475 L502 1475 L502 1381 L355 1381 L355 94 L502 94 L502 0 L97 0 L97 94 L244 94 Z M840 1381 L692 1381 L692 1475 L1097 1475 L1097 1381 L951 1381 L951 94 Q963 -251 657 -259 L657 -165 Q768 -155 804 -101 Q840 -47 840 109 L840 1381 Z " />
<glyph glyph-name="ij" unicode="&#x133;" horiz-adv-x="1106" d="M243 94 L243 851 L85 851 L85 945 L351 945 L351 94 L502 94 L502 0 L84 0 L84 94 L243 94 Z M222 1184 L222 1332 L369 1332 L369 1184 L222 1184 Z M630 851 L630 945 L903 945 L903 -74 Q915 -413 614 -422 L614 -328 Q724 -318 759.5 -265 Q795 -212 795 -59 L795 851 L630 851 Z M773 1184 L773 1332 L920 1332 L920 1184 L773 1184 Z " />
<glyph glyph-name="Jcircumflex" unicode="&#x134;" horiz-adv-x="590" d="M242 1381 L94 1381 L94 1475 L499 1475 L499 1381 L353 1381 L353 94 Q365 -251 59 -259 L59 -165 Q170 -155 206 -101 Q242 -47 242 109 L242 1381 Z M295 1819 L124 1588 L37 1588 L227 1898 L364 1898 L551 1588 L466 1588 L295 1819 Z " />
<glyph glyph-name="jcircumflex" unicode="&#x135;" horiz-adv-x="534" d="M59 851 L59 945 L331 945 L331 -74 Q343 -414 42 -422 L42 -328 Q155 -318 191 -259 Q210 -228 216.5 -188 Q223 -148 223 -59 L223 851 L59 851 Z M242 1374 L52 1104 L-35 1104 L174 1452 L311 1452 L518 1104 L433 1104 L242 1374 Z " />
<glyph glyph-name="Kcommaaccent" unicode="&#x136;" horiz-adv-x="1215" d="M240 94 L240 1381 L93 1381 L93 1475 L497 1475 L497 1381 L351 1381 L351 777 L915 1381 L773 1381 L773 1475 L1164 1475 L1164 1381 L1052 1381 L483 775 L1100 94 L1249 94 L1249 0 L810 0 L810 94 L959 94 L351 766 L351 94 L496 94 L496 0 L93 0 L93 94 L240 94 Z M408 -464 L582 -116 L724 -116 L493 -464 L408 -464 Z " />
<glyph glyph-name="kcommaaccent" unicode="&#x137;" horiz-adv-x="1024" d="M230 94 L230 1381 L71 1381 L71 1475 L338 1475 L338 555 L704 852 L574 852 L574 945 L967 945 L967 851 L846 851 L474 546 L941 94 L1059 94 L1059 0 L674 0 L674 93 L807 93 L338 549 L338 93 L493 93 L493 0 L71 0 L71 94 L230 94 Z M336 -464 L510 -116 L652 -116 L421 -464 L336 -464 Z " />
<glyph glyph-name="kgreenlandic" unicode="&#x138;" horiz-adv-x="1024" d="M230 94 L230 851 L71 851 L71 945 L338 945 L338 555 L704 852 L574 852 L574 945 L967 945 L967 851 L846 851 L474 546 L941 94 L1059 94 L1059 0 L674 0 L674 93 L807 93 L338 549 L338 93 L493 93 L493 0 L71 0 L71 94 L230 94 Z " />
<glyph glyph-name="Lacute" unicode="&#x139;" horiz-adv-x="1135" d="M240 94 L240 1381 L93 1381 L93 1475 L500 1475 L500 1381 L351 1381 L351 94 L952 94 L952 380 L1047 380 L1047 0 L93 0 L93 94 L240 94 Z M283 1588 L458 1898 L599 1898 L368 1588 L283 1588 Z " />
<glyph glyph-name="lacute" unicode="&#x13a;" horiz-adv-x="568" d="M238 94 L238 1381 L80 1381 L80 1475 L346 1475 L346 94 L497 94 L497 0 L79 0 L79 94 L238 94 Z M197 1588 L372 1898 L513 1898 L282 1588 L197 1588 Z " />
<glyph glyph-name="Lcommaaccent" unicode="&#x13b;" horiz-adv-x="1135" d="M240 94 L240 1381 L93 1381 L93 1475 L500 1475 L500 1381 L351 1381 L351 94 L952 94 L952 380 L1047 380 L1047 0 L93 0 L93 94 L240 94 Z M368 -464 L542 -116 L684 -116 L453 -464 L368 -464 Z " />
<glyph glyph-name="lcommaaccent" unicode="&#x13c;" horiz-adv-x="568" d="M236 94 L236 1381 L78 1381 L78 1475 L344 1475 L344 94 L495 94 L495 0 L77 0 L77 94 L236 94 Z M66 -464 L240 -116 L382 -116 L151 -464 L66 -464 Z " />
<glyph glyph-name="Lcaron" unicode="&#x13d;" horiz-adv-x="1135" d="M240 94 L240 1381 L93 1381 L93 1475 L500 1475 L500 1381 L351 1381 L351 94 L952 94 L952 380 L1047 380 L1047 0 L93 0 L93 94 L240 94 Z M612 1085 L709 1475 L838 1475 L696 1085 L612 1085 Z " />
<glyph glyph-name="lcaron" unicode="&#x13e;" horiz-adv-x="712" d="M238 94 L238 1381 L80 1381 L80 1475 L346 1475 L346 94 L497 94 L497 0 L79 0 L79 94 L238 94 Z M527 1085 L624 1475 L753 1475 L611 1085 L527 1085 Z " />
<glyph glyph-name="Ldot" unicode="&#x13f;" horiz-adv-x="1135" d="M240 94 L240 1381 L93 1381 L93 1475 L500 1475 L500 1381 L351 1381 L351 94 L952 94 L952 380 L1047 380 L1047 0 L93 0 L93 94 L240 94 Z M791 671 L791 833 L939 833 L939 671 L791 671 Z " />
<glyph glyph-name="ldot" unicode="&#x140;" horiz-adv-x="732" d="M238 94 L238 1381 L80 1381 L80 1475 L346 1475 L346 94 L497 94 L497 0 L79 0 L79 94 L238 94 Z M584 541 L584 703 L732 703 L732 541 L584 541 Z " />
<glyph glyph-name="Lslash" unicode="&#x141;" horiz-adv-x="1135" d="M240 94 L240 606 L26 464 L26 570 L240 713 L240 1381 L93 1381 L93 1475 L499 1475 L499 1381 L351 1381 L351 786 L659 992 L659 886 L351 680 L351 94 L952 94 L952 380 L1047 380 L1047 0 L93 0 L93 94 L240 94 Z " />
<glyph glyph-name="lslash" unicode="&#x142;" horiz-adv-x="599" d="M238 94 L238 691 L20 545 L20 644 L238 789 L238 1381 L80 1381 L80 1475 L346 1475 L346 860 L565 1006 L565 908 L346 762 L346 94 L497 94 L497 0 L79 0 L79 94 L238 94 Z " />
<glyph glyph-name="Nacute" unicode="&#x143;" horiz-adv-x="1442" d="M240 94 L240 1381 L93 1381 L93 1475 L350 1475 L1019 396 Q1045 354 1103 244 Q1099 354 1099 423 L1099 1381 L951 1381 L951 1475 L1356 1475 L1356 1381 L1208 1381 L1208 -21 L1151 -21 L410 1176 Q393 1204 345 1298 Q349 1217 349 1172 L349 94 L495 94 L495 0 L93 0 L93 94 L240 94 Z M646 1588 L821 1898 L962 1898 L731 1588 L646 1588 Z " />
<glyph glyph-name="nacute" unicode="&#x144;" horiz-adv-x="1253" d="M242 94 L242 851 L85 851 L85 945 L350 945 L350 757 Q437 847 496 888 Q620 974 751 974 Q920 974 989 847 Q1016 797 1025 736.5 Q1034 676 1034 549 L1034 94 L1190 94 L1190 0 L780 0 L780 94 L926 94 L926 554 Q926 701 905 763 Q869 872 729 872 Q546 872 350 630 L350 94 L498 94 L498 0 L85 0 L85 94 L242 94 Z M562 1104 L776 1452 L917 1452 L647 1104 L562 1104 Z " />
<glyph glyph-name="Ncommaaccent" unicode="&#x145;" horiz-adv-x="1442" d="M240 94 L240 1381 L93 1381 L93 1475 L350 1475 L1019 396 Q1045 354 1103 244 Q1099 354 1099 423 L1099 1381 L951 1381 L951 1475 L1356 1475 L1356 1381 L1208 1381 L1208 -21 L1151 -21 L410 1176 Q393 1204 345 1298 Q349 1217 349 1172 L349 94 L495 94 L495 0 L93 0 L93 94 L240 94 Z M523 -464 L697 -116 L839 -116 L608 -464 L523 -464 Z " />
<glyph glyph-name="ncommaaccent" unicode="&#x146;" horiz-adv-x="1253" d="M242 94 L242 851 L85 851 L85 945 L350 945 L350 757 Q437 847 496 888 Q620 974 751 974 Q920 974 989 847 Q1016 797 1025 736.5 Q1034 676 1034 549 L1034 94 L1190 94 L1190 0 L780 0 L780 94 L926 94 L926 554 Q926 701 905 763 Q869 872 729 872 Q546 872 350 630 L350 94 L498 94 L498 0 L85 0 L85 94 L242 94 Z M415 -464 L589 -116 L731 -116 L500 -464 L415 -464 Z " />
<glyph glyph-name="Ncaron" unicode="&#x147;" horiz-adv-x="1442" d="M240 94 L240 1381 L93 1381 L93 1475 L350 1475 L1019 396 Q1045 354 1103 244 Q1099 354 1099 423 L1099 1381 L951 1381 L951 1475 L1356 1475 L1356 1381 L1208 1381 L1208 -21 L1151 -21 L410 1176 Q393 1204 345 1298 Q349 1217 349 1172 L349 94 L495 94 L495 0 L93 0 L93 94 L240 94 Z M698 1667 L869 1898 L956 1898 L767 1588 L630 1588 L442 1898 L527 1898 L698 1667 Z " />
<glyph glyph-name="ncaron" unicode="&#x148;" horiz-adv-x="1253" d="M242 94 L242 851 L85 851 L85 945 L350 945 L350 757 Q437 847 496 888 Q620 974 751 974 Q920 974 989 847 Q1016 797 1025 736.5 Q1034 676 1034 549 L1034 94 L1190 94 L1190 0 L780 0 L780 94 L926 94 L926 554 Q926 701 905 763 Q869 872 729 872 Q546 872 350 630 L350 94 L498 94 L498 0 L85 0 L85 94 L242 94 Z M631 1183 L822 1452 L907 1452 L700 1104 L563 1104 L354 1452 L441 1452 L631 1183 Z " />
<glyph glyph-name="napostrophe" unicode="&#x149;" horiz-adv-x="1234" d="M222 94 L222 851 L65 851 L65 945 L330 945 L330 757 Q417 847 476 888 Q600 974 731 974 Q900 974 969 847 Q996 797 1005 736.5 Q1014 676 1014 549 L1014 94 L1170 94 L1170 0 L760 0 L760 94 L906 94 L906 554 Q906 701 885 763 Q849 872 709 872 Q526 872 330 630 L330 94 L478 94 L478 0 L65 0 L65 94 L222 94 Z M-41 1085 L56 1475 L185 1475 L43 1085 L-41 1085 Z " />
<glyph glyph-name="Eng" unicode="&#x14a;" horiz-adv-x="1442" d="M240 94 L240 1381 L93 1381 L93 1475 L350 1475 L1019 396 Q1045 353 1103 244 Q1099 356 1099 423 L1099 1381 L951 1381 L951 1475 L1356 1475 L1356 1381 L1208 1381 L1208 -74 Q1220 -413 920 -422 L920 -328 Q1029 -317 1064.5 -264.5 Q1100 -212 1100 -59 L1100 61 L410 1176 Q393 1204 345 1298 Q349 1217 349 1172 L349 94 L495 94 L495 0 L93 0 L93 94 L240 94 Z " />
<glyph glyph-name="eng" unicode="&#x14b;" horiz-adv-x="1253" d="M242 94 L242 851 L85 851 L85 945 L350 945 L350 757 Q437 847 496 888 Q620 974 751 974 Q920 974 989 847 Q1016 797 1025 736.5 Q1034 676 1034 549 L1034 -74 Q1046 -413 745 -422 L745 -328 Q855 -318 890.5 -265 Q926 -212 926 -59 L926 554 Q926 701 905 763 Q870 872 729 872 Q546 872 350 630 L350 94 L498 94 L498 0 L85 0 L85 94 L242 94 Z " />
<glyph glyph-name="Omacron" unicode="&#x14c;" horiz-adv-x="1712" d="M866 1506 Q1078 1506 1259 1391 Q1446 1271 1539 1072 Q1611 917 1611 737 Q1611 421 1399 199 Q1179 -31 856 -31 Q533 -31 313 199 Q101 421 101 736 Q101 1060 313 1276 Q539 1506 866 1506 Z M848 1407 Q665 1407 510 1306 Q345 1199 269 1019 Q216 894 216 737 Q216 457 389 270 Q577 68 856 68 Q1135 68 1322 270 Q1496 457 1496 736 Q1496 1023 1322 1205 Q1130 1407 848 1407 Z M608 1690 L608 1799 L1104 1799 L1104 1690 L608 1690 Z " />
<glyph glyph-name="omacron" unicode="&#x14d;" horiz-adv-x="1188" d="M602 974 Q825 974 966 824 Q1098 684 1098 472 Q1098 261 966 121 Q825 -29 594 -29 Q363 -29 222 121 Q91 261 91 471 Q91 688 222 824 Q367 974 602 974 Z M589 880 Q403 880 291 747 Q201 639 201 472 Q201 306 291 198 Q402 65 595 65 Q787 65 898 198 Q988 306 988 471 Q988 641 898 747 Q784 880 589 880 Z M346 1206 L346 1315 L842 1315 L842 1206 L346 1206 Z " />
<glyph glyph-name="Obreve" unicode="&#x14e;" horiz-adv-x="1712" d="M866 1506 Q1078 1506 1259 1391 Q1446 1271 1539 1072 Q1611 917 1611 737 Q1611 421 1399 199 Q1179 -31 856 -31 Q533 -31 313 199 Q101 421 101 736 Q101 1060 313 1276 Q539 1506 866 1506 Z M848 1407 Q665 1407 510 1306 Q345 1199 269 1019 Q216 894 216 737 Q216 457 389 270 Q577 68 856 68 Q1135 68 1322 270 Q1496 457 1496 736 Q1496 1023 1322 1205 Q1130 1407 848 1407 Z M587 1890 L654 1890 Q662 1803 709.5 1764 Q757 1725 856 1725 Q956 1725 1002 1763 Q1048 1801 1056 1890 L1125 1890 Q1110 1746 1044 1687 Q979 1630 857 1630 Q725 1630 662 1691 Q599 1752 587 1890 Z " />
<glyph glyph-name="obreve" unicode="&#x14f;" horiz-adv-x="1188" d="M602 974 Q825 974 966 824 Q1098 684 1098 472 Q1098 261 966 121 Q825 -29 594 -29 Q363 -29 222 121 Q91 261 91 471 Q91 688 222 824 Q367 974 602 974 Z M589 880 Q403 880 291 747 Q201 639 201 472 Q201 306 291 198 Q402 65 595 65 Q787 65 898 198 Q988 306 988 471 Q988 641 898 747 Q784 880 589 880 Z M325 1406 L392 1406 Q400 1319 447.5 1280 Q495 1241 594 1241 Q694 1241 740 1279 Q786 1317 794 1406 L863 1406 Q848 1262 782 1203 Q717 1146 594 1146 Q463 1146 400 1206.5 Q337 1267 325 1406 Z " />
<glyph glyph-name="Ohungarumlaut" unicode="&#x150;" horiz-adv-x="1712" d="M866 1506 Q1078 1506 1259 1391 Q1446 1271 1539 1072 Q1611 917 1611 737 Q1611 421 1399 199 Q1179 -31 856 -31 Q533 -31 313 199 Q101 421 101 736 Q101 1060 313 1276 Q539 1506 866 1506 Z M848 1407 Q665 1407 510 1306 Q345 1199 269 1019 Q216 894 216 737 Q216 457 389 270 Q577 68 856 68 Q1135 68 1322 270 Q1496 457 1496 736 Q1496 1023 1322 1205 Q1130 1407 848 1407 Z M681 1589 L793 1898 L919 1898 L749 1589 L681 1589 Z M915 1588 L1048 1898 L1174 1898 L985 1588 L915 1588 Z " />
<glyph glyph-name="ohungarumlaut" unicode="&#x151;" horiz-adv-x="1188" d="M602 974 Q825 974 966 824 Q1098 684 1098 472 Q1098 261 966 121 Q825 -29 594 -29 Q363 -29 222 121 Q91 261 91 471 Q91 688 222 824 Q367 974 602 974 Z M589 880 Q403 880 291 747 Q201 639 201 472 Q201 306 291 198 Q402 65 595 65 Q787 65 898 198 Q988 306 988 471 Q988 641 898 747 Q784 880 589 880 Z M421 1104 L572 1452 L697 1452 L489 1104 L421 1104 Z M655 1104 L827 1452 L953 1452 L725 1104 L655 1104 Z " />
<glyph glyph-name="Racute" unicode="&#x154;" horiz-adv-x="1282" d="M240 94 L240 1381 L93 1381 L93 1475 L554 1475 Q697 1475 785.5 1461.5 Q874 1448 943 1416 Q1034 1373 1084.5 1284 Q1135 1195 1135 1077 Q1135 784 844 702 Q898 672 931.5 623 Q965 574 1004 470 L1144 94 L1288 94 L1288 0 L1056 0 L888 452 Q840 582 768.5 629 Q697 676 547 676 L351 676 L351 94 L528 94 L528 0 L93 0 L93 94 L240 94 Z M351 770 L571 770 Q789 770 884 826 Q1021 907 1021 1073 Q1021 1234 899 1317 Q805 1381 573 1381 L351 1381 L351 770 Z M553 1588 L728 1898 L869 1898 L638 1588 L553 1588 Z " />
<glyph glyph-name="racute" unicode="&#x155;" horiz-adv-x="798" d="M242 94 L242 851 L85 851 L85 945 L349 945 L349 756 Q423 873 489 916 Q576 974 700 974 L747 974 L747 870 L716 870 Q626 870 569 849.5 Q512 829 466 779 Q398 706 350 595 L350 94 L509 94 L509 0 L85 0 L85 94 L242 94 Z M337 1104 L551 1452 L692 1452 L422 1104 L337 1104 Z " />
<glyph glyph-name="Rcommaaccent" unicode="&#x156;" horiz-adv-x="1282" d="M240 94 L240 1381 L93 1381 L93 1475 L554 1475 Q697 1475 785.5 1461.5 Q874 1448 943 1416 Q1034 1373 1084.5 1284 Q1135 1195 1135 1077 Q1135 784 844 702 Q898 672 931.5 623 Q965 574 1004 470 L1144 94 L1288 94 L1288 0 L1056 0 L888 452 Q840 582 768.5 629 Q697 676 547 676 L351 676 L351 94 L528 94 L528 0 L93 0 L93 94 L240 94 Z M351 770 L571 770 Q789 770 884 826 Q1021 907 1021 1073 Q1021 1234 899 1317 Q805 1381 573 1381 L351 1381 L351 770 Z M489 -464 L663 -116 L805 -116 L574 -464 L489 -464 Z " />
<glyph glyph-name="rcommaaccent" unicode="&#x157;" horiz-adv-x="798" d="M242 94 L242 851 L85 851 L85 945 L349 945 L349 756 Q423 873 489 916 Q576 974 700 974 L747 974 L747 870 L716 870 Q626 870 569 849.5 Q512 829 466 779 Q398 706 350 595 L350 94 L509 94 L509 0 L85 0 L85 94 L242 94 Z M86 -464 L260 -116 L402 -116 L171 -464 L86 -464 Z " />
<glyph glyph-name="Rcaron" unicode="&#x158;" horiz-adv-x="1282" d="M240 94 L240 1381 L93 1381 L93 1475 L554 1475 Q697 1475 785.5 1461.5 Q874 1448 943 1416 Q1034 1373 1084.5 1284 Q1135 1195 1135 1077 Q1135 784 844 702 Q898 672 931.5 623 Q965 574 1004 470 L1144 94 L1288 94 L1288 0 L1056 0 L888 452 Q840 582 768.5 629 Q697 676 547 676 L351 676 L351 94 L528 94 L528 0 L93 0 L93 94 L240 94 Z M351 770 L571 770 Q789 770 884 826 Q1021 907 1021 1073 Q1021 1234 899 1317 Q805 1381 573 1381 L351 1381 L351 770 Z M605 1667 L776 1898 L863 1898 L674 1588 L537 1588 L349 1898 L434 1898 L605 1667 Z " />
<glyph glyph-name="rcaron" unicode="&#x159;" horiz-adv-x="798" d="M242 94 L242 851 L85 851 L85 945 L349 945 L349 756 Q423 873 489 916 Q576 974 700 974 L747 974 L747 870 L716 870 Q626 870 569 849.5 Q512 829 466 779 Q398 706 350 595 L350 94 L509 94 L509 0 L85 0 L85 94 L242 94 Z M429 1183 L620 1452 L705 1452 L498 1104 L361 1104 L152 1452 L239 1452 L429 1183 Z " />
<glyph glyph-name="Sacute" unicode="&#x15a;" horiz-adv-x="1224" d="M110 0 L110 414 L205 414 L205 379 Q205 263 246 207 Q293 143 394 105.5 Q495 68 620 68 Q827 68 935 163 Q1032 249 1032 389 Q1032 516 946 594 Q904 632 833 658.5 Q762 685 614 719 Q432 761 351 794 Q270 827 218 880 Q134 966 134 1111 Q134 1271 232 1376 Q354 1506 586 1506 Q820 1506 946 1375 L946 1475 L1040 1475 L1040 1062 L945 1062 L945 1096 Q945 1211 910 1267 Q870 1330 781.5 1368.5 Q693 1407 586 1407 Q416 1407 323 1314 Q244 1235 244 1120 Q244 990 342 925 Q413 878 632 828 Q821 785 904.5 750.5 Q988 716 1044 657 Q1146 552 1146 399 Q1146 312 1113 230.5 Q1080 149 1022 94 Q889 -31 616 -31 Q347 -31 204 100 L204 0 L110 0 Z M543 1588 L718 1898 L859 1898 L628 1588 L543 1588 Z " />
<glyph glyph-name="sacute" unicode="&#x15b;" horiz-adv-x="949" d="M97 0 L97 292 L191 292 L191 258 Q191 177 242 137 Q335 64 507 64 Q623 64 690 105 Q767 153 767 254 Q767 338 707 384 Q681 405 632 417.5 Q583 430 454 449 Q331 468 273.5 488 Q216 508 178 545 Q112 610 112 711 Q112 828 199 902 Q283 974 432 974 Q587 974 697 886 L697 945 L789 945 L789 667 L695 667 L695 689 Q695 769 650 809 Q568 881 430 881 Q330 881 274 837 Q218 793 218 714 Q218 637 285 597 Q328 570 479 547 Q625 525 685.5 507 Q746 489 787 454 Q872 384 872 253 Q872 116 777 43.5 Q682 -29 502 -29 Q314 -29 190 59 L190 0 L97 0 Z M382 1104 L596 1452 L737 1452 L467 1104 L382 1104 Z " />
<glyph glyph-name="Scircumflex" unicode="&#x15c;" horiz-adv-x="1224" d="M110 0 L110 414 L205 414 L205 379 Q205 263 246 207 Q293 143 394 105.5 Q495 68 620 68 Q827 68 935 163 Q1032 249 1032 389 Q1032 516 946 594 Q904 632 833 658.5 Q762 685 614 719 Q432 761 351 794 Q270 827 218 880 Q134 966 134 1111 Q134 1271 232 1376 Q354 1506 586 1506 Q820 1506 946 1375 L946 1475 L1040 1475 L1040 1062 L945 1062 L945 1096 Q945 1211 910 1267 Q870 1330 781.5 1368.5 Q693 1407 586 1407 Q416 1407 323 1314 Q244 1235 244 1120 Q244 990 342 925 Q413 878 632 828 Q821 785 904.5 750.5 Q988 716 1044 657 Q1146 552 1146 399 Q1146 312 1113 230.5 Q1080 149 1022 94 Q889 -31 616 -31 Q347 -31 204 100 L204 0 L110 0 Z M623 1819 L452 1588 L365 1588 L555 1898 L692 1898 L879 1588 L794 1588 L623 1819 Z " />
<glyph glyph-name="scircumflex" unicode="&#x15d;" horiz-adv-x="949" d="M97 0 L97 292 L191 292 L191 258 Q191 177 242 137 Q335 64 507 64 Q623 64 690 105 Q767 153 767 254 Q767 338 707 384 Q681 405 632 417.5 Q583 430 454 449 Q331 468 273.5 488 Q216 508 178 545 Q112 610 112 711 Q112 828 199 902 Q283 974 432 974 Q587 974 697 886 L697 945 L789 945 L789 667 L695 667 L695 689 Q695 769 650 809 Q568 881 430 881 Q330 881 274 837 Q218 793 218 714 Q218 637 285 597 Q328 570 479 547 Q625 525 685.5 507 Q746 489 787 454 Q872 384 872 253 Q872 116 777 43.5 Q682 -29 502 -29 Q314 -29 190 59 L190 0 L97 0 Z M462 1374 L272 1104 L185 1104 L394 1452 L531 1452 L738 1104 L653 1104 L462 1374 Z " />
<glyph glyph-name="Scedilla" unicode="&#x15e;" horiz-adv-x="1224" d="M110 0 L110 414 L205 414 L205 379 Q205 263 246 207 Q293 143 394 105.5 Q495 68 620 68 Q827 68 935 163 Q1032 249 1032 389 Q1032 516 946 594 Q904 632 833 658.5 Q762 685 614 719 Q433 760 351.5 793.5 Q270 827 218 880 Q134 966 134 1111 Q134 1271 232 1376 Q354 1506 587 1506 Q820 1506 946 1375 L946 1475 L1040 1475 L1040 1062 L945 1062 L945 1096 Q945 1211 910 1267 Q871 1330 782 1368.5 Q693 1407 587 1407 Q416 1407 323 1314 Q244 1235 244 1120 Q244 990 342 925 Q413 878 633 828 Q822 785 905 750.5 Q988 716 1044 657 Q1146 552 1146 399 Q1146 259 1068 148 Q949 -22 641 -31 L601 -101 Q688 -105 724 -120 Q826 -160 826 -274 Q826 -365 765 -413 Q704 -461 589 -461 Q498 -461 355 -424 L355 -324 Q504 -372 590 -372 Q724 -372 724 -277 Q724 -185 579 -185 Q554 -185 517 -188 L517 -116 L562 -29 Q332 -16 204 100 L204 0 L110 0 Z " />
<glyph glyph-name="scedilla" unicode="&#x15f;" horiz-adv-x="949" d="M97 0 L97 292 L191 292 L191 258 Q191 177 243 137 Q335 64 507 64 Q623 64 690 105 Q767 153 767 254 Q767 338 707 384 Q681 405 632 417.5 Q583 430 455 449 Q332 467 274 487.5 Q216 508 178 545 Q112 610 112 711 Q112 828 199 902 Q284 974 432 974 Q587 974 697 886 L697 945 L789 945 L789 667 L695 667 L695 689 Q695 769 650 809 Q568 881 430 881 Q330 881 274 837 Q218 793 218 715 Q218 637 285 597 Q328 571 479 548 Q624 526 685 507.5 Q746 489 787 454 Q872 384 872 253 Q872 116 777.5 43.5 Q683 -29 505 -29 L465 -101 Q551 -105 588 -120 Q690 -160 690 -274 Q690 -365 629 -413 Q568 -461 452 -461 Q361 -461 218 -424 L218 -324 Q366 -372 452 -372 Q587 -372 587 -277 Q587 -185 442 -185 Q417 -185 380 -188 L380 -116 L427 -25 Q291 -11 190 59 L190 0 L97 0 Z " />
<glyph glyph-name="Scaron" unicode="&#x160;" horiz-adv-x="1224" d="M110 0 L110 414 L205 414 L205 379 Q205 263 246 207 Q293 143 394 105.5 Q495 68 620 68 Q827 68 935 163 Q1032 249 1032 389 Q1032 516 946 594 Q904 632 833 658.5 Q762 685 614 719 Q432 761 351 794 Q270 827 218 880 Q134 966 134 1111 Q134 1271 232 1376 Q354 1506 586 1506 Q820 1506 946 1375 L946 1475 L1040 1475 L1040 1062 L945 1062 L945 1096 Q945 1211 910 1267 Q870 1330 781.5 1368.5 Q693 1407 586 1407 Q416 1407 323 1314 Q244 1235 244 1120 Q244 990 342 925 Q413 878 632 828 Q821 785 904.5 750.5 Q988 716 1044 657 Q1146 552 1146 399 Q1146 312 1113 230.5 Q1080 149 1022 94 Q889 -31 616 -31 Q347 -31 204 100 L204 0 L110 0 Z M622 1667 L793 1898 L880 1898 L691 1588 L554 1588 L366 1898 L451 1898 L622 1667 Z " />
<glyph glyph-name="scaron" unicode="&#x161;" horiz-adv-x="949" d="M97 0 L97 292 L191 292 L191 258 Q191 177 242 137 Q335 64 507 64 Q623 64 690 105 Q767 153 767 254 Q767 338 707 384 Q681 405 632 417.5 Q583 430 454 449 Q331 468 273.5 488 Q216 508 178 545 Q112 610 112 711 Q112 828 199 902 Q283 974 432 974 Q587 974 697 886 L697 945 L789 945 L789 667 L695 667 L695 689 Q695 769 650 809 Q568 881 430 881 Q330 881 274 837 Q218 793 218 714 Q218 637 285 597 Q328 570 479 547 Q625 525 685.5 507 Q746 489 787 454 Q872 384 872 253 Q872 116 777 43.5 Q682 -29 502 -29 Q314 -29 190 59 L190 0 L97 0 Z M474 1183 L665 1452 L750 1452 L543 1104 L406 1104 L197 1452 L284 1452 L474 1183 Z " />
<glyph glyph-name="Tcommaaccent" unicode="&#x162;" horiz-adv-x="1154" d="M521 94 L521 1381 L132 1381 L132 1103 L37 1103 L37 1475 L1116 1475 L1116 1103 L1021 1103 L1021 1381 L632 1381 L632 94 L814 94 L814 0 L339 0 L339 94 L521 94 Z M354 -464 L528 -116 L670 -116 L439 -464 L354 -464 Z " />
<glyph glyph-name="tcommaaccent" unicode="&#x163;" horiz-adv-x="637" d="M227 851 L68 851 L68 945 L227 945 L227 1327 L335 1327 L335 945 L581 945 L581 851 L335 851 L335 259 Q335 169 369.5 131.5 Q404 94 487 94 L600 94 L600 0 L478 0 Q353 0 289 68 Q227 133 227 249 L227 851 Z M121 -464 L295 -116 L437 -116 L206 -464 L121 -464 Z " />
<glyph glyph-name="Tcaron" unicode="&#x164;" horiz-adv-x="1154" d="M521 94 L521 1381 L132 1381 L132 1103 L37 1103 L37 1475 L1116 1475 L1116 1103 L1021 1103 L1021 1381 L632 1381 L632 94 L814 94 L814 0 L339 0 L339 94 L521 94 Z M577 1667 L748 1898 L835 1898 L646 1588 L509 1588 L321 1898 L406 1898 L577 1667 Z " />
<glyph glyph-name="tcaron" unicode="&#x165;" horiz-adv-x="756" d="M227 851 L68 851 L68 945 L227 945 L227 1327 L335 1327 L335 945 L581 945 L581 851 L335 851 L335 259 Q335 169 369.5 131.5 Q404 94 487 94 L600 94 L600 0 L478 0 Q353 0 289 68 Q227 133 227 249 L227 851 Z M571 1094 L668 1484 L797 1484 L655 1094 L571 1094 Z " />
<glyph glyph-name="Tbar" unicode="&#x166;" horiz-adv-x="1154" d="M522 94 L522 711 L186 711 L186 804 L522 804 L522 1381 L132 1381 L132 1103 L37 1103 L37 1475 L1117 1475 L1117 1103 L1022 1103 L1022 1381 L633 1381 L633 804 L967 804 L967 711 L633 711 L633 94 L814 94 L814 0 L339 0 L339 94 L522 94 Z " />
<glyph glyph-name="tbar" unicode="&#x167;" horiz-adv-x="637" d="M227 851 L68 851 L68 945 L227 945 L227 1327 L335 1327 L335 945 L581 945 L581 851 L335 851 L335 601 L581 601 L581 514 L335 514 L335 259 Q335 169 369.5 131.5 Q404 94 487 94 L581 94 L581 0 L478 0 Q353 0 289 68 Q227 133 227 249 L227 514 L68 514 L68 601 L227 601 L227 851 Z " />
<glyph glyph-name="Utilde" unicode="&#x168;" horiz-adv-x="1423" d="M82 1381 L82 1475 L486 1475 L486 1381 L340 1381 L340 550 Q340 343 393 235 Q433 155 516 111.5 Q599 68 712 68 Q863 68 957 144 Q1022 197 1052 293.5 Q1082 390 1082 550 L1082 1381 L937 1381 L937 1475 L1340 1475 L1340 1381 L1193 1381 L1193 620 Q1193 431 1177.5 334.5 Q1162 238 1121 165 Q1010 -31 712 -31 Q413 -31 301 165 Q260 237 244.5 335 Q229 433 229 620 L229 1381 L82 1381 Z M501 1659 L424 1659 Q474 1834 598 1834 Q650 1834 731 1785 Q803 1741 824 1741 Q882 1741 923 1832 L1000 1832 Q943 1653 819 1653 Q758 1653 657 1718 Q613 1746 587 1746 Q536 1746 501 1659 Z " />
<glyph glyph-name="utilde" unicode="&#x169;" horiz-adv-x="1191" d="M219 851 L63 851 L63 945 L327 945 L327 391 Q327 249 345 190 Q377 86 504 86 Q677 86 862 315 L862 851 L714 851 L714 945 L970 945 L970 94 L1127 94 L1127 0 L862 0 L862 188 Q778 102 723 65 Q606 -16 482 -16 Q323 -16 261 107 Q235 158 227 214.5 Q219 271 219 396 L219 851 Z M384 1175 L308 1175 Q358 1349 481 1349 Q513 1349 538.5 1339.5 Q564 1330 613 1300 Q685 1256 706 1256 Q763 1256 805 1347 L881 1347 Q823 1169 701 1169 Q640 1169 540 1234 Q496 1262 470 1262 Q420 1262 384 1175 Z " />
<glyph glyph-name="Umacron" unicode="&#x16a;" horiz-adv-x="1423" d="M82 1381 L82 1475 L486 1475 L486 1381 L340 1381 L340 550 Q340 343 393 235 Q433 155 516 111.5 Q599 68 712 68 Q863 68 957 144 Q1022 197 1052 293.5 Q1082 390 1082 550 L1082 1381 L937 1381 L937 1475 L1340 1475 L1340 1381 L1193 1381 L1193 620 Q1193 431 1177.5 334.5 Q1162 238 1121 165 Q1010 -31 712 -31 Q413 -31 301 165 Q260 237 244.5 335 Q229 433 229 620 L229 1381 L82 1381 Z M463 1690 L463 1799 L959 1799 L959 1690 L463 1690 Z " />
<glyph glyph-name="umacron" unicode="&#x16b;" horiz-adv-x="1191" d="M219 851 L63 851 L63 945 L327 945 L327 391 Q327 249 345 190 Q377 86 504 86 Q677 86 862 315 L862 851 L714 851 L714 945 L970 945 L970 94 L1127 94 L1127 0 L862 0 L862 188 Q778 102 723 65 Q606 -16 482 -16 Q323 -16 261 107 Q235 158 227 214.5 Q219 271 219 396 L219 851 Z M328 1206 L328 1315 L824 1315 L824 1206 L328 1206 Z " />
<glyph glyph-name="Ubreve" unicode="&#x16c;" horiz-adv-x="1423" d="M82 1381 L82 1475 L486 1475 L486 1381 L340 1381 L340 550 Q340 343 393 235 Q433 155 516 111.5 Q599 68 712 68 Q863 68 957 144 Q1022 197 1052 293.5 Q1082 390 1082 550 L1082 1381 L937 1381 L937 1475 L1340 1475 L1340 1381 L1193 1381 L1193 620 Q1193 431 1177.5 334.5 Q1162 238 1121 165 Q1010 -31 712 -31 Q413 -31 301 165 Q260 237 244.5 335 Q229 433 229 620 L229 1381 L82 1381 Z M442 1890 L509 1890 Q517 1803 564.5 1764 Q612 1725 711 1725 Q811 1725 857 1763 Q903 1801 911 1890 L980 1890 Q965 1746 899 1687 Q834 1630 712 1630 Q580 1630 517 1691 Q454 1752 442 1890 Z " />
<glyph glyph-name="ubreve" unicode="&#x16d;" horiz-adv-x="1191" d="M219 851 L63 851 L63 945 L327 945 L327 391 Q327 249 345 190 Q377 86 504 86 Q677 86 862 315 L862 851 L714 851 L714 945 L970 945 L970 94 L1127 94 L1127 0 L862 0 L862 188 Q778 102 723 65 Q606 -16 482 -16 Q323 -16 261 107 Q235 158 227 214.5 Q219 271 219 396 L219 851 Z M319 1406 L386 1406 Q394 1319 441.5 1280 Q489 1241 588 1241 Q688 1241 734 1279 Q780 1317 788 1406 L857 1406 Q842 1262 776 1203 Q711 1146 588 1146 Q457 1146 394 1206.5 Q331 1267 319 1406 Z " />
<glyph glyph-name="Uring" unicode="&#x16e;" horiz-adv-x="1423" d="M82 1381 L82 1475 L486 1475 L486 1381 L340 1381 L340 550 Q340 343 393 235 Q433 155 516 111.5 Q599 68 712 68 Q863 68 957 144 Q1022 197 1052 293.5 Q1082 390 1082 550 L1082 1381 L937 1381 L937 1475 L1340 1475 L1340 1381 L1193 1381 L1193 620 Q1193 431 1177.5 334.5 Q1162 238 1121 165 Q1010 -31 712 -31 Q413 -31 301 165 Q260 237 244.5 335 Q229 433 229 620 L229 1381 L82 1381 Z M715 1985 Q813 1985 870 1927 Q927 1869 927 1770 Q927 1669 869.5 1612 Q812 1555 711 1555 Q611 1555 553.5 1612 Q496 1669 496 1769 Q496 1872 553.5 1928.5 Q611 1985 715 1985 Z M709 1912 Q647 1912 613.5 1875 Q580 1838 580 1770 Q580 1628 710 1628 Q843 1628 843 1770 Q843 1912 709 1912 Z " />
<glyph glyph-name="uring" unicode="&#x16f;" horiz-adv-x="1191" d="M219 851 L63 851 L63 945 L327 945 L327 391 Q327 249 345 190 Q377 86 504 86 Q677 86 862 315 L862 851 L714 851 L714 945 L970 945 L970 94 L1127 94 L1127 0 L862 0 L862 188 Q778 102 723 65 Q606 -16 482 -16 Q323 -16 261 107 Q235 158 227 214.5 Q219 271 219 396 L219 851 Z M580 1502 Q678 1502 735 1444 Q792 1386 792 1287 Q792 1186 734.5 1129 Q677 1072 576 1072 Q476 1072 418.5 1129 Q361 1186 361 1286 Q361 1389 418.5 1445.5 Q476 1502 580 1502 Z M574 1428 Q512 1428 478.5 1391 Q445 1354 445 1286 Q445 1145 575 1145 Q708 1145 708 1286 Q708 1428 574 1428 Z " />
<glyph glyph-name="Uhungarumlaut" unicode="&#x170;" horiz-adv-x="1423" d="M82 1381 L82 1475 L486 1475 L486 1381 L340 1381 L340 550 Q340 343 393 235 Q433 155 516 111.5 Q599 68 712 68 Q863 68 957 144 Q1022 197 1052 293.5 Q1082 390 1082 550 L1082 1381 L937 1381 L937 1475 L1340 1475 L1340 1381 L1193 1381 L1193 620 Q1193 431 1177.5 334.5 Q1162 238 1121 165 Q1010 -31 712 -31 Q413 -31 301 165 Q260 237 244.5 335 Q229 433 229 620 L229 1381 L82 1381 Z M566 1589 L678 1898 L804 1898 L634 1589 L566 1589 Z M800 1588 L933 1898 L1059 1898 L870 1588 L800 1588 Z " />
<glyph glyph-name="uhungarumlaut" unicode="&#x171;" horiz-adv-x="1191" d="M219 851 L63 851 L63 945 L327 945 L327 391 Q327 249 345 190 Q377 86 504 86 Q677 86 862 315 L862 851 L714 851 L714 945 L970 945 L970 94 L1127 94 L1127 0 L862 0 L862 188 Q778 102 723 65 Q606 -16 482 -16 Q323 -16 261 107 Q235 158 227 214.5 Q219 271 219 396 L219 851 Z M390 1102 L541 1450 L666 1450 L458 1102 L390 1102 Z M624 1102 L796 1450 L922 1450 L694 1102 L624 1102 Z " />
<glyph glyph-name="Uogonek" unicode="&#x172;" horiz-adv-x="1423" d="M82 1381 L82 1475 L486 1475 L486 1381 L340 1381 L340 551 Q340 344 393 236 Q433 156 516 112.5 Q599 69 712 69 Q863 69 957 145 Q1022 198 1052 294.5 Q1082 391 1082 551 L1082 1381 L937 1381 L937 1475 L1340 1475 L1340 1381 L1193 1381 L1193 620 Q1193 350 1154 239 Q1081 27 830 -20 Q749 -85 714 -137 Q679 -189 679 -245 Q679 -293 702.5 -314 Q726 -335 780 -335 L853 -335 L853 -424 L791 -424 Q576 -424 576 -261 Q576 -149 717 -30 Q458 -29 337 113 Q275 187 252 295 Q229 403 229 620 L229 1381 L82 1381 Z " />
<glyph glyph-name="uogonek" unicode="&#x173;" horiz-adv-x="1191" d="M219 851 L63 851 L63 945 L327 945 L327 391 Q327 249 345 190 Q377 86 504 86 Q677 86 862 315 L862 851 L714 851 L714 945 L970 945 L970 94 L1127 94 L1127 0 Q1030 -73 989.5 -129 Q949 -185 949 -245 Q949 -293 972.5 -314 Q996 -335 1050 -335 L1123 -335 L1123 -424 L1061 -424 Q846 -424 846 -261 Q846 -196 886.5 -137 Q927 -78 1024 0 L862 0 L862 188 Q778 102 723 65 Q606 -16 482 -16 Q323 -16 261 107 Q235 158 227 214.5 Q219 271 219 396 L219 851 Z " />
<glyph glyph-name="Wcircumflex" unicode="&#x174;" horiz-adv-x="1846" d="M-8 1381 L-8 1475 L435 1475 L435 1381 L243 1381 L489 490 Q520 379 556 226 Q596 390 626 497 L905 1506 L955 1506 L1230 493 Q1262 375 1296 226 Q1331 375 1364 495 L1605 1381 L1422 1381 L1422 1475 L1856 1475 L1856 1381 L1713 1381 L1320 -33 L1270 -33 L981 1019 Q956 1112 928 1235 Q897 1104 875 1024 L579 -33 L524 -33 L130 1381 L-8 1381 Z M923 1819 L752 1588 L665 1588 L855 1898 L992 1898 L1179 1588 L1094 1588 L923 1819 Z " />
<glyph glyph-name="wcircumflex" unicode="&#x175;" horiz-adv-x="1562" d="M130 851 L9 851 L9 945 L415 945 L415 851 L238 851 L435 302 Q458 238 480 156 Q506 250 524 300 L755 945 L804 945 L1030 311 Q1055 241 1078 156 Q1106 253 1124 304 L1320 851 L1143 851 L1143 945 L1548 945 L1548 851 L1427 851 L1111 -21 L1053 -21 L814 652 Q795 707 779 773 Q763 708 744 653 L505 -21 L447 -21 L130 851 Z M780 1374 L590 1104 L503 1104 L712 1452 L849 1452 L1056 1104 L971 1104 L780 1374 Z " />
<glyph glyph-name="Ycircumflex" unicode="&#x176;" horiz-adv-x="1053" d="M471 94 L471 670 L109 1381 L-36 1381 L-36 1475 L399 1475 L399 1381 L230 1381 L530 788 L828 1381 L661 1381 L661 1475 L1087 1475 L1087 1381 L941 1381 L582 669 L582 94 L756 94 L756 0 L296 0 L296 94 L471 94 Z M550 1819 L379 1588 L292 1588 L482 1898 L619 1898 L806 1588 L721 1588 L550 1819 Z " />
<glyph glyph-name="ycircumflex" unicode="&#x177;" horiz-adv-x="1041" d="M117 851 L3 851 L3 945 L437 945 L437 851 L227 851 L495 279 Q503 261 538 182 Q554 225 579 288 L810 851 L614 851 L614 945 L1034 945 L1034 851 L917 851 L477 -211 Q425 -337 361.5 -379 Q298 -421 158 -422 L158 -328 Q261 -326 301 -301 Q349 -270 390 -170 L488 69 L117 851 Z M520 1374 L330 1104 L243 1104 L452 1452 L589 1452 L796 1104 L711 1104 L520 1374 Z " />
<glyph glyph-name="Zacute" unicode="&#x179;" horiz-adv-x="1137" d="M76 0 L76 93 L887 1381 L201 1381 L201 1103 L106 1103 L106 1475 L1026 1475 L1026 1406 L200 94 L936 94 L936 379 L1031 379 L1031 0 L76 0 Z M506 1588 L681 1898 L822 1898 L591 1588 L506 1588 Z " />
<glyph glyph-name="zacute" unicode="&#x17a;" horiz-adv-x="948" d="M61 0 L61 91 L696 851 L208 851 L208 661 L114 661 L114 945 L836 945 L836 870 L190 94 L757 94 L757 285 L851 285 L851 0 L61 0 Z M400 1104 L614 1452 L755 1452 L485 1104 L400 1104 Z " />
<glyph glyph-name="Zdotaccent" unicode="&#x17b;" horiz-adv-x="1137" d="M76 0 L76 93 L887 1381 L201 1381 L201 1103 L106 1103 L106 1475 L1026 1475 L1026 1406 L200 94 L936 94 L936 379 L1031 379 L1031 0 L76 0 Z M533 1669 L533 1817 L680 1817 L680 1669 L533 1669 Z " />
<glyph glyph-name="zdotaccent" unicode="&#x17c;" horiz-adv-x="948" d="M61 0 L61 91 L696 851 L208 851 L208 661 L114 661 L114 945 L836 945 L836 870 L190 94 L757 94 L757 285 L851 285 L851 0 L61 0 Z M418 1185 L418 1333 L565 1333 L565 1185 L418 1185 Z " />
<glyph glyph-name="Zcaron" unicode="&#x17d;" horiz-adv-x="1137" d="M76 0 L76 93 L887 1381 L201 1381 L201 1103 L106 1103 L106 1475 L1026 1475 L1026 1406 L200 94 L936 94 L936 379 L1031 379 L1031 0 L76 0 Z M588 1667 L759 1898 L846 1898 L657 1588 L520 1588 L332 1898 L417 1898 L588 1667 Z " />
<glyph glyph-name="zcaron" unicode="&#x17e;" horiz-adv-x="948" d="M61 0 L61 91 L696 851 L208 851 L208 661 L114 661 L114 945 L836 945 L836 870 L190 94 L757 94 L757 285 L851 285 L851 0 L61 0 Z M498 1183 L689 1452 L774 1452 L567 1104 L430 1104 L221 1452 L308 1452 L498 1183 Z " />
<glyph glyph-name="uni018F" unicode="&#x18f;" horiz-adv-x="1680" d="M115 825 L1445 825 Q1429 998 1345 1132 Q1174 1407 853 1407 Q663 1407 507 1312 Q431 1266 342 1163 L262 1231 Q480 1506 853 1506 Q1168 1506 1370 1275 Q1565 1053 1565 737 Q1565 421 1370 199 Q1168 -31 863 -31 Q549 -31 328 199 Q123 413 116 737 Q115 768 115 825 Z M231 731 Q238 648 247 588 Q283 354 482 200 Q652 68 863 68 Q1071 68 1224 200 Q1441 388 1450 731 L231 731 Z " />
<glyph glyph-name="uni01CD" unicode="&#x1cd;" horiz-adv-x="1451" d="M1061 444 L381 444 L254 94 L430 94 L430 0 L9 0 L9 94 L137 94 L652 1475 L787 1475 L1308 94 L1442 94 L1442 0 L1014 0 L1014 94 L1192 94 L1061 444 Z M1025 538 L716 1365 L416 538 L1025 538 Z M726 1667 L897 1898 L984 1898 L795 1588 L658 1588 L470 1898 L555 1898 L726 1667 Z " />
<glyph glyph-name="uni01CE" unicode="&#x1ce;" horiz-adv-x="1158" d="M831 564 L831 616 Q831 756 778 812 Q712 882 526 882 Q384 882 327 830 Q292 796 284 706 L180 706 Q184 846 256 906 Q338 975 527 975 Q766 975 860 882 Q904 839 921.5 774 Q939 709 939 593 L939 94 L1096 94 L1096 0 L832 0 L832 121 Q702 -29 449 -29 Q85 -29 85 263 Q85 464 244 535 Q330 574 549 574 Q602 574 811 565 L831 564 Z M831 469 Q717 482 538 482 Q351 482 284 444 Q195 394 195 268 Q195 167 252 120 Q318 65 461 65 Q686 65 787 196 Q813 230 822 265 Q831 300 831 367 L831 469 Z M573 1183 L764 1452 L849 1452 L642 1104 L505 1104 L296 1452 L383 1452 L573 1183 Z " />
<glyph glyph-name="uni01D3" unicode="&#x1d3;" horiz-adv-x="1423" d="M82 1381 L82 1475 L486 1475 L486 1381 L340 1381 L340 550 Q340 343 393 235 Q433 155 516 111.5 Q599 68 712 68 Q863 68 957 144 Q1022 197 1052 293.5 Q1082 390 1082 550 L1082 1381 L937 1381 L937 1475 L1340 1475 L1340 1381 L1193 1381 L1193 620 Q1193 431 1177.5 334.5 Q1162 238 1121 165 Q1010 -31 712 -31 Q413 -31 301 165 Q260 237 244.5 335 Q229 433 229 620 L229 1381 L82 1381 Z M734 1667 L905 1898 L992 1898 L803 1588 L666 1588 L478 1898 L563 1898 L734 1667 Z " />
<glyph glyph-name="uni01D4" unicode="&#x1d4;" horiz-adv-x="1191" d="M219 851 L63 851 L63 945 L327 945 L327 391 Q327 249 345 190 Q377 86 504 86 Q677 86 862 315 L862 851 L714 851 L714 945 L970 945 L970 94 L1127 94 L1127 0 L862 0 L862 188 Q778 102 723 65 Q606 -16 482 -16 Q323 -16 261 107 Q235 158 227 214.5 Q219 271 219 396 L219 851 Z M594 1183 L785 1452 L870 1452 L663 1104 L526 1104 L317 1452 L404 1452 L594 1183 Z " />
<glyph glyph-name="uni01DD" unicode="&#x1dd;" horiz-adv-x="1127" d="M87 540 L922 540 Q907 655 853 732 Q751 879 558 879 Q369 879 198 749 L136 830 Q323 974 561 974 Q780 974 913 824 Q1037 683 1037 472 Q1037 261 913 121 Q780 -29 562 -29 Q391 -29 270 66 Q170 145 128.5 252.5 Q87 360 87 540 Z M200 446 Q210 317 250 247 Q351 65 562 65 Q721 65 817.5 166.5 Q914 268 926 446 L200 446 Z " />
<glyph glyph-name="Gcaron" unicode="&#x1e6;" horiz-adv-x="1677" d="M789 604 L789 698 L1472 698 L1472 56 Q1216 -31 904 -31 Q643 -31 466 67 Q285 166 191 344 Q101 516 101 733 Q101 966 211 1152 Q420 1506 877 1506 Q1169 1506 1325 1375 L1325 1475 L1419 1475 L1419 1062 L1324 1062 L1324 1096 Q1324 1212 1281 1267 Q1230 1332 1121 1369.5 Q1012 1407 874 1407 Q691 1407 566 1344 Q392 1257 301 1085 Q216 926 216 732 Q216 434 405 246 Q511 140 658 99 Q767 68 919 68 Q1038 68 1133.5 85 Q1229 102 1363 147 L1363 604 L789 604 Z M868 1667 L1039 1898 L1126 1898 L937 1588 L800 1588 L612 1898 L697 1898 L868 1667 Z " />
<glyph glyph-name="gcaron" unicode="&#x1e7;" horiz-adv-x="1272" d="M938 191 Q795 -17 554 -17 Q340 -17 210 132 Q91 268 91 479 Q91 690 210 825 Q339 974 554 974 Q802 974 939 760 L939 945 L1224 945 L1224 851 L1046 851 L1046 93 Q1046 -142 982 -260 Q879 -452 574 -452 Q375 -452 277 -380 Q179 -308 171 -156 L274 -156 Q281 -242 323 -287 Q391 -359 580 -359 Q797 -359 878 -228 Q911 -174 924.5 -104 Q938 -34 938 89 L938 191 Z M560 880 Q403 880 302 769 Q201 659 201 479 Q201 315 286 208 Q389 77 566 77 Q742 77 847 206 Q938 320 938 473 Q938 633 847 747 Q791 817 723 848.5 Q655 880 560 880 Z M603 1183 L794 1452 L879 1452 L672 1104 L535 1104 L326 1452 L413 1452 L603 1183 Z " />
<glyph glyph-name="uni01F4" unicode="&#x1f4;" horiz-adv-x="1677" d="M789 604 L789 698 L1472 698 L1472 56 Q1216 -31 904 -31 Q643 -31 466 67 Q285 166 191 344 Q101 516 101 733 Q101 966 211 1152 Q420 1506 877 1506 Q1169 1506 1325 1375 L1325 1475 L1419 1475 L1419 1062 L1324 1062 L1324 1096 Q1324 1212 1281 1267 Q1230 1332 1121 1369.5 Q1012 1407 874 1407 Q691 1407 566 1344 Q392 1257 301 1085 Q216 926 216 732 Q216 434 405 246 Q511 140 658 99 Q767 68 919 68 Q1038 68 1133.5 85 Q1229 102 1363 147 L1363 604 L789 604 Z M763 1588 L938 1898 L1079 1898 L848 1588 L763 1588 Z " />
<glyph glyph-name="uni01F5" unicode="&#x1f5;" horiz-adv-x="1272" d="M938 191 Q795 -17 554 -17 Q340 -17 210 132 Q91 268 91 479 Q91 690 210 825 Q339 974 554 974 Q802 974 939 760 L939 945 L1224 945 L1224 851 L1046 851 L1046 93 Q1046 -142 982 -260 Q879 -452 574 -452 Q375 -452 277 -380 Q179 -308 171 -156 L274 -156 Q281 -242 323 -287 Q391 -359 580 -359 Q797 -359 878 -228 Q911 -174 924.5 -104 Q938 -34 938 89 L938 191 Z M560 880 Q403 880 302 769 Q201 659 201 479 Q201 315 286 208 Q389 77 566 77 Q742 77 847 206 Q938 320 938 473 Q938 633 847 747 Q791 817 723 848.5 Q655 880 560 880 Z M513 1104 L727 1452 L868 1452 L598 1104 L513 1104 Z " />
<glyph glyph-name="Scommaaccent" unicode="&#x218;" horiz-adv-x="1224" d="M110 0 L110 414 L205 414 L205 379 Q205 263 246 207 Q293 143 394 105.5 Q495 68 620 68 Q827 68 935 163 Q1032 249 1032 389 Q1032 516 946 594 Q904 632 833 658.5 Q762 685 614 719 Q432 761 351 794 Q270 827 218 880 Q134 966 134 1111 Q134 1271 232 1376 Q354 1506 586 1506 Q820 1506 946 1375 L946 1475 L1040 1475 L1040 1062 L945 1062 L945 1096 Q945 1211 910 1267 Q870 1330 781.5 1368.5 Q693 1407 586 1407 Q416 1407 323 1314 Q244 1235 244 1120 Q244 990 342 925 Q413 878 632 828 Q821 785 904.5 750.5 Q988 716 1044 657 Q1146 552 1146 399 Q1146 312 1113 230.5 Q1080 149 1022 94 Q889 -31 616 -31 Q347 -31 204 100 L204 0 L110 0 Z M395 -464 L569 -116 L711 -116 L480 -464 L395 -464 Z " />
<glyph glyph-name="scommaaccent" unicode="&#x219;" horiz-adv-x="949" d="M97 0 L97 292 L191 292 L191 258 Q191 177 242 137 Q335 64 507 64 Q623 64 690 105 Q767 153 767 254 Q767 338 707 384 Q681 405 632 417.5 Q583 430 454 449 Q331 468 273.5 488 Q216 508 178 545 Q112 610 112 711 Q112 828 199 902 Q283 974 432 974 Q587 974 697 886 L697 945 L789 945 L789 667 L695 667 L695 689 Q695 769 650 809 Q568 881 430 881 Q330 881 274 837 Q218 793 218 714 Q218 637 285 597 Q328 570 479 547 Q625 525 685.5 507 Q746 489 787 454 Q872 384 872 253 Q872 116 777 43.5 Q682 -29 502 -29 Q314 -29 190 59 L190 0 L97 0 Z M251 -464 L425 -116 L567 -116 L336 -464 L251 -464 Z " />
<glyph glyph-name="uni021A" unicode="&#x21a;" horiz-adv-x="1154" d="M521 94 L521 1381 L132 1381 L132 1103 L37 1103 L37 1475 L1116 1475 L1116 1103 L1021 1103 L1021 1381 L632 1381 L632 94 L814 94 L814 0 L339 0 L339 94 L521 94 Z M354 -464 L528 -116 L670 -116 L439 -464 L354 -464 Z " />
<glyph glyph-name="uni021B" unicode="&#x21b;" horiz-adv-x="637" d="M227 851 L68 851 L68 945 L227 945 L227 1327 L335 1327 L335 945 L581 945 L581 851 L335 851 L335 259 Q335 169 369.5 131.5 Q404 94 487 94 L600 94 L600 0 L478 0 Q353 0 289 68 Q227 133 227 249 L227 851 Z M121 -464 L295 -116 L437 -116 L206 -464 L121 -464 Z " />
<glyph glyph-name="uni0226" unicode="&#x226;" horiz-adv-x="1451" d="M1061 444 L381 444 L254 94 L430 94 L430 0 L9 0 L9 94 L137 94 L652 1475 L787 1475 L1308 94 L1442 94 L1442 0 L1014 0 L1014 94 L1192 94 L1061 444 Z M1025 538 L716 1365 L416 538 L1025 538 Z M652 1669 L652 1817 L799 1817 L799 1669 L652 1669 Z " />
<glyph glyph-name="uni0227" unicode="&#x227;" horiz-adv-x="1158" d="M831 564 L831 616 Q831 756 778 812 Q712 882 526 882 Q384 882 327 830 Q292 796 284 706 L180 706 Q184 846 256 906 Q338 975 527 975 Q766 975 860 882 Q904 839 921.5 774 Q939 709 939 593 L939 94 L1096 94 L1096 0 L832 0 L832 121 Q702 -29 449 -29 Q85 -29 85 263 Q85 464 244 535 Q330 574 549 574 Q602 574 811 565 L831 564 Z M831 469 Q717 482 538 482 Q351 482 284 444 Q195 394 195 268 Q195 167 252 120 Q318 65 461 65 Q686 65 787 196 Q813 230 822 265 Q831 300 831 367 L831 469 Z M506 1185 L506 1333 L653 1333 L653 1185 L506 1185 Z " />
<glyph glyph-name="uni0237" unicode="&#x237;" horiz-adv-x="534" d="M59 851 L59 945 L331 945 L331 -74 Q343 -414 42 -422 L42 -328 Q155 -318 191 -259 Q210 -228 216.5 -188 Q223 -148 223 -59 L223 851 L59 851 Z " />
<glyph glyph-name="uni0259" unicode="&#x259;" horiz-adv-x="1127" d="M87 540 L922 540 Q907 655 853 732 Q751 879 558 879 Q369 879 198 749 L136 830 Q323 974 561 974 Q780 974 913 824 Q1037 683 1037 472 Q1037 261 913 121 Q780 -29 562 -29 Q391 -29 270 66 Q170 145 128.5 252.5 Q87 360 87 540 Z M200 446 Q210 317 250 247 Q351 65 562 65 Q721 65 817.5 166.5 Q914 268 926 446 L200 446 Z " />
<glyph glyph-name="uni02C9" unicode="&#x2c9;" horiz-adv-x="1024" d="M264 1206 L264 1315 L760 1315 L760 1206 L264 1206 Z " />
<glyph glyph-name="uni0312" unicode="&#x312;" horiz-adv-x="1024" d="M726 1452 L512 1104 L371 1104 L641 1452 L726 1452 Z " />
<glyph glyph-name="uni0313" unicode="&#x313;" horiz-adv-x="144" d="M-41 1085 L56 1475 L185 1475 L43 1085 L-41 1085 Z " />
<glyph glyph-name="uni031B" unicode="&#x31b;" horiz-adv-x="144" d="M-41 1085 L56 1475 L185 1475 L43 1085 L-41 1085 Z " />
<glyph glyph-name="commaaccent" unicode="&#x326;" horiz-adv-x="1024" d="M314 -464 L488 -116 L630 -116 L399 -464 L314 -464 Z " />
<glyph glyph-name="uni037E" unicode="&#x37e;" horiz-adv-x="574" d="M217 630 L217 792 L365 792 L365 630 L217 630 Z M111 -258 L217 162 L367 162 L224 -258 L111 -258 Z " />
<glyph glyph-name="uni0387" unicode="&#x387;" horiz-adv-x="574" d="M216 460 L216 622 L364 622 L364 460 L216 460 Z " />
<glyph glyph-name="uni0400" unicode="&#x400;" horiz-adv-x="1243" d="M254 94 L254 1381 L107 1381 L107 1475 L1054 1475 L1054 1139 L959 1139 L959 1381 L365 1381 L365 811 L871 811 L871 717 L365 717 L365 94 L975 94 L975 371 L1070 371 L1070 0 L107 0 L107 94 L254 94 Z M660 1588 L429 1898 L570 1898 L745 1588 L660 1588 Z " />
<glyph glyph-name="afii10023" unicode="&#x401;" horiz-adv-x="1243" d="M254 94 L254 1381 L107 1381 L107 1475 L1095 1475 L1095 1139 L1000 1139 L1000 1381 L365 1381 L365 811 L912 811 L912 717 L365 717 L365 94 L1016 94 L1016 371 L1111 371 L1111 0 L107 0 L107 94 L254 94 Z M367 1667 L367 1820 L504 1820 L504 1667 L367 1667 Z M741 1667 L741 1820 L878 1820 L878 1667 L741 1667 Z " />
<glyph glyph-name="afii10051" unicode="&#x402;" horiz-adv-x="1584" d="M474 94 L474 1381 L146 1381 L146 1103 L51 1103 L51 1475 L1069 1475 L1069 1103 L974 1103 L974 1381 L585 1381 L585 700 Q706 805 804.5 848.5 Q903 892 1016 892 Q1214 892 1297 764 Q1328 716 1339 655 Q1350 594 1350 467 L1350 -74 Q1362 -413 1061 -422 L1061 -328 Q1174 -318 1210 -259 Q1229 -228 1235.5 -188 Q1242 -148 1242 -59 L1242 472 Q1242 616 1215 681 Q1171 789 994 789 Q871 789 741 705 Q670 658 585 577 L585 94 L767 94 L767 0 L292 0 L292 94 L474 94 Z " />
<glyph glyph-name="afii10052" unicode="&#x403;" horiz-adv-x="1123" d="M254 94 L254 1381 L107 1381 L107 1475 L1080 1475 L1080 1103 L985 1103 L985 1381 L365 1381 L365 94 L572 94 L572 0 L107 0 L107 94 L254 94 Z M533 1588 L708 1898 L870 1898 L619 1588 L533 1588 Z " />
<glyph glyph-name="afii10053" unicode="&#x404;" horiz-adv-x="1463" d="M886 825 L886 731 L234 731 Q240 503 318 342 Q391 194 508 127 Q610 68 776 68 Q928 68 1038.5 124.5 Q1149 181 1254 312 L1333 244 Q1227 101 1091 35 Q955 -31 763 -31 Q551 -31 416 57 Q262 157 184 362 Q120 530 120 747 Q120 1101 303 1308 Q393 1410 507.5 1458 Q622 1506 776 1506 Q1047 1506 1195 1375 L1195 1475 L1289 1475 L1289 1062 L1195 1062 L1195 1096 Q1195 1212 1154 1267 Q1106 1330 1001.5 1368.5 Q897 1407 772 1407 Q465 1407 324 1148 Q249 1011 237 825 L886 825 Z " />
<glyph glyph-name="afii10054" unicode="&#x405;" horiz-adv-x="1252" d="M124 0 L124 414 L218 414 L218 379 Q218 263 259 207 Q306 143 407 105.5 Q508 68 633 68 Q841 68 949 163 Q1046 249 1046 388 Q1046 516 959 594 Q918 632 846 658.5 Q774 685 627 719 Q446 760 364.5 793 Q283 826 231 879 Q147 966 147 1111 Q147 1271 245 1376 Q367 1506 599 1506 Q833 1506 959 1375 L959 1475 L1054 1475 L1054 1062 L959 1062 L959 1096 Q959 1211 924 1267 Q884 1330 795 1368.5 Q706 1407 600 1407 Q429 1407 336 1314 Q257 1235 257 1120 Q257 990 355 925 Q426 878 646 828 Q835 785 918 750.5 Q1001 716 1058 657 Q1160 552 1160 399 Q1160 311 1127 230 Q1094 149 1036 94 Q903 -31 630 -31 Q360 -31 218 100 L218 0 L124 0 Z " />
<glyph glyph-name="afii10055" unicode="&#x406;" horiz-adv-x="627" d="M258 94 L258 1381 L111 1381 L111 1475 L516 1475 L516 1381 L369 1381 L369 94 L516 94 L516 0 L111 0 L111 94 L258 94 Z " />
<glyph glyph-name="afii10056" unicode="&#x407;" horiz-adv-x="627" d="M258 94 L258 1381 L111 1381 L111 1475 L516 1475 L516 1381 L369 1381 L369 94 L516 94 L516 0 L111 0 L111 94 L258 94 Z M58 1667 L58 1820 L195 1820 L195 1667 L58 1667 Z M432 1667 L432 1820 L569 1820 L569 1667 L432 1667 Z " />
<glyph glyph-name="afii10057" unicode="&#x408;" horiz-adv-x="619" d="M256 1381 L108 1381 L108 1475 L513 1475 L513 1381 L367 1381 L367 95 Q379 -251 73 -259 L73 -165 Q184 -155 220 -101 Q256 -47 256 109 L256 1381 Z " />
<glyph glyph-name="afii10058" unicode="&#x409;" horiz-adv-x="2074" d="M1036 94 L1036 1381 L437 1381 L437 1283 Q437 946 412 655 Q387 364 348 241 Q307 113 234 56.5 Q161 0 37 0 L-2 0 L-2 94 L40 94 Q94 94 129 113 Q164 132 194 178 Q252 269 289 572.5 Q326 876 326 1267 L326 1381 L179 1381 L179 1475 L1294 1475 L1294 1381 L1147 1381 L1147 871 L1477 871 Q1612 871 1697 851 Q1782 831 1845 784 Q1999 670 1999 436 Q1999 201 1845 88 Q1782 40 1697 20 Q1612 0 1477 0 L889 0 L889 94 L1036 94 Z M1147 94 L1453 94 Q1673 94 1778.5 177.5 Q1884 261 1884 436 Q1884 558 1837 629 Q1740 777 1453 777 L1147 777 L1147 94 Z " />
<glyph glyph-name="afii10059" unicode="&#x40a;" horiz-adv-x="2134" d="M254 94 L254 1381 L107 1381 L107 1475 L511 1475 L511 1381 L365 1381 L365 825 L1075 825 L1075 1381 L928 1381 L928 1475 L1333 1475 L1333 1381 L1186 1381 L1186 825 L1537 825 Q1786 825 1905 742 Q2058 635 2058 413 Q2058 190 1905 83 Q1786 0 1537 0 L928 0 L928 94 L1075 94 L1075 731 L365 731 L365 94 L511 94 L511 0 L107 0 L107 94 L254 94 Z M1186 94 L1512 94 Q1732 94 1837.5 172 Q1943 250 1943 413 Q1943 598 1803 675 Q1703 731 1512 731 L1186 731 L1186 94 Z " />
<glyph glyph-name="afii10060" unicode="&#x40b;" horiz-adv-x="1584" d="M474 94 L474 1381 L146 1381 L146 1103 L51 1103 L51 1475 L1069 1475 L1069 1103 L974 1103 L974 1381 L585 1381 L585 700 Q706 804 804.5 848 Q903 892 1016 892 Q1214 892 1297 764 Q1328 716 1339 655 Q1350 594 1350 467 L1350 94 L1507 94 L1507 0 L1096 0 L1096 94 L1242 94 L1242 472 Q1242 616 1215 681 Q1171 789 993 789 Q871 789 741 705 Q670 658 585 577 L585 94 L767 94 L767 0 L292 0 L292 94 L474 94 Z " />
<glyph glyph-name="afii10061" unicode="&#x40c;" horiz-adv-x="1350" d="M254 94 L254 1381 L107 1381 L107 1475 L511 1475 L511 1381 L365 1381 L365 829 L673 829 L1059 1381 L900 1381 L900 1475 L1303 1475 L1303 1381 L1190 1381 L770 792 Q832 758 875 703.5 Q918 649 983 520 L1197 94 L1345 94 L1345 0 L1108 0 L888 461 Q815 613 760 668 Q693 735 558 735 L365 735 L365 94 L511 94 L511 0 L107 0 L107 94 L254 94 Z M634 1588 L809 1898 L971 1898 L719 1588 L634 1588 Z " />
<glyph glyph-name="uni040D" unicode="&#x40d;" horiz-adv-x="1485" d="M254 94 L254 1381 L107 1381 L107 1475 L511 1475 L511 1381 L365 1381 L365 171 L1102 1475 L1378 1475 L1378 1381 L1231 1381 L1231 94 L1378 94 L1378 0 L974 0 L974 94 L1120 94 L1120 1297 L380 0 L107 0 L107 94 L254 94 Z M726 1588 L495 1898 L636 1898 L811 1588 L726 1588 Z " />
<glyph glyph-name="afii10062" unicode="&#x40e;" horiz-adv-x="1229" d="M582 416 L130 1381 L14 1381 L14 1475 L416 1475 L416 1381 L247 1381 L635 532 L1027 1381 L859 1381 L859 1475 L1251 1475 L1251 1381 L1135 1381 L499 0 L258 0 L258 94 L433 94 L582 416 Z M860 1890 L945 1890 Q942 1816 925.5 1774 Q909 1732 871 1698 Q794 1630 627 1630 Q444 1630 367 1713 Q337 1746 324 1784 Q311 1822 309 1890 L394 1890 Q403 1805 447 1769 Q502 1724 626 1724 Q745 1724 797.5 1761 Q850 1798 860 1890 Z " />
<glyph glyph-name="afii10145" unicode="&#x40f;" horiz-adv-x="1440" d="M254 94 L254 1381 L107 1381 L107 1475 L511 1475 L511 1381 L365 1381 L365 94 L1075 94 L1075 1381 L929 1381 L929 1475 L1333 1475 L1333 1381 L1186 1381 L1186 94 L1333 94 L1333 0 L783 0 L760 -360 L680 -360 L657 0 L107 0 L107 94 L254 94 Z " />
<glyph glyph-name="afii10017" unicode="&#x410;" horiz-adv-x="1480" d="M1075 444 L395 444 L268 94 L444 94 L444 0 L23 0 L23 94 L151 94 L666 1475 L801 1475 L1322 94 L1456 94 L1456 0 L1028 0 L1028 94 L1206 94 L1075 444 Z M1039 538 L730 1365 L430 538 L1039 538 Z " />
<glyph glyph-name="afii10018" unicode="&#x411;" horiz-adv-x="1340" d="M254 94 L254 1381 L107 1381 L107 1475 L1122 1475 L1122 1103 L1027 1103 L1027 1381 L365 1381 L365 871 L695 871 Q829 871 914 851 Q999 831 1063 784 Q1216 670 1216 436 Q1216 201 1063 88 Q999 40 914 20 Q829 0 695 0 L107 0 L107 94 L254 94 Z M365 94 L670 94 Q890 94 995.5 177.5 Q1101 261 1101 436 Q1101 558 1054 629 Q957 777 670 777 L365 777 L365 94 Z " />
<glyph glyph-name="afii10019" unicode="&#x412;" horiz-adv-x="1340" d="M254 94 L254 1381 L107 1381 L107 1475 L648 1475 Q872 1475 993 1391 Q1126 1298 1126 1111 Q1126 998 1074 928 Q1022 858 903 811 Q977 797 1022.5 774.5 Q1068 752 1111 708 Q1217 598 1217 424 Q1217 318 1174 230 Q1131 142 1051 88 Q924 0 654 0 L107 0 L107 94 L254 94 Z M365 847 L679 847 Q834 847 920 915 Q1012 988 1012 1110 Q1012 1242 920.5 1311.5 Q829 1381 655 1381 L365 1381 L365 847 Z M365 94 L630 94 Q1102 94 1102 421 Q1102 598 969 686 Q868 753 706 753 L365 753 L365 94 Z " />
<glyph glyph-name="afii10020" unicode="&#x413;" horiz-adv-x="1123" d="M254 94 L254 1381 L107 1381 L107 1475 L1080 1475 L1080 1103 L985 1103 L985 1381 L365 1381 L365 94 L572 94 L572 0 L107 0 L107 94 L254 94 Z " />
<glyph glyph-name="afii10021" unicode="&#x414;" horiz-adv-x="1375" d="M1174 0 L108 0 L83 -360 L-6 -360 L-6 94 L148 94 Q215 185 257.5 513 Q300 841 300 1264 L300 1381 L153 1381 L153 1475 L1268 1475 L1268 1381 L1121 1381 L1121 94 L1289 94 L1289 -360 L1201 -360 L1174 0 Z M1010 94 L1010 1381 L411 1381 L411 1227 Q395 366 271 94 L1010 94 Z " />
<glyph glyph-name="afii10022" unicode="&#x415;" horiz-adv-x="1243" d="M254 94 L254 1381 L107 1381 L107 1475 L1095 1475 L1095 1139 L1000 1139 L1000 1381 L365 1381 L365 811 L912 811 L912 717 L365 717 L365 94 L1016 94 L1016 371 L1111 371 L1111 0 L107 0 L107 94 L254 94 Z " />
<glyph glyph-name="afii10024" unicode="&#x416;" horiz-adv-x="1943" d="M916 94 L916 735 L834 735 Q755 735 713 722.5 Q671 710 631 676 Q557 611 480 461 L243 0 L6 0 L6 94 L153 94 L386 520 Q453 643 501 700 Q549 757 617 793 L161 1381 L47 1381 L47 1475 L451 1475 L451 1381 L291 1381 L716 829 L916 829 L916 1381 L770 1381 L770 1475 L1173 1475 L1173 1381 L1027 1381 L1027 829 L1227 829 L1650 1381 L1491 1381 L1491 1475 L1895 1475 L1895 1381 L1781 1381 L1326 793 Q1393 757 1441 700 Q1489 643 1556 520 L1789 94 L1937 94 L1937 0 L1699 0 L1462 461 Q1378 625 1307 680 Q1236 735 1109 735 L1027 735 L1027 94 L1173 94 L1173 0 L770 0 L770 94 L916 94 Z " />
<glyph glyph-name="afii10025" unicode="&#x417;" horiz-adv-x="1313" d="M154 216 Q359 68 637 68 Q1085 68 1085 415 Q1085 724 701 724 L443 724 L443 818 L651 818 Q792 818 890 874 Q1028 952 1028 1123 Q1028 1250 942 1324 Q848 1407 674 1407 Q556 1407 454.5 1368 Q353 1329 308 1267 Q268 1212 268 1096 L268 1062 L174 1062 L174 1475 L268 1475 L268 1375 Q349 1444 444.5 1475 Q540 1506 674 1506 Q937 1506 1057 1376 Q1143 1283 1143 1128 Q1143 1007 1096 926 Q1049 845 946 786 Q1020 764 1062 736.5 Q1104 709 1138 661 Q1200 571 1200 425 Q1200 -31 640 -31 Q475 -31 350 5.5 Q225 42 102 126 L154 216 Z " />
<glyph glyph-name="afii10026" unicode="&#x418;" horiz-adv-x="1485" d="M254 94 L254 1381 L107 1381 L107 1475 L511 1475 L511 1381 L365 1381 L365 171 L1102 1475 L1378 1475 L1378 1381 L1231 1381 L1231 94 L1378 94 L1378 0 L974 0 L974 94 L1120 94 L1120 1297 L380 0 L107 0 L107 94 L254 94 Z " />
<glyph glyph-name="afii10027" unicode="&#x419;" horiz-adv-x="1485" d="M254 94 L254 1381 L107 1381 L107 1475 L511 1475 L511 1381 L365 1381 L365 171 L1102 1475 L1378 1475 L1378 1381 L1231 1381 L1231 94 L1378 94 L1378 0 L974 0 L974 94 L1120 94 L1120 1297 L380 0 L107 0 L107 94 L254 94 Z M975 1890 L1061 1890 Q1057 1816 1041 1774 Q1025 1732 987 1698 Q910 1630 743 1630 Q559 1630 483 1713 Q453 1746 440 1784 Q427 1822 425 1890 L510 1890 Q519 1805 563 1769 Q618 1724 742 1724 Q861 1724 913.5 1761 Q966 1798 975 1890 Z " />
<glyph glyph-name="afii10028" unicode="&#x41a;" horiz-adv-x="1350" d="M254 94 L254 1381 L107 1381 L107 1475 L511 1475 L511 1381 L365 1381 L365 829 L673 829 L1059 1381 L900 1381 L900 1475 L1303 1475 L1303 1381 L1190 1381 L770 792 Q832 758 875 703.5 Q918 649 983 520 L1197 94 L1345 94 L1345 0 L1108 0 L888 461 Q815 613 760 668 Q693 735 558 735 L365 735 L365 94 L511 94 L511 0 L107 0 L107 94 L254 94 Z " />
<glyph glyph-name="afii10029" unicode="&#x41b;" horiz-adv-x="1401" d="M179 1381 L179 1475 L1294 1475 L1294 1381 L1147 1381 L1147 94 L1294 94 L1294 0 L890 0 L890 94 L1036 94 L1036 1381 L437 1381 L437 1284 Q437 947 412 655.5 Q387 364 348 241 Q307 113 234 56.5 Q161 0 37 0 L-2 0 L-2 94 L40 94 Q94 94 129 113 Q164 132 194 178 Q263 285 295 627 Q326 961 326 1267 L326 1381 L179 1381 Z " />
<glyph glyph-name="afii10030" unicode="&#x41c;" horiz-adv-x="1821" d="M224 94 L306 1381 L159 1381 L159 1475 L431 1475 L866 313 Q894 238 913 165 Q925 222 955 303 L1394 1475 L1659 1475 L1659 1381 L1512 1381 L1594 94 L1739 94 L1739 0 L1340 0 L1340 94 L1484 94 L1424 1103 L1419 1289 Q1375 1138 1364 1110 L942 0 L879 0 L460 1098 L399 1289 L394 1095 L334 94 L481 94 L481 0 L79 0 L79 94 L224 94 Z " />
<glyph glyph-name="afii10031" unicode="&#x41d;" horiz-adv-x="1485" d="M254 94 L254 1381 L107 1381 L107 1475 L511 1475 L511 1381 L365 1381 L365 825 L1120 825 L1120 1381 L974 1381 L974 1475 L1378 1475 L1378 1381 L1231 1381 L1231 94 L1378 94 L1378 0 L974 0 L974 94 L1120 94 L1120 731 L365 731 L365 94 L511 94 L511 0 L107 0 L107 94 L254 94 Z " />
<glyph glyph-name="afii10032" unicode="&#x41e;" horiz-adv-x="1741" d="M880 1506 Q1092 1506 1273 1391 Q1460 1271 1553 1072 Q1625 917 1625 737 Q1625 421 1413 199 Q1193 -31 870 -31 Q547 -31 327 199 Q115 421 115 736 Q115 1060 327 1276 Q553 1506 880 1506 Z M862 1407 Q679 1407 524 1306 Q359 1199 283 1019 Q230 894 230 737 Q230 457 403 270 Q591 68 870 68 Q1149 68 1336 270 Q1510 457 1510 736 Q1510 1023 1336 1205 Q1144 1407 862 1407 Z " />
<glyph glyph-name="afii10033" unicode="&#x41f;" horiz-adv-x="1440" d="M254 94 L254 1381 L107 1381 L107 1475 L1333 1475 L1333 1381 L1186 1381 L1186 94 L1333 94 L1333 0 L929 0 L929 94 L1075 94 L1075 1381 L365 1381 L365 94 L511 94 L511 0 L107 0 L107 94 L254 94 Z " />
<glyph glyph-name="afii10034" unicode="&#x420;" horiz-adv-x="1237" d="M254 94 L254 1381 L107 1381 L107 1475 L563 1475 Q709 1475 801 1459.5 Q893 1444 963 1408 Q1056 1361 1107 1263 Q1158 1165 1158 1035 Q1158 869 1076 759 Q988 640 801 612 Q699 596 563 596 L365 596 L365 94 L543 94 L543 0 L107 0 L107 94 L254 94 Z M365 690 L584 690 Q709 690 788 708 Q867 726 921 767 Q1043 860 1043 1036 Q1043 1211 922 1303 Q853 1356 736 1372 Q672 1381 584 1381 L365 1381 L365 690 Z " />
<glyph glyph-name="afii10035" unicode="&#x421;" horiz-adv-x="1519" d="M1311 312 L1390 244 Q1283 100 1146.5 34.5 Q1010 -31 814 -31 Q454 -31 275 195 Q115 396 115 720 Q115 1084 311 1300 Q407 1406 529.5 1456 Q652 1506 816 1506 Q1098 1506 1251 1375 L1251 1475 L1346 1475 L1346 1062 L1251 1062 L1251 1096 Q1251 1212 1208 1267 Q1158 1331 1050 1369 Q942 1407 812 1407 Q522 1407 367 1197 Q230 1011 230 719 Q230 421 386 240 Q535 68 822 68 Q982 68 1092.5 123 Q1203 178 1311 312 Z " />
<glyph glyph-name="afii10036" unicode="&#x422;" horiz-adv-x="1182" d="M535 94 L535 1381 L146 1381 L146 1103 L51 1103 L51 1475 L1130 1475 L1130 1103 L1035 1103 L1035 1381 L646 1381 L646 94 L828 94 L828 0 L353 0 L353 94 L535 94 Z " />
<glyph glyph-name="afii10037" unicode="&#x423;" horiz-adv-x="1229" d="M582 416 L130 1381 L14 1381 L14 1475 L416 1475 L416 1381 L247 1381 L635 532 L1027 1381 L859 1381 L859 1475 L1251 1475 L1251 1381 L1135 1381 L499 0 L258 0 L258 94 L433 94 L582 416 Z " />
<glyph glyph-name="afii10038" unicode="&#x424;" horiz-adv-x="1856" d="M856 12 L856 134 Q606 145 431 234 Q263 319 183 463 Q115 586 115 737 Q115 950 247 1102 Q399 1278 691 1324 Q762 1335 856 1340 L856 1462 L709 1462 L709 1556 L1113 1556 L1113 1462 L967 1462 L967 1340 Q1253 1329 1424 1241 Q1591 1154 1672 1011 Q1740 888 1740 737 Q1740 525 1608 374 Q1511 261 1353.5 202.5 Q1196 144 967 134 L967 12 L1113 12 L1113 -82 L709 -82 L709 12 L856 12 Z M856 234 L856 1241 Q639 1233 494 1162 Q230 1033 230 737 Q230 416 543 293 Q667 245 856 234 Z M967 232 Q1219 244 1361 314 Q1625 444 1625 737 Q1625 975 1459.5 1102 Q1294 1229 967 1242 L967 232 Z " />
<glyph glyph-name="afii10039" unicode="&#x425;" horiz-adv-x="1276" d="M195 94 L582 767 L231 1381 L57 1381 L57 1475 L509 1475 L509 1381 L355 1381 L649 863 L940 1381 L778 1381 L778 1475 L1215 1475 L1215 1381 L1060 1381 L707 767 L1090 94 L1275 94 L1275 0 L802 0 L802 94 L965 94 L639 669 L316 94 L487 94 L487 0 L3 0 L3 94 L195 94 Z " />
<glyph glyph-name="afii10040" unicode="&#x426;" horiz-adv-x="1440" d="M254 94 L254 1381 L107 1381 L107 1475 L511 1475 L511 1381 L365 1381 L365 94 L1075 94 L1075 1381 L929 1381 L929 1475 L1333 1475 L1333 1381 L1186 1381 L1186 94 L1354 94 L1354 -360 L1266 -360 L1240 0 L107 0 L107 94 L254 94 Z " />
<glyph glyph-name="afii10041" unicode="&#x427;" horiz-adv-x="1374" d="M1009 94 L1009 701 Q902 620 802 585.5 Q702 551 576 551 Q287 551 216 751 Q182 846 182 1066 L182 1381 L55 1381 L55 1475 L438 1475 L438 1381 L293 1381 L293 1020 Q293 823 341 751 Q409 649 597 649 Q715 649 806.5 686 Q898 723 1009 817 L1009 1381 L863 1381 L863 1475 L1267 1475 L1267 1381 L1120 1381 L1120 94 L1267 94 L1267 0 L810 0 L810 94 L1009 94 Z " />
<glyph glyph-name="afii10042" unicode="&#x428;" horiz-adv-x="2040" d="M254 94 L254 1381 L107 1381 L107 1475 L511 1475 L511 1381 L365 1381 L365 94 L965 94 L965 1381 L819 1381 L819 1475 L1222 1475 L1222 1381 L1076 1381 L1076 94 L1675 94 L1675 1381 L1530 1381 L1530 1475 L1933 1475 L1933 1381 L1786 1381 L1786 94 L1933 94 L1933 0 L107 0 L107 94 L254 94 Z " />
<glyph glyph-name="afii10043" unicode="&#x429;" horiz-adv-x="2040" d="M254 94 L254 1381 L107 1381 L107 1475 L511 1475 L511 1381 L365 1381 L365 94 L965 94 L965 1381 L819 1381 L819 1475 L1222 1475 L1222 1381 L1076 1381 L1076 94 L1675 94 L1675 1381 L1530 1381 L1530 1475 L1933 1475 L1933 1381 L1786 1381 L1786 94 L1954 94 L1954 -360 L1866 -360 L1840 0 L107 0 L107 94 L254 94 Z " />
<glyph glyph-name="afii10044" unicode="&#x42a;" horiz-adv-x="1662" d="M624 94 L624 1381 L171 1381 L171 1103 L76 1103 L76 1475 L881 1475 L881 1381 L735 1381 L735 871 L1065 871 Q1200 871 1285 851 Q1370 831 1433 784 Q1587 670 1587 436 Q1587 201 1433 88 Q1370 40 1285 20 Q1200 0 1065 0 L477 0 L477 94 L624 94 Z M735 94 L1041 94 Q1261 94 1366.5 177.5 Q1472 261 1472 436 Q1472 558 1425 629 Q1328 777 1041 777 L735 777 L735 94 Z " />
<glyph glyph-name="afii10045" unicode="&#x42b;" horiz-adv-x="1783" d="M254 94 L254 1381 L107 1381 L107 1475 L511 1475 L511 1381 L365 1381 L365 871 L695 871 Q830 871 915 851 Q1000 831 1063 784 Q1217 670 1217 436 Q1217 201 1063 88 Q1000 40 915 20 Q830 0 695 0 L107 0 L107 94 L254 94 Z M365 94 L671 94 Q891 94 996.5 177.5 Q1102 261 1102 436 Q1102 558 1055 629 Q958 777 671 777 L365 777 L365 94 Z M1414 94 L1414 1381 L1267 1381 L1267 1475 L1672 1475 L1672 1381 L1525 1381 L1525 94 L1672 94 L1672 0 L1267 0 L1267 94 L1414 94 Z " />
<glyph glyph-name="afii10046" unicode="&#x42c;" horiz-adv-x="1292" d="M254 94 L254 1381 L107 1381 L107 1475 L511 1475 L511 1381 L365 1381 L365 871 L695 871 Q830 871 915 851 Q1000 831 1063 784 Q1217 670 1217 436 Q1217 201 1063 88 Q1000 40 915 20 Q830 0 695 0 L107 0 L107 94 L254 94 Z M365 94 L671 94 Q891 94 996.5 177.5 Q1102 261 1102 436 Q1102 558 1055 629 Q958 777 671 777 L365 777 L365 94 Z " />
<glyph glyph-name="afii10047" unicode="&#x42d;" horiz-adv-x="1434" d="M217 272 Q283 190 368 143 Q504 68 664 68 Q1003 68 1133 369 Q1188 497 1198 705 L551 705 L551 799 L1196 799 Q1179 982 1136 1083 Q1048 1291 869 1367 Q776 1407 662 1407 Q545 1407 446.5 1368.5 Q348 1330 305 1267 Q267 1211 267 1096 L267 1062 L173 1062 L173 1475 L267 1475 L267 1375 Q413 1506 655 1506 Q957 1506 1133 1305 Q1313 1099 1313 733 Q1313 442 1204 252 Q1042 -31 657 -31 Q489 -31 366 25.5 Q243 82 139 206 L217 272 Z " />
<glyph glyph-name="afii10048" unicode="&#x42e;" horiz-adv-x="2315" d="M254 94 L254 1381 L107 1381 L107 1475 L511 1475 L511 1381 L365 1381 L365 825 L747 825 Q772 1028 871 1179 Q975 1335 1133 1421 Q1288 1506 1471 1506 Q1783 1506 1996 1276 Q2200 1054 2200 737 Q2200 421 1996 199 Q1783 -31 1471 -31 Q1165 -31 958 185.5 Q751 402 743 731 L365 731 L365 94 L511 94 L511 0 L107 0 L107 94 L254 94 Z M1463 1407 Q1288 1407 1139 1306 Q981 1198 908 1019 Q858 894 858 737 Q858 457 1024 270 Q1204 68 1472 68 Q1739 68 1919 270 Q2085 457 2085 736 Q2085 1021 1919 1205 Q1736 1407 1463 1407 Z " />
<glyph glyph-name="afii10049" unicode="&#x42f;" horiz-adv-x="1311" d="M946 676 L726 676 Q631 676 585.5 665.5 Q540 655 499 625 Q429 572 384 452 L217 0 L-16 0 L-16 94 L128 94 L268 470 Q307 574 341 623 Q375 672 428 702 Q137 784 137 1077 Q137 1229 218 1328 Q304 1436 487 1461 Q584 1475 719 1475 L1204 1475 L1204 1381 L1057 1381 L1057 94 L1204 94 L1204 0 L769 0 L769 94 L946 94 L946 676 Z M946 770 L946 1381 L700 1381 Q448 1381 352 1300 Q252 1216 252 1073 Q252 889 414 813 Q505 770 701 770 L946 770 Z " />
<glyph glyph-name="afii10065" unicode="&#x430;" horiz-adv-x="1130" d="M831 564 L831 616 Q831 756 779 812 Q712 882 526 882 Q384 882 327 830 Q292 796 284 706 L180 706 Q184 846 256 906 Q338 975 527 975 Q766 975 860 882 Q904 839 921.5 774 Q939 709 939 593 L939 94 L1083 94 L1083 0 L832 0 L832 121 Q702 -29 449 -29 Q85 -29 85 263 Q85 464 244 535 Q330 574 549 574 Q602 574 811 565 L831 564 Z M831 469 Q717 482 538 482 Q351 482 284 444 Q195 394 195 268 Q195 167 252 120 Q318 65 461 65 Q686 65 787 196 Q813 230 822 265 Q831 300 831 367 L831 469 Z " />
<glyph glyph-name="afii10066" unicode="&#x431;" horiz-adv-x="1162" d="M211 724 Q315 957 599 957 Q804 957 933 828 Q1071 690 1071 462 Q1071 240 936 103 Q805 -29 592 -29 Q366 -29 243 112 Q102 273 102 633 Q102 922 188 1086 Q274 1250 461 1320 Q545 1351 759 1399 Q819 1412 841.5 1436 Q864 1460 867 1516 L970 1516 Q967 1389 916 1352 Q888 1331 855.5 1321 Q823 1311 716 1288 Q565 1256 490 1226.5 Q415 1197 360 1147 Q289 1083 255.5 987.5 Q222 892 211 724 Z M593 863 Q428 863 328 755.5 Q228 648 228 471 Q228 278 339 166 Q439 65 599 65 Q755 65 853 163 Q961 271 961 462 Q961 655 850 766 Q753 863 593 863 Z " />
<glyph glyph-name="afii10067" unicode="&#x432;" horiz-adv-x="1133" d="M242 94 L242 851 L90 851 L90 945 L636 945 Q825 945 902 905 Q1004 852 1004 712 Q1004 548 850 497 Q1051 454 1051 261 Q1051 109 931 46 Q843 0 650 0 L90 0 L90 94 L242 94 Z M351 538 L580 538 Q750 538 807 566 Q893 609 893 711 Q893 790 835.5 820.5 Q778 851 626 851 L351 851 L351 538 Z M351 94 L618 94 Q784 94 844 120 Q930 157 930 261 Q930 366 858.5 405 Q787 444 595 444 L351 444 L351 94 Z " />
<glyph glyph-name="afii10068" unicode="&#x433;" horiz-adv-x="952" d="M242 94 L242 851 L90 851 L90 945 L911 945 L911 661 L817 661 L817 851 L351 851 L351 94 L563 94 L563 0 L90 0 L90 94 L242 94 Z " />
<glyph glyph-name="afii10069" unicode="&#x434;" horiz-adv-x="1197" d="M1011 0 L94 0 L66 -307 L-11 -307 L-11 94 L114 94 Q300 241 300 760 L300 851 L149 851 L149 945 L1095 945 L1095 851 L943 851 L943 94 L1115 94 L1115 -307 L1038 -307 L1011 0 Z M834 94 L834 851 L408 851 L408 792 Q408 519 368 350 Q328 181 243 94 L834 94 Z " />
<glyph glyph-name="afii10070" unicode="&#x435;" horiz-adv-x="1115" d="M1028 452 L201 452 Q208 328 254 245 Q356 65 578 65 Q768 65 942 196 L1004 115 Q813 -29 575 -29 Q352 -29 217 121 Q90 261 90 473 Q90 684 212 824 Q344 974 561 974 Q773 974 901 831 Q1029 688 1028 452 Z M914 545 Q897 657 847 731 Q746 880 559 880 Q350 880 252 700 Q217 636 205 545 L914 545 Z " />
<glyph glyph-name="afii10072" unicode="&#x436;" horiz-adv-x="1616" d="M754 94 L754 449 L730 449 Q650 449 623 438 Q596 427 541 372 L168 0 L0 0 L0 94 L116 94 L450 430 Q492 472 519 491 L183 851 L60 851 L60 945 L430 945 L430 851 L320 851 L605 539 L754 539 L754 851 L625 851 L625 945 L991 945 L991 851 L862 851 L862 539 L1011 539 L1296 851 L1186 851 L1186 945 L1556 945 L1556 851 L1433 851 L1097 491 Q1124 472 1166 430 L1500 94 L1616 94 L1616 0 L1448 0 L1075 372 Q1020 427 993 438 Q966 449 886 449 L862 449 L862 94 L1014 94 L1014 0 L602 0 L602 94 L754 94 Z " />
<glyph glyph-name="afii10073" unicode="&#x437;" horiz-adv-x="993" d="M127 178 Q277 66 488 66 Q648 66 733 118 Q818 170 818 268 Q818 446 581 446 L354 446 L354 540 L556 540 Q649 540 708 590.5 Q767 641 767 721 Q767 880 518 880 Q355 880 262 819 Q213 786 213 720 L213 686 L119 686 L119 945 L213 945 L213 903 Q343 974 521 974 Q682 974 769 924 Q878 862 878 714 Q878 563 753 504 Q853 469 889 420 Q928 367 928 273 Q928 -29 487 -29 Q243 -29 69 94 L127 178 Z " />
<glyph glyph-name="afii10074" unicode="&#x438;" horiz-adv-x="1288" d="M242 94 L242 851 L90 851 L90 945 L502 945 L502 851 L351 851 L351 133 L921 945 L1198 945 L1198 851 L1046 851 L1046 94 L1198 94 L1198 0 L786 0 L786 94 L937 94 L937 794 L373 0 L90 0 L90 94 L242 94 Z " />
<glyph glyph-name="afii10075" unicode="&#x439;" horiz-adv-x="1288" d="M242 94 L242 851 L90 851 L90 945 L502 945 L502 851 L351 851 L351 133 L921 945 L1198 945 L1198 851 L1046 851 L1046 94 L1198 94 L1198 0 L786 0 L786 94 L937 94 L937 794 L373 0 L90 0 L90 94 L242 94 Z M856 1408 L941 1408 L941 1383 Q937 1148 644 1148 Q351 1148 347 1383 L346 1408 L431 1408 Q439 1322 484 1285 Q534 1242 643 1242 Q751 1242 800 1280 Q849 1318 856 1408 Z " />
<glyph glyph-name="afii10076" unicode="&#x43a;" horiz-adv-x="1149" d="M242 94 L242 851 L90 851 L90 945 L502 945 L502 851 L351 851 L351 539 L544 539 L849 851 L739 851 L739 945 L1116 945 L1116 851 L993 851 L630 491 Q656 473 698 431 L1034 94 L1149 94 L1149 0 L981 0 L614 366 Q553 427 527 438 Q501 449 419 449 L351 449 L351 94 L502 94 L502 0 L90 0 L90 94 L242 94 Z " />
<glyph glyph-name="afii10077" unicode="&#x43b;" horiz-adv-x="1143" d="M99 851 L99 945 L1054 945 L1054 851 L902 851 L902 94 L1054 94 L1054 0 L642 0 L642 94 L794 94 L794 851 L360 851 L360 776 Q360 358 293 183 Q214 -5 13 0 L-41 0 L-41 94 L13 94 Q91 94 137 132.5 Q183 171 209 258 Q251 397 251 776 L251 851 L99 851 Z " />
<glyph glyph-name="afii10078" unicode="&#x43c;" horiz-adv-x="1428" d="M198 94 L278 851 L130 851 L130 945 L425 945 L714 171 L1003 945 L1298 945 L1298 851 L1150 851 L1230 94 L1391 94 L1391 0 L979 0 L979 94 L1129 94 L1055 802 L753 0 L675 0 L373 802 L299 94 L449 94 L449 0 L37 0 L37 94 L198 94 Z " />
<glyph glyph-name="afii10079" unicode="&#x43d;" horiz-adv-x="1276" d="M242 94 L242 851 L90 851 L90 945 L502 945 L502 851 L351 851 L351 538 L925 538 L925 851 L774 851 L774 945 L1186 945 L1186 851 L1034 851 L1034 94 L1186 94 L1186 0 L774 0 L774 94 L925 94 L925 444 L351 444 L351 94 L502 94 L502 0 L90 0 L90 94 L242 94 Z " />
<glyph glyph-name="afii10080" unicode="&#x43e;" horiz-adv-x="1188" d="M602 974 Q825 974 966 824 Q1098 684 1098 472 Q1098 261 966 121 Q825 -29 594 -29 Q363 -29 222 121 Q91 261 91 471 Q91 688 222 824 Q367 974 602 974 Z M589 880 Q403 880 291 747 Q201 639 201 472 Q201 306 291 198 Q402 65 595 65 Q787 65 898 198 Q988 306 988 471 Q988 641 898 747 Q784 880 589 880 Z " />
<glyph glyph-name="afii10081" unicode="&#x43f;" horiz-adv-x="1247" d="M242 94 L242 851 L90 851 L90 945 L1157 945 L1157 851 L1005 851 L1005 94 L1157 94 L1157 0 L745 0 L745 94 L896 94 L896 851 L351 851 L351 94 L502 94 L502 0 L90 0 L90 94 L242 94 Z " />
<glyph glyph-name="afii10082" unicode="&#x440;" horiz-adv-x="1271" d="M226 -328 L226 851 L71 851 L71 945 L332 945 L332 760 Q475 974 717 974 Q932 974 1061 824 Q1180 686 1180 472 Q1180 259 1061 121 Q931 -29 717 -29 Q473 -29 334 184 L334 -328 L515 -328 L515 -422 L71 -422 L71 -328 L226 -328 Z M700 880 Q530 880 425 747 Q334 631 334 472 Q334 314 425 198 Q530 65 705 65 Q883 65 986 197 Q1070 306 1070 471 Q1070 657 970 767 Q867 880 700 880 Z " />
<glyph glyph-name="afii10083" unicode="&#x441;" horiz-adv-x="1020" d="M903 197 L966 116 Q791 -29 553 -29 Q345 -29 221 96 Q91 228 91 463 Q91 697 219 837 Q343 974 552 974 Q714 974 824 883 L824 945 L918 945 L918 641 L824 641 L824 675 Q824 759 781 802 Q700 880 556 880 Q378 880 285 756 Q201 644 201 463 Q201 257 316 153 Q410 66 562 66 Q744 66 903 197 Z " />
<glyph glyph-name="afii10084" unicode="&#x442;" horiz-adv-x="976" d="M434 94 L434 851 L135 851 L135 661 L41 661 L41 945 L935 945 L935 661 L842 661 L842 851 L543 851 L543 94 L756 94 L756 0 L221 0 L221 94 L434 94 Z " />
<glyph glyph-name="afii10085" unicode="&#x443;" horiz-adv-x="1041" d="M117 851 L3 851 L3 945 L437 945 L437 851 L227 851 L495 279 Q503 261 538 182 Q554 225 579 288 L810 851 L614 851 L614 945 L1034 945 L1034 851 L917 851 L477 -211 Q425 -337 361.5 -379 Q298 -421 158 -422 L158 -328 Q261 -326 301 -301 Q349 -270 390 -170 L488 69 L117 851 Z " />
<glyph glyph-name="afii10086" unicode="&#x444;" horiz-adv-x="1517" d="M706 137 Q656 46 597 8.5 Q538 -29 444 -29 Q252 -29 164 124 Q90 253 90 472 Q90 689 162 816 Q252 974 449 974 Q536 974 594.5 939.5 Q653 905 706 821 L706 1381 L583 1381 L583 1475 L810 1475 L810 821 Q864 905 922.5 939.5 Q981 974 1069 974 Q1265 974 1355 816 Q1427 689 1427 472 Q1427 -29 1070 -29 Q978 -29 919 8.5 Q860 46 810 137 L810 -328 L1040 -328 L1040 -422 L477 -422 L477 -328 L706 -328 L706 137 Z M706 427 L706 532 Q706 659 664 746 Q599 880 449 880 Q323 880 260 769 Q200 663 200 472 Q200 308 243 208 Q305 65 441 65 Q563 65 634.5 162.5 Q706 260 706 427 Z M810 532 L810 427 Q810 296 855 205 Q923 65 1076 65 Q1195 65 1257 173 Q1317 278 1317 471 Q1317 663 1257 769 Q1193 880 1069 880 Q947 880 878.5 787.5 Q810 695 810 532 Z " />
<glyph glyph-name="afii10087" unicode="&#x445;" horiz-adv-x="1090" d="M491 503 L214 851 L55 851 L55 945 L497 945 L497 853 L333 853 L556 564 L797 853 L633 853 L633 945 L1063 945 L1063 851 L914 851 L613 501 L936 94 L1085 94 L1085 0 L623 0 L623 94 L817 94 L549 440 L273 94 L465 94 L465 0 L6 0 L6 94 L159 94 L491 503 Z " />
<glyph glyph-name="afii10088" unicode="&#x446;" horiz-adv-x="1260" d="M242 94 L242 851 L90 851 L90 945 L502 945 L502 851 L351 851 L351 94 L896 94 L896 851 L745 851 L745 945 L1157 945 L1157 851 L1005 851 L1005 94 L1177 94 L1177 -307 L1100 -307 L1073 0 L90 0 L90 94 L242 94 Z " />
<glyph glyph-name="afii10089" unicode="&#x447;" horiz-adv-x="1150" d="M799 94 L799 425 Q663 321 451 321 Q214 321 139 464 Q103 533 103 701 L103 851 L-36 851 L-36 945 L376 945 L376 851 L212 851 L212 663 Q212 534 264 476 Q320 415 470 415 Q670 415 799 539 L799 851 L648 851 L648 945 L1060 945 L1060 851 L908 851 L908 94 L1060 94 L1060 0 L648 0 L648 94 L799 94 Z " />
<glyph glyph-name="afii10090" unicode="&#x448;" horiz-adv-x="1747" d="M242 94 L242 851 L90 851 L90 945 L502 945 L502 851 L351 851 L351 94 L819 94 L819 851 L668 851 L668 945 L1079 945 L1079 851 L928 851 L928 94 L1396 94 L1396 851 L1245 851 L1245 945 L1657 945 L1657 851 L1505 851 L1505 94 L1657 94 L1657 0 L90 0 L90 94 L242 94 Z " />
<glyph glyph-name="afii10091" unicode="&#x449;" horiz-adv-x="1759" d="M242 94 L242 851 L90 851 L90 945 L502 945 L502 851 L351 851 L351 94 L819 94 L819 851 L668 851 L668 945 L1079 945 L1079 851 L928 851 L928 94 L1396 94 L1396 851 L1245 851 L1245 945 L1657 945 L1657 851 L1505 851 L1505 94 L1677 94 L1677 -307 L1600 -307 L1573 0 L90 0 L90 94 L242 94 Z " />
<glyph glyph-name="afii10092" unicode="&#x44a;" horiz-adv-x="1325" d="M463 94 L463 851 L135 851 L135 661 L41 661 L41 945 L785 945 L785 851 L572 851 L572 592 L852 592 Q1079 592 1163 534 Q1264 463 1264 295 Q1264 117 1142 48 Q1057 0 852 0 L311 0 L311 94 L463 94 Z M572 94 L821 94 Q999 94 1063 123 Q1153 164 1153 297 Q1153 441 1049 476 Q984 498 821 498 L572 498 L572 94 Z " />
<glyph glyph-name="afii10093" unicode="&#x44b;" horiz-adv-x="1627" d="M242 94 L242 851 L90 851 L90 945 L563 945 L563 851 L351 851 L351 592 L630 592 Q857 592 941 534 Q1042 463 1042 295 Q1042 117 920 48 Q835 0 630 0 L90 0 L90 94 L242 94 Z M351 94 L599 94 Q777 94 841 123 Q931 164 931 297 Q931 441 827 476 Q762 498 599 498 L351 498 L351 94 Z M1260 94 L1260 851 L1109 851 L1109 945 L1521 945 L1521 851 L1369 851 L1369 94 L1521 94 L1521 0 L1109 0 L1109 94 L1260 94 Z " />
<glyph glyph-name="afii10094" unicode="&#x44c;" horiz-adv-x="1104" d="M242 94 L242 851 L90 851 L90 945 L563 945 L563 851 L351 851 L351 592 L630 592 Q857 592 941 534 Q1042 463 1042 295 Q1042 117 920 48 Q835 0 630 0 L90 0 L90 94 L242 94 Z M351 94 L599 94 Q777 94 841 123 Q931 164 931 297 Q931 441 827 476 Q762 498 599 498 L351 498 L351 94 Z " />
<glyph glyph-name="afii10095" unicode="&#x44d;" horiz-adv-x="1036" d="M832 529 L831 541 Q827 616 790.5 693.5 Q754 771 702 813 Q618 880 494 880 Q345 880 259 802 Q212 760 212 675 L212 641 L119 641 L119 945 L212 945 L212 883 Q335 974 495 974 Q687 974 806 855 Q946 716 946 462 Q946 207 804 79 Q685 -28 480 -28 Q363 -28 276 7 Q189 42 96 127 L165 203 Q301 66 477 66 Q647 66 734 156 Q821 246 835 435 L332 435 L332 529 L832 529 Z " />
<glyph glyph-name="afii10096" unicode="&#x44e;" horiz-adv-x="1644" d="M242 94 L242 851 L90 851 L90 945 L351 945 L351 538 L588 538 Q600 662 665 764 Q800 974 1069 974 Q1291 974 1427 824 Q1554 684 1554 472 Q1554 261 1427 121 Q1291 -29 1069 -29 Q894 -29 770 66 Q596 201 585 444 L351 444 L351 94 L502 94 L502 0 L90 0 L90 94 L242 94 Z M1063 880 Q886 880 780 747 Q694 639 694 472 Q694 306 780 198 Q886 65 1069 65 Q1252 65 1358 198 Q1444 306 1444 471 Q1444 640 1358 747 Q1251 880 1063 880 Z " />
<glyph glyph-name="afii10097" unicode="&#x44f;" horiz-adv-x="1204" d="M854 416 L528 416 Q472 416 452 397 Q432 378 366 260 L219 0 L23 0 L23 94 L148 94 L272 315 Q326 416 366 444 Q177 503 177 689 Q177 831 291 900 Q365 945 528 945 L1115 945 L1115 851 L963 851 L963 94 L1115 94 L1115 0 L703 0 L703 94 L854 94 L854 416 Z M854 510 L854 851 L556 851 Q400 851 344 811 Q288 771 288 687 Q288 597 349.5 553.5 Q411 510 536 510 L854 510 Z " />
<glyph glyph-name="uni0450" unicode="&#x450;" horiz-adv-x="1115" d="M1028 452 L201 452 Q208 328 254 245 Q356 65 578 65 Q768 65 942 196 L1004 115 Q813 -29 575 -29 Q352 -29 217 121 Q90 261 90 473 Q90 684 212 824 Q344 974 561 974 Q773 974 901 831 Q1029 688 1028 452 Z M914 545 Q897 657 847 731 Q746 880 559 880 Q350 880 252 700 Q217 636 205 545 L914 545 Z M596 1104 L326 1452 L467 1452 L681 1104 L596 1104 Z " />
<glyph glyph-name="afii10071" unicode="&#x451;" horiz-adv-x="1115" d="M1028 452 L201 452 Q208 328 254 245 Q356 65 578 65 Q768 65 942 196 L1004 115 Q813 -29 575 -29 Q352 -29 217 121 Q90 261 90 473 Q90 684 212 824 Q344 974 561 974 Q773 974 901 831 Q1029 688 1028 452 Z M914 545 Q897 657 847 731 Q746 880 559 880 Q350 880 252 700 Q217 636 205 545 L914 545 Z M324 1183 L324 1336 L461 1336 L461 1183 L324 1183 Z M658 1183 L658 1336 L795 1336 L795 1183 L658 1183 Z " />
<glyph glyph-name="afii10099" unicode="&#x452;" horiz-adv-x="1223" d="M234 94 L234 1138 L77 1138 L77 1223 L234 1223 L234 1383 L77 1383 L77 1475 L342 1475 L342 1223 L656 1223 L656 1138 L342 1138 L342 757 Q456 876 547 925 Q638 974 743 974 Q913 974 980 846 Q1007 795 1016 735.5 Q1025 676 1025 549 L1025 -21 Q1037 -412 737 -422 L737 -328 Q849 -315 885 -245 Q904 -207 910.5 -160 Q917 -113 917 -6 L917 554 Q917 700 896 763 Q860 871 721 871 Q608 871 487 775 Q419 721 342 630 L342 94 L492 94 L492 0 L77 0 L77 94 L234 94 Z " />
<glyph glyph-name="afii10100" unicode="&#x453;" horiz-adv-x="952" d="M242 94 L242 851 L90 851 L90 945 L911 945 L911 661 L817 661 L817 851 L351 851 L351 94 L563 94 L563 0 L90 0 L90 94 L242 94 Z M442 1104 L656 1452 L817 1452 L527 1104 L442 1104 Z " />
<glyph glyph-name="afii10101" unicode="&#x454;" horiz-adv-x="1020" d="M710 540 L710 446 L201 446 Q205 301 271 204 Q365 65 563 65 Q745 65 903 196 L966 116 Q791 -29 553 -29 Q345 -29 221 96 Q91 228 91 464 Q91 695 214 837 Q332 974 539 974 Q708 974 824 883 L824 945 L918 945 L918 641 L824 641 L824 675 Q824 759 778 802 Q692 880 542 880 Q399 880 312 792.5 Q225 705 206 540 L710 540 Z " />
<glyph glyph-name="afii10102" unicode="&#x455;" horiz-adv-x="949" d="M97 0 L97 292 L190 292 L190 258 Q190 177 241 137 Q334 64 506 64 Q623 64 690 105 Q767 153 767 253 Q767 338 707 384 Q681 404 631.5 417 Q582 430 454 449 Q330 468 273 488 Q216 508 178 545 Q112 610 112 710 Q112 830 199.5 902 Q287 974 432 974 Q586 974 696 886 L696 945 L789 945 L789 667 L696 667 L696 689 Q696 769 651 809 Q568 881 430 881 Q330 881 274 837 Q218 793 218 714 Q218 637 285 597 Q329 570 479 547 Q623 526 684.5 507 Q746 488 787 454 Q872 383 872 253 Q872 116 777.5 43.5 Q683 -29 502 -29 Q315 -29 190 59 L190 0 L97 0 Z " />
<glyph glyph-name="afii10103" unicode="&#x456;" horiz-adv-x="572" d="M244 94 L244 851 L85 851 L85 945 L352 945 L352 94 L503 94 L503 0 L85 0 L85 94 L244 94 Z M223 1184 L223 1332 L370 1332 L370 1184 L223 1184 Z " />
<glyph glyph-name="afii10104" unicode="&#x457;" horiz-adv-x="572" d="M244 94 L244 851 L86 851 L86 945 L352 945 L352 94 L503 94 L503 0 L85 0 L85 94 L244 94 Z M51 1183 L51 1336 L188 1336 L188 1183 L51 1183 Z M385 1183 L385 1336 L522 1336 L522 1183 L385 1183 Z " />
<glyph glyph-name="afii10105" unicode="&#x458;" horiz-adv-x="534" d="M59 851 L59 945 L331 945 L331 -75 Q343 -414 42 -422 L42 -328 Q155 -318 191 -259 Q210 -228 216.5 -188.5 Q223 -149 223 -59 L223 851 L59 851 Z M201 1184 L201 1332 L348 1332 L348 1184 L201 1184 Z " />
<glyph glyph-name="afii10106" unicode="&#x459;" horiz-adv-x="1655" d="M793 94 L793 851 L360 851 L360 776 Q360 359 293 183 Q214 -5 13 0 L-41 0 L-41 94 L13 94 Q159 91 209 259 Q251 398 251 776 L251 851 L99 851 L99 945 L1115 945 L1115 851 L902 851 L902 592 L1182 592 Q1409 592 1493 534 Q1594 463 1594 295 Q1594 134 1501 67 Q1408 0 1182 0 L642 0 L642 94 L793 94 Z M902 94 L1151 94 Q1329 94 1393 123 Q1483 164 1483 297 Q1483 441 1379 476 Q1314 498 1151 498 L902 498 L902 94 Z " />
<glyph glyph-name="afii10107" unicode="&#x45a;" horiz-adv-x="1788" d="M242 94 L242 851 L90 851 L90 945 L502 945 L502 851 L351 851 L351 563 L925 563 L925 851 L774 851 L774 945 L1247 945 L1247 851 L1034 851 L1034 563 L1314 563 Q1541 563 1624 511 Q1726 447 1726 292 Q1726 133 1632.5 66.5 Q1539 0 1314 0 L774 0 L774 94 L925 94 L925 469 L351 469 L351 94 L502 94 L502 0 L90 0 L90 94 L242 94 Z M1034 94 L1283 94 Q1461 94 1525 123 Q1615 164 1615 291 Q1615 398 1549 433.5 Q1483 469 1283 469 L1034 469 L1034 94 Z " />
<glyph glyph-name="afii10108" unicode="&#x45b;" horiz-adv-x="1188" d="M234 1138 L77 1138 L77 1223 L234 1223 L234 1383 L77 1383 L77 1475 L342 1475 L342 1223 L656 1223 L656 1138 L342 1138 L342 757 Q456 876 547 925 Q638 974 743 974 Q913 974 980 846 Q1007 795 1016 735.5 Q1025 676 1025 549 L1025 94 L1182 94 L1182 0 L772 0 L772 94 L917 94 L917 554 Q917 700 897 763 Q861 871 720 871 Q608 871 487 775 Q419 721 342 630 L342 94 L492 94 L492 0 L77 0 L77 94 L234 94 L234 1138 Z " />
<glyph glyph-name="afii10109" unicode="&#x45c;" horiz-adv-x="1149" d="M242 94 L242 851 L90 851 L90 945 L502 945 L502 851 L351 851 L351 539 L544 539 L849 851 L739 851 L739 945 L1116 945 L1116 851 L993 851 L630 491 Q656 473 698 431 L1034 94 L1149 94 L1149 0 L981 0 L614 366 Q553 427 527 438 Q501 449 419 449 L351 449 L351 94 L502 94 L502 0 L90 0 L90 94 L242 94 Z M540 1104 L754 1452 L916 1452 L625 1104 L540 1104 Z " />
<glyph glyph-name="uni045D" unicode="&#x45d;" horiz-adv-x="1288" d="M242 94 L242 851 L90 851 L90 945 L502 945 L502 851 L351 851 L351 133 L921 945 L1198 945 L1198 851 L1046 851 L1046 94 L1198 94 L1198 0 L786 0 L786 94 L937 94 L937 794 L373 0 L90 0 L90 94 L242 94 Z M661 1104 L391 1452 L532 1452 L746 1104 L661 1104 Z " />
<glyph glyph-name="afii10110" unicode="&#x45e;" horiz-adv-x="1041" d="M117 851 L3 851 L3 945 L437 945 L437 851 L227 851 L495 279 Q503 261 538 182 Q554 225 579 288 L810 851 L614 851 L614 945 L1034 945 L1034 851 L917 851 L477 -211 Q425 -337 361.5 -379 Q298 -421 158 -422 L158 -328 Q261 -326 301 -301 Q349 -270 390 -170 L488 69 L117 851 Z M733 1408 L818 1408 L818 1383 Q814 1148 521 1148 Q227 1148 224 1383 L223 1408 L308 1408 Q315 1322 360 1285 Q411 1242 519 1242 Q628 1242 676.5 1280 Q725 1318 733 1408 Z " />
<glyph glyph-name="afii10193" unicode="&#x45f;" horiz-adv-x="1247" d="M242 94 L242 851 L90 851 L90 945 L502 945 L502 851 L351 851 L351 94 L897 94 L897 851 L745 851 L745 945 L1157 945 L1157 851 L1006 851 L1006 94 L1157 94 L1157 0 L686 0 L659 -307 L588 -307 L561 0 L90 0 L90 94 L242 94 Z " />
<glyph glyph-name="uni0462" unicode="&#x462;" horiz-adv-x="1516" d="M589 1456 L589 1287 L1060 1287 L1060 999 L965 999 L965 1193 L589 1193 L589 795 L919 795 Q1147 795 1274 722 Q1441 626 1441 398 Q1441 168 1274 72 Q1148 0 919 0 L331 0 L331 94 L478 94 L478 1193 L168 1193 L168 979 L73 979 L73 1287 L478 1287 L478 1456 L330 1456 L330 1550 L737 1550 L737 1456 L589 1456 Z M589 94 L894 94 Q1094 94 1200 155 Q1326 228 1326 397 Q1326 567 1200 640 Q1094 701 894 701 L589 701 L589 94 Z " />
<glyph glyph-name="uni0463" unicode="&#x463;" horiz-adv-x="1218" d="M319 851 L108 851 L108 717 L8 717 L8 945 L319 945 L319 1285 L167 1285 L167 1379 L428 1379 L428 945 L825 945 L825 717 L725 717 L725 851 L428 851 L428 592 L707 592 Q934 592 1018 534 Q1119 463 1119 293 Q1119 148 1042 80 Q951 0 707 0 L167 0 L167 94 L319 94 L319 851 Z M428 94 L676 94 Q823 94 895 115 Q1009 147 1009 295 Q1009 431 920 470 Q856 498 676 498 L428 498 L428 94 Z " />
<glyph glyph-name="afii10050" unicode="&#x490;" horiz-adv-x="1123" d="M254 94 L254 1381 L107 1381 L107 1475 L958 1475 L991 1835 L1080 1835 L1080 1103 L985 1103 L985 1381 L365 1381 L365 94 L572 94 L572 0 L107 0 L107 94 L254 94 Z " />
<glyph glyph-name="afii10098" unicode="&#x491;" horiz-adv-x="952" d="M242 94 L242 851 L90 851 L90 945 L806 945 L832 1245 L911 1245 L911 661 L817 661 L817 851 L351 851 L351 94 L563 94 L563 0 L90 0 L90 94 L242 94 Z " />
<glyph glyph-name="uni0492" unicode="&#x492;" horiz-adv-x="1123" d="M254 94 L254 730 L30 730 L30 823 L254 823 L254 1381 L107 1381 L107 1475 L1080 1475 L1080 1103 L985 1103 L985 1381 L365 1381 L365 823 L811 823 L811 730 L365 730 L365 94 L572 94 L572 0 L107 0 L107 94 L254 94 Z " />
<glyph glyph-name="uni0493" unicode="&#x493;" horiz-adv-x="952" d="M242 94 L242 383 L73 383 L73 477 L242 477 L242 851 L90 851 L90 945 L911 945 L911 661 L817 661 L817 851 L351 851 L351 477 L575 477 L575 383 L351 383 L351 94 L563 94 L563 0 L90 0 L90 94 L242 94 Z " />
<glyph glyph-name="uni0496" unicode="&#x496;" horiz-adv-x="1943" d="M916 94 L916 735 L834 735 Q755 735 713 722.5 Q671 710 631 676 Q557 611 480 461 L243 0 L6 0 L6 94 L153 94 L386 520 Q453 643 501 700 Q549 757 617 793 L161 1381 L47 1381 L47 1475 L451 1475 L451 1381 L291 1381 L716 829 L916 829 L916 1381 L770 1381 L770 1475 L1173 1475 L1173 1381 L1027 1381 L1027 829 L1227 829 L1650 1381 L1491 1381 L1491 1475 L1895 1475 L1895 1381 L1781 1381 L1326 793 Q1393 757 1441 700 Q1489 643 1556 520 L1789 94 L1937 94 L1937 -360 L1848 -360 L1821 0 L1699 0 L1462 461 Q1378 625 1307 680 Q1236 735 1109 735 L1027 735 L1027 94 L1173 94 L1173 0 L770 0 L770 94 L916 94 Z " />
<glyph glyph-name="uni0497" unicode="&#x497;" horiz-adv-x="1616" d="M754 94 L754 449 L730 449 Q650 449 623 438 Q596 427 541 372 L168 0 L0 0 L0 94 L116 94 L450 430 Q492 472 519 491 L183 851 L60 851 L60 945 L430 945 L430 851 L320 851 L605 539 L754 539 L754 851 L625 851 L625 945 L991 945 L991 851 L862 851 L862 539 L1011 539 L1296 851 L1186 851 L1186 945 L1556 945 L1556 851 L1433 851 L1097 491 Q1124 472 1166 430 L1500 94 L1616 94 L1616 -307 L1538 -307 L1511 0 L1448 0 L1075 372 Q1020 427 993 438 Q966 449 886 449 L862 449 L862 94 L1014 94 L1014 0 L602 0 L602 94 L754 94 Z " />
<glyph glyph-name="uni0498" unicode="&#x498;" horiz-adv-x="1313" d="M629 -30 Q318 -27 102 126 L154 216 Q358 69 637 69 Q1085 69 1085 415 Q1085 724 701 724 L443 724 L443 818 L651 818 Q792 818 890 874 Q1028 952 1028 1123 Q1028 1250 942 1324 Q848 1407 674 1407 Q557 1407 455 1368 Q353 1329 308 1267 Q268 1212 268 1096 L268 1062 L174 1062 L174 1475 L268 1475 L268 1375 Q349 1445 444.5 1475.5 Q540 1506 674 1506 Q937 1506 1057 1376 Q1143 1283 1143 1128 Q1143 1007 1096 926 Q1049 845 946 786 Q1020 764 1062 736.5 Q1104 709 1138 661 Q1200 571 1200 425 Q1200 1 710 -28 L669 -101 Q755 -105 792 -119 Q894 -159 894 -274 Q894 -364 832.5 -412.5 Q771 -461 656 -461 Q559 -461 423 -424 L423 -323 Q569 -372 656 -372 Q791 -372 791 -276 Q791 -184 645 -184 Q625 -184 584 -187 L571 -143 L629 -30 Z " />
<glyph glyph-name="uni0499" unicode="&#x499;" horiz-adv-x="1042" d="M481 -30 Q233 -28 69 93 L127 177 Q276 65 488 65 Q648 65 733 117 Q818 169 818 267 Q818 446 581 446 L354 446 L354 540 L556 540 Q649 540 708 590.5 Q767 641 767 721 Q767 880 518 880 Q355 880 262 819 Q212 786 212 720 L212 686 L119 686 L119 945 L212 945 L212 903 Q342 974 521 974 Q682 974 769 924 Q878 862 878 714 Q878 563 753 504 Q853 469 889 420 Q928 367 928 273 Q928 55 699 -5 Q630 -23 562 -27 L520 -102 Q606 -106 643 -120 Q745 -160 745 -275 Q745 -365 684 -413.5 Q623 -462 508 -462 Q415 -462 273 -424 L273 -324 Q421 -373 507 -373 Q642 -373 642 -277 Q642 -185 496 -185 Q486 -185 435 -188 L422 -144 L481 -30 Z " />
<glyph glyph-name="uni049A" unicode="&#x49a;" horiz-adv-x="1350" d="M254 94 L254 1381 L107 1381 L107 1475 L511 1475 L511 1381 L365 1381 L365 829 L673 829 L1059 1381 L900 1381 L900 1475 L1303 1475 L1303 1381 L1190 1381 L770 792 Q829 760 875 701.5 Q921 643 983 520 L1197 94 L1345 94 L1345 -360 L1256 -360 L1230 0 L1108 0 L888 461 Q810 624 743 679.5 Q676 735 558 735 L365 735 L365 94 L511 94 L511 0 L107 0 L107 94 L254 94 Z " />
<glyph glyph-name="uni049B" unicode="&#x49b;" horiz-adv-x="1149" d="M242 94 L242 851 L90 851 L90 945 L502 945 L502 851 L351 851 L351 539 L544 539 L849 851 L739 851 L739 945 L1116 945 L1116 851 L993 851 L630 491 Q656 473 698 431 L1034 94 L1149 94 L1149 -307 L1073 -307 L1045 0 L981 0 L614 366 Q553 427 527 438 Q501 449 419 449 L351 449 L351 94 L502 94 L502 0 L90 0 L90 94 L242 94 Z " />
<glyph glyph-name="uni049C" unicode="&#x49c;" horiz-adv-x="1350" d="M550 735 L365 735 L365 94 L511 94 L511 0 L107 0 L107 94 L254 94 L254 1381 L107 1381 L107 1475 L511 1475 L511 1381 L365 1381 L365 829 L550 829 L550 1088 L640 1088 L640 829 L672 829 L1059 1381 L900 1381 L900 1475 L1303 1475 L1303 1381 L1190 1381 L770 792 Q832 758 875 703.5 Q918 649 983 520 L1197 94 L1345 94 L1345 0 L1108 0 L888 461 Q819 604 768 659.5 Q717 715 640 728 L640 451 L550 451 L550 735 Z " />
<glyph glyph-name="uni049D" unicode="&#x49d;" horiz-adv-x="1149" d="M457 448 Q428 449 419 449 L351 449 L351 94 L502 94 L502 0 L90 0 L90 94 L242 94 L242 851 L90 851 L90 945 L502 945 L502 851 L351 851 L351 539 L457 539 L457 720 L538 720 L538 539 L543 539 L849 851 L739 851 L739 945 L1116 945 L1116 851 L993 851 L630 491 Q657 472 698 431 L1034 94 L1149 94 L1149 0 L981 0 L614 366 Q560 420 538 432 L538 262 L457 262 L457 448 Z " />
<glyph glyph-name="uni04A2" unicode="&#x4a2;" horiz-adv-x="1485" d="M254 94 L254 1381 L107 1381 L107 1475 L511 1475 L511 1381 L365 1381 L365 825 L1120 825 L1120 1381 L974 1381 L974 1475 L1378 1475 L1378 1381 L1231 1381 L1231 94 L1399 94 L1399 -360 L1310 -360 L1284 0 L974 0 L974 94 L1120 94 L1120 731 L365 731 L365 94 L511 94 L511 0 L107 0 L107 94 L254 94 Z " />
<glyph glyph-name="uni04A3" unicode="&#x4a3;" horiz-adv-x="1288" d="M242 94 L242 851 L90 851 L90 945 L502 945 L502 851 L351 851 L351 538 L925 538 L925 851 L774 851 L774 945 L1186 945 L1186 851 L1034 851 L1034 94 L1206 94 L1206 -307 L1129 -307 L1102 0 L774 0 L774 94 L925 94 L925 444 L351 444 L351 94 L502 94 L502 0 L90 0 L90 94 L242 94 Z " />
<glyph glyph-name="uni04AA" unicode="&#x4aa;" horiz-adv-x="1519" d="M1311 311 L1390 244 Q1194 -32 819 -31 L779 -102 Q865 -106 902 -120 Q1004 -160 1004 -275 Q1004 -365 943 -413.5 Q882 -462 767 -462 Q679 -462 533 -424 L533 -324 Q546 -329 553 -331 Q682 -373 767 -373 Q902 -373 902 -277 Q902 -185 764 -185 Q732 -185 695 -188 L681 -144 L741 -28 Q512 -12 367 103 Q116 303 116 720 Q116 1083 312 1300 Q408 1406 531 1456 Q654 1506 818 1506 Q1099 1506 1252 1375 L1252 1475 L1346 1475 L1346 1062 L1251 1062 L1251 1096 Q1251 1212 1208 1267 Q1158 1331 1050 1369 Q942 1407 812 1407 Q523 1407 368 1197 Q231 1011 231 719 Q231 421 387 240 Q536 68 822 68 Q1016 68 1159 162 Q1227 207 1311 311 Z " />
<glyph glyph-name="uni04AB" unicode="&#x4ab;" horiz-adv-x="1020" d="M903 197 L966 117 Q797 -24 570 -28 L529 -101 Q616 -105 653 -119 Q755 -159 755 -274 Q755 -364 693.5 -412.5 Q632 -461 517 -461 Q428 -461 283 -424 L283 -324 Q296 -328 303 -330 Q432 -372 518 -372 Q653 -372 653 -277 Q653 -184 506 -184 Q486 -184 445 -187 L431 -143 L492 -25 Q361 -10 273 52 Q91 182 91 463 Q91 697 219 837 Q343 974 553 974 Q715 974 825 883 L825 945 L918 945 L918 641 L824 641 L824 675 Q824 759 780 802 Q700 880 556 880 Q378 880 285 756 Q201 644 201 463 Q201 257 316 153 Q410 66 562 66 Q744 66 903 197 Z " />
<glyph glyph-name="uni04AE" unicode="&#x4ae;" horiz-adv-x="1082" d="M485 94 L485 669 L123 1381 L-22 1381 L-22 1475 L413 1475 L413 1381 L244 1381 L544 788 L842 1381 L675 1381 L675 1475 L1101 1475 L1101 1381 L955 1381 L596 669 L596 94 L770 94 L770 0 L310 0 L310 94 L485 94 Z " />
<glyph glyph-name="uni04AF" unicode="&#x4af;" horiz-adv-x="1041" d="M487 -328 L487 17 L116 851 L3 851 L3 945 L437 945 L437 851 L226 851 L538 122 L810 851 L614 851 L614 945 L1034 945 L1034 851 L917 851 L595 17 L595 -328 L777 -328 L777 -422 L332 -422 L332 -328 L487 -328 Z " />
<glyph glyph-name="uni04B0" unicode="&#x4b0;" horiz-adv-x="1082" d="M485 94 L485 576 L248 576 L248 670 L485 670 L123 1381 L-22 1381 L-22 1475 L413 1475 L413 1381 L245 1381 L544 788 L842 1381 L675 1381 L675 1475 L1101 1475 L1101 1381 L955 1381 L596 670 L831 670 L831 576 L596 576 L596 94 L771 94 L771 0 L310 0 L310 94 L485 94 Z " />
<glyph glyph-name="uni04B1" unicode="&#x4b1;" horiz-adv-x="1041" d="M487 -328 L487 0 L290 0 L290 82 L458 82 L117 851 L3 851 L3 945 L437 945 L437 851 L227 851 L538 122 L810 851 L614 851 L614 945 L1035 945 L1035 851 L918 851 L620 82 L792 82 L792 0 L595 0 L595 -328 L777 -328 L777 -422 L332 -422 L332 -328 L487 -328 Z " />
<glyph glyph-name="uni04B2" unicode="&#x4b2;" horiz-adv-x="1276" d="M582 767 L231 1381 L57 1381 L57 1475 L509 1475 L509 1381 L355 1381 L649 863 L940 1381 L778 1381 L778 1475 L1215 1475 L1215 1381 L1060 1381 L707 767 L1090 94 L1275 94 L1275 -360 L1188 -360 L1162 0 L802 0 L802 94 L965 94 L639 669 L316 94 L487 94 L487 0 L3 0 L3 94 L195 94 L582 767 Z " />
<glyph glyph-name="uni04B3" unicode="&#x4b3;" horiz-adv-x="1090" d="M491 503 L214 851 L55 851 L55 945 L497 945 L497 853 L333 853 L556 564 L797 853 L633 853 L633 945 L1063 945 L1063 851 L914 851 L613 501 L936 94 L1105 94 L1105 -307 L1028 -307 L1001 0 L623 0 L623 94 L817 94 L549 440 L273 94 L465 94 L465 0 L6 0 L6 94 L159 94 L491 503 Z " />
<glyph glyph-name="uni04B6" unicode="&#x4b6;" horiz-adv-x="1374" d="M1120 94 L1287 94 L1287 -360 L1199 -360 L1173 0 L810 0 L810 94 L1009 94 L1009 701 Q902 620 802 585.5 Q702 551 576 551 Q287 551 216 751 Q182 846 182 1066 L182 1381 L55 1381 L55 1475 L438 1475 L438 1381 L293 1381 L293 1020 Q293 823 341 751 Q409 649 597 649 Q715 649 806.5 686 Q898 723 1009 817 L1009 1381 L863 1381 L863 1475 L1267 1475 L1267 1381 L1120 1381 L1120 94 Z " />
<glyph glyph-name="uni04B7" unicode="&#x4b7;" horiz-adv-x="1150" d="M799 94 L799 425 Q663 321 451 321 Q214 321 139 464 Q103 533 103 701 L103 851 L-36 851 L-36 945 L376 945 L376 851 L212 851 L212 663 Q212 534 264 476 Q320 415 470 415 Q670 415 799 539 L799 851 L648 851 L648 945 L1060 945 L1060 851 L908 851 L908 94 L1080 94 L1080 -307 L1003 -307 L976 0 L648 0 L648 94 L799 94 Z " />
</font>
</svg>
