<?xml version="1.0" encoding="UTF-8"?>
<svg xmlns="http://www.w3.org/2000/svg" xmlns:xlink="http://www.w3.org/1999/xlink" version="1.2" >
<font id="A1 Serif">
<font-face  font-family="A1 Serif" units-per-em="2048" ascent="1536" descent="-512" font-style="normal" font-weight="400" font-stretch="normal" cap-height="1475" x-height="969" underline-position="-351" underline-thickness="142" />
<missing-glyph  horiz-adv-x="573" d="M57 0 L57 1475 L516 1475 L516 0 L57 0 Z M459 57 L459 1418 L114 1418 L114 57 L459 57 Z " />
<glyph glyph-name="space" unicode="&#x20;" horiz-adv-x="573" d="" />
<glyph glyph-name="exclam" unicode="&#x21;" horiz-adv-x="625" d="M207 0 L207 215 L411 215 L411 0 L207 0 Z M228 388 L205 1475 L409 1475 L386 388 L228 388 Z " />
<glyph glyph-name="quotedbl" unicode="&#x22;" horiz-adv-x="603" d="M95 908 L95 1475 L229 1475 L229 908 L95 908 Z M374 908 L374 1475 L508 1475 L508 908 L374 908 Z " />
<glyph glyph-name="numbersign" unicode="&#x23;" horiz-adv-x="1147" d="M245 464 L56 464 L75 601 L264 601 L299 848 L110 848 L129 985 L318 985 L385 1462 L543 1462 L476 985 L744 985 L811 1462 L968 1462 L901 985 L1091 985 L1071 848 L882 848 L847 601 L1037 601 L1017 464 L828 464 L763 0 L605 0 L671 464 L403 464 L337 0 L180 0 L245 464 Z M422 601 L690 601 L725 848 L457 848 L422 601 Z " />
<glyph glyph-name="dollar" unicode="&#x24;" horiz-adv-x="1147" d="M64 0 L64 440 L220 440 L220 406 Q220 267 318 205 Q392 158 515 141 L515 699 Q391 733 340.5 752.5 Q290 772 241 802 Q96 893 96 1096 Q96 1331 285 1434 Q367 1479 515 1486 L515 1641 L633 1641 L633 1481 Q644 1478 650 1477 Q726 1459 763 1441.5 Q800 1424 847 1385 L847 1475 L988 1475 L988 1044 L841 1044 L841 1071 Q841 1178 794 1235 Q747 1292 633 1324 L633 846 Q753 814 805 794 Q857 774 906 742 Q1073 631 1073 412 Q1073 269 1001 162 Q897 7 633 -15 L633 -170 L515 -170 L515 -8 Q398 4 340 22.5 Q282 41 212 88 L212 0 L64 0 Z M515 879 L515 1338 Q410 1330 357 1292 Q267 1229 267 1112 Q267 1020 319 971 Q371 922 515 879 Z M633 663 L633 135 Q749 155 796 189 Q900 265 900 399 Q900 525 809 591 Q768 620 675 649 Q644 659 633 663 Z " />
<glyph glyph-name="percent" unicode="&#x25;" horiz-adv-x="1685" d="M436 1506 Q591 1506 695 1395 Q789 1296 789 1155 Q789 1015 695 916 Q591 805 431 805 Q272 805 168 916 Q74 1016 74 1155 Q74 1298 168 1395 Q275 1506 436 1506 Z M429 1370 Q344 1370 286.5 1308 Q229 1246 229 1155 Q229 1064 287 1002.5 Q345 941 431 941 Q523 941 581 1009 Q634 1070 634 1156 Q634 1249 575.5 1309.5 Q517 1370 429 1370 Z M315 0 L1218 1475 L1370 1475 L467 0 L315 0 Z M1258 670 Q1413 670 1517 559 Q1611 460 1611 319 Q1611 180 1517 80 Q1413 -31 1254 -31 Q1094 -31 990 80 Q896 180 896 319 Q896 462 990 559 Q1097 670 1258 670 Z M1251 534 Q1166 534 1108.5 472 Q1051 410 1051 320 Q1051 228 1109 166.5 Q1167 105 1253 105 Q1345 105 1403 173 Q1456 234 1456 319 Q1456 412 1398 473 Q1340 534 1251 534 Z " />
<glyph glyph-name="ampersand" unicode="&#x26;" horiz-adv-x="1309" d="M648 844 L945 435 Q1003 589 1050 803 L1213 803 Q1137 462 1049 293 L1262 0 L1070 0 L953 163 Q942 150 937 144 Q878 78 858 60.5 Q838 43 794 20 Q695 -32 563 -32 Q364 -32 246 65 Q106 181 106 386 Q106 483 141 558 Q176 633 258 712 Q297 750 438 866 Q343 989 310 1057.5 Q277 1126 277 1198 Q277 1329 365 1417 Q454 1506 592 1506 Q733 1506 823 1414 Q909 1327 909 1205 Q909 1079 788 964 Q757 935 648 844 Z M559 964 Q675 1053 712.5 1100.5 Q750 1148 750 1205 Q750 1272 705 1316 Q660 1360 592 1360 Q526 1360 481 1316.5 Q436 1273 436 1209 Q436 1161 457.5 1117.5 Q479 1074 559 964 Z M528 746 Q415 656 372 612 Q283 520 283 401 Q283 269 364 193 Q442 119 573 119 Q691 119 774 189 Q794 207 858 292 L528 746 Z " />
<glyph glyph-name="quotesingle" unicode="&#x27;" horiz-adv-x="321" d="M94 908 L94 1475 L228 1475 L228 908 L94 908 Z " />
<glyph glyph-name="parenleft" unicode="&#x28;" horiz-adv-x="819" d="M662 -432 L499 -432 Q211 37 211 531 Q211 1022 499 1485 L662 1485 Q540 1274 480 1091 Q390 820 390 531 Q390 274 454 47 Q518 -180 662 -432 Z " />
<glyph glyph-name="parenright" unicode="&#x29;" horiz-adv-x="819" d="M320 -432 L157 -432 Q279 -217 339 -34 Q429 240 429 531 Q429 786 364.5 1011.5 Q300 1237 157 1485 L320 1485 Q608 1020 608 531 Q608 39 320 -432 Z " />
<glyph glyph-name="asterisk" unicode="&#x2a;" horiz-adv-x="1147" d="M168 1164 L219 1312 L502 1211 L497 1507 L649 1507 L644 1211 L926 1310 L979 1163 L685 1080 L883 833 L754 740 L573 999 L391 741 L262 832 L460 1080 L168 1164 Z " />
<glyph glyph-name="plus" unicode="&#x2b;" horiz-adv-x="1147" d="M142 661 L142 813 L498 813 L498 1188 L650 1188 L650 813 L1006 813 L1006 661 L650 661 L650 285 L498 285 L498 661 L142 661 Z " />
<glyph glyph-name="comma" unicode="&#x2c;" horiz-adv-x="573" d="M76 -273 L217 221 L426 221 L249 -273 L76 -273 Z " />
<glyph glyph-name="hyphen" unicode="&#x2d;" horiz-adv-x="716" d="M88 478 L88 629 L628 629 L628 478 L88 478 Z " />
<glyph glyph-name="period" unicode="&#x2e;" horiz-adv-x="573" d="M186 0 L186 221 L390 221 L390 0 L186 0 Z " />
<glyph glyph-name="slash" unicode="&#x2f;" horiz-adv-x="791" d="M63 -188 L590 1495 L722 1495 L195 -188 L63 -188 Z " />
<glyph glyph-name="zero" unicode="0" horiz-adv-x="1147" d="M580 1504 Q749 1504 871 1378 Q1064 1178 1064 738 Q1064 432 969 240 Q836 -29 573 -29 Q288 -29 159 281 Q82 465 82 738 Q82 1043 177 1235 Q310 1504 580 1504 Z M569 1349 Q423 1349 341 1187 Q259 1025 259 737 Q259 480 323 327 Q407 126 573 126 Q722 126 804.5 287 Q887 448 887 739 Q887 995 823 1148 Q739 1349 569 1349 Z " />
<glyph glyph-name="one" unicode="1" horiz-adv-x="1147" d="M506 151 L506 1305 L202 1176 L152 1307 L534 1475 L680 1475 L680 151 L977 151 L977 0 L201 0 L201 151 L506 151 Z " />
<glyph glyph-name="two" unicode="2" horiz-adv-x="1147" d="M76 0 Q91 157 179.5 283 Q268 409 554 680 Q640 762 680 808 Q720 854 752 907 Q805 998 805 1090 Q805 1208 734 1280 Q662 1353 544 1353 Q291 1353 249 1030 L83 1030 Q106 1215 170 1313 Q293 1504 545 1504 Q734 1504 855 1399 Q987 1285 987 1093 Q987 922 882 784 Q808 686 618 510 Q449 354 399.5 296.5 Q350 239 310 151 L875 151 L875 408 L1031 408 L1031 0 L76 0 Z " />
<glyph glyph-name="three" unicode="3" horiz-adv-x="1147" d="M400 703 L400 841 Q576 840 669 878 Q824 941 824 1105 Q824 1215 749.5 1283.5 Q675 1352 556 1352 Q327 1352 280 1118 L110 1118 Q131 1264 208 1357 Q328 1504 560 1504 Q769 1504 888 1387 Q998 1279 998 1111 Q998 987 939.5 907 Q881 827 755 778 Q886 738 956 657 Q1047 554 1047 402 Q1047 195 901 75 Q776 -29 560 -29 Q117 -29 78 401 L248 401 Q264 265 343.5 194.5 Q423 124 560 124 Q686 124 764 186 Q867 267 867 406 Q867 599 666 669 Q574 702 400 703 Z " />
<glyph glyph-name="four" unicode="4" horiz-adv-x="1147" d="M460 0 L460 151 L691 151 L691 391 L90 391 L90 548 L486 1475 L673 1475 L268 543 L691 543 L691 1039 L858 1039 L858 543 L1095 543 L1095 391 L858 391 L858 151 L1072 151 L1072 0 L460 0 Z " />
<glyph glyph-name="five" unicode="5" horiz-adv-x="1147" d="M71 401 L241 401 Q253 301 302 234 Q382 124 542 124 Q687 124 775 224 Q855 315 855 448 Q855 594 767 683 Q684 769 548 769 Q470 769 409.5 742.5 Q349 716 269 646 L149 718 L197 1475 L953 1475 L953 1122 L797 1122 L797 1322 L356 1322 L322 847 Q441 922 575 922 Q759 922 879 821 Q1035 689 1035 453 Q1035 238 905 106 Q771 -29 539 -29 Q326 -29 208.5 79.5 Q91 188 71 401 Z " />
<glyph glyph-name="six" unicode="6" horiz-adv-x="1147" d="M293 799 Q366 877 432.5 908 Q499 939 595 939 Q780 939 899 826 Q1040 692 1040 462 Q1040 236 909 99 Q786 -29 578 -29 Q337 -29 211 152 Q109 300 109 605 Q109 1015 224 1253 Q345 1504 612 1504 Q789 1504 891 1407 Q993 1310 1010 1126 L841 1126 Q824 1219 792 1264 Q730 1351 608 1351 Q510 1351 448 1293.5 Q386 1236 346 1107 Q315 1009 293 799 Z M572 786 Q441 786 365 698 Q288 608 288 458 Q288 304 365.5 214.5 Q443 125 576 125 Q713 125 785 213 Q863 309 863 455 Q863 607 786 698 Q711 786 572 786 Z " />
<glyph glyph-name="seven" unicode="7" horiz-adv-x="1147" d="M846 1322 L294 1322 L294 1113 L138 1113 L138 1475 L1022 1475 L1022 1337 L514 0 L320 0 L846 1322 Z " />
<glyph glyph-name="eight" unicode="8" horiz-adv-x="1147" d="M352 783 Q261 824 213 881 Q139 970 139 1106 Q139 1290 262 1399 Q379 1504 573 1504 Q783 1504 902 1382 Q1006 1274 1006 1106 Q1006 989 954.5 910.5 Q903 832 793 783 Q898 744 966 669 Q1059 565 1059 404 Q1059 204 921 85 Q789 -29 573 -29 Q339 -29 206 101 Q86 219 86 403 Q86 541 154.5 638.5 Q223 736 352 783 Z M569 1352 Q444 1352 375.5 1286 Q307 1220 307 1100 Q307 982 376.5 916.5 Q446 851 572 851 Q699 851 768.5 916.5 Q838 982 838 1101 Q838 1222 768.5 1287 Q699 1352 569 1352 Z M569 701 Q429 701 346.5 624.5 Q264 548 264 417 Q264 276 354 198 Q435 127 572 127 Q722 127 805 210 Q881 287 881 418 Q881 554 791 631 Q709 701 569 701 Z " />
<glyph glyph-name="nine" unicode="9" horiz-adv-x="1147" d="M852 710 Q778 635 712 606 Q646 577 549 577 Q371 577 257 670 Q103 796 103 1034 Q103 1250 234 1381 Q358 1504 563 1504 Q807 1504 931 1332 Q986 1256 1011 1147.5 Q1036 1039 1036 879 Q1036 479 953 255 Q849 -29 539 -29 Q306 -29 198 118 Q131 208 117 349 L286 349 Q307 244 350 196 Q415 124 541 124 Q653 124 717 185 Q781 246 814 385 Q846 520 852 710 Z M564 1350 Q433 1350 359 1267 Q280 1180 280 1037 Q280 895 357 812.5 Q434 730 568 730 Q705 730 780 812 Q857 897 857 1037 Q857 1184 779 1267 Q701 1350 564 1350 Z " />
<glyph glyph-name="colon" unicode="&#x3a;" horiz-adv-x="574" d="M186 0 L186 221 L390 221 L390 0 L186 0 Z M186 636 L186 857 L390 857 L390 636 L186 636 Z " />
<glyph glyph-name="semicolon" unicode="&#x3b;" horiz-adv-x="574" d="M194 636 L194 857 L398 857 L398 636 L194 636 Z M53 -273 L194 221 L403 221 L226 -273 L53 -273 Z " />
<glyph glyph-name="less" unicode="&#x3c;" horiz-adv-x="1147" d="M317 737 L1005 364 L1005 196 L138 682 L138 792 L1005 1278 L1005 1110 L317 737 Z " />
<glyph glyph-name="equal" unicode="&#x3d;" horiz-adv-x="1147" d="M142 493 L142 646 L1006 646 L1006 493 L142 493 Z M142 827 L142 980 L1006 980 L1006 827 L142 827 Z " />
<glyph glyph-name="greater" unicode="&#x3e;" horiz-adv-x="1147" d="M830 737 L142 1110 L142 1278 L1009 792 L1009 682 L142 196 L142 364 L830 737 Z " />
<glyph glyph-name="question" unicode="&#x3f;" horiz-adv-x="1015" d="M367 0 L367 215 L571 215 L571 0 L367 0 Z M387 389 L387 797 Q545 798 630 842 Q768 914 768 1078 Q768 1197 692 1274 Q613 1353 497 1353 Q359 1353 284 1241 Q243 1179 224 1052 L59 1052 Q71 1159 91 1219 Q111 1279 153 1339 Q274 1508 501 1508 Q692 1508 815 1390 Q945 1267 945 1069 Q945 888 823 777 Q770 729 709 703.5 Q648 678 547 662 L547 389 L387 389 Z " />
<glyph glyph-name="at" unicode="&#x40;" horiz-adv-x="2139" d="M1343 374 Q1231 214 1026 214 Q850 214 741 331 Q636 444 636 625 Q636 807 741 920 Q848 1034 1022 1034 Q1218 1034 1328 884 L1334 1026 L1475 1026 L1475 498 Q1475 429 1490 397 Q1514 345 1598 345 Q1722 345 1784 453 Q1843 554 1843 717 Q1843 1027 1635 1201 Q1429 1373 1097 1373 Q691 1373 472 1108 Q297 897 297 587 Q297 271 472 104 Q696 -108 1148 -108 Q1497 -108 1812 13 L1864 -116 Q1684 -187 1518.5 -217.5 Q1353 -248 1147 -248 Q822 -248 606 -157 Q122 46 122 585 Q122 960 355 1215 Q627 1513 1096 1513 Q1459 1513 1703 1339 Q1874 1216 1956 1030 Q2017 890 2017 728 Q2017 492 1907 357 Q1852 289 1766 251 Q1680 213 1582 213 Q1477 213 1420 251 Q1363 289 1343 374 Z M1045 896 Q938 896 872 822 Q805 748 805 624 Q805 501 872 427 Q939 352 1051 352 Q1172 352 1247 437 Q1313 512 1313 623 Q1313 746 1239 821 Q1165 896 1045 896 Z " />
<glyph glyph-name="A" unicode="A" horiz-adv-x="1460" d="M1043 434 L410 434 L306 151 L467 151 L467 0 L0 0 L0 151 L122 151 L626 1475 L824 1475 L1334 151 L1460 151 L1460 0 L987 0 L987 151 L1149 151 L1043 434 Z M987 582 L723 1296 L465 582 L987 582 Z " />
<glyph glyph-name="B" unicode="B" horiz-adv-x="1332" d="M226 151 L226 1324 L82 1324 L82 1475 L665 1475 Q897 1475 1021 1383 Q1148 1289 1148 1109 Q1148 897 942 804 Q1062 777 1133 699 Q1229 593 1229 431 Q1229 201 1051 87 Q917 0 658 0 L82 0 L82 151 L226 151 Z M401 867 L661 867 Q805 867 882 921 Q968 980 968 1094 Q968 1205 887 1266.5 Q806 1328 659 1328 L401 1328 L401 867 Z M401 147 L618 147 Q826 147 924 208 Q1045 282 1045 434 Q1045 570 949.5 645.5 Q854 721 683 721 L401 721 L401 147 Z " />
<glyph glyph-name="C" unicode="C" horiz-adv-x="1476" d="M1263 348 L1377 227 Q1281 111 1173 54 Q1013 -31 799 -31 Q438 -31 257 190 Q92 390 92 722 Q92 1081 286 1297 Q472 1506 789 1506 Q1029 1506 1185 1391 L1185 1475 L1333 1475 L1333 1044 L1177 1044 L1177 1071 Q1177 1172 1128 1228 Q1079 1284 990 1315.5 Q901 1347 792 1347 Q538 1347 401 1161 Q276 991 276 723 Q276 451 417 286 Q549 130 803 130 Q982 130 1119 216 Q1170 249 1263 348 Z " />
<glyph glyph-name="D" unicode="D" horiz-adv-x="1496" d="M226 151 L226 1324 L82 1324 L82 1475 L613 1475 Q961 1475 1166 1307 Q1403 1112 1403 738 Q1403 363 1166 168 Q961 0 613 0 L82 0 L82 151 L226 151 Z M406 151 L601 151 Q873 151 1033 281 Q1219 432 1219 737 Q1219 1042 1034 1194 Q874 1324 601 1324 L406 1324 L406 151 Z " />
<glyph glyph-name="E" unicode="E" horiz-adv-x="1211" d="M226 151 L226 1324 L82 1324 L82 1475 L1104 1475 L1104 1116 L948 1116 L948 1324 L406 1324 L406 842 L892 842 L892 691 L406 691 L406 151 L958 151 L958 400 L1114 400 L1114 0 L82 0 L82 151 L226 151 Z " />
<glyph glyph-name="F" unicode="F" horiz-adv-x="1141" d="M226 151 L226 1324 L82 1324 L82 1475 L1103 1475 L1103 1116 L947 1116 L947 1324 L406 1324 L406 831 L892 831 L892 680 L406 680 L406 151 L589 151 L589 0 L82 0 L82 151 L226 151 Z " />
<glyph glyph-name="G" unicode="G" horiz-adv-x="1663" d="M806 571 L806 722 L1482 722 L1482 59 Q1220 -31 888 -31 Q625 -31 451 63 Q273 160 181 338 Q92 508 92 730 Q92 1106 346 1329 Q545 1505 861 1505 Q1121 1505 1284 1391 L1284 1475 L1432 1475 L1432 1044 L1276 1044 L1276 1071 Q1276 1170 1226 1226 Q1175 1284 1082 1315.5 Q989 1347 871 1347 Q596 1347 437 1177 Q276 1006 276 732 Q276 451 447 282 Q604 127 900 127 Q1105 127 1314 193 L1314 571 L806 571 Z " />
<glyph glyph-name="H" unicode="H" horiz-adv-x="1473" d="M226 151 L226 1324 L82 1324 L82 1475 L557 1475 L557 1324 L406 1324 L406 851 L1066 851 L1066 1324 L915 1324 L915 1475 L1390 1475 L1390 1324 L1246 1324 L1246 151 L1390 151 L1390 0 L915 0 L915 151 L1066 151 L1066 700 L406 700 L406 151 L557 151 L557 0 L82 0 L82 151 L226 151 Z " />
<glyph glyph-name="I" unicode="I" horiz-adv-x="639" d="M229 151 L229 1324 L85 1324 L85 1475 L554 1475 L554 1324 L409 1324 L409 151 L554 151 L554 0 L85 0 L85 151 L229 151 Z " />
<glyph glyph-name="J" unicode="J" horiz-adv-x="634" d="M230 1324 L79 1324 L79 1475 L554 1475 L554 1324 L410 1324 L410 135 Q410 -1 390.5 -76 Q371 -151 321 -204 Q239 -292 43 -300 L43 -149 Q152 -140 189 -91 Q213 -58 221.5 -13 Q230 32 230 124 L230 1324 Z " />
<glyph glyph-name="K" unicode="K" horiz-adv-x="1264" d="M226 151 L226 1324 L82 1324 L82 1475 L543 1475 L543 1324 L406 1324 L406 791 L896 1324 L767 1324 L767 1475 L1211 1475 L1211 1324 L1104 1324 L603 784 L1131 151 L1270 151 L1270 0 L785 0 L785 151 L916 151 L406 761 L406 151 L537 151 L537 0 L82 0 L82 151 L226 151 Z " />
<glyph glyph-name="L" unicode="L" horiz-adv-x="1151" d="M226 151 L226 1324 L82 1324 L82 1475 L566 1475 L566 1324 L406 1324 L406 151 L922 151 L922 412 L1078 412 L1078 0 L82 0 L82 151 L226 151 Z " />
<glyph glyph-name="M" unicode="M" horiz-adv-x="1810" d="M191 151 L273 1324 L128 1324 L128 1475 L507 1475 L853 468 Q878 397 906 268 Q930 386 956 462 L1305 1475 L1680 1475 L1680 1324 L1535 1324 L1617 151 L1746 151 L1746 0 L1303 0 L1303 151 L1441 151 L1388 1023 Q1387 1047 1381 1246 Q1333 1068 1319 1028 L967 0 L842 0 L490 1026 L426 1246 Q421 1050 420 1024 L366 151 L506 151 L506 0 L62 0 L62 151 L191 151 Z " />
<glyph glyph-name="N" unicode="N" horiz-adv-x="1456" d="M226 151 L226 1324 L82 1324 L82 1475 L427 1475 L985 528 Q1002 498 1072 356 Q1067 487 1067 551 L1067 1324 L914 1324 L914 1475 L1379 1475 L1379 1324 L1235 1324 L1235 -24 L1110 -24 L463 1085 Q456 1098 388 1238 Q394 1107 394 1081 L394 151 L544 151 L544 0 L82 0 L82 151 L226 151 Z " />
<glyph glyph-name="O" unicode="O" horiz-adv-x="1714" d="M867 1506 Q1091 1506 1280 1382 Q1468 1259 1557 1055 Q1621 907 1621 738 Q1621 439 1431 223 Q1318 95 1163 30 Q1020 -31 856 -31 Q621 -31 433 93 Q247 215 157 421 Q92 569 92 736 Q92 1042 283 1252 Q514 1506 867 1506 Z M849 1348 Q601 1348 432 1165 Q276 995 276 737 Q276 481 432 310 Q601 127 857 127 Q1112 127 1281 310 Q1437 481 1437 736 Q1437 999 1281 1165 Q1108 1348 849 1348 Z " />
<glyph glyph-name="P" unicode="P" horiz-adv-x="1238" d="M226 151 L226 1324 L82 1324 L82 1475 L574 1475 Q730 1475 824 1457.5 Q918 1440 989 1397 Q1080 1342 1128.5 1244.5 Q1177 1147 1177 1020 Q1177 790 1030.5 680.5 Q884 571 575 571 L406 571 L406 151 L589 151 L589 0 L82 0 L82 151 L226 151 Z M406 719 L580 719 Q782 719 876 784 Q993 864 993 1024 Q993 1178 884 1257 Q791 1324 585 1324 L406 1324 L406 719 Z " />
<glyph glyph-name="Q" unicode="Q" horiz-adv-x="1714" d="M481 -302 L426 -156 Q525 -84 587 -57 Q649 -30 736 -21 Q533 10 379 132 Q232 249 157 421 Q92 569 92 738 Q92 1037 283 1252 Q396 1380 550 1445 Q693 1506 856 1506 Q1092 1506 1280 1383 Q1467 1260 1557 1055 Q1621 908 1621 738 Q1621 439 1431 224 Q1255 26 1004 -17 Q955 -25 864 -29 Q927 -44 1070 -107 Q1220 -174 1294 -174 Q1374 -174 1469 -120 L1520 -268 Q1399 -332 1285 -332 Q1228 -332 1173 -317 Q1118 -302 1012 -257 Q887 -204 842.5 -190 Q798 -176 753 -176 Q638 -176 481 -302 Z M849 1348 Q601 1348 432 1165 Q276 996 276 738 Q276 482 432 311 Q601 128 857 128 Q1112 128 1281 311 Q1437 482 1437 737 Q1437 999 1281 1165 Q1108 1348 849 1348 Z " />
<glyph glyph-name="R" unicode="R" horiz-adv-x="1296" d="M226 151 L226 1324 L82 1324 L82 1475 L606 1475 Q753 1475 836 1461 Q919 1447 984 1411 Q1070 1363 1117 1272 Q1164 1181 1164 1064 Q1164 878 1042 773 Q1004 741 896 693 Q951 663 982.5 616.5 Q1014 570 1051 463 L1161 151 L1299 151 L1299 0 L1009 0 L888 371 Q859 460 839 498 Q819 536 784 573 Q748 609 697.5 623 Q647 637 550 637 L406 637 L406 151 L577 151 L577 0 L82 0 L82 151 L226 151 Z M406 785 L588 785 Q783 785 866 837 Q980 907 980 1056 Q980 1202 873 1272 Q793 1324 601 1324 L406 1324 L406 785 Z " />
<glyph glyph-name="S" unicode="S" horiz-adv-x="1234" d="M110 0 L110 440 L266 440 L266 406 Q266 302 316 242 Q362 188 446 157.5 Q530 127 633 127 Q805 127 896 206 Q980 279 980 398 Q980 512 891 583 Q852 613 786 637.5 Q720 662 582 697 Q412 739 336 772 Q260 805 211 857 Q126 948 126 1097 Q126 1275 238 1385 Q360 1506 578 1506 Q785 1506 910 1391 L910 1475 L1058 1475 L1058 1044 L902 1044 L902 1071 Q902 1172 863 1231 Q828 1284 752.5 1316 Q677 1348 587 1348 Q450 1348 374 1278 Q303 1212 303 1112 Q303 1002 393 944 Q457 903 663 854 Q835 813 916.5 777.5 Q998 742 1055 684 Q1160 577 1160 411 Q1160 216 1036 97 Q901 -31 637 -31 Q408 -31 258 84 L258 0 L110 0 Z " />
<glyph glyph-name="T" unicode="T" horiz-adv-x="1213" d="M516 151 L516 1324 L194 1324 L194 1085 L38 1085 L38 1475 L1174 1475 L1174 1085 L1018 1085 L1018 1324 L696 1324 L696 151 L892 151 L892 0 L321 0 L321 151 L516 151 Z " />
<glyph glyph-name="U" unicode="U" horiz-adv-x="1436" d="M72 1324 L72 1475 L547 1475 L547 1324 L396 1324 L396 566 Q396 367 445 271 Q517 130 718 130 Q918 130 991 271 Q1040 366 1040 566 L1040 1324 L889 1324 L889 1475 L1364 1475 L1364 1324 L1220 1324 L1220 623 Q1220 432 1203.5 335 Q1187 238 1143 165 Q1024 -31 718 -31 Q413 -31 293 165 Q249 238 232.5 335.5 Q216 433 216 623 L216 1324 L72 1324 Z " />
<glyph glyph-name="V" unicode="V" horiz-adv-x="1257" d="M-10 1324 L-10 1475 L479 1475 L479 1324 L314 1324 L580 494 Q615 384 633 302 Q656 409 684 496 L950 1324 L787 1324 L787 1475 L1269 1475 L1269 1324 L1130 1324 L687 -33 L577 -33 L127 1324 L-10 1324 Z " />
<glyph glyph-name="W" unicode="W" horiz-adv-x="1907" d="M5 1324 L5 1475 L495 1475 L495 1324 L322 1324 L540 558 Q564 472 597 334 Q635 491 654 556 L917 1495 L1010 1495 L1275 554 Q1301 460 1328 334 Q1358 464 1388 572 L1600 1324 L1437 1324 L1437 1475 L1903 1475 L1903 1324 L1772 1324 L1380 -32 L1272 -32 L1008 910 Q985 992 962 1112 Q936 993 914 915 L645 -32 L534 -32 L138 1324 L5 1324 Z " />
<glyph glyph-name="X" unicode="X" horiz-adv-x="1292" d="M171 151 L545 761 L200 1324 L44 1324 L44 1475 L544 1475 L544 1324 L405 1324 L658 893 L904 1324 L763 1324 L763 1475 L1246 1475 L1246 1324 L1100 1324 L751 758 L1121 151 L1287 151 L1287 0 L772 0 L772 151 L917 151 L639 627 L367 151 L513 151 L513 0 L-2 0 L-2 151 L171 151 Z " />
<glyph glyph-name="Y" unicode="Y" horiz-adv-x="1153" d="M484 151 L484 671 L112 1324 L-16 1324 L-16 1475 L466 1475 L466 1324 L319 1324 L583 835 L846 1324 L701 1324 L701 1475 L1164 1475 L1164 1324 L1032 1324 L664 669 L664 151 L845 151 L845 0 L303 0 L303 151 L484 151 Z " />
<glyph glyph-name="Z" unicode="Z" horiz-adv-x="1143" d="M49 0 L49 143 L820 1324 L247 1324 L247 1085 L91 1085 L91 1475 L1051 1475 L1051 1359 L265 151 L897 151 L897 406 L1053 406 L1053 0 L49 0 Z " />
<glyph glyph-name="bracketleft" unicode="&#x5b;" horiz-adv-x="819" d="M287 -422 L287 1475 L649 1475 L649 1338 L466 1338 L466 -280 L649 -280 L649 -422 L287 -422 Z " />
<glyph glyph-name="backslash" unicode="&#x5c;" horiz-adv-x="791" d="M580 -188 L53 1495 L185 1495 L712 -188 L580 -188 Z " />
<glyph glyph-name="bracketright" unicode="&#x5d;" horiz-adv-x="819" d="M170 -422 L170 -280 L353 -280 L353 1338 L170 1338 L170 1475 L532 1475 L532 -422 L170 -422 Z " />
<glyph glyph-name="asciicircum" unicode="&#x5e;" horiz-adv-x="1147" d="M573 1334 L244 905 L59 905 L489 1475 L658 1475 L1088 905 L903 905 L573 1334 Z " />
<glyph glyph-name="underscore" unicode="&#x5f;" horiz-adv-x="1024" d="M-6 -422 L-6 -271 L1030 -271 L1030 -422 L-6 -422 Z " />
<glyph glyph-name="grave" unicode="&#x60;" horiz-adv-x="1024" d="M525 1118 L246 1467 L442 1467 L649 1118 L525 1118 Z " />
<glyph glyph-name="a" unicode="a" horiz-adv-x="1175" d="M792 582 L792 630 Q792 749 751 793 Q695 853 534 853 Q412 853 365 809 Q335 780 327 702 L164 702 Q169 862 255 930 Q341 998 537 998 Q799 998 895 888 Q936 841 952.5 775.5 Q969 710 969 593 L969 151 L1117 151 L1117 0 L806 0 L806 111 Q681 -29 443 -29 Q270 -29 173 45 Q75 120 75 277 Q75 469 221 545 Q311 592 521 592 Q610 592 792 582 Z M795 444 Q682 456 529 456 Q374 456 319 423 Q250 381 250 283 Q250 200 300 161 Q354 119 473 119 Q665 119 753 220 Q778 248 786.5 277 Q795 306 795 363 L795 444 Z " />
<glyph glyph-name="b" unicode="b" horiz-adv-x="1224" d="M160 0 L160 1324 L10 1324 L10 1475 L334 1475 L334 828 Q378 880 408 906 Q518 998 681 998 Q889 998 1018 852 Q1142 712 1142 485 Q1142 257 1018 117 Q889 -29 680 -29 Q461 -29 321 152 L314 0 L160 0 Z M649 847 Q504 847 414 733 Q334 632 334 484 Q334 338 414 236 Q503 122 654 122 Q804 122 891 235 Q965 332 965 484 Q965 649 881 746 Q793 847 649 847 Z " />
<glyph glyph-name="c" unicode="c" horiz-adv-x="1027" d="M897 248 L990 127 Q820 -29 559 -29 Q341 -29 215 95 Q80 229 80 474 Q80 711 203 854 Q327 998 536 998 Q686 998 796 914 L796 969 L933 969 L933 637 L785 637 L785 667 Q785 747 745 784 Q678 848 559 848 Q409 848 330 741 Q257 642 257 479 Q257 303 351 207 Q432 123 572 123 Q749 123 897 248 Z " />
<glyph glyph-name="d" unicode="d" horiz-adv-x="1274" d="M900 0 L900 151 Q850 93 821 68 Q708 -29 541 -29 Q333 -29 204 117 Q80 258 80 485 Q80 712 204 852 Q333 998 541 998 Q652 998 733.5 958 Q815 918 888 828 L888 1324 L718 1324 L718 1475 L1062 1475 L1062 151 L1210 151 L1210 0 L900 0 Z M563 847 Q428 847 341 746 Q257 648 257 485 Q257 332 331 235 Q418 122 568 122 Q719 122 808 236 Q888 338 888 483 Q888 646 798 746.5 Q708 847 563 847 Z " />
<glyph glyph-name="e" unicode="e" horiz-adv-x="1136" d="M1060 435 L260 435 Q273 328 311 267 Q401 122 593 122 Q688 122 770.5 149.5 Q853 177 955 243 L1041 113 Q826 -30 591 -30 Q355 -30 215 117 Q79 259 79 485 Q79 711 213 853 Q348 998 574 998 Q758 998 883 893 Q1058 746 1060 435 Z M875 574 Q858 672 816 731 Q730 851 570 851 Q394 851 311 708 Q279 652 264 574 L875 574 Z " />
<glyph glyph-name="f" unicode="f" horiz-adv-x="689" d="M219 151 L219 818 L65 818 L65 969 L219 975 L219 1102 Q219 1305 297.5 1397 Q376 1489 548 1489 Q632 1489 710 1475 L699 1330 Q623 1342 571 1342 Q506 1342 469.5 1322 Q433 1302 415 1255 Q393 1202 393 1096 L393 969 L637 969 L637 818 L393 818 L393 151 L598 151 L598 0 L65 0 L65 151 L219 151 Z " />
<glyph glyph-name="g" unicode="g" horiz-adv-x="1273" d="M888 154 Q842 102 811 77 Q702 -11 542 -11 Q333 -11 204 131 Q80 268 80 489 Q80 710 201 850 Q330 998 543 998 Q659 998 740.5 957 Q822 916 900 818 L900 969 L1224 969 L1224 818 L1062 818 L1062 95 Q1062 -157 990 -272 Q878 -452 575 -452 Q361 -452 263 -378.5 Q165 -305 158 -139 L322 -139 Q330 -214 366 -250 Q423 -306 579 -306 Q772 -306 840 -186 Q867 -139 877.5 -81 Q888 -23 888 81 L888 154 Z M563 847 Q428 847 341 747 Q257 651 257 490 Q257 342 331 249 Q418 140 568 140 Q718 140 808 248 Q888 344 888 486 Q888 647 797.5 747 Q707 847 563 847 Z " />
<glyph glyph-name="h" unicode="h" horiz-adv-x="1267" d="M218 151 L218 1324 L68 1324 L68 1475 L392 1475 L392 816 Q501 918 582.5 958 Q664 998 763 998 Q942 998 1011 868 Q1039 816 1049.5 750 Q1060 684 1060 561 L1060 151 L1208 151 L1208 0 L751 0 L751 151 L886 151 L886 570 Q886 691 866 747 Q833 839 718 839 Q639 839 569.5 796.5 Q500 754 392 640 L392 151 L532 151 L532 0 L68 0 L68 151 L218 151 Z " />
<glyph glyph-name="i" unicode="i" horiz-adv-x="606" d="M230 151 L230 818 L79 818 L79 969 L404 969 L404 151 L551 151 L551 0 L73 0 L73 151 L230 151 Z M216 1164 L216 1368 L415 1368 L415 1164 L216 1164 Z " />
<glyph glyph-name="j" unicode="j" horiz-adv-x="581" d="M69 818 L69 969 L396 969 L396 -33 Q396 -155 377 -222 Q358 -289 311 -336 Q232 -414 51 -422 L51 -271 Q150 -263 185 -219 Q207 -191 214.5 -154 Q222 -117 222 -38 L222 818 L69 818 Z M208 1164 L208 1368 L407 1368 L407 1164 L208 1164 Z " />
<glyph glyph-name="k" unicode="k" horiz-adv-x="1085" d="M216 151 L216 1324 L65 1324 L65 1475 L390 1475 L390 562 L710 829 L588 829 L588 969 L1025 969 L1025 820 L912 820 L592 548 L989 151 L1098 151 L1098 0 L674 0 L674 143 L785 143 L390 544 L390 143 L517 143 L517 0 L65 0 L65 151 L216 151 Z " />
<glyph glyph-name="l" unicode="l" horiz-adv-x="603" d="M226 151 L226 1324 L75 1324 L75 1475 L400 1475 L400 151 L547 151 L547 0 L69 0 L69 151 L226 151 Z " />
<glyph glyph-name="m" unicode="m" horiz-adv-x="1834" d="M225 151 L225 818 L75 818 L75 969 L396 969 L396 813 Q486 900 526 927 Q631 998 740 998 Q843 998 901 951 Q959 904 991 796 Q1084 890 1132 923 Q1243 998 1356 998 Q1520 998 1582 868 Q1627 775 1627 561 L1627 151 L1775 151 L1775 0 L1324 0 L1324 151 L1453 151 L1453 570 Q1453 690 1436 746 Q1409 839 1310 839 Q1225 839 1129 760 Q1097 734 1013 640 L1013 151 L1156 151 L1156 0 L710 0 L710 151 L839 151 L839 570 Q839 690 822 746 Q795 839 696 839 Q627 839 560.5 794 Q494 749 399 639 L399 151 L533 151 L533 0 L75 0 L75 151 L225 151 Z " />
<glyph glyph-name="n" unicode="n" horiz-adv-x="1274" d="M225 151 L225 818 L75 818 L75 969 L399 969 L399 813 Q496 900 539 927 Q652 998 771 998 Q951 998 1019 868 Q1047 815 1057.5 749.5 Q1068 684 1068 561 L1068 151 L1216 151 L1216 0 L759 0 L759 151 L894 151 L894 570 Q894 691 874 747 Q841 839 726 839 Q647 839 574.5 794.5 Q502 750 399 639 L399 151 L539 151 L539 0 L75 0 L75 151 L225 151 Z " />
<glyph glyph-name="o" unicode="o" horiz-adv-x="1201" d="M607 998 Q833 998 979 852 Q1120 710 1120 484 Q1120 259 979 117 Q834 -29 600 -29 Q366 -29 222 117 Q80 259 80 483 Q80 714 222 852 Q370 998 607 998 Z M595 847 Q435 847 338 733 Q257 638 257 485 Q257 332 338 236 Q434 122 600 122 Q766 122 862 236 Q943 332 943 483 Q943 639 862 733 Q763 847 595 847 Z " />
<glyph glyph-name="p" unicode="p" horiz-adv-x="1275" d="M214 -271 L214 818 L65 818 L65 969 L375 969 L375 817 Q423 877 462 908 Q573 998 734 998 Q943 998 1072 852 Q1196 711 1196 484 Q1196 258 1072 117 Q943 -29 736 -29 Q627 -29 545 11 Q463 51 388 141 L388 -271 L564 -271 L564 -422 L65 -422 L65 -271 L214 -271 Z M703 847 Q558 847 468 733 Q388 632 388 484 Q388 338 468 236 Q557 122 708 122 Q858 122 945 235 Q1019 332 1019 483 Q1019 649 935 746 Q847 847 703 847 Z " />
<glyph glyph-name="q" unicode="q" horiz-adv-x="1277" d="M888 -271 L888 141 Q839 83 807 58 Q700 -29 540 -29 Q333 -29 204 117 Q80 257 80 484 Q80 711 204 852 Q333 998 542 998 Q758 998 900 818 L900 969 L1212 969 L1212 818 L1062 818 L1062 -271 L1212 -271 L1212 -422 L713 -422 L713 -271 L888 -271 Z M563 847 Q428 847 341 746 Q257 648 257 485 Q257 332 331 235 Q418 122 568 122 Q719 122 808 236 Q888 337 888 483 Q888 646 798 746.5 Q708 847 563 847 Z " />
<glyph glyph-name="r" unicode="r" horiz-adv-x="817" d="M225 151 L225 818 L75 818 L75 969 L394 969 L394 809 Q477 912 537 947 Q622 998 737 998 L778 998 L778 831 L741 831 Q662 831 615 816 Q568 801 521 761 Q471 719 399 611 L399 151 L554 151 L554 0 L75 0 L75 151 L225 151 Z " />
<glyph glyph-name="s" unicode="s" horiz-adv-x="983" d="M89 0 L89 319 L237 319 L237 285 Q237 210 287 173 Q367 113 522 113 Q626 113 683 150 Q744 189 744 268 Q744 333 689 370 Q665 387 634.5 394.5 Q604 402 462 426 Q340 446 276 468.5 Q212 491 172 526 Q95 594 95 710 Q95 840 188 920 Q277 998 435 998 Q514 998 573 979.5 Q632 961 696 916 L696 969 L833 969 L833 672 L685 672 L685 690 Q685 759 641 795 Q567 855 448 855 Q354 855 308 815 Q266 778 266 720 Q266 658 331 623 Q368 603 517 577 Q653 554 715.5 534.5 Q778 515 818 482 Q911 409 911 270 Q911 127 811 49 Q711 -29 527 -29 Q354 -29 226 53 L226 0 L89 0 Z " />
<glyph glyph-name="t" unicode="t" horiz-adv-x="688" d="M213 818 L59 818 L59 969 L213 969 L213 1326 L387 1326 L387 969 L631 969 L631 818 L387 818 L387 318 Q387 225 416.5 188 Q446 151 522 151 L643 151 L643 0 L516 0 Q213 0 213 291 L213 818 Z " />
<glyph glyph-name="u" unicode="u" horiz-adv-x="1215" d="M206 818 L58 818 L58 969 L380 969 L380 399 Q380 281 395 231 Q422 143 523 143 Q597 143 664 183.5 Q731 224 832 330 L832 818 L692 818 L692 969 L1006 969 L1006 151 L1156 151 L1156 0 L832 0 L832 156 Q737 73 699 50 Q591 -16 478 -16 Q313 -16 251 110 Q225 162 215.5 224.5 Q206 287 206 408 L206 818 Z " />
<glyph glyph-name="v" unicode="v" horiz-adv-x="1060" d="M125 818 L6 818 L6 969 L444 969 L444 818 L308 818 L487 354 Q506 304 532 211 Q564 319 578 355 L758 818 L621 818 L621 969 L1055 969 L1055 818 L936 818 L590 -26 L464 -26 L125 818 Z " />
<glyph glyph-name="w" unicode="w" horiz-adv-x="1610" d="M131 818 L16 818 L16 969 L453 969 L453 818 L304 818 L459 385 Q483 318 505 235 Q531 325 556 392 L771 969 L842 969 L1054 387 Q1079 318 1102 235 Q1130 329 1149 380 L1310 818 L1156 818 L1156 969 L1591 969 L1591 818 L1479 818 L1158 -24 L1050 -24 L842 556 Q820 619 803 687 Q787 620 765 559 L554 -24 L448 -24 L131 818 Z " />
<glyph glyph-name="x" unicode="x" horiz-adv-x="1115" d="M159 151 L456 512 L205 818 L57 818 L57 969 L518 969 L518 833 L393 833 L569 601 L758 833 L632 833 L632 969 L1077 969 L1077 818 L935 818 L660 506 L950 151 L1095 151 L1095 0 L612 0 L612 142 L758 142 L549 417 L336 142 L480 142 L480 0 L20 0 L20 151 L159 151 Z " />
<glyph glyph-name="y" unicode="y" horiz-adv-x="1076" d="M111 818 L8 818 L8 969 L468 969 L468 818 L293 818 L503 357 Q506 350 551 238 Q576 307 605 375 L790 818 L621 818 L621 969 L1076 969 L1076 818 L967 818 L546 -147 Q474 -310 404 -363 Q360 -396 307 -408.5 Q254 -421 155 -422 L155 -271 Q259 -270 303.5 -240 Q348 -210 389 -112 L462 61 L111 818 Z " />
<glyph glyph-name="z" unicode="z" horiz-adv-x="957" d="M47 0 L47 149 L632 818 L248 818 L248 660 L97 660 L97 969 L857 969 L857 841 L258 151 L722 151 L722 325 L873 325 L873 0 L47 0 Z " />
<glyph glyph-name="braceleft" unicode="&#x7b;" horiz-adv-x="819" d="M298 561 Q401 522 435.5 452.5 Q470 383 470 213 L470 -36 Q470 -198 515 -242 Q559 -286 674 -286 L724 -286 L724 -422 L655 -422 Q538 -422 477.5 -407.5 Q417 -393 376 -356 Q332 -316 314 -247 Q296 -178 296 -53 L296 195 Q296 362 252 423 Q225 459 188.5 474 Q152 489 77 492 L77 630 Q154 633 193.5 650 Q233 667 258 706 Q296 766 296 927 L296 1106 Q296 1236 314 1305 Q332 1374 376 1412 Q417 1447 478 1461 Q539 1475 655 1475 L724 1475 L724 1339 L673 1339 Q549 1339 509.5 1290.5 Q470 1242 470 1089 L470 900 Q470 738 434.5 668 Q399 598 298 561 Z " />
<glyph glyph-name="bar" unicode="&#x7c;" horiz-adv-x="1024" d="M425 -480 L425 1566 L596 1566 L596 -480 L425 -480 Z " />
<glyph glyph-name="braceright" unicode="&#x7d;" horiz-adv-x="819" d="M522 561 Q421 598 385.5 668 Q350 738 350 900 L350 1089 Q350 1250 306 1295 Q262 1339 147 1339 L96 1339 L96 1475 L165 1475 Q288 1475 352 1458.5 Q416 1442 456 1400 Q493 1362 508.5 1294 Q524 1226 524 1106 L524 927 Q524 766 562 706 Q587 667 626.5 650 Q666 633 743 630 L743 492 Q668 489 631.5 474 Q595 459 568 423 Q524 361 524 195 L524 -53 Q524 -185 503 -256 Q482 -327 432 -366 Q391 -397 333 -409.5 Q275 -422 165 -422 L96 -422 L96 -286 L146 -286 Q271 -286 310.5 -237.5 Q350 -189 350 -36 L350 213 Q350 378 383 451 Q416 521 522 561 Z " />
<glyph glyph-name="asciitilde" unicode="&#x7e;" horiz-adv-x="1147" d="M197 602 L101 712 Q184 807 246.5 844.5 Q309 882 383 882 Q478 882 587 821 Q676 771 700.5 761.5 Q725 752 762 752 Q849 752 952 872 L1046 765 Q904 592 766 592 Q679 592 559 656 Q481 697 449.5 709 Q418 721 386 721 Q302 721 197 602 Z " />
<glyph glyph-name="Adieresis" unicode="&#xc4;" horiz-adv-x="1460" d="M1043 434 L410 434 L306 151 L467 151 L467 0 L0 0 L0 151 L122 151 L626 1475 L824 1475 L1334 151 L1460 151 L1460 0 L987 0 L987 151 L1149 151 L1043 434 Z M987 582 L723 1296 L465 582 L987 582 Z M451 1651 L451 1845 L628 1845 L628 1651 L451 1651 Z M832 1651 L832 1845 L1009 1845 L1009 1651 L832 1651 Z " />
<glyph glyph-name="Aring" unicode="&#xc5;" horiz-adv-x="1460" d="M1043 434 L410 434 L306 151 L467 151 L467 0 L0 0 L0 151 L122 151 L626 1475 L824 1475 L1334 151 L1460 151 L1460 0 L987 0 L987 151 L1149 151 L1043 434 Z M987 582 L723 1296 L465 582 L987 582 Z M734 2018 Q840 2018 902 1956 Q964 1894 964 1789 Q964 1682 901.5 1621 Q839 1560 730 1560 Q615 1560 553 1629 Q497 1692 497 1788 Q497 1896 560 1957 Q623 2018 734 2018 Z M728 1918 Q672 1918 641 1884 Q610 1850 610 1789 Q610 1660 730 1660 Q851 1660 851 1789 Q851 1918 728 1918 Z " />
<glyph glyph-name="Ccedilla" unicode="&#xc7;" horiz-adv-x="1476" d="M1263 347 L1377 227 Q1181 -25 817 -30 L782 -94 Q868 -101 904 -118 Q1000 -162 1000 -276 Q1000 -374 933.5 -426 Q867 -478 742 -478 Q635 -478 495 -439 L495 -301 Q649 -356 745 -356 Q855 -356 855 -278 Q855 -202 726 -202 Q710 -202 657 -205 L657 -112 L701 -26 Q491 -6 358 94 Q92 292 92 722 Q92 1081 286 1297 Q473 1506 789 1506 Q1029 1506 1185 1391 L1185 1475 L1333 1475 L1333 1044 L1177 1044 L1177 1071 Q1177 1172 1128 1228 Q1080 1284 990.5 1315.5 Q901 1347 792 1347 Q538 1347 401 1161 Q276 990 276 723 Q276 451 417 286 Q549 130 803 130 Q982 130 1119 216 Q1170 249 1263 347 Z " />
<glyph glyph-name="Eacute" unicode="&#xc9;" horiz-adv-x="1211" d="M226 151 L226 1324 L82 1324 L82 1475 L1104 1475 L1104 1116 L948 1116 L948 1324 L406 1324 L406 842 L892 842 L892 691 L406 691 L406 151 L958 151 L958 400 L1114 400 L1114 0 L82 0 L82 151 L226 151 Z M528 1596 L710 1920 L906 1920 L652 1596 L528 1596 Z " />
<glyph glyph-name="Ntilde" unicode="&#xd1;" horiz-adv-x="1456" d="M226 151 L226 1324 L82 1324 L82 1475 L427 1475 L985 528 Q1002 498 1072 356 Q1067 487 1067 551 L1067 1324 L914 1324 L914 1475 L1379 1475 L1379 1324 L1235 1324 L1235 -24 L1110 -24 L463 1085 Q456 1098 388 1238 Q394 1107 394 1081 L394 151 L544 151 L544 0 L82 0 L82 151 L226 151 Z M538 1648 L425 1648 Q471 1853 625 1853 Q682 1853 764 1808 Q837 1768 861 1768 Q913 1768 948 1852 L1062 1852 Q1036 1759 1000 1712 Q947 1642 854 1642 Q791 1642 681 1704 Q640 1727 618 1727 Q569 1727 538 1648 Z " />
<glyph glyph-name="Odieresis" unicode="&#xd6;" horiz-adv-x="1714" d="M867 1506 Q1091 1506 1280 1382 Q1468 1259 1557 1055 Q1621 907 1621 738 Q1621 439 1431 223 Q1318 95 1163 30 Q1020 -31 856 -31 Q621 -31 433 93 Q247 215 157 421 Q92 569 92 736 Q92 1042 283 1252 Q514 1506 867 1506 Z M849 1348 Q601 1348 432 1165 Q276 995 276 737 Q276 481 432 310 Q601 127 857 127 Q1112 127 1281 310 Q1437 481 1437 736 Q1437 999 1281 1165 Q1108 1348 849 1348 Z M577 1651 L577 1845 L754 1845 L754 1651 L577 1651 Z M958 1651 L958 1845 L1135 1845 L1135 1651 L958 1651 Z " />
<glyph glyph-name="Udieresis" unicode="&#xdc;" horiz-adv-x="1436" d="M72 1324 L72 1475 L547 1475 L547 1324 L396 1324 L396 566 Q396 367 445 271 Q517 130 718 130 Q918 130 991 271 Q1040 366 1040 566 L1040 1324 L889 1324 L889 1475 L1364 1475 L1364 1324 L1220 1324 L1220 623 Q1220 432 1203.5 335 Q1187 238 1143 165 Q1024 -31 718 -31 Q413 -31 293 165 Q249 238 232.5 335.5 Q216 433 216 623 L216 1324 L72 1324 Z M439 1651 L439 1845 L616 1845 L616 1651 L439 1651 Z M820 1651 L820 1845 L997 1845 L997 1651 L820 1651 Z " />
<glyph glyph-name="aacute" unicode="&#xe1;" horiz-adv-x="1175" d="M792 582 L792 630 Q792 749 751 793 Q695 853 534 853 Q412 853 365 809 Q335 780 327 702 L164 702 Q169 862 255 930 Q341 998 537 998 Q799 998 895 888 Q936 841 952.5 775.5 Q969 710 969 593 L969 151 L1117 151 L1117 0 L806 0 L806 111 Q681 -29 443 -29 Q270 -29 173 45 Q75 120 75 277 Q75 469 221 545 Q311 592 521 592 Q610 592 792 582 Z M795 444 Q682 456 529 456 Q374 456 319 423 Q250 381 250 283 Q250 200 300 161 Q354 119 473 119 Q665 119 753 220 Q778 248 786.5 277 Q795 306 795 363 L795 444 Z M460 1118 L668 1467 L863 1467 L584 1118 L460 1118 Z " />
<glyph glyph-name="agrave" unicode="&#xe0;" horiz-adv-x="1175" d="M792 582 L792 630 Q792 749 751 793 Q695 853 534 853 Q412 853 365 809 Q335 780 327 702 L164 702 Q169 862 255 930 Q341 998 537 998 Q799 998 895 888 Q936 841 952.5 775.5 Q969 710 969 593 L969 151 L1117 151 L1117 0 L806 0 L806 111 Q681 -29 443 -29 Q270 -29 173 45 Q75 120 75 277 Q75 469 221 545 Q311 592 521 592 Q610 592 792 582 Z M795 444 Q682 456 529 456 Q374 456 319 423 Q250 381 250 283 Q250 200 300 161 Q354 119 473 119 Q665 119 753 220 Q778 248 786.5 277 Q795 306 795 363 L795 444 Z M590 1118 L311 1467 L507 1467 L714 1118 L590 1118 Z " />
<glyph glyph-name="acircumflex" unicode="&#xe2;" horiz-adv-x="1175" d="M792 582 L792 630 Q792 749 751 793 Q695 853 534 853 Q412 853 365 809 Q335 780 327 702 L164 702 Q169 862 255 930 Q341 998 537 998 Q799 998 895 888 Q936 841 952.5 775.5 Q969 710 969 593 L969 151 L1117 151 L1117 0 L806 0 L806 111 Q681 -29 443 -29 Q270 -29 173 45 Q75 120 75 277 Q75 469 221 545 Q311 592 521 592 Q610 592 792 582 Z M795 444 Q682 456 529 456 Q374 456 319 423 Q250 381 250 283 Q250 200 300 161 Q354 119 473 119 Q665 119 753 220 Q778 248 786.5 277 Q795 306 795 363 L795 444 Z M560 1356 L386 1118 L262 1118 L472 1467 L649 1467 L858 1118 L734 1118 L560 1356 Z " />
<glyph glyph-name="adieresis" unicode="&#xe4;" horiz-adv-x="1175" d="M792 582 L792 630 Q792 749 751 793 Q695 853 534 853 Q412 853 365 809 Q335 780 327 702 L164 702 Q169 862 255 930 Q341 998 537 998 Q799 998 895 888 Q936 841 952.5 775.5 Q969 710 969 593 L969 151 L1117 151 L1117 0 L806 0 L806 111 Q681 -29 443 -29 Q270 -29 173 45 Q75 120 75 277 Q75 469 221 545 Q311 592 521 592 Q610 592 792 582 Z M795 444 Q682 456 529 456 Q374 456 319 423 Q250 381 250 283 Q250 200 300 161 Q354 119 473 119 Q665 119 753 220 Q778 248 786.5 277 Q795 306 795 363 L795 444 Z M311 1174 L311 1368 L488 1368 L488 1174 L311 1174 Z M659 1174 L659 1368 L836 1368 L836 1174 L659 1174 Z " />
<glyph glyph-name="atilde" unicode="&#xe3;" horiz-adv-x="1175" d="M792 582 L792 630 Q792 749 751 793 Q695 853 534 853 Q412 853 365 809 Q335 780 327 702 L164 702 Q169 862 255 930 Q341 998 537 998 Q799 998 895 888 Q936 841 952.5 775.5 Q969 710 969 593 L969 151 L1117 151 L1117 0 L806 0 L806 111 Q681 -29 443 -29 Q270 -29 173 45 Q75 120 75 277 Q75 469 221 545 Q311 592 521 592 Q610 592 792 582 Z M795 444 Q682 456 529 456 Q374 456 319 423 Q250 381 250 283 Q250 200 300 161 Q354 119 473 119 Q665 119 753 220 Q778 248 786.5 277 Q795 306 795 363 L795 444 Z M368 1171 L260 1171 Q304 1375 452 1375 Q489 1375 516 1364.5 Q543 1354 625 1308 Q657 1290 679 1290 Q729 1290 763 1374 L871 1374 Q846 1280 813 1234 Q762 1165 671 1165 Q612 1165 506 1226 Q467 1249 445 1249 Q399 1249 368 1171 Z " />
<glyph glyph-name="aring" unicode="&#xe5;" horiz-adv-x="1175" d="M792 582 L792 630 Q792 749 751 793 Q695 853 534 853 Q412 853 365 809 Q335 780 327 702 L164 702 Q169 862 255 930 Q341 998 537 998 Q799 998 895 888 Q936 841 952.5 775.5 Q969 710 969 593 L969 151 L1117 151 L1117 0 L806 0 L806 111 Q681 -29 443 -29 Q270 -29 173 45 Q75 120 75 277 Q75 469 221 545 Q311 592 521 592 Q610 592 792 582 Z M795 444 Q682 456 529 456 Q374 456 319 423 Q250 381 250 283 Q250 200 300 161 Q354 119 473 119 Q665 119 753 220 Q778 248 786.5 277 Q795 306 795 363 L795 444 Z M588 1548 Q694 1548 756 1486.5 Q818 1425 818 1319 Q818 1213 755.5 1152 Q693 1091 584 1091 Q469 1091 407 1160 Q351 1222 351 1319 Q351 1427 414 1487.5 Q477 1548 588 1548 Z M582 1448 Q526 1448 495 1414.5 Q464 1381 464 1320 Q464 1191 584 1191 Q705 1191 705 1319 Q705 1448 582 1448 Z " />
<glyph glyph-name="ccedilla" unicode="&#xe7;" horiz-adv-x="1027" d="M896 248 L990 127 Q831 -18 594 -28 L557 -94 Q643 -101 679 -117 Q775 -162 775 -276 Q775 -374 708.5 -426 Q642 -478 517 -478 Q409 -478 270 -439 L270 -300 Q424 -356 519 -356 Q630 -356 630 -277 Q630 -237 599.5 -219 Q569 -201 499 -201 Q491 -201 432 -205 L432 -112 L477 -24 Q349 -6 266 52 Q80 183 80 474 Q80 709 203 854 Q326 998 536 998 Q686 998 796 914 L796 969 L933 969 L933 637 L785 637 L785 667 Q785 747 745 784 Q677 848 559 848 Q409 848 330 740 Q257 642 257 478 Q257 303 351 206 Q432 122 572 122 Q749 122 896 248 Z " />
<glyph glyph-name="eacute" unicode="&#xe9;" horiz-adv-x="1136" d="M1060 435 L260 435 Q273 328 311 267 Q401 122 593 122 Q688 122 770.5 149.5 Q853 177 955 243 L1041 113 Q826 -30 591 -30 Q355 -30 215 117 Q79 259 79 485 Q79 711 213 853 Q348 998 574 998 Q758 998 883 893 Q1058 746 1060 435 Z M875 574 Q858 672 816 731 Q730 851 570 851 Q394 851 311 708 Q279 652 264 574 L875 574 Z M454 1118 L662 1467 L857 1467 L578 1118 L454 1118 Z " />
<glyph glyph-name="egrave" unicode="&#xe8;" horiz-adv-x="1136" d="M1060 435 L260 435 Q273 328 311 267 Q401 122 593 122 Q688 122 770.5 149.5 Q853 177 955 243 L1041 113 Q826 -30 591 -30 Q355 -30 215 117 Q79 259 79 485 Q79 711 213 853 Q348 998 574 998 Q758 998 883 893 Q1058 746 1060 435 Z M875 574 Q858 672 816 731 Q730 851 570 851 Q394 851 311 708 Q279 652 264 574 L875 574 Z M591 1118 L312 1467 L508 1467 L715 1118 L591 1118 Z " />
<glyph glyph-name="ecircumflex" unicode="&#xea;" horiz-adv-x="1136" d="M1060 435 L260 435 Q273 328 311 267 Q401 122 593 122 Q688 122 770.5 149.5 Q853 177 955 243 L1041 113 Q826 -30 591 -30 Q355 -30 215 117 Q79 259 79 485 Q79 711 213 853 Q348 998 574 998 Q758 998 883 893 Q1058 746 1060 435 Z M875 574 Q858 672 816 731 Q730 851 570 851 Q394 851 311 708 Q279 652 264 574 L875 574 Z M573 1356 L399 1118 L275 1118 L485 1467 L662 1467 L871 1118 L747 1118 L573 1356 Z " />
<glyph glyph-name="edieresis" unicode="&#xeb;" horiz-adv-x="1137" d="M1060 435 L260 435 Q273 328 311 267 Q401 122 593 122 Q688 122 770.5 149.5 Q853 177 955 243 L1041 113 Q826 -30 591 -30 Q355 -30 215 117 Q79 259 79 485 Q79 711 213 853 Q348 998 574 998 Q758 998 883 893 Q1058 746 1060 435 Z M875 574 Q858 672 816 731 Q730 851 570 851 Q394 851 311 708 Q279 652 264 574 L875 574 Z M312 1174 L312 1368 L489 1368 L489 1174 L312 1174 Z M660 1174 L660 1368 L837 1368 L837 1174 L660 1174 Z " />
<glyph glyph-name="iacute" unicode="&#xed;" horiz-adv-x="606" d="M230 151 L230 818 L79 818 L79 969 L404 969 L404 151 L551 151 L551 0 L73 0 L73 151 L230 151 Z M165 1118 L373 1467 L568 1467 L289 1118 L165 1118 Z " />
<glyph glyph-name="igrave" unicode="&#xec;" horiz-adv-x="606" d="M231 151 L231 818 L80 818 L80 969 L405 969 L405 151 L552 151 L552 0 L74 0 L74 151 L231 151 Z M309 1118 L30 1467 L226 1467 L433 1118 L309 1118 Z " />
<glyph glyph-name="icircumflex" unicode="&#xee;" horiz-adv-x="606" d="M231 151 L231 818 L80 818 L80 969 L405 969 L405 151 L552 151 L552 0 L74 0 L74 151 L231 151 Z M281 1356 L107 1118 L-17 1118 L193 1467 L370 1467 L579 1118 L455 1118 L281 1356 Z " />
<glyph glyph-name="idieresis" unicode="&#xef;" horiz-adv-x="606" d="M231 151 L231 818 L80 818 L80 969 L405 969 L405 151 L551 151 L551 0 L73 0 L73 151 L231 151 Z M40 1174 L40 1368 L217 1368 L217 1174 L40 1174 Z M388 1174 L388 1368 L565 1368 L565 1174 L388 1174 Z " />
<glyph glyph-name="ntilde" unicode="&#xf1;" horiz-adv-x="1274" d="M225 151 L225 818 L75 818 L75 969 L399 969 L399 813 Q496 900 539 927 Q652 998 771 998 Q951 998 1019 868 Q1047 815 1057.5 749.5 Q1068 684 1068 561 L1068 151 L1216 151 L1216 0 L759 0 L759 151 L894 151 L894 570 Q894 691 874 747 Q841 839 726 839 Q647 839 574.5 794.5 Q502 750 399 639 L399 151 L539 151 L539 0 L75 0 L75 151 L225 151 Z M415 1171 L307 1171 Q351 1375 499 1375 Q536 1375 563 1364.5 Q590 1354 672 1308 Q704 1290 726 1290 Q776 1290 810 1374 L918 1374 Q893 1280 860 1234 Q809 1165 718 1165 Q659 1165 553 1226 Q514 1249 492 1249 Q446 1249 415 1171 Z " />
<glyph glyph-name="oacute" unicode="&#xf3;" horiz-adv-x="1201" d="M607 998 Q833 998 979 852 Q1120 710 1120 484 Q1120 259 979 117 Q834 -29 600 -29 Q366 -29 222 117 Q80 259 80 483 Q80 714 222 852 Q370 998 607 998 Z M595 847 Q435 847 338 733 Q257 638 257 485 Q257 332 338 236 Q434 122 600 122 Q766 122 862 236 Q943 332 943 483 Q943 639 862 733 Q763 847 595 847 Z M463 1118 L671 1467 L866 1467 L587 1118 L463 1118 Z " />
<glyph glyph-name="ograve" unicode="&#xf2;" horiz-adv-x="1201" d="M607 998 Q833 998 979 852 Q1120 710 1120 484 Q1120 259 979 117 Q834 -29 600 -29 Q366 -29 222 117 Q80 259 80 483 Q80 714 222 852 Q370 998 607 998 Z M595 847 Q435 847 338 733 Q257 638 257 485 Q257 332 338 236 Q434 122 600 122 Q766 122 862 236 Q943 332 943 483 Q943 639 862 733 Q763 847 595 847 Z M613 1118 L334 1467 L530 1467 L737 1118 L613 1118 Z " />
<glyph glyph-name="ocircumflex" unicode="&#xf4;" horiz-adv-x="1201" d="M607 998 Q833 998 979 852 Q1120 710 1120 484 Q1120 259 979 117 Q834 -29 600 -29 Q366 -29 222 117 Q80 259 80 483 Q80 714 222 852 Q370 998 607 998 Z M595 847 Q435 847 338 733 Q257 638 257 485 Q257 332 338 236 Q434 122 600 122 Q766 122 862 236 Q943 332 943 483 Q943 639 862 733 Q763 847 595 847 Z M600 1356 L426 1118 L302 1118 L512 1467 L689 1467 L898 1118 L774 1118 L600 1356 Z " />
<glyph glyph-name="odieresis" unicode="&#xf6;" horiz-adv-x="1201" d="M607 998 Q833 998 979 852 Q1120 710 1120 484 Q1120 259 979 117 Q834 -29 600 -29 Q366 -29 222 117 Q80 259 80 483 Q80 714 222 852 Q370 998 607 998 Z M595 847 Q435 847 338 733 Q257 638 257 485 Q257 332 338 236 Q434 122 600 122 Q766 122 862 236 Q943 332 943 483 Q943 639 862 733 Q763 847 595 847 Z M338 1174 L338 1368 L515 1368 L515 1174 L338 1174 Z M686 1174 L686 1368 L863 1368 L863 1174 L686 1174 Z " />
<glyph glyph-name="otilde" unicode="&#xf5;" horiz-adv-x="1201" d="M607 998 Q833 998 979 852 Q1120 710 1120 484 Q1120 259 979 117 Q834 -29 600 -29 Q366 -29 222 117 Q80 259 80 483 Q80 714 222 852 Q370 998 607 998 Z M595 847 Q435 847 338 733 Q257 638 257 485 Q257 332 338 236 Q434 122 600 122 Q766 122 862 236 Q943 332 943 483 Q943 639 862 733 Q763 847 595 847 Z M402 1171 L294 1171 Q338 1375 486 1375 Q523 1375 550 1364.5 Q577 1354 659 1308 Q691 1290 713 1290 Q763 1290 797 1374 L905 1374 Q880 1280 847 1234 Q796 1165 705 1165 Q646 1165 540 1226 Q501 1249 479 1249 Q433 1249 402 1171 Z " />
<glyph glyph-name="uacute" unicode="&#xfa;" horiz-adv-x="1215" d="M206 818 L58 818 L58 969 L380 969 L380 399 Q380 281 395 231 Q422 143 523 143 Q597 143 664 183.5 Q731 224 832 330 L832 818 L692 818 L692 969 L1006 969 L1006 151 L1156 151 L1156 0 L832 0 L832 156 Q737 73 699 50 Q591 -16 478 -16 Q313 -16 251 110 Q225 162 215.5 224.5 Q206 287 206 408 L206 818 Z M470 1118 L678 1467 L873 1467 L594 1118 L470 1118 Z " />
<glyph glyph-name="ugrave" unicode="&#xf9;" horiz-adv-x="1215" d="M206 818 L58 818 L58 969 L380 969 L380 399 Q380 281 395 231 Q422 143 523 143 Q597 143 664 183.5 Q731 224 832 330 L832 818 L692 818 L692 969 L1006 969 L1006 151 L1156 151 L1156 0 L832 0 L832 156 Q737 73 699 50 Q591 -16 478 -16 Q313 -16 251 110 Q225 162 215.5 224.5 Q206 287 206 408 L206 818 Z M598 1118 L319 1467 L515 1467 L722 1118 L598 1118 Z " />
<glyph glyph-name="ucircumflex" unicode="&#xfb;" horiz-adv-x="1215" d="M206 818 L58 818 L58 969 L380 969 L380 399 Q380 281 395 231 Q422 143 523 143 Q597 143 664 183.5 Q731 224 832 330 L832 818 L692 818 L692 969 L1006 969 L1006 151 L1156 151 L1156 0 L832 0 L832 156 Q737 73 699 50 Q591 -16 478 -16 Q313 -16 251 110 Q225 162 215.5 224.5 Q206 287 206 408 L206 818 Z M584 1356 L410 1118 L286 1118 L496 1467 L673 1467 L882 1118 L758 1118 L584 1356 Z " />
<glyph glyph-name="udieresis" unicode="&#xfc;" horiz-adv-x="1215" d="M206 818 L58 818 L58 969 L380 969 L380 399 Q380 281 395 231 Q422 143 523 143 Q597 143 664 183.5 Q731 224 832 330 L832 818 L692 818 L692 969 L1006 969 L1006 151 L1156 151 L1156 0 L832 0 L832 156 Q737 73 699 50 Q591 -16 478 -16 Q313 -16 251 110 Q225 162 215.5 224.5 Q206 287 206 408 L206 818 Z M327 1174 L327 1368 L504 1368 L504 1174 L327 1174 Z M675 1174 L675 1368 L852 1368 L852 1174 L675 1174 Z " />
<glyph glyph-name="dagger" unicode="&#x2020;" horiz-adv-x="1147" d="M496 906 L147 906 L147 1048 L496 1048 L496 1475 L650 1475 L650 1048 L1001 1048 L1001 906 L650 906 L650 -199 L496 -199 L496 906 Z " />
<glyph glyph-name="degree" unicode="&#xb0;" horiz-adv-x="722" d="M358 1425 Q277 1425 228.5 1373 Q180 1321 180 1234 Q180 1163 213 1115 Q262 1044 361 1044 Q445 1044 494 1095 Q543 1146 543 1234 Q543 1307 510 1354 Q461 1425 358 1425 Z M366 1537 Q503 1537 586 1454 Q669 1371 669 1235 Q669 1109 595 1026 Q510 933 362 933 Q213 933 128 1026 Q54 1109 54 1234 Q54 1374 138 1455.5 Q222 1537 366 1537 Z " />
<glyph glyph-name="cent" unicode="&#xa2;" horiz-adv-x="1147" d="M565 284 Q427 298 335 357 Q132 488 132 785 Q132 970 212 1099 Q271 1194 355.5 1243 Q440 1292 565 1305 L565 1608 L683 1608 L683 1302 Q807 1282 888 1217 L888 1279 L1018 1279 L1018 947 L874 947 L874 977 Q880 1124 683 1155 L683 434 Q848 449 972 558 L1066 437 Q917 299 683 282 L683 -26 L565 -26 L565 284 Z M565 443 L565 1150 Q465 1127 414 1079 Q309 982 309 791 Q309 580 447 489 Q481 466 565 443 Z " />
<glyph glyph-name="sterling" unicode="&#xa3;" horiz-adv-x="1147" d="M67 -24 L67 146 Q189 175 244.5 254.5 Q300 334 300 480 Q300 544 277 667 L67 667 L67 804 L251 804 Q207 981 207 1085 Q207 1289 330 1402 Q440 1504 614 1504 Q790 1504 905 1385 L905 1475 L1046 1475 L1046 1044 L894 1044 L894 1071 Q894 1172 860 1232 Q830 1285 766.5 1317 Q703 1349 627 1349 Q523 1349 457 1290 Q378 1219 378 1094 Q378 999 427 804 L711 804 L711 667 L453 667 Q477 523 477 455 Q477 390 466.5 344 Q456 298 426 230 Q592 136 727 136 Q957 136 982 396 L1150 396 Q1105 -24 731 -24 Q540 -24 349 99 Q233 -19 67 -24 Z " />
<glyph glyph-name="section" unicode="&#xa7;" horiz-adv-x="1147" d="M252 -208 L252 129 L393 129 L393 -65 L519 -65 Q707 -65 707 44 Q707 130 587 238 L330 470 Q222 568 183.5 630 Q145 692 145 769 Q145 910 271 976 Q323 1004 398 1014 Q309 1132 309 1241 Q309 1363 412.5 1419 Q516 1475 743 1475 L907 1475 L907 1139 L771 1139 L771 1334 L670 1334 Q476 1334 476 1229 Q476 1186 510.5 1135 Q545 1084 625 1009 L848 799 Q1028 629 1028 480 Q1028 383 971 319.5 Q914 256 804 230 Q885 125 885 30 Q885 -208 507 -208 L252 -208 Z M763 648 L601 802 Q541 859 502.5 881 Q464 903 424 903 Q371 903 335 869 Q299 835 299 785 Q299 746 319 713.5 Q339 681 400 623 L572 459 Q678 357 755 357 Q802 357 834.5 391 Q867 425 867 474 Q867 550 763 648 Z " />
<glyph glyph-name="bullet" unicode="&#x2022;" horiz-adv-x="1147" d="M295 472 L295 1046 L852 1046 L852 472 L295 472 Z " />
<glyph glyph-name="paragraph" unicode="&#xb6;" horiz-adv-x="1290" d="M461 -271 L461 657 Q305 672 216 736 Q60 847 60 1064 Q60 1256 185 1370 Q250 1428 328.5 1452 Q407 1476 538 1476 L1142 1476 L1142 1325 L1019 1325 L1019 -271 L1195 -271 L1195 -422 L313 -422 L313 -271 L461 -271 Z M619 -271 L861 -271 L861 1325 L619 1325 L619 -271 Z " />
<glyph glyph-name="germandbls" unicode="&#xdf;" horiz-adv-x="1301" d="M225 151 L225 818 L75 818 L75 969 L225 969 L225 1073 Q225 1287 353 1402 Q467 1504 665 1504 Q889 1504 1005 1379 Q1090 1288 1090 1149 Q1090 1042 1043.5 972 Q997 902 890 848 Q1038 805 1109 727 Q1217 607 1217 428 Q1217 193 1042 77 Q925 -1 696 -7 L696 145 Q849 150 925 197 Q1040 268 1040 432 Q1040 588 946 665 Q852 742 643 756 L643 899 Q777 909 836 946 Q919 998 919 1129 Q919 1237 851.5 1298.5 Q784 1360 665 1360 Q536 1360 467 1282 Q399 1205 399 1058 L399 151 L519 151 L519 0 L75 0 L75 151 L225 151 Z " />
<glyph glyph-name="registered" unicode="&#xae;" horiz-adv-x="1276" d="M461 1028 L461 1383 L406 1383 L406 1475 L636 1475 Q739 1475 790 1451 Q871 1413 871 1316 Q871 1229 790 1186 Q809 1166 826 1121 L863 1028 L923 1028 L923 936 L775 936 L724 1075 Q707 1124 687.5 1138 Q668 1152 616 1152 L571 1152 L571 1028 L639 1028 L639 936 L406 936 L406 1028 L461 1028 Z M571 1239 L628 1239 Q698 1239 728 1256.5 Q758 1274 758 1313 Q758 1351 729.5 1367 Q701 1383 634 1383 L571 1383 L571 1239 Z M645 1774 Q874 1774 1038 1605 Q1198 1441 1198 1202 Q1198 965 1038 800 Q875 631 638 631 Q400 631 237 800 Q77 965 77 1201 Q77 1444 237 1605 Q404 1774 645 1774 Z M632 1666 Q445 1666 314 1527 Q193 1398 193 1202 Q193 1008 314 878 Q444 739 637 739 Q831 739 961 878 Q1082 1008 1082 1201 Q1082 1401 961 1527 Q827 1666 632 1666 Z " />
<glyph glyph-name="copyright" unicode="&#xa9;" horiz-adv-x="1728" d="M1157 1072 L1157 848 L1035 848 L1035 976 Q959 1005 883 1005 Q760 1005 693 921 Q629 842 629 724 Q629 600 695 528.5 Q761 457 875 457 Q1007 457 1131 547 L1202 455 Q1050 340 881 340 Q694 340 587 455 Q492 558 492 726 Q492 904 600 1013 Q708 1122 885 1122 Q1008 1122 1157 1072 Z M873 1521 Q1088 1521 1272 1405 Q1463 1283 1559 1080 Q1633 922 1633 737 Q1633 412 1414 185 Q1189 -47 864 -47 Q538 -47 314 185 Q94 412 94 735 Q94 956 198 1137 Q308 1330 508 1435 Q671 1521 873 1521 Z M855 1385 Q679 1385 529 1287 Q368 1183 295 1010 Q244 889 244 736 Q244 465 412 284 Q594 89 864 89 Q1133 89 1315 284 Q1483 465 1483 735 Q1483 1014 1315 1190 Q1128 1385 855 1385 Z " />
<glyph glyph-name="trademark" unicode="&#x2122;" horiz-adv-x="1538" d="M266 870 L266 1374 L145 1374 L145 1259 L32 1259 L32 1475 L625 1475 L625 1259 L512 1259 L512 1374 L391 1374 L391 870 L488 870 L488 769 L171 769 L171 870 L266 870 Z M693 870 L731 1374 L661 1374 L661 1475 L882 1475 L1045 1027 L1061 979 L1077 1026 L1240 1475 L1459 1475 L1459 1374 L1390 1374 L1427 870 L1491 870 L1491 769 L1237 769 L1237 870 L1303 870 L1278 1257 L1101 769 L1020 769 L842 1257 L817 870 L884 870 L884 769 L629 769 L629 870 L693 870 Z " />
<glyph glyph-name="acute" unicode="&#xb4;" horiz-adv-x="1024" d="M375 1118 L583 1467 L778 1467 L499 1118 L375 1118 Z " />
<glyph glyph-name="dieresis" unicode="&#xa8;" horiz-adv-x="1024" d="M249 1174 L249 1368 L426 1368 L426 1174 L249 1174 Z M597 1174 L597 1368 L774 1368 L774 1174 L597 1174 Z " />
<glyph glyph-name="notequal" unicode="&#x2260;" horiz-adv-x="1147" d="M142 827 L142 980 L605 980 L714 1211 L854 1145 L776 980 L1006 980 L1006 827 L702 827 L616 646 L1006 646 L1006 493 L543 493 L433 263 L294 328 L372 493 L142 493 L142 646 L445 646 L532 827 L142 827 Z " />
<glyph glyph-name="AE" unicode="&#xc6;" horiz-adv-x="1958" d="M973 479 L443 479 L247 151 L430 151 L430 0 L-85 0 L-85 151 L60 151 L735 1324 L599 1324 L599 1475 L1851 1475 L1851 1108 L1695 1108 L1695 1324 L1153 1324 L1153 842 L1639 842 L1639 691 L1153 691 L1153 151 L1705 151 L1705 408 L1861 408 L1861 0 L792 0 L792 151 L973 151 L973 479 Z M973 625 L973 1324 L913 1324 L518 625 L973 625 Z " />
<glyph glyph-name="Oslash" unicode="&#xd8;" horiz-adv-x="1714" d="M305 184 Q79 415 79 741 Q79 1037 270 1253 Q383 1381 538 1446 Q680 1507 843 1507 Q1082 1507 1279 1375 L1423 1552 L1597 1552 L1384 1291 Q1608 1055 1608 737 Q1608 439 1418 223 Q1193 -31 842 -31 Q617 -31 411 100 L254 -92 L80 -92 L305 184 Z M415 318 L1174 1247 Q1020 1349 844 1349 Q588 1349 419 1165 Q263 995 263 737 Q263 485 415 318 Z M1273 1155 L516 228 Q605 173 679 150 Q753 127 843 127 Q1099 127 1268 311 Q1424 481 1424 738 Q1424 865 1392.5 952 Q1361 1039 1273 1155 Z " />
<glyph glyph-name="infinity" unicode="&#x221e;" horiz-adv-x="1605" d="M803 625 Q744 541 694 500 Q588 412 450 412 Q300 412 210 504 Q125 590 125 728 Q125 867 210 953 Q301 1044 453 1044 Q560 1044 642.5 994 Q725 944 803 832 Q860 915 913 958 Q1018 1044 1153 1044 Q1305 1044 1396 953 Q1481 867 1481 728 Q1481 590 1396 504 Q1306 412 1155 412 Q1046 412 963.5 461.5 Q881 511 803 625 Z M734 728 L721 747 Q606 922 466 922 Q377 922 321 867.5 Q265 813 265 728 Q265 640 321 588 Q378 534 466 534 Q601 534 720 709 L734 728 Z M872 728 L885 709 Q1004 534 1140 534 Q1229 534 1285 588.5 Q1341 643 1341 728 Q1341 815 1285 868 Q1228 922 1140 922 Q1001 922 885 747 L872 728 Z " />
<glyph glyph-name="plusminus" unicode="&#xb1;" horiz-adv-x="1147" d="M142 708 L142 860 L498 860 L498 1236 L650 1236 L650 860 L1006 860 L1006 708 L650 708 L650 332 L498 332 L498 708 L142 708 Z M142 0 L142 152 L1006 152 L1006 0 L142 0 Z " />
<glyph glyph-name="lessequal" unicode="&#x2264;" horiz-adv-x="1147" d="M317 785 L1005 427 L1005 260 L138 730 L138 840 L1005 1310 L1005 1142 L317 785 Z M141 0 L141 152 L1005 152 L1005 0 L141 0 Z " />
<glyph glyph-name="greaterequal" unicode="&#x2265;" horiz-adv-x="1147" d="M830 785 L142 1142 L142 1310 L1009 840 L1009 730 L142 260 L142 427 L830 785 Z M142 0 L142 152 L1006 152 L1006 0 L142 0 Z " />
<glyph glyph-name="yen" unicode="&#xa5;" horiz-adv-x="1147" d="M483 143 L483 378 L135 378 L135 497 L483 497 L483 613 L135 613 L135 732 L440 732 L111 1324 L-17 1324 L-17 1475 L465 1475 L465 1324 L318 1324 L582 835 L845 1324 L700 1324 L700 1475 L1164 1475 L1164 1324 L1032 1324 L707 732 L1012 732 L1012 613 L663 613 L663 497 L1012 497 L1012 378 L663 378 L663 143 L845 143 L845 0 L302 0 L302 143 L483 143 Z " />
<glyph glyph-name="mu" unicode="&#xb5;" horiz-adv-x="1190" d="M46 818 L46 969 L370 969 L371 397 Q371 281 386 231 Q412 143 513 143 Q587 143 654 183.5 Q721 224 821 330 L821 818 L682 818 L682 969 L995 969 L995 151 L1145 151 L1145 0 L821 0 L821 156 Q735 76 695 50 Q592 -16 486 -16 Q421 -16 370 15 L370 -271 L546 -271 L546 -422 L47 -422 L47 -271 L196 -271 L196 818 L46 818 Z " />
<glyph glyph-name="partialdiff" unicode="&#x2202;" horiz-adv-x="1147" d="M328 1448 L425 1542 Q659 1356 790 1203 Q1083 862 1083 492 Q1083 255 944 115 Q802 -29 573 -29 Q344 -29 202 115 Q64 255 64 476 Q64 697 202 840 Q341 982 550 982 Q647 982 709 954 Q771 926 838 851 Q751 1022 647.5 1143.5 Q544 1265 328 1448 Z M568 835 Q413 835 319 723 Q241 629 241 478 Q241 328 319 234 Q413 122 574 122 Q734 122 827 234 Q906 328 906 481 Q906 634 829 723 Q731 835 568 835 Z " />
<glyph glyph-name="summation" unicode="&#x2211;" horiz-adv-x="1306" d="M638 643 L116 1438 L116 1572 L1214 1572 L1214 1183 L1058 1183 L1058 1427 L325 1427 L840 643 L270 -211 L1079 -211 L1079 50 L1235 50 L1235 -356 L69 -356 L69 -216 L638 643 Z " />
<glyph glyph-name="product" unicode="&#x220f;" horiz-adv-x="1476" d="M248 -205 L248 1421 L104 1421 L104 1572 L1370 1572 L1370 1421 L1226 1421 L1226 -205 L1370 -205 L1370 -356 L901 -356 L901 -205 L1046 -205 L1046 1421 L428 1421 L428 -205 L572 -205 L572 -356 L104 -356 L104 -205 L248 -205 Z " />
<glyph glyph-name="integral" unicode="&#x222b;" horiz-adv-x="778" d="M50 -342 L81 -196 Q126 -214 165 -214 Q259 -214 287 -143 Q302 -105 302 44 L302 1141 Q302 1266 308.5 1324 Q315 1382 333 1429 Q361 1500 427.5 1539 Q494 1578 587 1578 Q646 1578 724 1558 L693 1413 Q647 1432 606 1432 Q515 1432 487 1359 Q472 1322 472 1201 L472 78 Q472 -70 463 -132 Q454 -194 426 -242 Q357 -360 169 -360 Q107 -360 50 -342 Z " />
<glyph glyph-name="ordfeminine" unicode="&#xaa;" horiz-adv-x="769" d="M508 854 L508 922 Q475 889 448 873 Q385 837 289 837 Q56 837 56 1035 Q56 1143 121 1189.5 Q186 1236 336 1236 Q375 1236 486 1231 L486 1270 Q486 1331 451.5 1357.5 Q417 1384 339 1384 Q254 1384 150 1346 L104 1464 Q228 1506 348 1506 Q502 1506 568.5 1446 Q635 1386 635 1247 L635 977 L724 977 L724 854 L508 854 Z M486 1123 Q415 1129 351 1129 Q271 1129 238.5 1108.5 Q206 1088 206 1038 Q206 950 319 950 Q397 950 441.5 983.5 Q486 1017 486 1076 L486 1123 Z " />
<glyph glyph-name="ordmasculine" unicode="&#xba;" horiz-adv-x="769" d="M389 1506 Q541 1506 634 1414 Q726 1323 726 1172 Q726 1021 634 930 Q541 838 384 838 Q228 838 135 930 Q43 1021 43 1171 Q43 1324 135 1414 Q229 1506 389 1506 Z M381 1383 Q298 1383 246 1324.5 Q194 1266 194 1172 Q194 1077 246.5 1019 Q299 961 384 961 Q478 961 530 1029 Q575 1088 575 1171 Q575 1268 522 1325.5 Q469 1383 381 1383 Z " />
<glyph glyph-name="Omega" unicode="&#x2126;" horiz-adv-x="1736" d="M39 0 L39 318 L179 318 L179 142 L490 142 Q110 348 110 763 Q110 1055 299 1262 Q522 1506 867 1506 Q1213 1506 1436 1262 Q1625 1055 1625 763 Q1625 348 1245 142 L1556 142 L1556 318 L1696 318 L1696 0 L1020 0 L1020 204 Q1115 234 1173 268 Q1231 302 1286 359 Q1441 521 1441 768 Q1441 1011 1287 1174 Q1120 1348 868 1348 Q615 1348 448 1174 Q294 1011 294 768 Q294 521 450 359 Q504 302 562 268 Q620 234 715 204 L715 0 L39 0 Z " />
<glyph glyph-name="ae" unicode="&#xe6;" horiz-adv-x="1843" d="M792 582 L792 628 Q792 735 747 784 Q684 852 533 852 Q426 852 381.5 819.5 Q337 787 327 702 L167 702 Q174 860 258.5 929 Q343 998 530 998 Q838 998 905 808 Q1046 998 1288 998 Q1485 998 1611 878 Q1765 733 1767 435 L968 435 Q980 328 1018 267 Q1109 122 1300 122 Q1396 122 1478.5 149.5 Q1561 177 1662 243 L1749 113 Q1538 -30 1307 -30 Q1029 -30 899 187 Q771 -29 447 -29 Q75 -29 75 277 Q75 469 220 545 Q310 593 518 593 Q593 593 792 582 Z M795 444 Q686 457 527 457 Q374 457 319 424 Q250 382 250 283 Q250 200 300 161 Q354 119 473 119 Q673 119 753 218 Q795 269 795 359 L795 444 Z M1583 574 Q1567 668 1524 730 Q1438 851 1278 851 Q1155 851 1075.5 779.5 Q996 708 972 574 L1583 574 Z " />
<glyph glyph-name="oslash" unicode="&#xf8;" horiz-adv-x="1201" d="M219 110 Q71 263 71 487 Q71 710 213 852 Q357 998 590 998 Q746 998 869 929 L948 1028 L1101 1028 L966 857 Q1112 707 1112 484 Q1112 259 970 117 Q826 -29 591 -29 Q449 -29 317 38 L222 -82 L68 -82 L219 110 Z M327 246 L768 802 Q680 847 592 847 Q426 847 329 733 Q248 637 248 488 Q248 352 327 246 Z M858 721 L417 166 Q484 137 513.5 129.5 Q543 122 591 122 Q757 122 854 236 Q935 332 935 481 Q935 610 858 721 Z " />
<glyph glyph-name="questiondown" unicode="&#xbf;" horiz-adv-x="1015" d="M647 1376 L647 1161 L443 1161 L443 1376 L647 1376 Z M628 971 L628 466 Q469 465 385 421 Q247 349 247 185 Q247 67 323 -10 Q401 -89 518 -89 Q656 -89 731 23 Q772 84 791 211 L956 211 Q943 105 923.5 44.5 Q904 -16 861 -75 Q741 -244 514 -244 Q323 -244 199 -127 Q70 -4 70 194 Q70 375 192 486 Q245 534 306 560 Q367 586 468 602 L468 971 L628 971 Z " />
<glyph glyph-name="exclamdown" unicode="&#xa1;" horiz-adv-x="625" d="M204 -209 L227 969 L385 969 L408 -209 L204 -209 Z M205 1161 L205 1376 L409 1376 L409 1161 L205 1161 Z " />
<glyph glyph-name="logicalnot" unicode="&#xac;" horiz-adv-x="1147" d="M142 665 L142 813 L941 813 L941 285 L786 285 L786 665 L142 665 Z " />
<glyph glyph-name="radical" unicode="&#x221a;" horiz-adv-x="1303" d="M496 0 L267 609 L110 609 L110 750 L402 750 L583 235 L1027 1768 L1565 1768 L1565 1625 L1161 1625 L676 0 L496 0 Z " />
<glyph glyph-name="florin" unicode="&#x192;" horiz-adv-x="1147" d="M278 729 L278 871 L498 871 L554 1166 Q573 1267 590.5 1317 Q608 1367 639 1408 Q711 1506 849 1506 Q942 1506 1039 1459 L999 1323 Q910 1359 867 1359 Q806 1359 775.5 1317 Q745 1275 723 1160 L667 871 L851 871 L851 729 L644 729 L533 74 Q504 -99 458 -186 Q380 -331 221 -331 Q144 -331 36 -291 L75 -147 Q145 -178 193 -178 Q265 -178 305.5 -113 Q346 -48 372 107 L475 729 L278 729 Z " />
<glyph glyph-name="approxequal" unicode="&#x2248;" horiz-adv-x="1147" d="M197 433 L101 543 Q183 637 246.5 675 Q310 713 383 713 Q478 713 587 652 Q675 602 700 592.5 Q725 583 763 583 Q849 583 952 703 L1046 596 Q904 423 766 423 Q680 423 559 487 Q482 528 450 540 Q418 552 386 552 Q340 552 298 525.5 Q256 499 197 433 Z M197 770 L101 880 Q184 975 246.5 1012.5 Q309 1050 383 1050 Q478 1050 587 989 Q676 939 700.5 929.5 Q725 920 763 920 Q849 920 952 1040 L1046 933 Q904 760 767 760 Q679 760 559 824 Q481 865 449.5 877 Q418 889 386 889 Q302 889 197 770 Z " />
<glyph glyph-name="increment" unicode="&#x2206;" horiz-adv-x="1460" d="M1395 0 L64 0 L627 1475 L824 1475 L1395 0 Z M1149 151 L723 1296 L306 151 L1149 151 Z " />
<glyph glyph-name="guillemotleft" unicode="&#xab;" horiz-adv-x="791" d="M235 463 L447 95 L275 95 L71 463 L275 832 L447 832 L235 463 Z M529 463 L741 95 L569 95 L365 463 L569 832 L741 832 L529 463 Z " />
<glyph glyph-name="guillemotright" unicode="&#xbb;" horiz-adv-x="791" d="M555 463 L343 832 L515 832 L719 463 L515 95 L343 95 L555 463 Z M261 463 L49 832 L221 832 L425 463 L221 95 L49 95 L261 463 Z " />
<glyph glyph-name="ellipsis" unicode="&#x2026;" horiz-adv-x="1618" d="M193 0 L193 221 L397 221 L397 0 L193 0 Z M707 0 L707 221 L911 221 L911 0 L707 0 Z M1220 0 L1220 221 L1424 221 L1424 0 L1220 0 Z " />
<glyph glyph-name="Agrave" unicode="&#xc0;" horiz-adv-x="1460" d="M1043 434 L410 434 L306 151 L467 151 L467 0 L0 0 L0 151 L122 151 L626 1475 L824 1475 L1334 151 L1460 151 L1460 0 L987 0 L987 151 L1149 151 L1043 434 Z M987 582 L723 1296 L465 582 L987 582 Z M702 1596 L448 1920 L644 1920 L826 1596 L702 1596 Z " />
<glyph glyph-name="Atilde" unicode="&#xc3;" horiz-adv-x="1460" d="M1043 434 L410 434 L306 151 L467 151 L467 0 L0 0 L0 151 L122 151 L626 1475 L824 1475 L1334 151 L1460 151 L1460 0 L987 0 L987 151 L1149 151 L1043 434 Z M987 582 L723 1296 L465 582 L987 582 Z M536 1648 L423 1648 Q469 1853 623 1853 Q680 1853 762 1808 Q835 1768 859 1768 Q911 1768 946 1852 L1060 1852 Q1034 1759 998 1712 Q945 1642 852 1642 Q789 1642 679 1704 Q638 1727 616 1727 Q567 1727 536 1648 Z " />
<glyph glyph-name="Otilde" unicode="&#xd5;" horiz-adv-x="1714" d="M867 1506 Q1091 1506 1280 1382 Q1468 1259 1557 1055 Q1621 907 1621 738 Q1621 439 1431 223 Q1318 95 1163 30 Q1020 -31 856 -31 Q621 -31 433 93 Q247 215 157 421 Q92 569 92 736 Q92 1042 283 1252 Q514 1506 867 1506 Z M849 1348 Q601 1348 432 1165 Q276 995 276 737 Q276 481 432 310 Q601 127 857 127 Q1112 127 1281 310 Q1437 481 1437 736 Q1437 999 1281 1165 Q1108 1348 849 1348 Z M663 1648 L550 1648 Q596 1853 750 1853 Q807 1853 889 1808 Q962 1768 986 1768 Q1038 1768 1073 1852 L1187 1852 Q1161 1759 1125 1712 Q1072 1642 979 1642 Q916 1642 806 1704 Q765 1727 743 1727 Q694 1727 663 1648 Z " />
<glyph glyph-name="OE" unicode="&#x152;" horiz-adv-x="2088" d="M1284 151 L1836 151 L1836 408 L1992 408 L1992 0 L1280 0 Q1215 0 1102 -7 Q943 -17 877 -17 Q518 -17 321 161 Q86 372 86 738 Q86 1107 333 1319 Q437 1409 566.5 1450.5 Q696 1492 871 1492 Q945 1492 1097 1482 Q1213 1475 1293 1475 L1982 1475 L1982 1108 L1826 1108 L1826 1324 L1284 1324 L1284 842 L1770 842 L1770 691 L1284 691 L1284 151 Z M1104 150 L1104 1324 Q988 1339 880 1339 Q597 1339 431 1176 Q270 1019 270 741 Q270 429 470 267 Q633 136 892 136 Q976 136 1104 150 Z " />
<glyph glyph-name="oe" unicode="&#x153;" horiz-adv-x="2001" d="M1031 229 Q985 147 941 103 Q811 -29 591 -29 Q362 -29 219 117 Q80 260 80 485 Q80 710 219 852 Q362 998 591 998 Q744 998 849.5 936.5 Q955 875 1030 742 Q1070 820 1115 868 Q1237 998 1446 998 Q1631 998 1756 889 Q1922 743 1924 435 L1125 435 Q1137 329 1175 267 Q1265 122 1457 122 Q1553 122 1635.5 149.5 Q1718 177 1819 243 L1905 113 Q1695 -30 1463 -30 Q1161 -30 1031 229 Z M595 847 Q435 847 338 733 Q257 638 257 485 Q257 332 338 236 Q434 122 600 122 Q766 122 862 236 Q943 332 943 483 Q943 639 862 733 Q763 847 595 847 Z M1740 574 Q1723 668 1683 726 Q1596 851 1435 851 Q1259 851 1176 708 Q1143 651 1129 574 L1740 574 Z " />
<glyph glyph-name="endash" unicode="&#x2013;" horiz-adv-x="1024" d="M82 478 L82 629 L942 629 L942 478 L82 478 Z " />
<glyph glyph-name="emdash" unicode="&#x2014;" horiz-adv-x="1024" d="M-123 478 L-123 629 L1147 629 L1147 478 L-123 478 Z " />
<glyph glyph-name="quotedblleft" unicode="&#x201c;" horiz-adv-x="873" d="M93 1030 L266 1475 L438 1475 L303 1030 L93 1030 Z M416 1030 L589 1475 L762 1475 L625 1030 L416 1030 Z " />
<glyph glyph-name="quotedblright" unicode="&#x201d;" horiz-adv-x="873" d="M80 1030 L215 1475 L425 1475 L253 1030 L80 1030 Z M404 1030 L539 1475 L749 1475 L576 1030 L404 1030 Z " />
<glyph glyph-name="quoteleft" unicode="&#x2018;" horiz-adv-x="541" d="M88 1030 L261 1475 L434 1475 L298 1030 L88 1030 Z " />
<glyph glyph-name="quoteright" unicode="&#x2019;" horiz-adv-x="541" d="M75 1030 L211 1475 L421 1475 L248 1030 L75 1030 Z " />
<glyph glyph-name="divide" unicode="&#xf7;" horiz-adv-x="1147" d="M142 661 L142 813 L1006 813 L1006 661 L142 661 Z M478 994 L478 1202 L669 1202 L669 994 L478 994 Z M478 275 L478 483 L669 483 L669 275 L478 275 Z " />
<glyph glyph-name="lozenge" unicode="&#x25ca;" horiz-adv-x="1147" d="M9 704 L574 1465 L1139 704 L574 -57 L9 704 Z M204 704 L574 208 L943 704 L574 1201 L204 704 Z " />
<glyph glyph-name="ydieresis" unicode="&#xff;" horiz-adv-x="1076" d="M111 818 L8 818 L8 969 L468 969 L468 818 L293 818 L503 357 Q506 350 551 238 Q576 307 605 375 L790 818 L621 818 L621 969 L1076 969 L1076 818 L967 818 L546 -147 Q474 -310 404 -363 Q360 -396 307 -408.5 Q254 -421 155 -422 L155 -271 Q259 -270 303.5 -240 Q348 -210 389 -112 L462 61 L111 818 Z M294 1174 L294 1368 L471 1368 L471 1174 L294 1174 Z M642 1174 L642 1368 L819 1368 L819 1174 L642 1174 Z " />
<glyph glyph-name="Ydieresis" unicode="&#x178;" horiz-adv-x="1153" d="M484 151 L484 671 L112 1324 L-16 1324 L-16 1475 L466 1475 L466 1324 L319 1324 L583 835 L846 1324 L701 1324 L701 1475 L1164 1475 L1164 1324 L1032 1324 L664 669 L664 151 L845 151 L845 0 L303 0 L303 151 L484 151 Z M313 1651 L313 1845 L490 1845 L490 1651 L313 1651 Z M694 1651 L694 1845 L871 1845 L871 1651 L694 1651 Z " />
<glyph glyph-name="fraction" unicode="&#x2044;" horiz-adv-x="287" d="M-302 0 L437 1475 L589 1475 L-150 0 L-302 0 Z " />
<glyph glyph-name="Euro" unicode="&#x20ac;" horiz-adv-x="1470" d="M36 514 L36 633 L209 633 Q205 684 205 724 Q205 753 207 786 L36 786 L36 905 L219 905 Q248 1096 347 1244 Q522 1506 845 1506 Q1058 1506 1192 1391 L1192 1475 L1340 1475 L1340 1044 L1184 1044 L1184 1071 Q1184 1171 1143 1228 Q1103 1283 1024.5 1315 Q946 1347 851 1347 Q677 1347 560.5 1231.5 Q444 1116 405 905 L1004 905 L1004 786 L392 786 Q389 752 389 722 Q389 684 393 633 L923 633 L923 514 L414 514 Q446 400 491 326 Q613 130 861 130 Q1022 130 1142 217 Q1189 250 1270 348 L1384 228 Q1284 93 1158 31 Q1032 -31 857 -31 Q502 -31 340 219 Q253 352 223 514 L36 514 Z " />
<glyph glyph-name="guilsinglleft" unicode="&#x2039;" horiz-adv-x="495" d="M235 463 L447 95 L275 95 L71 463 L275 832 L447 832 L235 463 Z " />
<glyph glyph-name="guilsinglright" unicode="&#x203a;" horiz-adv-x="495" d="M256 463 L44 832 L216 832 L420 463 L216 95 L44 95 L256 463 Z " />
<glyph glyph-name="fi" unicode="&#xfb01;" horiz-adv-x="1285" d="M219 151 L219 818 L65 818 L65 969 L219 975 L219 1102 Q219 1305 297.5 1397 Q376 1489 548 1489 Q632 1489 710 1475 L699 1330 Q623 1342 571 1342 Q506 1342 469.5 1322 Q433 1302 415 1255 Q393 1202 393 1096 L393 969 L637 969 L637 818 L393 818 L393 151 L598 151 L598 0 L65 0 L65 151 L219 151 Z M910 151 L910 818 L759 818 L759 969 L1084 969 L1084 151 L1231 151 L1231 0 L753 0 L753 151 L910 151 Z M896 1164 L896 1368 L1095 1368 L1095 1164 L896 1164 Z " />
<glyph glyph-name="fl" unicode="&#xfb02;" horiz-adv-x="1292" d="M219 151 L219 818 L65 818 L65 969 L219 975 L219 1102 Q219 1305 297.5 1397 Q376 1489 548 1489 Q632 1489 710 1475 L699 1330 Q623 1342 571 1342 Q506 1342 469.5 1322 Q433 1302 415 1255 Q393 1202 393 1096 L393 969 L637 969 L637 818 L393 818 L393 151 L598 151 L598 0 L65 0 L65 151 L219 151 Z M915 151 L915 1324 L764 1324 L764 1475 L1089 1475 L1089 151 L1236 151 L1236 0 L758 0 L758 151 L915 151 Z " />
<glyph glyph-name="daggerdbl" unicode="&#x2021;" horiz-adv-x="1147" d="M496 924 L147 924 L147 1066 L496 1066 L496 1490 L650 1490 L650 1065 L1001 1065 L1001 923 L650 923 L650 384 L1001 384 L1001 238 L650 238 L650 -183 L496 -183 L496 238 L147 238 L147 384 L496 384 L496 924 Z " />
<glyph glyph-name="periodcentered" unicode="&#xb7;" horiz-adv-x="574" d="M186 443 L186 664 L390 664 L390 443 L186 443 Z " />
<glyph glyph-name="quotesinglbase" unicode="&#x201a;" horiz-adv-x="541" d="M75 -229 L211 216 L421 216 L248 -229 L75 -229 Z " />
<glyph glyph-name="quotedblbase" unicode="&#x201e;" horiz-adv-x="873" d="M80 -224 L215 221 L425 221 L253 -224 L80 -224 Z M403 -224 L539 221 L749 221 L576 -224 L403 -224 Z " />
<glyph glyph-name="perthousand" unicode="&#x2030;" horiz-adv-x="2495" d="M436 1506 Q591 1506 695 1395 Q789 1296 789 1155 Q789 1015 695 916 Q591 805 431 805 Q272 805 168 916 Q74 1016 74 1155 Q74 1298 168 1395 Q275 1506 436 1506 Z M429 1370 Q344 1370 286.5 1308 Q229 1246 229 1155 Q229 1064 287 1002.5 Q345 941 431 941 Q523 941 581 1009 Q634 1070 634 1156 Q634 1249 575.5 1309.5 Q517 1370 429 1370 Z M315 0 L1218 1475 L1370 1475 L467 0 L315 0 Z M1258 670 Q1413 670 1517 559 Q1611 460 1611 319 Q1611 180 1517 80 Q1413 -31 1254 -31 Q1094 -31 990 80 Q896 180 896 319 Q896 462 990 559 Q1097 670 1258 670 Z M1251 534 Q1166 534 1108.5 472 Q1051 410 1051 320 Q1051 228 1109 166.5 Q1167 105 1253 105 Q1345 105 1403 173 Q1456 234 1456 319 Q1456 412 1398 473 Q1340 534 1251 534 Z M2068 670 Q2223 670 2327 559 Q2421 460 2421 319 Q2421 180 2327 80 Q2223 -31 2063 -31 Q1904 -31 1800 80 Q1706 180 1706 319 Q1706 462 1800 559 Q1907 670 2068 670 Z M2061 534 Q1976 534 1918.5 472 Q1861 410 1861 320 Q1861 228 1919 166.5 Q1977 105 2063 105 Q2155 105 2213 173 Q2266 234 2266 319 Q2266 412 2207.5 473 Q2149 534 2061 534 Z " />
<glyph glyph-name="Acircumflex" unicode="&#xc2;" horiz-adv-x="1460" d="M1043 434 L410 434 L306 151 L467 151 L467 0 L0 0 L0 151 L122 151 L626 1475 L824 1475 L1334 151 L1460 151 L1460 0 L987 0 L987 151 L1149 151 L1043 434 Z M987 582 L723 1296 L465 582 L987 582 Z M730 1809 L568 1596 L444 1596 L641 1920 L819 1920 L1014 1596 L891 1596 L730 1809 Z " />
<glyph glyph-name="Ecircumflex" unicode="&#xca;" horiz-adv-x="1211" d="M226 151 L226 1324 L82 1324 L82 1475 L1104 1475 L1104 1116 L948 1116 L948 1324 L406 1324 L406 842 L892 842 L892 691 L406 691 L406 151 L958 151 L958 400 L1114 400 L1114 0 L82 0 L82 151 L226 151 Z M638 1809 L476 1596 L352 1596 L549 1920 L727 1920 L922 1596 L799 1596 L638 1809 Z " />
<glyph glyph-name="Aacute" unicode="&#xc1;" horiz-adv-x="1460" d="M1043 434 L410 434 L306 151 L467 151 L467 0 L0 0 L0 151 L122 151 L626 1475 L824 1475 L1334 151 L1460 151 L1460 0 L987 0 L987 151 L1149 151 L1043 434 Z M987 582 L723 1296 L465 582 L987 582 Z M641 1596 L823 1920 L1019 1920 L765 1596 L641 1596 Z " />
<glyph glyph-name="Edieresis" unicode="&#xcb;" horiz-adv-x="1211" d="M226 151 L226 1324 L82 1324 L82 1475 L1104 1475 L1104 1116 L948 1116 L948 1324 L406 1324 L406 842 L892 842 L892 691 L406 691 L406 151 L958 151 L958 400 L1114 400 L1114 0 L82 0 L82 151 L226 151 Z M333 1651 L333 1845 L510 1845 L510 1651 L333 1651 Z M714 1651 L714 1845 L891 1845 L891 1651 L714 1651 Z " />
<glyph glyph-name="Egrave" unicode="&#xc8;" horiz-adv-x="1211" d="M226 151 L226 1324 L82 1324 L82 1475 L1104 1475 L1104 1116 L948 1116 L948 1324 L406 1324 L406 842 L892 842 L892 691 L406 691 L406 151 L958 151 L958 400 L1114 400 L1114 0 L82 0 L82 151 L226 151 Z M630 1596 L376 1920 L572 1920 L754 1596 L630 1596 Z " />
<glyph glyph-name="Iacute" unicode="&#xcd;" horiz-adv-x="639" d="M229 151 L229 1324 L85 1324 L85 1475 L554 1475 L554 1324 L409 1324 L409 151 L554 151 L554 0 L85 0 L85 151 L229 151 Z M217 1596 L399 1920 L595 1920 L341 1596 L217 1596 Z " />
<glyph glyph-name="Icircumflex" unicode="&#xce;" horiz-adv-x="639" d="M228 151 L228 1324 L84 1324 L84 1475 L553 1475 L553 1324 L408 1324 L408 151 L553 151 L553 0 L84 0 L84 151 L228 151 Z M319 1809 L157 1596 L33 1596 L230 1920 L408 1920 L603 1596 L480 1596 L319 1809 Z " />
<glyph glyph-name="Idieresis" unicode="&#xcf;" horiz-adv-x="639" d="M229 151 L229 1324 L85 1324 L85 1475 L554 1475 L554 1324 L409 1324 L409 151 L554 151 L554 0 L85 0 L85 151 L229 151 Z M40 1651 L40 1845 L217 1845 L217 1651 L40 1651 Z M421 1651 L421 1845 L598 1845 L598 1651 L421 1651 Z " />
<glyph glyph-name="Igrave" unicode="&#xcc;" horiz-adv-x="639" d="M229 151 L229 1324 L85 1324 L85 1475 L554 1475 L554 1324 L409 1324 L409 151 L554 151 L554 0 L85 0 L85 151 L229 151 Z M310 1596 L56 1920 L252 1920 L434 1596 L310 1596 Z " />
<glyph glyph-name="Oacute" unicode="&#xd3;" horiz-adv-x="1714" d="M867 1506 Q1091 1506 1280 1382 Q1468 1259 1557 1055 Q1621 907 1621 738 Q1621 439 1431 223 Q1318 95 1163 30 Q1020 -31 856 -31 Q621 -31 433 93 Q247 215 157 421 Q92 569 92 736 Q92 1042 283 1252 Q514 1506 867 1506 Z M849 1348 Q601 1348 432 1165 Q276 995 276 737 Q276 481 432 310 Q601 127 857 127 Q1112 127 1281 310 Q1437 481 1437 736 Q1437 999 1281 1165 Q1108 1348 849 1348 Z M719 1596 L901 1920 L1097 1920 L843 1596 L719 1596 Z " />
<glyph glyph-name="Ocircumflex" unicode="&#xd4;" horiz-adv-x="1714" d="M867 1506 Q1091 1506 1280 1382 Q1468 1259 1557 1055 Q1621 907 1621 738 Q1621 439 1431 223 Q1318 95 1163 30 Q1020 -31 856 -31 Q621 -31 433 93 Q247 215 157 421 Q92 569 92 736 Q92 1042 283 1252 Q514 1506 867 1506 Z M849 1348 Q601 1348 432 1165 Q276 995 276 737 Q276 481 432 310 Q601 127 857 127 Q1112 127 1281 310 Q1437 481 1437 736 Q1437 999 1281 1165 Q1108 1348 849 1348 Z M856 1809 L694 1596 L570 1596 L767 1920 L945 1920 L1140 1596 L1017 1596 L856 1809 Z " />
<glyph glyph-name="Ograve" unicode="&#xd2;" horiz-adv-x="1714" d="M867 1506 Q1091 1506 1280 1382 Q1468 1259 1557 1055 Q1621 907 1621 738 Q1621 439 1431 223 Q1318 95 1163 30 Q1020 -31 856 -31 Q621 -31 433 93 Q247 215 157 421 Q92 569 92 736 Q92 1042 283 1252 Q514 1506 867 1506 Z M849 1348 Q601 1348 432 1165 Q276 995 276 737 Q276 481 432 310 Q601 127 857 127 Q1112 127 1281 310 Q1437 481 1437 736 Q1437 999 1281 1165 Q1108 1348 849 1348 Z M869 1596 L615 1920 L811 1920 L993 1596 L869 1596 Z " />
<glyph glyph-name="Uacute" unicode="&#xda;" horiz-adv-x="1436" d="M72 1324 L72 1475 L547 1475 L547 1324 L396 1324 L396 566 Q396 367 445 271 Q517 130 718 130 Q918 130 991 271 Q1040 366 1040 566 L1040 1324 L889 1324 L889 1475 L1364 1475 L1364 1324 L1220 1324 L1220 623 Q1220 432 1203.5 335 Q1187 238 1143 165 Q1024 -31 718 -31 Q413 -31 293 165 Q249 238 232.5 335.5 Q216 433 216 623 L216 1324 L72 1324 Z M644 1596 L826 1920 L1022 1920 L768 1596 L644 1596 Z " />
<glyph glyph-name="Ucircumflex" unicode="&#xdb;" horiz-adv-x="1436" d="M72 1324 L72 1475 L547 1475 L547 1324 L396 1324 L396 566 Q396 367 445 271 Q517 130 718 130 Q918 130 991 271 Q1040 366 1040 566 L1040 1324 L889 1324 L889 1475 L1364 1475 L1364 1324 L1220 1324 L1220 623 Q1220 432 1203.5 335 Q1187 238 1143 165 Q1024 -31 718 -31 Q413 -31 293 165 Q249 238 232.5 335.5 Q216 433 216 623 L216 1324 L72 1324 Z M730 1809 L568 1596 L444 1596 L641 1920 L819 1920 L1014 1596 L891 1596 L730 1809 Z " />
<glyph glyph-name="Ugrave" unicode="&#xd9;" horiz-adv-x="1436" d="M72 1324 L72 1475 L547 1475 L547 1324 L396 1324 L396 566 Q396 367 445 271 Q517 130 718 130 Q918 130 991 271 Q1040 366 1040 566 L1040 1324 L889 1324 L889 1475 L1364 1475 L1364 1324 L1220 1324 L1220 623 Q1220 432 1203.5 335 Q1187 238 1143 165 Q1024 -31 718 -31 Q413 -31 293 165 Q249 238 232.5 335.5 Q216 433 216 623 L216 1324 L72 1324 Z M720 1596 L466 1920 L662 1920 L844 1596 L720 1596 Z " />
<glyph glyph-name="dotlessi" unicode="&#x131;" horiz-adv-x="606" d="M230 151 L230 818 L79 818 L79 969 L404 969 L404 151 L551 151 L551 0 L73 0 L73 151 L230 151 Z " />
<glyph glyph-name="circumflex" unicode="&#x2c6;" horiz-adv-x="1024" d="M512 1356 L338 1118 L214 1118 L424 1467 L601 1467 L810 1118 L686 1118 L512 1356 Z " />
<glyph glyph-name="tilde" unicode="&#x2dc;" horiz-adv-x="1024" d="M314 1171 L206 1171 Q250 1375 398 1375 Q435 1375 462 1364.5 Q489 1354 571 1308 Q603 1290 625 1290 Q675 1290 709 1374 L817 1374 Q792 1280 759 1234 Q708 1165 617 1165 Q558 1165 452 1226 Q413 1249 391 1249 Q345 1249 314 1171 Z " />
<glyph glyph-name="overscore" unicode="&#xaf;" horiz-adv-x="1024" d="M247 1203 L247 1341 L777 1341 L777 1203 L247 1203 Z " />
<glyph glyph-name="breve" unicode="&#x2d8;" horiz-adv-x="1024" d="M225 1427 L328 1427 Q334 1352 368 1319 Q414 1273 512 1273 Q603 1273 645 1308.5 Q687 1344 694 1427 L798 1427 Q785 1290 729 1224 Q661 1143 513 1143 Q347 1143 280 1242 Q235 1307 225 1427 Z " />
<glyph glyph-name="dotaccent" unicode="&#x2d9;" horiz-adv-x="1024" d="M412 1168 L412 1372 L611 1372 L611 1168 L412 1168 Z " />
<glyph glyph-name="ring" unicode="&#x2da;" horiz-adv-x="1024" d="M516 1548 Q622 1548 684 1486.5 Q746 1425 746 1319 Q746 1213 683.5 1152 Q621 1091 512 1091 Q397 1091 335 1160 Q279 1222 279 1319 Q279 1427 342 1487.5 Q405 1548 516 1548 Z M510 1448 Q454 1448 423 1414.5 Q392 1381 392 1320 Q392 1191 512 1191 Q633 1191 633 1319 Q633 1448 510 1448 Z " />
<glyph glyph-name="cedilla" unicode="&#xb8;" horiz-adv-x="1024" d="M489 0 L608 0 L556 -94 Q642 -101 677 -118 Q774 -162 774 -276 Q774 -374 707.5 -426 Q641 -478 516 -478 Q409 -478 269 -439 L269 -300 Q423 -356 518 -356 Q629 -356 629 -277 Q629 -237 599 -219 Q569 -201 499 -201 Q492 -201 431 -205 L431 -112 L489 0 Z " />
<glyph glyph-name="hungarumlaut" unicode="&#x2dd;" horiz-adv-x="1024" d="M310 1118 L457 1467 L628 1467 L411 1118 L310 1118 Z M572 1118 L744 1467 L920 1467 L675 1118 L572 1118 Z " />
<glyph glyph-name="ogonek" unicode="&#x2db;" horiz-adv-x="1024" d="M559 0 L690 0 Q589 -78 551.5 -128.5 Q514 -179 514 -236 Q514 -317 606 -317 L689 -317 L689 -439 L607 -439 Q369 -439 369 -265 Q369 -196 409.5 -140 Q450 -84 559 0 Z " />
<glyph glyph-name="caron" unicode="&#x2c7;" horiz-adv-x="1024" d="M512 1229 L686 1467 L810 1467 L601 1118 L424 1118 L214 1467 L338 1467 L512 1229 Z " />
<glyph glyph-name="nbspace" unicode="&#xa0;" horiz-adv-x="573" d="" />
<glyph glyph-name="currency" unicode="&#xa4;" horiz-adv-x="1147" d="M135 279 L45 373 L241 567 Q161 674 161 809 Q161 943 240 1050 L45 1243 L135 1337 L331 1141 Q442 1222 575 1222 Q709 1222 817 1141 L1010 1336 L1104 1243 L908 1050 Q987 939 987 810 Q987 676 907 567 L1104 373 L1010 280 L816 476 Q701 396 574 396 Q445 396 332 476 L135 279 Z M571 1087 Q456 1087 374 1002 Q296 921 296 809 Q296 697 374 616 Q456 531 574 531 Q692 531 774 616 Q852 697 852 809 Q852 922 774 1002 Q691 1087 571 1087 Z " />
<glyph glyph-name="brokenbar" unicode="&#xa6;" horiz-adv-x="616" d="M229 846 L229 1448 L388 1448 L388 846 L229 846 Z M229 0 L229 603 L388 603 L388 0 L229 0 Z " />
<glyph glyph-name="uni00AD" unicode="&#xad;" horiz-adv-x="716" d="M88 478 L88 629 L628 629 L628 478 L88 478 Z " />
<glyph glyph-name="twosuperior" unicode="&#xb2;" horiz-adv-x="737" d="M45 819 Q52 892 63.5 926.5 Q75 961 107 1006 Q141 1055 189 1102 Q237 1149 374 1268 Q484 1364 484 1450 Q484 1505 446.5 1539 Q409 1573 349 1573 Q281 1573 246.5 1530.5 Q212 1488 192 1381 L49 1399 Q73 1528 111 1584 Q189 1696 352 1696 Q486 1696 562 1631.5 Q638 1567 638 1454 Q638 1361 594.5 1295 Q551 1229 409 1107 Q285 1000 245 942 L540 942 L540 1094 L672 1094 L672 819 L45 819 Z " />
<glyph glyph-name="threesuperior" unicode="&#xb3;" horiz-adv-x="737" d="M252 1211 L252 1327 Q270 1327 279 1327 Q496 1327 496 1458 Q496 1509 458 1540.5 Q420 1572 359 1572 Q296 1572 260.5 1541 Q225 1510 207 1440 L64 1456 Q96 1582 166.5 1639 Q237 1696 364 1696 Q496 1696 570.5 1633.5 Q645 1571 645 1460 Q645 1332 524 1274 Q674 1211 674 1062 Q674 939 592.5 871 Q511 803 363 803 Q65 803 49 1068 L189 1078 Q197 1006 242 967 Q287 928 362 928 Q435 928 478 964 Q521 1000 521 1061 Q521 1168 393 1199 Q347 1210 252 1211 Z " />
<glyph glyph-name="onesuperior" unicode="&#xb9;" horiz-adv-x="737" d="M306 942 L306 1532 L157 1470 L111 1585 L333 1679 L455 1679 L455 942 L603 942 L603 819 L152 819 L152 942 L306 942 Z " />
<glyph glyph-name="onequarter" unicode="&#xbc;" horiz-adv-x="1761" d="M306 738 L306 1328 L157 1266 L111 1381 L333 1475 L455 1475 L455 738 L603 738 L603 615 L152 615 L152 738 L306 738 Z M401 0 L1140 1475 L1292 1475 L553 0 L401 0 Z M1377 0 L1377 189 L984 189 L984 306 L1245 860 L1400 860 L1139 309 L1377 309 L1377 596 L1516 596 L1516 309 L1641 309 L1641 189 L1516 189 L1516 0 L1377 0 Z " />
<glyph glyph-name="onehalf" unicode="&#xbd;" horiz-adv-x="1761" d="M294 738 L294 1328 L145 1266 L99 1381 L321 1475 L443 1475 L443 738 L591 738 L591 615 L140 615 L140 738 L294 738 Z M385 0 L1124 1475 L1276 1475 L537 0 L385 0 Z M1020 0 Q1027 72 1038.5 106.5 Q1050 141 1082 187 Q1117 236 1163.5 282.5 Q1210 329 1349 449 Q1459 545 1459 631 Q1459 686 1421.5 720 Q1384 754 1324 754 Q1256 754 1221.5 711.5 Q1187 669 1167 562 L1024 580 Q1047 707 1086 765 Q1163 877 1327 877 Q1461 877 1537 812.5 Q1613 748 1613 635 Q1613 542 1570 476.5 Q1527 411 1384 288 Q1259 179 1220 123 L1515 123 L1515 275 L1647 275 L1647 0 L1020 0 Z " />
<glyph glyph-name="threequarters" unicode="&#xbe;" horiz-adv-x="1761" d="M279 1007 L279 1123 Q303 1122 314 1122 Q397 1122 447 1145 Q523 1179 523 1253 Q523 1304 485.5 1335.5 Q448 1367 386 1367 Q323 1367 287 1336 Q251 1305 234 1236 L91 1251 Q123 1378 193.5 1434.5 Q264 1491 391 1491 Q524 1491 598 1429 Q672 1367 672 1255 Q672 1128 551 1070 Q701 1006 701 857 Q701 734 619.5 666 Q538 598 390 598 Q92 598 76 864 L216 874 Q224 801 269 762 Q314 723 389 723 Q462 723 505 759 Q548 795 548 857 Q548 964 420 995 Q374 1005 279 1007 Z M462 0 L1201 1475 L1353 1475 L614 0 L462 0 Z M1411 0 L1411 189 L1018 189 L1018 306 L1279 860 L1435 860 L1173 309 L1411 309 L1411 596 L1550 596 L1550 309 L1675 309 L1675 189 L1550 189 L1550 0 L1411 0 Z " />
<glyph glyph-name="Eth" unicode="&#xd0;" horiz-adv-x="1468" d="M227 151 L227 711 L10 711 L10 848 L227 848 L227 1324 L82 1324 L82 1475 L585 1475 Q933 1475 1138 1307 Q1375 1111 1375 737 Q1375 363 1138 168 Q933 0 585 0 L82 0 L82 151 L227 151 Z M407 151 L574 151 Q845 151 1005 281 Q1191 432 1191 737 Q1191 1042 1006 1194 Q846 1324 574 1324 L407 1324 L407 848 L808 848 L808 711 L407 711 L407 151 Z " />
<glyph glyph-name="multiply" unicode="&#xd7;" horiz-adv-x="1147" d="M466 736 L176 1026 L284 1134 L574 844 L864 1134 L972 1026 L682 736 L972 446 L864 339 L574 629 L284 339 L176 446 L466 736 Z " />
<glyph glyph-name="Yacute" unicode="&#xdd;" horiz-adv-x="1153" d="M484 151 L484 671 L112 1324 L-16 1324 L-16 1475 L466 1475 L466 1324 L319 1324 L583 835 L846 1324 L701 1324 L701 1475 L1164 1475 L1164 1324 L1032 1324 L664 669 L664 151 L845 151 L845 0 L303 0 L303 151 L484 151 Z M524 1596 L706 1920 L902 1920 L648 1596 L524 1596 Z " />
<glyph glyph-name="Thorn" unicode="&#xde;" horiz-adv-x="1238" d="M226 151 L226 1324 L82 1324 L82 1475 L549 1475 L549 1324 L406 1324 L406 1181 L574 1181 Q732 1181 825 1164.5 Q918 1148 992 1107 Q1081 1058 1129 965 Q1177 872 1177 750 Q1177 594 1100 491 Q1035 404 908 363.5 Q781 323 575 323 L406 323 L406 151 L572 151 L572 0 L82 0 L82 151 L226 151 Z M406 466 L582 466 Q789 466 883 531 Q993 606 993 752 Q993 899 882 973 Q789 1035 585 1035 L406 1035 L406 466 Z " />
<glyph glyph-name="eth" unicode="&#xf0;" horiz-adv-x="1200" d="M362 1082 L304 1165 L520 1311 Q442 1383 366 1448 L463 1542 Q584 1446 644 1390 L871 1542 L930 1459 L721 1318 Q1121 923 1121 492 Q1121 256 979 115 Q834 -29 600 -29 Q366 -29 222 115 Q80 255 80 476 Q80 697 222 840 Q363 982 578 982 Q677 982 740.5 954 Q804 926 876 851 Q761 1077 597 1239 L362 1082 Z M595 835 Q435 835 338 723 Q257 629 257 478 Q257 329 338 234 Q434 122 600 122 Q766 122 862 234 Q943 329 943 481 Q943 634 863 723 Q763 835 595 835 Z " />
<glyph glyph-name="yacute" unicode="&#xfd;" horiz-adv-x="1076" d="M111 818 L8 818 L8 969 L468 969 L468 818 L293 818 L503 357 Q506 350 551 238 Q576 307 605 375 L790 818 L621 818 L621 969 L1076 969 L1076 818 L967 818 L546 -147 Q474 -310 404 -363 Q360 -396 307 -408.5 Q254 -421 155 -422 L155 -271 Q259 -270 303.5 -240 Q348 -210 389 -112 L462 61 L111 818 Z M470 1118 L678 1467 L873 1467 L594 1118 L470 1118 Z " />
<glyph glyph-name="thorn" unicode="&#xfe;" horiz-adv-x="1295" d="M207 -271 L208 1324 L57 1324 L57 1475 L382 1475 L382 828 Q397 843 405 851 Q481 928 534 953 Q627 998 741 998 Q954 998 1086 852 Q1214 712 1214 485 Q1214 257 1086 117 Q954 -29 739 -29 Q628 -29 553.5 6.5 Q479 42 381 141 L381 -271 L546 -271 L546 -422 L59 -422 L59 -271 L207 -271 Z M709 847 Q559 847 464 733 Q381 633 381 484 Q381 337 464 236 Q558 122 713 122 Q869 122 960 235 Q1037 331 1037 484 Q1037 649 949 746 Q858 847 709 847 Z " />
<glyph glyph-name="Amacron" unicode="&#x100;" horiz-adv-x="1460" d="M1043 434 L410 434 L306 151 L467 151 L467 0 L0 0 L0 151 L122 151 L626 1475 L824 1475 L1334 151 L1460 151 L1460 0 L987 0 L987 151 L1149 151 L1043 434 Z M987 582 L723 1296 L465 582 L987 582 Z M454 1680 L454 1818 L984 1818 L984 1680 L454 1680 Z " />
<glyph glyph-name="amacron" unicode="&#x101;" horiz-adv-x="1175" d="M792 582 L792 630 Q792 749 751 793 Q695 853 534 853 Q412 853 365 809 Q335 780 327 702 L164 702 Q169 862 255 930 Q341 998 537 998 Q799 998 895 888 Q936 841 952.5 775.5 Q969 710 969 593 L969 151 L1117 151 L1117 0 L806 0 L806 111 Q681 -29 443 -29 Q270 -29 173 45 Q75 120 75 277 Q75 469 221 545 Q311 592 521 592 Q610 592 792 582 Z M795 444 Q682 456 529 456 Q374 456 319 423 Q250 381 250 283 Q250 200 300 161 Q354 119 473 119 Q665 119 753 220 Q778 248 786.5 277 Q795 306 795 363 L795 444 Z M323 1203 L323 1341 L853 1341 L853 1203 L323 1203 Z " />
<glyph glyph-name="Abreve" unicode="&#x102;" horiz-adv-x="1460" d="M1043 434 L410 434 L306 151 L467 151 L467 0 L0 0 L0 151 L122 151 L626 1475 L824 1475 L1334 151 L1460 151 L1460 0 L987 0 L987 151 L1149 151 L1043 434 Z M987 582 L723 1296 L465 582 L987 582 Z M442 1904 L545 1904 Q551 1829 585 1796 Q631 1750 729 1750 Q820 1750 862 1785 Q904 1820 911 1904 L1015 1904 Q1002 1767 946 1700 Q878 1619 730 1619 Q564 1619 497 1718 Q452 1784 442 1904 Z " />
<glyph glyph-name="abreve" unicode="&#x103;" horiz-adv-x="1175" d="M792 582 L792 630 Q792 749 751 793 Q695 853 534 853 Q412 853 365 809 Q335 780 327 702 L164 702 Q169 862 255 930 Q341 998 537 998 Q799 998 895 888 Q936 841 952.5 775.5 Q969 710 969 593 L969 151 L1117 151 L1117 0 L806 0 L806 111 Q681 -29 443 -29 Q270 -29 173 45 Q75 120 75 277 Q75 469 221 545 Q311 592 521 592 Q610 592 792 582 Z M795 444 Q682 456 529 456 Q374 456 319 423 Q250 381 250 283 Q250 200 300 161 Q354 119 473 119 Q665 119 753 220 Q778 248 786.5 277 Q795 306 795 363 L795 444 Z M289 1427 L392 1427 Q398 1352 432 1319 Q478 1273 576 1273 Q667 1273 709 1308.5 Q751 1344 758 1427 L862 1427 Q849 1290 793 1224 Q725 1143 577 1143 Q411 1143 344 1242 Q299 1307 289 1427 Z " />
<glyph glyph-name="Aogonek" unicode="&#x104;" horiz-adv-x="1460" d="M1043 434 L410 434 L306 151 L467 151 L467 0 L0 0 L0 151 L122 151 L626 1475 L824 1475 L1334 151 L1460 151 L1460 0 Q1361 -76 1322 -128 Q1283 -180 1283 -235 Q1283 -317 1375 -317 L1459 -317 L1459 -439 L1376 -439 Q1138 -439 1138 -265 Q1138 -196 1178.5 -140.5 Q1219 -85 1329 0 L987 0 L987 151 L1149 151 L1043 434 Z M987 582 L723 1296 L465 582 L987 582 Z " />
<glyph glyph-name="aogonek" unicode="&#x105;" horiz-adv-x="1175" d="M792 582 L792 630 Q792 749 751 793 Q695 853 534 853 Q412 853 365 809 Q335 780 327 702 L164 702 Q169 862 255 930 Q341 998 537 998 Q799 998 895 888 Q936 841 952.5 775.5 Q969 710 969 593 L969 151 L1117 151 L1117 0 Q1020 -76 981 -128 Q942 -180 942 -235 Q942 -317 1033 -317 L1116 -317 L1116 -439 L1034 -439 Q912 -439 854.5 -396.5 Q797 -354 797 -265 Q797 -196 837 -140 Q877 -84 987 0 L806 0 L806 111 Q681 -29 443 -29 Q75 -29 75 277 Q75 469 221 545 Q311 592 521 592 Q610 592 792 582 Z M795 444 Q682 456 529 456 Q374 456 319 423 Q250 381 250 283 Q250 200 300 161 Q354 119 473 119 Q665 119 753 220 Q778 248 786.5 277 Q795 306 795 363 L795 444 Z " />
<glyph glyph-name="Cacute" unicode="&#x106;" horiz-adv-x="1476" d="M1263 348 L1377 227 Q1281 111 1173 54 Q1013 -31 799 -31 Q438 -31 257 190 Q92 390 92 722 Q92 1081 286 1297 Q472 1506 789 1506 Q1029 1506 1185 1391 L1185 1475 L1333 1475 L1333 1044 L1177 1044 L1177 1071 Q1177 1172 1128 1228 Q1079 1284 990 1315.5 Q901 1347 792 1347 Q538 1347 401 1161 Q276 991 276 723 Q276 451 417 286 Q549 130 803 130 Q982 130 1119 216 Q1170 249 1263 348 Z M692 1596 L874 1920 L1070 1920 L816 1596 L692 1596 Z " />
<glyph glyph-name="cacute" unicode="&#x107;" horiz-adv-x="1027" d="M897 248 L990 127 Q820 -29 559 -29 Q341 -29 215 95 Q80 229 80 474 Q80 711 203 854 Q327 998 536 998 Q686 998 796 914 L796 969 L933 969 L933 637 L785 637 L785 667 Q785 747 745 784 Q678 848 559 848 Q409 848 330 741 Q257 642 257 479 Q257 303 351 207 Q432 123 572 123 Q749 123 897 248 Z M452 1118 L660 1467 L855 1467 L576 1118 L452 1118 Z " />
<glyph glyph-name="Ccircumflex" unicode="&#x108;" horiz-adv-x="1476" d="M1263 348 L1377 227 Q1281 111 1173 54 Q1013 -31 799 -31 Q438 -31 257 190 Q92 390 92 722 Q92 1081 286 1297 Q472 1506 789 1506 Q1029 1506 1185 1391 L1185 1475 L1333 1475 L1333 1044 L1177 1044 L1177 1071 Q1177 1172 1128 1228 Q1079 1284 990 1315.5 Q901 1347 792 1347 Q538 1347 401 1161 Q276 991 276 723 Q276 451 417 286 Q549 130 803 130 Q982 130 1119 216 Q1170 249 1263 348 Z M790 1809 L628 1596 L504 1596 L701 1920 L879 1920 L1074 1596 L951 1596 L790 1809 Z " />
<glyph glyph-name="ccircumflex" unicode="&#x109;" horiz-adv-x="1027" d="M897 248 L990 127 Q820 -29 559 -29 Q341 -29 215 95 Q80 229 80 474 Q80 711 203 854 Q327 998 536 998 Q686 998 796 914 L796 969 L933 969 L933 637 L785 637 L785 667 Q785 747 745 784 Q678 848 559 848 Q409 848 330 741 Q257 642 257 479 Q257 303 351 207 Q432 123 572 123 Q749 123 897 248 Z M557 1356 L383 1118 L259 1118 L469 1467 L646 1467 L855 1118 L731 1118 L557 1356 Z " />
<glyph glyph-name="Cdotaccent" unicode="&#x10a;" horiz-adv-x="1476" d="M1263 348 L1377 227 Q1281 111 1173 54 Q1013 -31 799 -31 Q438 -31 257 190 Q92 390 92 722 Q92 1081 286 1297 Q472 1506 789 1506 Q1029 1506 1185 1391 L1185 1475 L1333 1475 L1333 1044 L1177 1044 L1177 1071 Q1177 1172 1128 1228 Q1079 1284 990 1315.5 Q901 1347 792 1347 Q538 1347 401 1161 Q276 991 276 723 Q276 451 417 286 Q549 130 803 130 Q982 130 1119 216 Q1170 249 1263 348 Z M703 1646 L703 1850 L902 1850 L902 1646 L703 1646 Z " />
<glyph glyph-name="cdotaccent" unicode="&#x10b;" horiz-adv-x="1027" d="M897 248 L990 127 Q820 -29 559 -29 Q341 -29 215 95 Q80 229 80 474 Q80 711 203 854 Q327 998 536 998 Q686 998 796 914 L796 969 L933 969 L933 637 L785 637 L785 667 Q785 747 745 784 Q678 848 559 848 Q409 848 330 741 Q257 642 257 479 Q257 303 351 207 Q432 123 572 123 Q749 123 897 248 Z M457 1168 L457 1372 L656 1372 L656 1168 L457 1168 Z " />
<glyph glyph-name="Ccaron" unicode="&#x10c;" horiz-adv-x="1476" d="M1263 348 L1377 227 Q1281 111 1173 54 Q1013 -31 799 -31 Q438 -31 257 190 Q92 390 92 722 Q92 1081 286 1297 Q472 1506 789 1506 Q1029 1506 1185 1391 L1185 1475 L1333 1475 L1333 1044 L1177 1044 L1177 1071 Q1177 1172 1128 1228 Q1079 1284 990 1315.5 Q901 1347 792 1347 Q538 1347 401 1161 Q276 991 276 723 Q276 451 417 286 Q549 130 803 130 Q982 130 1119 216 Q1170 249 1263 348 Z M809 1707 L970 1920 L1094 1920 L897 1596 L720 1596 L524 1920 L646 1920 L809 1707 Z " />
<glyph glyph-name="ccaron" unicode="&#x10d;" horiz-adv-x="1027" d="M897 248 L990 127 Q820 -29 559 -29 Q341 -29 215 95 Q80 229 80 474 Q80 711 203 854 Q327 998 536 998 Q686 998 796 914 L796 969 L933 969 L933 637 L785 637 L785 667 Q785 747 745 784 Q678 848 559 848 Q409 848 330 741 Q257 642 257 479 Q257 303 351 207 Q432 123 572 123 Q749 123 897 248 Z M567 1229 L741 1467 L865 1467 L656 1118 L479 1118 L269 1467 L393 1467 L567 1229 Z " />
<glyph glyph-name="Dcaron" unicode="&#x10e;" horiz-adv-x="1496" d="M226 151 L226 1324 L82 1324 L82 1475 L613 1475 Q961 1475 1166 1307 Q1403 1112 1403 738 Q1403 363 1166 168 Q961 0 613 0 L82 0 L82 151 L226 151 Z M406 151 L601 151 Q873 151 1033 281 Q1219 432 1219 737 Q1219 1042 1034 1194 Q874 1324 601 1324 L406 1324 L406 151 Z M641 1707 L802 1920 L926 1920 L729 1596 L552 1596 L356 1920 L478 1920 L641 1707 Z " />
<glyph glyph-name="dcaron" unicode="&#x10f;" horiz-adv-x="1497" d="M900 0 L900 151 Q850 93 821 68 Q708 -29 541 -29 Q333 -29 204 117 Q80 258 80 485 Q80 712 204 852 Q333 998 541 998 Q652 998 733.5 958 Q815 918 888 828 L888 1324 L718 1324 L718 1475 L1062 1475 L1062 151 L1210 151 L1210 0 L900 0 Z M563 847 Q428 847 341 746 Q257 648 257 485 Q257 332 331 235 Q418 122 568 122 Q719 122 808 236 Q888 338 888 483 Q888 646 798 746.5 Q708 847 563 847 Z M1233 1030 L1343 1475 L1538 1475 L1365 1030 L1233 1030 Z " />
<glyph glyph-name="Dcroat" unicode="&#x110;" horiz-adv-x="1468" d="M227 151 L227 711 L10 711 L10 848 L227 848 L227 1324 L82 1324 L82 1475 L585 1475 Q933 1475 1138 1307 Q1375 1111 1375 737 Q1375 363 1138 168 Q933 0 585 0 L82 0 L82 151 L227 151 Z M407 151 L574 151 Q845 151 1005 281 Q1191 432 1191 737 Q1191 1042 1006 1194 Q846 1324 574 1324 L407 1324 L407 848 L808 848 L808 711 L407 711 L407 151 Z " />
<glyph glyph-name="dcroat" unicode="&#x111;" horiz-adv-x="1274" d="M888 1115 L574 1115 L574 1218 L888 1218 L888 1340 L718 1340 L718 1475 L1062 1475 L1062 1218 L1210 1218 L1210 1115 L1062 1115 L1062 151 L1210 151 L1210 0 L900 0 L900 151 Q849 92 821 68 Q708 -29 541 -29 Q333 -29 204 117 Q80 258 80 485 Q80 712 204 852 Q333 998 541 998 Q653 998 733.5 958.5 Q814 919 888 828 L888 1115 Z M563 847 Q428 847 341 746 Q257 648 257 485 Q257 332 331 235 Q418 122 568 122 Q719 122 808 236 Q888 338 888 483 Q888 646 798 746.5 Q708 847 563 847 Z " />
<glyph glyph-name="Emacron" unicode="&#x112;" horiz-adv-x="1211" d="M226 151 L226 1324 L82 1324 L82 1475 L1104 1475 L1104 1116 L948 1116 L948 1324 L406 1324 L406 842 L892 842 L892 691 L406 691 L406 151 L958 151 L958 400 L1114 400 L1114 0 L82 0 L82 151 L226 151 Z M354 1680 L354 1818 L884 1818 L884 1680 L354 1680 Z " />
<glyph glyph-name="emacron" unicode="&#x113;" horiz-adv-x="1136" d="M1060 435 L260 435 Q273 328 311 267 Q401 122 593 122 Q688 122 770.5 149.5 Q853 177 955 243 L1041 113 Q826 -30 591 -30 Q355 -30 215 117 Q79 259 79 485 Q79 711 213 853 Q348 998 574 998 Q758 998 883 893 Q1058 746 1060 435 Z M875 574 Q858 672 816 731 Q730 851 570 851 Q394 851 311 708 Q279 652 264 574 L875 574 Z M315 1203 L315 1341 L845 1341 L845 1203 L315 1203 Z " />
<glyph glyph-name="Ebreve" unicode="&#x114;" horiz-adv-x="1211" d="M226 151 L226 1324 L82 1324 L82 1475 L1104 1475 L1104 1116 L948 1116 L948 1324 L406 1324 L406 842 L892 842 L892 691 L406 691 L406 151 L958 151 L958 400 L1114 400 L1114 0 L82 0 L82 151 L226 151 Z M348 1904 L451 1904 Q457 1829 491 1796 Q537 1750 635 1750 Q726 1750 768 1785 Q810 1820 817 1904 L921 1904 Q908 1767 852 1700 Q784 1619 636 1619 Q470 1619 403 1718 Q358 1784 348 1904 Z " />
<glyph glyph-name="ebreve" unicode="&#x115;" horiz-adv-x="1136" d="M1060 435 L260 435 Q273 328 311 267 Q401 122 593 122 Q688 122 770.5 149.5 Q853 177 955 243 L1041 113 Q826 -30 591 -30 Q355 -30 215 117 Q79 259 79 485 Q79 711 213 853 Q348 998 574 998 Q758 998 883 893 Q1058 746 1060 435 Z M875 574 Q858 672 816 731 Q730 851 570 851 Q394 851 311 708 Q279 652 264 574 L875 574 Z M292 1427 L395 1427 Q401 1352 435 1319 Q481 1273 579 1273 Q670 1273 712 1308.5 Q754 1344 761 1427 L865 1427 Q852 1290 796 1224 Q728 1143 580 1143 Q414 1143 347 1242 Q302 1307 292 1427 Z " />
<glyph glyph-name="Edotaccent" unicode="&#x116;" horiz-adv-x="1211" d="M226 151 L226 1324 L82 1324 L82 1475 L1104 1475 L1104 1116 L948 1116 L948 1324 L406 1324 L406 842 L892 842 L892 691 L406 691 L406 151 L958 151 L958 400 L1114 400 L1114 0 L82 0 L82 151 L226 151 Z M553 1646 L553 1850 L752 1850 L752 1646 L553 1646 Z " />
<glyph glyph-name="edotaccent" unicode="&#x117;" horiz-adv-x="1136" d="M1060 435 L260 435 Q273 328 311 267 Q401 122 593 122 Q688 122 770.5 149.5 Q853 177 955 243 L1041 113 Q826 -30 591 -30 Q355 -30 215 117 Q79 259 79 485 Q79 711 213 853 Q348 998 574 998 Q758 998 883 893 Q1058 746 1060 435 Z M875 574 Q858 672 816 731 Q730 851 570 851 Q394 851 311 708 Q279 652 264 574 L875 574 Z M476 1168 L476 1372 L675 1372 L675 1168 L476 1168 Z " />
<glyph glyph-name="Eogonek" unicode="&#x118;" horiz-adv-x="1211" d="M226 151 L226 1324 L82 1324 L82 1475 L1104 1475 L1104 1116 L948 1116 L948 1324 L406 1324 L406 842 L892 842 L892 691 L406 691 L406 151 L958 151 L958 400 L1114 400 L1114 0 Q1011 -81 974.5 -130 Q938 -179 938 -236 Q938 -317 1029 -317 L1113 -317 L1113 -439 L1030 -439 Q793 -439 793 -265 Q793 -198 836 -137.5 Q879 -77 983 0 L82 0 L82 151 L226 151 Z " />
<glyph glyph-name="eogonek" unicode="&#x119;" horiz-adv-x="1136" d="M1060 435 L261 435 Q273 328 311 267 Q401 122 593 122 Q689 122 771.5 149.5 Q854 177 955 243 L1042 113 Q876 -1 670 -25 Q592 -88 559 -136 Q526 -184 526 -235 Q526 -278 547.5 -297.5 Q569 -317 618 -317 L701 -317 L701 -439 L619 -439 Q381 -439 381 -265 Q381 -151 535 -27 Q386 -15 277 63 Q79 206 79 485 Q79 711 213 853 Q348 998 574 998 Q759 998 884 893 Q1059 746 1060 435 Z M876 574 Q859 672 816 731 Q730 851 571 851 Q395 851 311 708 Q279 652 265 574 L876 574 Z " />
<glyph glyph-name="Ecaron" unicode="&#x11a;" horiz-adv-x="1211" d="M226 151 L226 1324 L82 1324 L82 1475 L1104 1475 L1104 1116 L948 1116 L948 1324 L406 1324 L406 842 L892 842 L892 691 L406 691 L406 151 L958 151 L958 400 L1114 400 L1114 0 L82 0 L82 151 L226 151 Z M639 1707 L800 1920 L924 1920 L727 1596 L550 1596 L354 1920 L476 1920 L639 1707 Z " />
<glyph glyph-name="ecaron" unicode="&#x11b;" horiz-adv-x="1136" d="M1060 435 L260 435 Q273 328 311 267 Q401 122 593 122 Q688 122 770.5 149.5 Q853 177 955 243 L1041 113 Q826 -30 591 -30 Q355 -30 215 117 Q79 259 79 485 Q79 711 213 853 Q348 998 574 998 Q758 998 883 893 Q1058 746 1060 435 Z M875 574 Q858 672 816 731 Q730 851 570 851 Q394 851 311 708 Q279 652 264 574 L875 574 Z M575 1229 L749 1467 L873 1467 L664 1118 L487 1118 L277 1467 L401 1467 L575 1229 Z " />
<glyph glyph-name="Gcircumflex" unicode="&#x11c;" horiz-adv-x="1663" d="M806 571 L806 722 L1482 722 L1482 59 Q1220 -31 888 -31 Q625 -31 451 63 Q273 160 181 338 Q92 508 92 730 Q92 1106 346 1329 Q545 1505 861 1505 Q1121 1505 1284 1391 L1284 1475 L1432 1475 L1432 1044 L1276 1044 L1276 1071 Q1276 1170 1226 1226 Q1175 1284 1082 1315.5 Q989 1347 871 1347 Q596 1347 437 1177 Q276 1006 276 732 Q276 451 447 282 Q604 127 900 127 Q1105 127 1314 193 L1314 571 L806 571 Z M876 1809 L714 1596 L590 1596 L787 1920 L965 1920 L1160 1596 L1037 1596 L876 1809 Z " />
<glyph glyph-name="gcircumflex" unicode="&#x11d;" horiz-adv-x="1273" d="M888 154 Q842 102 811 77 Q702 -11 542 -11 Q333 -11 204 131 Q80 268 80 489 Q80 710 201 850 Q330 998 543 998 Q659 998 740.5 957 Q822 916 900 818 L900 969 L1224 969 L1224 818 L1062 818 L1062 95 Q1062 -157 990 -272 Q878 -452 575 -452 Q361 -452 263 -378.5 Q165 -305 158 -139 L322 -139 Q330 -214 366 -250 Q423 -306 579 -306 Q772 -306 840 -186 Q867 -139 877.5 -81 Q888 -23 888 81 L888 154 Z M563 847 Q428 847 341 747 Q257 651 257 490 Q257 342 331 249 Q418 140 568 140 Q718 140 808 248 Q888 344 888 486 Q888 647 797.5 747 Q707 847 563 847 Z M621 1356 L447 1118 L323 1118 L533 1467 L710 1467 L919 1118 L795 1118 L621 1356 Z " />
<glyph glyph-name="Gbreve" unicode="&#x11e;" horiz-adv-x="1663" d="M806 571 L806 722 L1482 722 L1482 59 Q1220 -31 888 -31 Q625 -31 451 63 Q273 160 181 338 Q92 508 92 730 Q92 1106 346 1329 Q545 1505 861 1505 Q1121 1505 1284 1391 L1284 1475 L1432 1475 L1432 1044 L1276 1044 L1276 1071 Q1276 1170 1226 1226 Q1175 1284 1082 1315.5 Q989 1347 871 1347 Q596 1347 437 1177 Q276 1006 276 732 Q276 451 447 282 Q604 127 900 127 Q1105 127 1314 193 L1314 571 L806 571 Z M579 1904 L682 1904 Q688 1829 722 1796 Q768 1750 866 1750 Q957 1750 999 1785 Q1041 1820 1048 1904 L1152 1904 Q1139 1767 1083 1700 Q1015 1619 867 1619 Q701 1619 634 1718 Q589 1784 579 1904 Z " />
<glyph glyph-name="gbreve" unicode="&#x11f;" horiz-adv-x="1273" d="M888 154 Q842 102 811 77 Q702 -11 542 -11 Q333 -11 204 131 Q80 268 80 489 Q80 710 201 850 Q330 998 543 998 Q659 998 740.5 957 Q822 916 900 818 L900 969 L1224 969 L1224 818 L1062 818 L1062 95 Q1062 -157 990 -272 Q878 -452 575 -452 Q361 -452 263 -378.5 Q165 -305 158 -139 L322 -139 Q330 -214 366 -250 Q423 -306 579 -306 Q772 -306 840 -186 Q867 -139 877.5 -81 Q888 -23 888 81 L888 154 Z M563 847 Q428 847 341 747 Q257 651 257 490 Q257 342 331 249 Q418 140 568 140 Q718 140 808 248 Q888 344 888 486 Q888 647 797.5 747 Q707 847 563 847 Z M356 1427 L459 1427 Q465 1352 499 1319 Q545 1273 643 1273 Q734 1273 776 1308.5 Q818 1344 825 1427 L929 1427 Q916 1290 860 1224 Q792 1143 644 1143 Q478 1143 411 1242 Q366 1307 356 1427 Z " />
<glyph glyph-name="Gdotaccent" unicode="&#x120;" horiz-adv-x="1663" d="M806 571 L806 722 L1482 722 L1482 59 Q1220 -31 888 -31 Q625 -31 451 63 Q273 160 181 338 Q92 508 92 730 Q92 1106 346 1329 Q545 1505 861 1505 Q1121 1505 1284 1391 L1284 1475 L1432 1475 L1432 1044 L1276 1044 L1276 1071 Q1276 1170 1226 1226 Q1175 1284 1082 1315.5 Q989 1347 871 1347 Q596 1347 437 1177 Q276 1006 276 732 Q276 451 447 282 Q604 127 900 127 Q1105 127 1314 193 L1314 571 L806 571 Z M767 1646 L767 1850 L966 1850 L966 1646 L767 1646 Z " />
<glyph glyph-name="gdotaccent" unicode="&#x121;" horiz-adv-x="1273" d="M888 154 Q842 102 811 77 Q702 -11 542 -11 Q333 -11 204 131 Q80 268 80 489 Q80 710 201 850 Q330 998 543 998 Q659 998 740.5 957 Q822 916 900 818 L900 969 L1224 969 L1224 818 L1062 818 L1062 95 Q1062 -157 990 -272 Q878 -452 575 -452 Q361 -452 263 -378.5 Q165 -305 158 -139 L322 -139 Q330 -214 366 -250 Q423 -306 579 -306 Q772 -306 840 -186 Q867 -139 877.5 -81 Q888 -23 888 81 L888 154 Z M563 847 Q428 847 341 747 Q257 651 257 490 Q257 342 331 249 Q418 140 568 140 Q718 140 808 248 Q888 344 888 486 Q888 647 797.5 747 Q707 847 563 847 Z M539 1168 L539 1372 L738 1372 L738 1168 L539 1168 Z " />
<glyph glyph-name="Gcommaaccent" unicode="&#x122;" horiz-adv-x="1663" d="M806 571 L806 722 L1482 722 L1482 59 Q1220 -31 888 -31 Q625 -31 451 63 Q273 160 181 338 Q92 508 92 730 Q92 1106 346 1329 Q545 1505 861 1505 Q1121 1505 1284 1391 L1284 1475 L1432 1475 L1432 1044 L1276 1044 L1276 1071 Q1276 1170 1226 1226 Q1175 1284 1082 1315.5 Q989 1347 871 1347 Q596 1347 437 1177 Q276 1006 276 732 Q276 451 447 282 Q604 127 900 127 Q1105 127 1314 193 L1314 571 L806 571 Z M619 -476 L784 -127 L979 -127 L743 -476 L619 -476 Z " />
<glyph glyph-name="gcommaaccent" unicode="&#x123;" horiz-adv-x="1273" d="M888 154 Q842 102 811 77 Q702 -11 542 -11 Q333 -11 204 131 Q80 268 80 489 Q80 710 201 850 Q330 998 543 998 Q659 998 740.5 957 Q822 916 900 818 L900 969 L1224 969 L1224 818 L1062 818 L1062 95 Q1062 -157 990 -272 Q878 -452 575 -452 Q361 -452 263 -378.5 Q165 -305 158 -139 L322 -139 Q330 -214 366 -250 Q423 -306 579 -306 Q772 -306 840 -186 Q867 -139 877.5 -81 Q888 -23 888 81 L888 154 Z M563 847 Q428 847 341 747 Q257 651 257 490 Q257 342 331 249 Q418 140 568 140 Q718 140 808 248 Q888 344 888 486 Q888 647 797.5 747 Q707 847 563 847 Z M893 1467 L686 1118 L490 1118 L769 1467 L893 1467 Z " />
<glyph glyph-name="Hcircumflex" unicode="&#x124;" horiz-adv-x="1473" d="M226 151 L226 1324 L82 1324 L82 1475 L557 1475 L557 1324 L406 1324 L406 851 L1066 851 L1066 1324 L915 1324 L915 1475 L1390 1475 L1390 1324 L1246 1324 L1246 151 L1390 151 L1390 0 L915 0 L915 151 L1066 151 L1066 700 L406 700 L406 151 L557 151 L557 0 L82 0 L82 151 L226 151 Z M736 1809 L574 1596 L450 1596 L647 1920 L825 1920 L1020 1596 L897 1596 L736 1809 Z " />
<glyph glyph-name="hcircumflex" unicode="&#x125;" horiz-adv-x="1267" d="M219 151 L219 1324 L69 1324 L69 1475 L393 1475 L393 816 Q502 918 583.5 958 Q665 998 764 998 Q943 998 1012 868 Q1040 816 1050.5 750 Q1061 684 1061 561 L1061 151 L1209 151 L1209 0 L752 0 L752 151 L887 151 L887 570 Q887 691 867 747 Q834 839 719 839 Q640 839 570.5 796.5 Q501 754 393 640 L393 151 L533 151 L533 0 L69 0 L69 151 L219 151 Z M293 1809 L131 1596 L7 1596 L204 1920 L382 1920 L577 1596 L454 1596 L293 1809 Z " />
<glyph glyph-name="Hbar" unicode="&#x126;" horiz-adv-x="1473" d="M82 0 L82 151 L226 151 L226 1022 L82 1022 L82 1132 L226 1132 L226 1324 L82 1324 L82 1475 L557 1475 L557 1324 L406 1324 L406 1132 L1066 1132 L1066 1324 L915 1324 L915 1475 L1390 1475 L1390 1324 L1246 1324 L1246 1132 L1390 1132 L1390 1022 L1246 1022 L1246 151 L1390 151 L1390 0 L915 0 L915 151 L1066 151 L1066 701 L406 701 L406 151 L557 151 L557 0 L82 0 Z M406 840 L1066 840 L1066 1022 L406 1022 L406 840 Z " />
<glyph glyph-name="hbar" unicode="&#x127;" horiz-adv-x="1267" d="M218 1115 L68 1115 L68 1218 L218 1218 L218 1340 L68 1340 L68 1475 L392 1475 L392 1218 L704 1218 L704 1115 L392 1115 L392 816 Q502 918 583 958 Q664 998 763 998 Q942 998 1011 868 Q1039 816 1049.5 750 Q1060 684 1060 561 L1060 151 L1208 151 L1208 0 L751 0 L751 151 L886 151 L886 570 Q886 691 866 747 Q834 839 718 839 Q639 839 569.5 796.5 Q500 754 392 640 L392 151 L532 151 L532 0 L68 0 L68 151 L218 151 L218 1115 Z " />
<glyph glyph-name="Itilde" unicode="&#x128;" horiz-adv-x="639" d="M229 151 L229 1324 L85 1324 L85 1475 L554 1475 L554 1324 L409 1324 L409 151 L554 151 L554 0 L85 0 L85 151 L229 151 Z M126 1648 L13 1648 Q59 1853 213 1853 Q270 1853 352 1808 Q425 1768 449 1768 Q501 1768 536 1852 L650 1852 Q624 1759 588 1712 Q535 1642 442 1642 Q379 1642 269 1704 Q228 1727 206 1727 Q157 1727 126 1648 Z " />
<glyph glyph-name="itilde" unicode="&#x129;" horiz-adv-x="606" d="M230 151 L230 818 L79 818 L79 969 L404 969 L404 151 L551 151 L551 0 L73 0 L73 151 L230 151 Z M104 1171 L-4 1171 Q40 1375 188 1375 Q225 1375 252 1364.5 Q279 1354 361 1308 Q393 1290 415 1290 Q465 1290 499 1374 L607 1374 Q582 1280 549 1234 Q498 1165 407 1165 Q348 1165 242 1226 Q203 1249 181 1249 Q135 1249 104 1171 Z " />
<glyph glyph-name="Imacron" unicode="&#x12a;" horiz-adv-x="639" d="M229 151 L229 1324 L85 1324 L85 1475 L554 1475 L554 1324 L409 1324 L409 151 L554 151 L554 0 L85 0 L85 151 L229 151 Z M54 1680 L54 1818 L584 1818 L584 1680 L54 1680 Z " />
<glyph glyph-name="imacron" unicode="&#x12b;" horiz-adv-x="606" d="M231 151 L231 818 L80 818 L80 969 L405 969 L405 151 L552 151 L552 0 L74 0 L74 151 L231 151 Z M13 1203 L13 1341 L543 1341 L543 1203 L13 1203 Z " />
<glyph glyph-name="Ibreve" unicode="&#x12c;" horiz-adv-x="639" d="M229 151 L229 1324 L85 1324 L85 1475 L554 1475 L554 1324 L409 1324 L409 151 L554 151 L554 0 L85 0 L85 151 L229 151 Z M33 1904 L136 1904 Q142 1829 176 1796 Q222 1750 320 1750 Q411 1750 453 1785 Q495 1820 502 1904 L606 1904 Q593 1767 537 1700 Q469 1619 321 1619 Q155 1619 88 1718 Q43 1784 33 1904 Z " />
<glyph glyph-name="ibreve" unicode="&#x12d;" horiz-adv-x="606" d="M230 151 L230 818 L79 818 L79 969 L404 969 L404 151 L551 151 L551 0 L73 0 L73 151 L230 151 Z M2 1427 L105 1427 Q111 1352 145 1319 Q191 1273 289 1273 Q380 1273 422 1308.5 Q464 1344 471 1427 L575 1427 Q562 1290 506 1224 Q438 1143 290 1143 Q124 1143 57 1242 Q12 1307 2 1427 Z " />
<glyph glyph-name="Iogonek" unicode="&#x12e;" horiz-adv-x="639" d="M229 151 L229 1324 L85 1324 L85 1475 L554 1475 L554 1324 L409 1324 L409 151 L554 151 L554 0 Q453 -78 415 -128.5 Q377 -179 377 -235 Q377 -278 399 -297.5 Q421 -317 469 -317 L553 -317 L553 -439 L470 -439 Q232 -439 232 -265 Q232 -196 272.5 -140 Q313 -84 423 0 L85 0 L85 151 L229 151 Z " />
<glyph glyph-name="iogonek" unicode="&#x12f;" horiz-adv-x="606" d="M230 151 L230 818 L79 818 L79 969 L404 969 L404 151 L551 151 L551 0 Q451 -77 412.5 -128 Q374 -179 374 -236 Q374 -317 466 -317 L550 -317 L550 -439 L467 -439 Q229 -439 229 -265 Q229 -196 269.5 -139.5 Q310 -83 420 0 L73 0 L73 151 L230 151 Z M216 1168 L216 1372 L415 1372 L415 1168 L216 1168 Z " />
<glyph glyph-name="Idot" unicode="&#x130;" horiz-adv-x="639" d="M229 151 L229 1324 L85 1324 L85 1475 L554 1475 L554 1324 L409 1324 L409 151 L554 151 L554 0 L85 0 L85 151 L229 151 Z M220 1646 L220 1850 L419 1850 L419 1646 L220 1646 Z " />
<glyph glyph-name="IJ" unicode="&#x132;" horiz-adv-x="1272" d="M229 151 L229 1324 L85 1324 L85 1475 L554 1475 L554 1324 L409 1324 L409 151 L554 151 L554 0 L85 0 L85 151 L229 151 Z M869 1324 L718 1324 L718 1475 L1193 1475 L1193 1324 L1049 1324 L1049 135 Q1049 -1 1029.5 -76 Q1010 -151 960 -204 Q878 -292 682 -300 L682 -149 Q791 -140 828 -91 Q852 -58 860.5 -13 Q869 32 869 124 L869 1324 Z " />
<glyph glyph-name="ij" unicode="&#x133;" horiz-adv-x="1187" d="M230 151 L230 818 L79 818 L79 969 L404 969 L404 151 L551 151 L551 0 L73 0 L73 151 L230 151 Z M216 1164 L216 1368 L415 1368 L415 1164 L216 1164 Z M674 818 L674 969 L1001 969 L1001 -33 Q1001 -155 982 -222 Q963 -289 916 -336 Q837 -414 656 -422 L656 -271 Q755 -263 790 -219 Q812 -191 819.5 -154 Q827 -117 827 -38 L827 818 L674 818 Z M814 1164 L814 1368 L1013 1368 L1013 1164 L814 1164 Z " />
<glyph glyph-name="Jcircumflex" unicode="&#x134;" horiz-adv-x="634" d="M228 1324 L77 1324 L77 1475 L552 1475 L552 1324 L408 1324 L408 135 Q408 -1 388.5 -76 Q369 -151 319 -204 Q237 -292 41 -300 L41 -149 Q150 -140 187 -91 Q211 -58 219.5 -13 Q228 32 228 124 L228 1324 Z M315 1809 L153 1596 L29 1596 L226 1920 L404 1920 L599 1596 L476 1596 L315 1809 Z " />
<glyph glyph-name="jcircumflex" unicode="&#x135;" horiz-adv-x="581" d="M68 818 L68 969 L395 969 L395 -33 Q395 -155 376 -222 Q357 -289 310 -336 Q231 -414 50 -422 L50 -271 Q149 -263 184 -219 Q206 -191 213.5 -154 Q221 -117 221 -38 L221 818 L68 818 Z M266 1356 L92 1118 L-32 1118 L178 1467 L355 1467 L564 1118 L440 1118 L266 1356 Z " />
<glyph glyph-name="Kcommaaccent" unicode="&#x136;" horiz-adv-x="1264" d="M226 151 L226 1324 L82 1324 L82 1475 L543 1475 L543 1324 L406 1324 L406 791 L896 1324 L767 1324 L767 1475 L1211 1475 L1211 1324 L1104 1324 L603 784 L1131 151 L1270 151 L1270 0 L785 0 L785 151 L916 151 L406 761 L406 151 L537 151 L537 0 L82 0 L82 151 L226 151 Z M407 -476 L572 -127 L767 -127 L531 -476 L407 -476 Z " />
<glyph glyph-name="kcommaaccent" unicode="&#x137;" horiz-adv-x="1085" d="M216 151 L216 1324 L65 1324 L65 1475 L390 1475 L390 562 L710 829 L588 829 L588 969 L1025 969 L1025 820 L912 820 L592 548 L989 151 L1098 151 L1098 0 L674 0 L674 143 L785 143 L390 544 L390 143 L517 143 L517 0 L65 0 L65 151 L216 151 Z M341 -476 L506 -127 L701 -127 L465 -476 L341 -476 Z " />
<glyph glyph-name="kgreenlandic" unicode="&#x138;" horiz-adv-x="1085" d="M216 151 L216 818 L65 818 L65 969 L390 969 L390 561 L710 829 L588 829 L588 969 L1025 969 L1025 820 L912 820 L592 548 L989 151 L1098 151 L1098 0 L674 0 L674 143 L785 143 L390 544 L390 143 L517 143 L517 0 L65 0 L65 151 L216 151 Z " />
<glyph glyph-name="Lacute" unicode="&#x139;" horiz-adv-x="1151" d="M226 151 L226 1324 L82 1324 L82 1475 L566 1475 L566 1324 L406 1324 L406 151 L922 151 L922 412 L1078 412 L1078 0 L82 0 L82 151 L226 151 Z M282 1596 L464 1920 L660 1920 L406 1596 L282 1596 Z " />
<glyph glyph-name="lacute" unicode="&#x13a;" horiz-adv-x="603" d="M226 151 L226 1324 L75 1324 L75 1475 L400 1475 L400 151 L547 151 L547 0 L69 0 L69 151 L226 151 Z M193 1596 L376 1920 L571 1920 L317 1596 L193 1596 Z " />
<glyph glyph-name="Lcommaaccent" unicode="&#x13b;" horiz-adv-x="1151" d="M226 151 L226 1324 L82 1324 L82 1475 L566 1475 L566 1324 L406 1324 L406 151 L922 151 L922 412 L1078 412 L1078 0 L82 0 L82 151 L226 151 Z M351 -476 L516 -127 L711 -127 L475 -476 L351 -476 Z " />
<glyph glyph-name="lcommaaccent" unicode="&#x13c;" horiz-adv-x="603" d="M220 151 L220 1324 L69 1324 L69 1475 L394 1475 L394 151 L541 151 L541 0 L63 0 L63 151 L220 151 Z M62 -476 L227 -127 L422 -127 L186 -476 L62 -476 Z " />
<glyph glyph-name="Lcaron" unicode="&#x13d;" horiz-adv-x="1151" d="M226 151 L226 1324 L82 1324 L82 1475 L566 1475 L566 1324 L406 1324 L406 151 L922 151 L922 412 L1078 412 L1078 0 L82 0 L82 151 L226 151 Z M661 1030 L771 1475 L966 1475 L793 1030 L661 1030 Z " />
<glyph glyph-name="lcaron" unicode="&#x13e;" horiz-adv-x="826" d="M226 151 L226 1324 L75 1324 L75 1475 L400 1475 L400 151 L547 151 L547 0 L69 0 L69 151 L226 151 Z M562 1030 L672 1475 L867 1475 L694 1030 L562 1030 Z " />
<glyph glyph-name="Ldot" unicode="&#x13f;" horiz-adv-x="1151" d="M226 151 L226 1324 L82 1324 L82 1475 L566 1475 L566 1324 L406 1324 L406 151 L922 151 L922 412 L1078 412 L1078 0 L82 0 L82 151 L226 151 Z M785 676 L785 897 L989 897 L989 676 L785 676 Z " />
<glyph glyph-name="ldot" unicode="&#x140;" horiz-adv-x="822" d="M226 151 L226 1324 L75 1324 L75 1475 L400 1475 L400 151 L547 151 L547 0 L69 0 L69 151 L226 151 Z M622 500 L622 721 L826 721 L826 500 L622 500 Z " />
<glyph glyph-name="Lslash" unicode="&#x141;" horiz-adv-x="1151" d="M226 151 L226 571 L20 436 L20 600 L226 735 L226 1324 L82 1324 L82 1475 L566 1475 L566 1324 L406 1324 L406 850 L697 1039 L697 875 L406 686 L406 151 L923 151 L923 412 L1079 412 L1079 0 L82 0 L82 151 L226 151 Z " />
<glyph glyph-name="lslash" unicode="&#x142;" horiz-adv-x="647" d="M232 151 L232 623 L23 487 L23 645 L232 781 L232 1324 L81 1324 L81 1475 L406 1475 L406 891 L615 1026 L615 868 L406 733 L406 151 L552 151 L552 0 L74 0 L74 151 L232 151 Z " />
<glyph glyph-name="Nacute" unicode="&#x143;" horiz-adv-x="1456" d="M226 151 L226 1324 L82 1324 L82 1475 L427 1475 L985 528 Q1002 498 1072 356 Q1067 487 1067 551 L1067 1324 L914 1324 L914 1475 L1379 1475 L1379 1324 L1235 1324 L1235 -24 L1110 -24 L463 1085 Q456 1098 388 1238 Q394 1107 394 1081 L394 151 L544 151 L544 0 L82 0 L82 151 L226 151 Z M637 1596 L819 1920 L1015 1920 L761 1596 L637 1596 Z " />
<glyph glyph-name="nacute" unicode="&#x144;" horiz-adv-x="1274" d="M225 151 L225 818 L75 818 L75 969 L399 969 L399 813 Q496 900 539 927 Q652 998 771 998 Q951 998 1019 868 Q1047 815 1057.5 749.5 Q1068 684 1068 561 L1068 151 L1216 151 L1216 0 L759 0 L759 151 L894 151 L894 570 Q894 691 874 747 Q841 839 726 839 Q647 839 574.5 794.5 Q502 750 399 639 L399 151 L539 151 L539 0 L75 0 L75 151 L225 151 Z M546 1118 L754 1467 L949 1467 L670 1118 L546 1118 Z " />
<glyph glyph-name="Ncommaaccent" unicode="&#x145;" horiz-adv-x="1456" d="M226 151 L226 1324 L82 1324 L82 1475 L427 1475 L985 528 Q1002 498 1072 356 Q1067 487 1067 551 L1067 1324 L914 1324 L914 1475 L1379 1475 L1379 1324 L1235 1324 L1235 -24 L1110 -24 L463 1085 Q456 1098 388 1238 Q394 1107 394 1081 L394 151 L544 151 L544 0 L82 0 L82 151 L226 151 Z M515 -476 L680 -127 L875 -127 L639 -476 L515 -476 Z " />
<glyph glyph-name="ncommaaccent" unicode="&#x146;" horiz-adv-x="1274" d="M225 151 L225 818 L75 818 L75 969 L399 969 L399 813 Q496 900 539 927 Q652 998 771 998 Q951 998 1019 868 Q1047 815 1057.5 749.5 Q1068 684 1068 561 L1068 151 L1216 151 L1216 0 L759 0 L759 151 L894 151 L894 570 Q894 691 874 747 Q841 839 726 839 Q647 839 574.5 794.5 Q502 750 399 639 L399 151 L539 151 L539 0 L75 0 L75 151 L225 151 Z M403 -476 L568 -127 L763 -127 L527 -476 L403 -476 Z " />
<glyph glyph-name="Ncaron" unicode="&#x147;" horiz-adv-x="1456" d="M226 151 L226 1324 L82 1324 L82 1475 L427 1475 L985 528 Q1002 498 1072 356 Q1067 487 1067 551 L1067 1324 L914 1324 L914 1475 L1379 1475 L1379 1324 L1235 1324 L1235 -24 L1110 -24 L463 1085 Q456 1098 388 1238 Q394 1107 394 1081 L394 151 L544 151 L544 0 L82 0 L82 151 L226 151 Z M713 1707 L874 1920 L998 1920 L801 1596 L624 1596 L428 1920 L550 1920 L713 1707 Z " />
<glyph glyph-name="ncaron" unicode="&#x148;" horiz-adv-x="1274" d="M225 151 L225 818 L75 818 L75 969 L399 969 L399 813 Q496 900 539 927 Q652 998 771 998 Q951 998 1019 868 Q1047 815 1057.5 749.5 Q1068 684 1068 561 L1068 151 L1216 151 L1216 0 L759 0 L759 151 L894 151 L894 570 Q894 691 874 747 Q841 839 726 839 Q647 839 574.5 794.5 Q502 750 399 639 L399 151 L539 151 L539 0 L75 0 L75 151 L225 151 Z M629 1229 L803 1467 L927 1467 L718 1118 L541 1118 L331 1467 L455 1467 L629 1229 Z " />
<glyph glyph-name="napostrophe" unicode="&#x149;" horiz-adv-x="1297" d="M-22 1088 L69 1475 L264 1475 L110 1088 L-22 1088 Z M247 151 L247 818 L97 818 L97 969 L421 969 L421 813 Q519 900 561 927 Q674 998 793 998 Q972 998 1041 868 Q1069 816 1079.5 749.5 Q1090 683 1090 561 L1090 151 L1238 151 L1238 0 L781 0 L781 151 L916 151 L916 570 Q916 690 896 747 Q864 839 748 839 Q669 839 596.5 794.5 Q524 750 421 639 L421 151 L561 151 L561 0 L97 0 L97 151 L247 151 Z " />
<glyph glyph-name="Eng" unicode="&#x14a;" horiz-adv-x="1456" d="M226 151 L226 1324 L82 1324 L82 1475 L427 1475 L985 528 Q1002 499 1072 356 Q1067 487 1067 551 L1067 1324 L914 1324 L914 1475 L1379 1475 L1379 1324 L1235 1324 L1235 -33 Q1235 -154 1216 -222 Q1197 -290 1150 -336 Q1071 -413 889 -422 L889 -271 Q989 -263 1024 -218 Q1046 -191 1053.5 -153.5 Q1061 -116 1061 -38 L1061 62 L463 1085 Q456 1098 388 1238 Q394 1107 394 1081 L394 151 L544 151 L544 0 L82 0 L82 151 L226 151 Z " />
<glyph glyph-name="eng" unicode="&#x14b;" horiz-adv-x="1274" d="M225 151 L225 818 L75 818 L75 969 L399 969 L399 813 Q496 900 539 927 Q651 998 771 998 Q951 998 1019 868 Q1047 815 1057.5 749.5 Q1068 684 1068 561 L1068 -33 Q1068 -155 1049 -222 Q1030 -289 983 -336 Q904 -413 722 -422 L722 -271 Q822 -263 857 -218 Q879 -191 886.5 -153.5 Q894 -116 894 -38 L894 570 Q894 690 874 747 Q841 839 725 839 Q647 839 574.5 794.5 Q502 750 399 639 L399 151 L539 151 L539 0 L75 0 L75 151 L225 151 Z " />
<glyph glyph-name="Omacron" unicode="&#x14c;" horiz-adv-x="1714" d="M867 1506 Q1091 1506 1280 1382 Q1468 1259 1557 1055 Q1621 907 1621 738 Q1621 439 1431 223 Q1318 95 1163 30 Q1020 -31 856 -31 Q621 -31 433 93 Q247 215 157 421 Q92 569 92 736 Q92 1042 283 1252 Q514 1506 867 1506 Z M849 1348 Q601 1348 432 1165 Q276 995 276 737 Q276 481 432 310 Q601 127 857 127 Q1112 127 1281 310 Q1437 481 1437 736 Q1437 999 1281 1165 Q1108 1348 849 1348 Z M592 1680 L592 1818 L1122 1818 L1122 1680 L592 1680 Z " />
<glyph glyph-name="omacron" unicode="&#x14d;" horiz-adv-x="1201" d="M607 998 Q833 998 979 852 Q1120 710 1120 484 Q1120 259 979 117 Q834 -29 600 -29 Q366 -29 222 117 Q80 259 80 483 Q80 714 222 852 Q370 998 607 998 Z M595 847 Q435 847 338 733 Q257 638 257 485 Q257 332 338 236 Q434 122 600 122 Q766 122 862 236 Q943 332 943 483 Q943 639 862 733 Q763 847 595 847 Z M335 1203 L335 1341 L865 1341 L865 1203 L335 1203 Z " />
<glyph glyph-name="Obreve" unicode="&#x14e;" horiz-adv-x="1714" d="M867 1506 Q1091 1506 1280 1382 Q1468 1259 1557 1055 Q1621 907 1621 738 Q1621 439 1431 223 Q1318 95 1163 30 Q1020 -31 856 -31 Q621 -31 433 93 Q247 215 157 421 Q92 569 92 736 Q92 1042 283 1252 Q514 1506 867 1506 Z M849 1348 Q601 1348 432 1165 Q276 995 276 737 Q276 481 432 310 Q601 127 857 127 Q1112 127 1281 310 Q1437 481 1437 736 Q1437 999 1281 1165 Q1108 1348 849 1348 Z M569 1904 L672 1904 Q678 1829 712 1796 Q758 1750 856 1750 Q947 1750 989 1785 Q1031 1820 1038 1904 L1142 1904 Q1129 1767 1073 1700 Q1005 1619 857 1619 Q691 1619 624 1718 Q579 1784 569 1904 Z " />
<glyph glyph-name="obreve" unicode="&#x14f;" horiz-adv-x="1201" d="M607 998 Q833 998 979 852 Q1120 710 1120 484 Q1120 259 979 117 Q834 -29 600 -29 Q366 -29 222 117 Q80 259 80 483 Q80 714 222 852 Q370 998 607 998 Z M595 847 Q435 847 338 733 Q257 638 257 485 Q257 332 338 236 Q434 122 600 122 Q766 122 862 236 Q943 332 943 483 Q943 639 862 733 Q763 847 595 847 Z M313 1427 L416 1427 Q422 1352 456 1319 Q502 1273 600 1273 Q691 1273 733 1308.5 Q775 1344 782 1427 L886 1427 Q873 1290 817 1224 Q749 1143 601 1143 Q435 1143 368 1242 Q323 1307 313 1427 Z " />
<glyph glyph-name="Ohungarumlaut" unicode="&#x150;" horiz-adv-x="1714" d="M867 1506 Q1091 1506 1280 1382 Q1468 1259 1557 1055 Q1621 907 1621 738 Q1621 439 1431 223 Q1318 95 1163 30 Q1020 -31 856 -31 Q621 -31 433 93 Q247 215 157 421 Q92 569 92 736 Q92 1042 283 1252 Q514 1506 867 1506 Z M849 1348 Q601 1348 432 1165 Q276 995 276 737 Q276 481 432 310 Q601 127 857 127 Q1112 127 1281 310 Q1437 481 1437 736 Q1437 999 1281 1165 Q1108 1348 849 1348 Z M651 1596 L773 1920 L944 1920 L752 1596 L651 1596 Z M913 1596 L1060 1920 L1236 1920 L1016 1596 L913 1596 Z " />
<glyph glyph-name="ohungarumlaut" unicode="&#x151;" horiz-adv-x="1201" d="M607 998 Q833 998 979 852 Q1120 710 1120 484 Q1120 259 979 117 Q834 -29 600 -29 Q366 -29 222 117 Q80 259 80 483 Q80 714 222 852 Q370 998 607 998 Z M595 847 Q435 847 338 733 Q257 638 257 485 Q257 332 338 236 Q434 122 600 122 Q766 122 862 236 Q943 332 943 483 Q943 639 862 733 Q763 847 595 847 Z M402 1118 L549 1467 L720 1467 L503 1118 L402 1118 Z M664 1118 L836 1467 L1012 1467 L767 1118 L664 1118 Z " />
<glyph glyph-name="Racute" unicode="&#x154;" horiz-adv-x="1296" d="M226 151 L226 1324 L82 1324 L82 1475 L606 1475 Q753 1475 836 1461 Q919 1447 984 1411 Q1070 1363 1117 1272 Q1164 1181 1164 1064 Q1164 878 1042 773 Q1004 741 896 693 Q951 663 982.5 616.5 Q1014 570 1051 463 L1161 151 L1299 151 L1299 0 L1009 0 L888 371 Q859 460 839 498 Q819 536 784 573 Q748 609 697.5 623 Q647 637 550 637 L406 637 L406 151 L577 151 L577 0 L82 0 L82 151 L226 151 Z M406 785 L588 785 Q783 785 866 837 Q980 907 980 1056 Q980 1202 873 1272 Q793 1324 601 1324 L406 1324 L406 785 Z M533 1596 L715 1920 L911 1920 L657 1596 L533 1596 Z " />
<glyph glyph-name="racute" unicode="&#x155;" horiz-adv-x="817" d="M225 151 L225 818 L75 818 L75 969 L394 969 L394 809 Q477 912 537 947 Q622 998 737 998 L778 998 L778 831 L741 831 Q662 831 615 816 Q568 801 521 761 Q471 719 399 611 L399 151 L554 151 L554 0 L75 0 L75 151 L225 151 Z M334 1118 L542 1467 L737 1467 L458 1118 L334 1118 Z " />
<glyph glyph-name="Rcommaaccent" unicode="&#x156;" horiz-adv-x="1296" d="M226 151 L226 1324 L82 1324 L82 1475 L606 1475 Q753 1475 836 1461 Q919 1447 984 1411 Q1070 1363 1117 1272 Q1164 1181 1164 1064 Q1164 878 1042 773 Q1004 741 896 693 Q951 663 982.5 616.5 Q1014 570 1051 463 L1161 151 L1299 151 L1299 0 L1009 0 L888 371 Q859 460 839 498 Q819 536 784 573 Q748 609 697.5 623 Q647 637 550 637 L406 637 L406 151 L577 151 L577 0 L82 0 L82 151 L226 151 Z M406 785 L588 785 Q783 785 866 837 Q980 907 980 1056 Q980 1202 873 1272 Q793 1324 601 1324 L406 1324 L406 785 Z M469 -476 L634 -127 L829 -127 L593 -476 L469 -476 Z " />
<glyph glyph-name="rcommaaccent" unicode="&#x157;" horiz-adv-x="817" d="M225 151 L225 818 L75 818 L75 969 L394 969 L394 809 Q477 912 537 947 Q622 998 737 998 L778 998 L778 831 L741 831 Q662 831 615 816 Q568 801 521 761 Q471 719 399 611 L399 151 L554 151 L554 0 L75 0 L75 151 L225 151 Z M83 -476 L248 -127 L443 -127 L207 -476 L83 -476 Z " />
<glyph glyph-name="Rcaron" unicode="&#x158;" horiz-adv-x="1296" d="M226 151 L226 1324 L82 1324 L82 1475 L606 1475 Q753 1475 836 1461 Q919 1447 984 1411 Q1070 1363 1117 1272 Q1164 1181 1164 1064 Q1164 878 1042 773 Q1004 741 896 693 Q951 663 982.5 616.5 Q1014 570 1051 463 L1161 151 L1299 151 L1299 0 L1009 0 L888 371 Q859 460 839 498 Q819 536 784 573 Q748 609 697.5 623 Q647 637 550 637 L406 637 L406 151 L577 151 L577 0 L82 0 L82 151 L226 151 Z M406 785 L588 785 Q783 785 866 837 Q980 907 980 1056 Q980 1202 873 1272 Q793 1324 601 1324 L406 1324 L406 785 Z M612 1707 L773 1920 L897 1920 L700 1596 L523 1596 L327 1920 L449 1920 L612 1707 Z " />
<glyph glyph-name="rcaron" unicode="&#x159;" horiz-adv-x="817" d="M225 151 L225 818 L75 818 L75 969 L394 969 L394 809 Q477 912 537 947 Q622 998 737 998 L778 998 L778 831 L741 831 Q662 831 615 816 Q568 801 521 761 Q471 719 399 611 L399 151 L554 151 L554 0 L75 0 L75 151 L225 151 Z M441 1229 L615 1467 L739 1467 L530 1118 L353 1118 L143 1467 L267 1467 L441 1229 Z " />
<glyph glyph-name="Sacute" unicode="&#x15a;" horiz-adv-x="1234" d="M110 0 L110 440 L266 440 L266 406 Q266 302 316 242 Q362 188 446 157.5 Q530 127 633 127 Q805 127 896 206 Q980 279 980 398 Q980 512 891 583 Q852 613 786 637.5 Q720 662 582 697 Q412 739 336 772 Q260 805 211 857 Q126 948 126 1097 Q126 1275 238 1385 Q360 1506 578 1506 Q785 1506 910 1391 L910 1475 L1058 1475 L1058 1044 L902 1044 L902 1071 Q902 1172 863 1231 Q828 1284 752.5 1316 Q677 1348 587 1348 Q450 1348 374 1278 Q303 1212 303 1112 Q303 1002 393 944 Q457 903 663 854 Q835 813 916.5 777.5 Q998 742 1055 684 Q1160 577 1160 411 Q1160 216 1036 97 Q901 -31 637 -31 Q408 -31 258 84 L258 0 L110 0 Z M530 1596 L712 1920 L908 1920 L654 1596 L530 1596 Z " />
<glyph glyph-name="sacute" unicode="&#x15b;" horiz-adv-x="983" d="M89 0 L89 319 L237 319 L237 285 Q237 210 287 173 Q367 113 522 113 Q626 113 683 150 Q744 189 744 268 Q744 333 689 370 Q665 387 634.5 394.5 Q604 402 462 426 Q340 446 276 468.5 Q212 491 172 526 Q95 594 95 710 Q95 840 188 920 Q277 998 435 998 Q514 998 573 979.5 Q632 961 696 916 L696 969 L833 969 L833 672 L685 672 L685 690 Q685 759 641 795 Q567 855 448 855 Q354 855 308 815 Q266 778 266 720 Q266 658 331 623 Q368 603 517 577 Q653 554 715.5 534.5 Q778 515 818 482 Q911 409 911 270 Q911 127 811 49 Q711 -29 527 -29 Q354 -29 226 53 L226 0 L89 0 Z M383 1118 L591 1467 L786 1467 L507 1118 L383 1118 Z " />
<glyph glyph-name="Scircumflex" unicode="&#x15c;" horiz-adv-x="1234" d="M110 0 L110 440 L266 440 L266 406 Q266 302 316 242 Q362 188 446 157.5 Q530 127 633 127 Q805 127 896 206 Q980 279 980 398 Q980 512 891 583 Q852 613 786 637.5 Q720 662 582 697 Q412 739 336 772 Q260 805 211 857 Q126 948 126 1097 Q126 1275 238 1385 Q360 1506 578 1506 Q785 1506 910 1391 L910 1475 L1058 1475 L1058 1044 L902 1044 L902 1071 Q902 1172 863 1231 Q828 1284 752.5 1316 Q677 1348 587 1348 Q450 1348 374 1278 Q303 1212 303 1112 Q303 1002 393 944 Q457 903 663 854 Q835 813 916.5 777.5 Q998 742 1055 684 Q1160 577 1160 411 Q1160 216 1036 97 Q901 -31 637 -31 Q408 -31 258 84 L258 0 L110 0 Z M625 1809 L463 1596 L339 1596 L536 1920 L714 1920 L909 1596 L786 1596 L625 1809 Z " />
<glyph glyph-name="scircumflex" unicode="&#x15d;" horiz-adv-x="983" d="M89 0 L89 319 L237 319 L237 285 Q237 210 287 173 Q367 113 522 113 Q626 113 683 150 Q744 189 744 268 Q744 333 689 370 Q665 387 634.5 394.5 Q604 402 462 426 Q340 446 276 468.5 Q212 491 172 526 Q95 594 95 710 Q95 840 188 920 Q277 998 435 998 Q514 998 573 979.5 Q632 961 696 916 L696 969 L833 969 L833 672 L685 672 L685 690 Q685 759 641 795 Q567 855 448 855 Q354 855 308 815 Q266 778 266 720 Q266 658 331 623 Q368 603 517 577 Q653 554 715.5 534.5 Q778 515 818 482 Q911 409 911 270 Q911 127 811 49 Q711 -29 527 -29 Q354 -29 226 53 L226 0 L89 0 Z M482 1356 L308 1118 L184 1118 L394 1467 L571 1467 L780 1118 L656 1118 L482 1356 Z " />
<glyph glyph-name="Scedilla" unicode="&#x15e;" horiz-adv-x="1234" d="M110 0 L110 440 L266 440 L266 406 Q266 301 316 243 Q363 188 446 158 Q529 128 633 128 Q806 128 896 206 Q980 280 980 399 Q980 513 891 583 Q853 614 786.5 638.5 Q720 663 582 697 Q411 740 335.5 773 Q260 806 211 858 Q126 948 126 1097 Q126 1275 238 1385 Q360 1506 577 1506 Q784 1506 910 1391 L910 1475 L1058 1475 L1058 1044 L902 1044 L902 1071 Q902 1172 863 1231 Q828 1284 752.5 1316 Q677 1348 586 1348 Q451 1348 374 1278 Q303 1213 303 1112 Q303 1002 393 944 Q457 903 663 854 Q835 813 916.5 777.5 Q998 742 1055 685 Q1160 577 1160 411 Q1160 264 1083 153 Q964 -18 670 -30 L634 -94 Q720 -102 756 -118 Q852 -162 852 -276 Q852 -374 785.5 -426 Q719 -478 594 -478 Q487 -478 347 -439 L347 -301 Q501 -356 596 -356 Q707 -356 707 -277 Q707 -237 676.5 -219 Q646 -201 577 -201 Q567 -201 509 -205 L509 -112 L554 -24 Q446 -11 385 11 Q324 33 258 84 L258 0 L110 0 Z " />
<glyph glyph-name="scedilla" unicode="&#x15f;" horiz-adv-x="983" d="M89 0 L89 319 L237 319 L237 285 Q237 210 287 174 Q368 114 522 114 Q626 114 683 151 Q744 190 744 269 Q744 333 689 371 Q665 387 634.5 394.5 Q604 402 461 426 Q341 446 276.5 468.5 Q212 491 172 527 Q95 595 95 710 Q95 841 188 921 Q278 998 434 998 Q514 998 573 979.5 Q632 961 696 916 L696 969 L833 969 L833 672 L685 672 L685 690 Q685 759 641 795 Q567 855 448 855 Q354 855 308 815 Q266 778 266 720 Q266 658 331 623 Q368 603 517 577 Q653 554 715.5 534.5 Q778 515 818 482 Q911 409 911 270 Q911 131 818 54.5 Q725 -22 548 -28 L511 -94 Q597 -101 633 -118 Q729 -162 729 -276 Q729 -374 662.5 -426 Q596 -478 471 -478 Q364 -478 224 -439 L224 -301 Q381 -356 473 -356 Q584 -356 584 -277 Q584 -237 553.5 -219 Q523 -201 453 -201 Q449 -201 386 -205 L386 -112 L433 -22 Q314 -4 226 53 L226 0 L89 0 Z " />
<glyph glyph-name="Scaron" unicode="&#x160;" horiz-adv-x="1234" d="M110 0 L110 440 L266 440 L266 406 Q266 302 316 242 Q362 188 446 157.5 Q530 127 633 127 Q805 127 896 206 Q980 279 980 398 Q980 512 891 583 Q852 613 786 637.5 Q720 662 582 697 Q412 739 336 772 Q260 805 211 857 Q126 948 126 1097 Q126 1275 238 1385 Q360 1506 578 1506 Q785 1506 910 1391 L910 1475 L1058 1475 L1058 1044 L902 1044 L902 1071 Q902 1172 863 1231 Q828 1284 752.5 1316 Q677 1348 587 1348 Q450 1348 374 1278 Q303 1212 303 1112 Q303 1002 393 944 Q457 903 663 854 Q835 813 916.5 777.5 Q998 742 1055 684 Q1160 577 1160 411 Q1160 216 1036 97 Q901 -31 637 -31 Q408 -31 258 84 L258 0 L110 0 Z M618 1707 L779 1920 L903 1920 L706 1596 L529 1596 L333 1920 L455 1920 L618 1707 Z " />
<glyph glyph-name="scaron" unicode="&#x161;" horiz-adv-x="983" d="M89 0 L89 319 L237 319 L237 285 Q237 210 287 173 Q367 113 522 113 Q626 113 683 150 Q744 189 744 268 Q744 333 689 370 Q665 387 634.5 394.5 Q604 402 462 426 Q340 446 276 468.5 Q212 491 172 526 Q95 594 95 710 Q95 840 188 920 Q277 998 435 998 Q514 998 573 979.5 Q632 961 696 916 L696 969 L833 969 L833 672 L685 672 L685 690 Q685 759 641 795 Q567 855 448 855 Q354 855 308 815 Q266 778 266 720 Q266 658 331 623 Q368 603 517 577 Q653 554 715.5 534.5 Q778 515 818 482 Q911 409 911 270 Q911 127 811 49 Q711 -29 527 -29 Q354 -29 226 53 L226 0 L89 0 Z M494 1229 L668 1467 L792 1467 L583 1118 L406 1118 L196 1467 L320 1467 L494 1229 Z " />
<glyph glyph-name="Tcommaaccent" unicode="&#x162;" horiz-adv-x="1213" d="M516 151 L516 1324 L194 1324 L194 1085 L38 1085 L38 1475 L1174 1475 L1174 1085 L1018 1085 L1018 1324 L696 1324 L696 151 L892 151 L892 0 L321 0 L321 151 L516 151 Z M369 -476 L534 -127 L729 -127 L493 -476 L369 -476 Z " />
<glyph glyph-name="tcommaaccent" unicode="&#x163;" horiz-adv-x="688" d="M213 818 L59 818 L59 969 L213 969 L213 1326 L387 1326 L387 969 L631 969 L631 818 L387 818 L387 318 Q387 225 416.5 188 Q446 151 522 151 L643 151 L643 0 L516 0 Q213 0 213 291 L213 818 Z M131 -476 L296 -127 L491 -127 L255 -476 L131 -476 Z " />
<glyph glyph-name="Tcaron" unicode="&#x164;" horiz-adv-x="1213" d="M516 151 L516 1324 L194 1324 L194 1085 L38 1085 L38 1475 L1174 1475 L1174 1085 L1018 1085 L1018 1324 L696 1324 L696 151 L892 151 L892 0 L321 0 L321 151 L516 151 Z M606 1707 L767 1920 L891 1920 L694 1596 L517 1596 L321 1920 L443 1920 L606 1707 Z " />
<glyph glyph-name="tcaron" unicode="&#x165;" horiz-adv-x="873" d="M213 818 L59 818 L59 969 L213 969 L213 1326 L387 1326 L387 969 L631 969 L631 818 L387 818 L387 318 Q387 225 416.5 188 Q446 151 522 151 L643 151 L643 0 L516 0 Q213 0 213 291 L213 818 Z M609 1100 L719 1545 L914 1545 L741 1100 L609 1100 Z " />
<glyph glyph-name="Tbar" unicode="&#x166;" horiz-adv-x="1213" d="M516 151 L516 682 L207 682 L207 819 L516 819 L516 1324 L194 1324 L194 1085 L38 1085 L38 1475 L1174 1475 L1174 1085 L1018 1085 L1018 1324 L696 1324 L696 819 L1005 819 L1005 682 L696 682 L696 151 L892 151 L892 0 L321 0 L321 151 L516 151 Z " />
<glyph glyph-name="tbar" unicode="&#x167;" horiz-adv-x="688" d="M387 612 L631 612 L631 498 L387 498 L387 318 Q387 224 417 187.5 Q447 151 522 151 L631 151 L631 0 L516 0 Q213 0 213 290 L213 498 L59 498 L59 612 L213 612 L213 818 L59 818 L59 969 L213 969 L213 1326 L387 1326 L387 969 L631 969 L631 818 L387 818 L387 612 Z " />
<glyph glyph-name="Utilde" unicode="&#x168;" horiz-adv-x="1436" d="M72 1324 L72 1475 L547 1475 L547 1324 L396 1324 L396 566 Q396 367 445 271 Q517 130 718 130 Q918 130 991 271 Q1040 366 1040 566 L1040 1324 L889 1324 L889 1475 L1364 1475 L1364 1324 L1220 1324 L1220 623 Q1220 432 1203.5 335 Q1187 238 1143 165 Q1024 -31 718 -31 Q413 -31 293 165 Q249 238 232.5 335.5 Q216 433 216 623 L216 1324 L72 1324 Z M525 1648 L412 1648 Q458 1853 612 1853 Q669 1853 751 1808 Q824 1768 848 1768 Q900 1768 935 1852 L1049 1852 Q1023 1759 987 1712 Q934 1642 841 1642 Q778 1642 668 1704 Q627 1727 605 1727 Q556 1727 525 1648 Z " />
<glyph glyph-name="utilde" unicode="&#x169;" horiz-adv-x="1215" d="M206 818 L58 818 L58 969 L380 969 L380 399 Q380 281 395 231 Q422 143 523 143 Q597 143 664 183.5 Q731 224 832 330 L832 818 L692 818 L692 969 L1006 969 L1006 151 L1156 151 L1156 0 L832 0 L832 156 Q737 73 699 50 Q591 -16 478 -16 Q313 -16 251 110 Q225 162 215.5 224.5 Q206 287 206 408 L206 818 Z M409 1171 L301 1171 Q345 1375 493 1375 Q530 1375 557 1364.5 Q584 1354 666 1308 Q698 1290 720 1290 Q770 1290 804 1374 L912 1374 Q887 1280 854 1234 Q803 1165 712 1165 Q653 1165 547 1226 Q508 1249 486 1249 Q440 1249 409 1171 Z " />
<glyph glyph-name="Umacron" unicode="&#x16a;" horiz-adv-x="1436" d="M72 1324 L72 1475 L547 1475 L547 1324 L396 1324 L396 566 Q396 367 445 271 Q517 130 718 130 Q918 130 991 271 Q1040 366 1040 566 L1040 1324 L889 1324 L889 1475 L1364 1475 L1364 1324 L1220 1324 L1220 623 Q1220 432 1203.5 335 Q1187 238 1143 165 Q1024 -31 718 -31 Q413 -31 293 165 Q249 238 232.5 335.5 Q216 433 216 623 L216 1324 L72 1324 Z M453 1680 L453 1818 L983 1818 L983 1680 L453 1680 Z " />
<glyph glyph-name="umacron" unicode="&#x16b;" horiz-adv-x="1215" d="M206 818 L58 818 L58 969 L380 969 L380 399 Q380 281 395 231 Q422 143 523 143 Q597 143 664 183.5 Q731 224 832 330 L832 818 L692 818 L692 969 L1006 969 L1006 151 L1156 151 L1156 0 L832 0 L832 156 Q737 73 699 50 Q591 -16 478 -16 Q313 -16 251 110 Q225 162 215.5 224.5 Q206 287 206 408 L206 818 Z M322 1203 L322 1341 L852 1341 L852 1203 L322 1203 Z " />
<glyph glyph-name="Ubreve" unicode="&#x16c;" horiz-adv-x="1436" d="M72 1324 L72 1475 L547 1475 L547 1324 L396 1324 L396 566 Q396 367 445 271 Q517 130 718 130 Q918 130 991 271 Q1040 366 1040 566 L1040 1324 L889 1324 L889 1475 L1364 1475 L1364 1324 L1220 1324 L1220 623 Q1220 432 1203.5 335 Q1187 238 1143 165 Q1024 -31 718 -31 Q413 -31 293 165 Q249 238 232.5 335.5 Q216 433 216 623 L216 1324 L72 1324 Z M431 1904 L534 1904 Q540 1829 574 1796 Q620 1750 718 1750 Q809 1750 851 1785 Q893 1820 900 1904 L1004 1904 Q991 1767 935 1700 Q867 1619 719 1619 Q553 1619 486 1718 Q441 1784 431 1904 Z " />
<glyph glyph-name="ubreve" unicode="&#x16d;" horiz-adv-x="1215" d="M206 818 L58 818 L58 969 L380 969 L380 399 Q380 281 395 231 Q422 143 523 143 Q597 143 664 183.5 Q731 224 832 330 L832 818 L692 818 L692 969 L1006 969 L1006 151 L1156 151 L1156 0 L832 0 L832 156 Q737 73 699 50 Q591 -16 478 -16 Q313 -16 251 110 Q225 162 215.5 224.5 Q206 287 206 408 L206 818 Z M309 1427 L412 1427 Q418 1352 452 1319 Q498 1273 596 1273 Q687 1273 729 1308.5 Q771 1344 778 1427 L882 1427 Q869 1290 813 1224 Q745 1143 597 1143 Q431 1143 364 1242 Q319 1307 309 1427 Z " />
<glyph glyph-name="Uring" unicode="&#x16e;" horiz-adv-x="1436" d="M72 1324 L72 1475 L547 1475 L547 1324 L396 1324 L396 566 Q396 367 445 271 Q517 130 718 130 Q918 130 991 271 Q1040 366 1040 566 L1040 1324 L889 1324 L889 1475 L1364 1475 L1364 1324 L1220 1324 L1220 623 Q1220 432 1203.5 335 Q1187 238 1143 165 Q1024 -31 718 -31 Q413 -31 293 165 Q249 238 232.5 335.5 Q216 433 216 623 L216 1324 L72 1324 Z M722 2018 Q828 2018 890 1956 Q952 1894 952 1789 Q952 1682 889.5 1621 Q827 1560 718 1560 Q603 1560 541 1629 Q485 1692 485 1788 Q485 1896 548 1957 Q611 2018 722 2018 Z M716 1918 Q660 1918 629 1884 Q598 1850 598 1789 Q598 1660 718 1660 Q839 1660 839 1789 Q839 1918 716 1918 Z " />
<glyph glyph-name="uring" unicode="&#x16f;" horiz-adv-x="1215" d="M206 818 L58 818 L58 969 L380 969 L380 399 Q380 281 395 231 Q422 143 523 143 Q597 143 664 183.5 Q731 224 832 330 L832 818 L692 818 L692 969 L1006 969 L1006 151 L1156 151 L1156 0 L832 0 L832 156 Q737 73 699 50 Q591 -16 478 -16 Q313 -16 251 110 Q225 162 215.5 224.5 Q206 287 206 408 L206 818 Z M593 1548 Q699 1548 761 1486.5 Q823 1425 823 1319 Q823 1213 760.5 1152 Q698 1091 589 1091 Q474 1091 412 1160 Q356 1222 356 1319 Q356 1427 419 1487.5 Q482 1548 593 1548 Z M587 1448 Q531 1448 500 1414.5 Q469 1381 469 1320 Q469 1191 589 1191 Q710 1191 710 1319 Q710 1448 587 1448 Z " />
<glyph glyph-name="Uhungarumlaut" unicode="&#x170;" horiz-adv-x="1436" d="M72 1324 L72 1475 L547 1475 L547 1324 L396 1324 L396 566 Q396 367 445 271 Q517 130 718 130 Q918 130 991 271 Q1040 366 1040 566 L1040 1324 L889 1324 L889 1475 L1364 1475 L1364 1324 L1220 1324 L1220 623 Q1220 432 1203.5 335 Q1187 238 1143 165 Q1024 -31 718 -31 Q413 -31 293 165 Q249 238 232.5 335.5 Q216 433 216 623 L216 1324 L72 1324 Z M538 1596 L660 1920 L831 1920 L639 1596 L538 1596 Z M800 1596 L947 1920 L1123 1920 L903 1596 L800 1596 Z " />
<glyph glyph-name="uhungarumlaut" unicode="&#x171;" horiz-adv-x="1215" d="M206 818 L58 818 L58 969 L380 969 L380 399 Q380 281 395 231 Q422 143 523 143 Q597 143 664 183.5 Q731 224 832 330 L832 818 L692 818 L692 969 L1006 969 L1006 151 L1156 151 L1156 0 L832 0 L832 156 Q737 73 699 50 Q591 -16 478 -16 Q313 -16 251 110 Q225 162 215.5 224.5 Q206 287 206 408 L206 818 Z M368 1105 L515 1454 L686 1454 L469 1105 L368 1105 Z M630 1105 L802 1454 L978 1454 L733 1105 L630 1105 Z " />
<glyph glyph-name="Uogonek" unicode="&#x172;" horiz-adv-x="1436" d="M72 1324 L72 1475 L547 1475 L547 1324 L396 1324 L396 566 Q396 367 445 271 Q517 131 717 131 Q918 131 991 271 Q1040 367 1040 566 L1040 1324 L889 1324 L889 1475 L1364 1475 L1364 1324 L1220 1324 L1220 623 Q1220 356 1180 244 Q1104 29 848 -19 Q766 -85 731.5 -134.5 Q697 -184 697 -235 Q697 -317 789 -317 L872 -317 L872 -439 L789 -439 Q552 -439 552 -265 Q552 -146 703 -30 Q446 -19 329 116 Q250 208 228 366 Q216 453 216 623 L216 1324 L72 1324 Z " />
<glyph glyph-name="uogonek" unicode="&#x173;" horiz-adv-x="1215" d="M206 818 L58 818 L58 969 L380 969 L380 399 Q380 281 395 231 Q422 143 523 143 Q597 143 664 183.5 Q731 224 832 330 L832 818 L692 818 L692 969 L1006 969 L1006 151 L1156 151 L1156 0 Q1064 -68 1022 -124 Q980 -180 980 -236 Q980 -317 1071 -317 L1154 -317 L1154 -439 L1072 -439 Q834 -439 834 -265 Q834 -196 874 -140.5 Q914 -85 1025 0 L832 0 L832 156 Q737 73 699 50 Q591 -16 478 -16 Q313 -16 251 110 Q225 162 215.5 224.5 Q206 287 206 408 L206 818 Z " />
<glyph glyph-name="Wcircumflex" unicode="&#x174;" horiz-adv-x="1907" d="M5 1324 L5 1475 L495 1475 L495 1324 L322 1324 L540 558 Q564 472 597 334 Q635 491 654 556 L917 1495 L1010 1495 L1275 554 Q1301 460 1328 334 Q1358 464 1388 572 L1600 1324 L1437 1324 L1437 1475 L1903 1475 L1903 1324 L1772 1324 L1380 -32 L1272 -32 L1008 910 Q985 992 962 1112 Q936 993 914 915 L645 -32 L534 -32 L138 1324 L5 1324 Z M954 1809 L792 1596 L668 1596 L865 1920 L1043 1920 L1238 1596 L1115 1596 L954 1809 Z " />
<glyph glyph-name="wcircumflex" unicode="&#x175;" horiz-adv-x="1610" d="M131 818 L16 818 L16 969 L453 969 L453 818 L304 818 L459 385 Q483 318 505 235 Q531 325 556 392 L771 969 L842 969 L1054 387 Q1079 318 1102 235 Q1130 329 1149 380 L1310 818 L1156 818 L1156 969 L1591 969 L1591 818 L1479 818 L1158 -24 L1050 -24 L842 556 Q820 619 803 687 Q787 620 765 559 L554 -24 L448 -24 L131 818 Z M804 1356 L630 1118 L506 1118 L716 1467 L893 1467 L1102 1118 L978 1118 L804 1356 Z " />
<glyph glyph-name="Ycircumflex" unicode="&#x176;" horiz-adv-x="1153" d="M484 151 L484 671 L112 1324 L-16 1324 L-16 1475 L466 1475 L466 1324 L319 1324 L583 835 L846 1324 L701 1324 L701 1475 L1164 1475 L1164 1324 L1032 1324 L664 669 L664 151 L845 151 L845 0 L303 0 L303 151 L484 151 Z M598 1809 L436 1596 L312 1596 L509 1920 L687 1920 L882 1596 L759 1596 L598 1809 Z " />
<glyph glyph-name="ycircumflex" unicode="&#x177;" horiz-adv-x="1076" d="M111 818 L8 818 L8 969 L468 969 L468 818 L293 818 L503 357 Q506 350 551 238 Q576 307 605 375 L790 818 L621 818 L621 969 L1076 969 L1076 818 L967 818 L546 -147 Q474 -310 404 -363 Q360 -396 307 -408.5 Q254 -421 155 -422 L155 -271 Q259 -270 303.5 -240 Q348 -210 389 -112 L462 61 L111 818 Z M537 1356 L363 1118 L239 1118 L449 1467 L626 1467 L835 1118 L711 1118 L537 1356 Z " />
<glyph glyph-name="Zacute" unicode="&#x179;" horiz-adv-x="1143" d="M49 0 L49 143 L820 1324 L247 1324 L247 1085 L91 1085 L91 1475 L1051 1475 L1051 1359 L265 151 L897 151 L897 406 L1053 406 L1053 0 L49 0 Z M490 1596 L672 1920 L868 1920 L614 1596 L490 1596 Z " />
<glyph glyph-name="zacute" unicode="&#x17a;" horiz-adv-x="957" d="M47 0 L47 149 L632 818 L248 818 L248 660 L97 660 L97 969 L857 969 L857 841 L258 151 L722 151 L722 325 L873 325 L873 0 L47 0 Z M393 1118 L601 1467 L796 1467 L517 1118 L393 1118 Z " />
<glyph glyph-name="Zdotaccent" unicode="&#x17b;" horiz-adv-x="1143" d="M49 0 L49 143 L820 1324 L247 1324 L247 1085 L91 1085 L91 1475 L1051 1475 L1051 1359 L265 151 L897 151 L897 406 L1053 406 L1053 0 L49 0 Z M515 1646 L515 1850 L714 1850 L714 1646 L515 1646 Z " />
<glyph glyph-name="zdotaccent" unicode="&#x17c;" horiz-adv-x="957" d="M47 0 L47 149 L632 818 L248 818 L248 660 L97 660 L97 969 L857 969 L857 841 L258 151 L722 151 L722 325 L873 325 L873 0 L47 0 Z M395 1168 L395 1372 L594 1372 L594 1168 L395 1168 Z " />
<glyph glyph-name="Zcaron" unicode="&#x17d;" horiz-adv-x="1143" d="M49 0 L49 143 L820 1324 L247 1324 L247 1085 L91 1085 L91 1475 L1051 1475 L1051 1359 L265 151 L897 151 L897 406 L1053 406 L1053 0 L49 0 Z M602 1707 L763 1920 L887 1920 L690 1596 L513 1596 L317 1920 L439 1920 L602 1707 Z " />
<glyph glyph-name="zcaron" unicode="&#x17e;" horiz-adv-x="957" d="M47 0 L47 149 L632 818 L248 818 L248 660 L97 660 L97 969 L857 969 L857 841 L258 151 L722 151 L722 325 L873 325 L873 0 L47 0 Z M497 1229 L671 1467 L795 1467 L586 1118 L409 1118 L199 1467 L323 1467 L497 1229 Z " />
<glyph glyph-name="uni018F" unicode="&#x18f;" horiz-adv-x="1675" d="M102 843 L1379 843 Q1357 997 1283 1107 Q1122 1345 825 1345 Q644 1345 496 1258 Q438 1224 341 1127 L226 1247 Q328 1364 443 1422 Q612 1506 823 1506 Q1180 1506 1392 1253 Q1572 1039 1572 736 Q1572 437 1396 222 Q1189 -31 852 -31 Q510 -31 290 222 Q109 429 103 737 Q102 768 102 843 Z M291 697 Q305 568 325 502 Q345 436 389 372 Q470 254 589 191 Q708 127 851 127 Q1079 127 1223.5 281.5 Q1368 436 1385 697 L291 697 Z " />
<glyph glyph-name="uni01CD" unicode="&#x1cd;" horiz-adv-x="1460" d="M1043 434 L410 434 L306 151 L467 151 L467 0 L0 0 L0 151 L122 151 L626 1475 L824 1475 L1334 151 L1460 151 L1460 0 L987 0 L987 151 L1149 151 L1043 434 Z M987 582 L723 1296 L465 582 L987 582 Z M730 1707 L891 1920 L1015 1920 L818 1596 L641 1596 L445 1920 L567 1920 L730 1707 Z " />
<glyph glyph-name="uni01CE" unicode="&#x1ce;" horiz-adv-x="1175" d="M792 582 L792 630 Q792 749 751 793 Q695 853 534 853 Q412 853 365 809 Q335 780 327 702 L164 702 Q169 862 255 930 Q341 998 537 998 Q799 998 895 888 Q936 841 952.5 775.5 Q969 710 969 593 L969 151 L1117 151 L1117 0 L806 0 L806 111 Q681 -29 443 -29 Q270 -29 173 45 Q75 120 75 277 Q75 469 221 545 Q311 592 521 592 Q610 592 792 582 Z M795 444 Q682 456 529 456 Q374 456 319 423 Q250 381 250 283 Q250 200 300 161 Q354 119 473 119 Q665 119 753 220 Q778 248 786.5 277 Q795 306 795 363 L795 444 Z M584 1229 L758 1467 L882 1467 L673 1118 L496 1118 L286 1467 L410 1467 L584 1229 Z " />
<glyph glyph-name="uni01D3" unicode="&#x1d3;" horiz-adv-x="1436" d="M72 1324 L72 1475 L547 1475 L547 1324 L396 1324 L396 566 Q396 367 445 271 Q517 130 718 130 Q918 130 991 271 Q1040 366 1040 566 L1040 1324 L889 1324 L889 1475 L1364 1475 L1364 1324 L1220 1324 L1220 623 Q1220 432 1203.5 335 Q1187 238 1143 165 Q1024 -31 718 -31 Q413 -31 293 165 Q249 238 232.5 335.5 Q216 433 216 623 L216 1324 L72 1324 Z M733 1707 L894 1920 L1018 1920 L821 1596 L644 1596 L448 1920 L570 1920 L733 1707 Z " />
<glyph glyph-name="uni01D4" unicode="&#x1d4;" horiz-adv-x="1215" d="M206 818 L58 818 L58 969 L380 969 L380 399 Q380 281 395 231 Q422 143 523 143 Q597 143 664 183.5 Q731 224 832 330 L832 818 L692 818 L692 969 L1006 969 L1006 151 L1156 151 L1156 0 L832 0 L832 156 Q737 73 699 50 Q591 -16 478 -16 Q313 -16 251 110 Q225 162 215.5 224.5 Q206 287 206 408 L206 818 Z M607 1229 L781 1467 L905 1467 L696 1118 L519 1118 L309 1467 L433 1467 L607 1229 Z " />
<glyph glyph-name="uni01DD" unicode="&#x1dd;" horiz-adv-x="1161" d="M80 566 L897 566 Q879 662 835 723 Q744 847 574 847 Q476 847 390.5 819 Q305 791 202 726 L115 856 Q330 998 571 998 Q805 998 944 852 Q1081 710 1081 485 Q1081 260 944 117 Q805 -29 579 -29 Q355 -29 215 117 Q78 259 78 492 Q78 520 80 566 Z M261 435 Q272 358 281 328.5 Q290 299 312 266 Q407 122 579 122 Q695 122 776 186 Q833 231 859.5 284.5 Q886 338 900 435 L261 435 Z " />
<glyph glyph-name="Gcaron" unicode="&#x1e6;" horiz-adv-x="1663" d="M806 571 L806 722 L1482 722 L1482 59 Q1220 -31 888 -31 Q625 -31 451 63 Q273 160 181 338 Q92 508 92 730 Q92 1106 346 1329 Q545 1505 861 1505 Q1121 1505 1284 1391 L1284 1475 L1432 1475 L1432 1044 L1276 1044 L1276 1071 Q1276 1170 1226 1226 Q1175 1284 1082 1315.5 Q989 1347 871 1347 Q596 1347 437 1177 Q276 1006 276 732 Q276 451 447 282 Q604 127 900 127 Q1105 127 1314 193 L1314 571 L806 571 Z M860 1707 L1021 1920 L1145 1920 L948 1596 L771 1596 L575 1920 L697 1920 L860 1707 Z " />
<glyph glyph-name="gcaron" unicode="&#x1e7;" horiz-adv-x="1273" d="M888 154 Q842 102 811 77 Q702 -11 542 -11 Q333 -11 204 131 Q80 268 80 489 Q80 710 201 850 Q330 998 543 998 Q659 998 740.5 957 Q822 916 900 818 L900 969 L1224 969 L1224 818 L1062 818 L1062 95 Q1062 -157 990 -272 Q878 -452 575 -452 Q361 -452 263 -378.5 Q165 -305 158 -139 L322 -139 Q330 -214 366 -250 Q423 -306 579 -306 Q772 -306 840 -186 Q867 -139 877.5 -81 Q888 -23 888 81 L888 154 Z M563 847 Q428 847 341 747 Q257 651 257 490 Q257 342 331 249 Q418 140 568 140 Q718 140 808 248 Q888 344 888 486 Q888 647 797.5 747 Q707 847 563 847 Z M630 1229 L804 1467 L928 1467 L719 1118 L542 1118 L332 1467 L456 1467 L630 1229 Z " />
<glyph glyph-name="uni01F4" unicode="&#x1f4;" horiz-adv-x="1663" d="M806 571 L806 722 L1482 722 L1482 59 Q1220 -31 888 -31 Q625 -31 451 63 Q273 160 181 338 Q92 508 92 730 Q92 1106 346 1329 Q545 1505 861 1505 Q1121 1505 1284 1391 L1284 1475 L1432 1475 L1432 1044 L1276 1044 L1276 1071 Q1276 1170 1226 1226 Q1175 1284 1082 1315.5 Q989 1347 871 1347 Q596 1347 437 1177 Q276 1006 276 732 Q276 451 447 282 Q604 127 900 127 Q1105 127 1314 193 L1314 571 L806 571 Z M738 1596 L920 1920 L1116 1920 L862 1596 L738 1596 Z " />
<glyph glyph-name="uni01F5" unicode="&#x1f5;" horiz-adv-x="1273" d="M888 154 Q842 102 811 77 Q702 -11 542 -11 Q333 -11 204 131 Q80 268 80 489 Q80 710 201 850 Q330 998 543 998 Q659 998 740.5 957 Q822 916 900 818 L900 969 L1224 969 L1224 818 L1062 818 L1062 95 Q1062 -157 990 -272 Q878 -452 575 -452 Q361 -452 263 -378.5 Q165 -305 158 -139 L322 -139 Q330 -214 366 -250 Q423 -306 579 -306 Q772 -306 840 -186 Q867 -139 877.5 -81 Q888 -23 888 81 L888 154 Z M563 847 Q428 847 341 747 Q257 651 257 490 Q257 342 331 249 Q418 140 568 140 Q718 140 808 248 Q888 344 888 486 Q888 647 797.5 747 Q707 847 563 847 Z M499 1118 L707 1467 L902 1467 L623 1118 L499 1118 Z " />
<glyph glyph-name="Scommaaccent" unicode="&#x218;" horiz-adv-x="1234" d="M110 0 L110 440 L266 440 L266 406 Q266 302 316 242 Q362 188 446 157.5 Q530 127 633 127 Q805 127 896 206 Q980 279 980 398 Q980 512 891 583 Q852 613 786 637.5 Q720 662 582 697 Q412 739 336 772 Q260 805 211 857 Q126 948 126 1097 Q126 1275 238 1385 Q360 1506 578 1506 Q785 1506 910 1391 L910 1475 L1058 1475 L1058 1044 L902 1044 L902 1071 Q902 1172 863 1231 Q828 1284 752.5 1316 Q677 1348 587 1348 Q450 1348 374 1278 Q303 1212 303 1112 Q303 1002 393 944 Q457 903 663 854 Q835 813 916.5 777.5 Q998 742 1055 684 Q1160 577 1160 411 Q1160 216 1036 97 Q901 -31 637 -31 Q408 -31 258 84 L258 0 L110 0 Z M387 -476 L552 -127 L747 -127 L511 -476 L387 -476 Z " />
<glyph glyph-name="scommaaccent" unicode="&#x219;" horiz-adv-x="983" d="M89 0 L89 319 L237 319 L237 285 Q237 210 287 173 Q367 113 522 113 Q626 113 683 150 Q744 189 744 268 Q744 333 689 370 Q665 387 634.5 394.5 Q604 402 462 426 Q340 446 276 468.5 Q212 491 172 526 Q95 594 95 710 Q95 840 188 920 Q277 998 435 998 Q514 998 573 979.5 Q632 961 696 916 L696 969 L833 969 L833 672 L685 672 L685 690 Q685 759 641 795 Q567 855 448 855 Q354 855 308 815 Q266 778 266 720 Q266 658 331 623 Q368 603 517 577 Q653 554 715.5 534.5 Q778 515 818 482 Q911 409 911 270 Q911 127 811 49 Q711 -29 527 -29 Q354 -29 226 53 L226 0 L89 0 Z M249 -476 L414 -127 L609 -127 L373 -476 L249 -476 Z " />
<glyph glyph-name="uni021A" unicode="&#x21a;" horiz-adv-x="1213" d="M516 151 L516 1324 L194 1324 L194 1085 L38 1085 L38 1475 L1174 1475 L1174 1085 L1018 1085 L1018 1324 L696 1324 L696 151 L892 151 L892 0 L321 0 L321 151 L516 151 Z M369 -476 L534 -127 L729 -127 L493 -476 L369 -476 Z " />
<glyph glyph-name="uni021B" unicode="&#x21b;" horiz-adv-x="688" d="M213 818 L59 818 L59 969 L213 969 L213 1326 L387 1326 L387 969 L631 969 L631 818 L387 818 L387 318 Q387 225 416.5 188 Q446 151 522 151 L643 151 L643 0 L516 0 Q213 0 213 291 L213 818 Z M131 -476 L296 -127 L491 -127 L255 -476 L131 -476 Z " />
<glyph glyph-name="uni0226" unicode="&#x226;" horiz-adv-x="1460" d="M1043 434 L410 434 L306 151 L467 151 L467 0 L0 0 L0 151 L122 151 L626 1475 L824 1475 L1334 151 L1460 151 L1460 0 L987 0 L987 151 L1149 151 L1043 434 Z M987 582 L723 1296 L465 582 L987 582 Z M630 1646 L630 1850 L829 1850 L829 1646 L630 1646 Z " />
<glyph glyph-name="uni0227" unicode="&#x227;" horiz-adv-x="1175" d="M792 582 L792 630 Q792 749 751 793 Q695 853 534 853 Q412 853 365 809 Q335 780 327 702 L164 702 Q169 862 255 930 Q341 998 537 998 Q799 998 895 888 Q936 841 952.5 775.5 Q969 710 969 593 L969 151 L1117 151 L1117 0 L806 0 L806 111 Q681 -29 443 -29 Q270 -29 173 45 Q75 120 75 277 Q75 469 221 545 Q311 592 521 592 Q610 592 792 582 Z M795 444 Q682 456 529 456 Q374 456 319 423 Q250 381 250 283 Q250 200 300 161 Q354 119 473 119 Q665 119 753 220 Q778 248 786.5 277 Q795 306 795 363 L795 444 Z M488 1168 L488 1372 L687 1372 L687 1168 L488 1168 Z " />
<glyph glyph-name="uni0237" unicode="&#x237;" horiz-adv-x="581" d="M69 818 L69 969 L396 969 L396 -33 Q396 -155 377 -222 Q358 -289 311 -336 Q232 -414 51 -422 L51 -271 Q150 -263 185 -219 Q207 -191 214.5 -154 Q222 -117 222 -38 L222 818 L69 818 Z " />
<glyph glyph-name="uni0259" unicode="&#x259;" horiz-adv-x="1161" d="M80 566 L897 566 Q879 662 835 723 Q744 847 574 847 Q476 847 390.5 819 Q305 791 202 726 L115 856 Q330 998 571 998 Q805 998 944 852 Q1081 710 1081 485 Q1081 260 944 117 Q805 -29 579 -29 Q355 -29 215 117 Q78 259 78 492 Q78 520 80 566 Z M261 435 Q272 358 281 328.5 Q290 299 312 266 Q407 122 579 122 Q695 122 776 186 Q833 231 859.5 284.5 Q886 338 900 435 L261 435 Z " />
<glyph glyph-name="uni02C9" unicode="&#x2c9;" horiz-adv-x="1024" d="M247 1203 L247 1341 L777 1341 L777 1203 L247 1203 Z " />
<glyph glyph-name="uni0312" unicode="&#x312;" horiz-adv-x="1024" d="M757 1467 L550 1118 L354 1118 L633 1467 L757 1467 Z " />
<glyph glyph-name="uni0313" unicode="&#x313;" horiz-adv-x="223" d="M-41 1030 L69 1475 L264 1475 L91 1030 L-41 1030 Z " />
<glyph glyph-name="uni031B" unicode="&#x31b;" horiz-adv-x="223" d="M-41 1030 L69 1475 L264 1475 L91 1030 L-41 1030 Z " />
<glyph glyph-name="commaaccent" unicode="&#x326;" horiz-adv-x="1024" d="M299 -476 L464 -127 L659 -127 L423 -476 L299 -476 Z " />
<glyph glyph-name="uni037E" unicode="&#x37e;" horiz-adv-x="574" d="M194 636 L194 857 L398 857 L398 636 L194 636 Z M53 -273 L194 221 L403 221 L226 -273 L53 -273 Z " />
<glyph glyph-name="uni0387" unicode="&#x387;" horiz-adv-x="574" d="M186 443 L186 664 L390 664 L390 443 L186 443 Z " />
<glyph glyph-name="uni0400" unicode="&#x400;" horiz-adv-x="1259" d="M237 151 L237 1324 L93 1324 L93 1475 L1115 1475 L1115 1116 L959 1116 L959 1324 L417 1324 L417 842 L903 842 L903 691 L417 691 L417 151 L969 151 L969 400 L1125 400 L1125 0 L93 0 L93 151 L237 151 Z M648 1596 L394 1920 L590 1920 L772 1596 L648 1596 Z " />
<glyph glyph-name="afii10023" unicode="&#x401;" horiz-adv-x="1259" d="M237 151 L237 1324 L93 1324 L93 1475 L1142 1475 L1142 1116 L986 1116 L986 1324 L417 1324 L417 842 L929 842 L929 691 L417 691 L417 151 L996 151 L996 400 L1152 400 L1152 0 L93 0 L93 151 L237 151 Z M357 1651 L357 1845 L534 1845 L534 1651 L357 1651 Z M738 1651 L738 1845 L915 1845 L915 1651 L738 1651 Z " />
<glyph glyph-name="afii10051" unicode="&#x402;" horiz-adv-x="1586" d="M479 151 L479 1324 L201 1324 L201 1085 L45 1085 L45 1475 L1146 1475 L1146 1100 L990 1100 L990 1324 L659 1324 L659 746 Q750 816 801 844 Q924 910 1057 910 Q1256 910 1336 780 Q1367 730 1379 664 Q1391 598 1391 474 L1391 -44 Q1391 -165 1372 -232 Q1353 -299 1306 -346 Q1227 -423 1046 -432 L1046 -281 Q1145 -273 1180 -229 Q1202 -201 1209.5 -164 Q1217 -127 1217 -48 L1217 483 Q1217 604 1194 660 Q1155 751 1012 751 Q928 751 850.5 712 Q773 673 659 572 L659 151 L855 151 L855 0 L284 0 L284 151 L479 151 Z " />
<glyph glyph-name="afii10052" unicode="&#x403;" horiz-adv-x="1146" d="M237 151 L237 1324 L93 1324 L93 1475 L1106 1475 L1106 1085 L950 1085 L950 1324 L417 1324 L417 151 L622 151 L622 0 L93 0 L93 151 L237 151 Z M505 1596 L687 1920 L911 1920 L638 1596 L505 1596 Z " />
<glyph glyph-name="afii10053" unicode="&#x404;" horiz-adv-x="1445" d="M899 848 L899 702 L287 702 Q295 587 311.5 516.5 Q328 446 363 375 Q430 241 535 182 Q629 130 767 130 Q942 130 1078 216 Q1129 249 1222 347 L1336 227 Q1242 111 1132 53 Q973 -31 762 -31 Q423 -31 254 199 Q101 407 101 746 Q101 1097 284 1305 Q460 1506 759 1506 Q993 1506 1144 1391 L1144 1475 L1292 1475 L1292 1044 L1137 1044 L1137 1071 Q1137 1172 1089 1228 Q1041 1284 955 1315.5 Q869 1347 764 1347 Q496 1347 370 1120 Q308 1009 291 848 L899 848 Z " />
<glyph glyph-name="afii10054" unicode="&#x405;" horiz-adv-x="1256" d="M120 0 L120 440 L275 440 L275 406 Q275 302 326 242 Q372 188 455.5 157.5 Q539 127 643 127 Q816 127 906 206 Q990 279 990 398 Q990 513 901 583 Q863 613 796 638 Q729 663 592 697 Q421 739 345.5 772 Q270 805 221 857 Q136 947 136 1097 Q136 1275 247 1385 Q369 1506 587 1506 Q697 1506 774.5 1479 Q852 1452 920 1391 L920 1475 L1068 1475 L1068 1044 L913 1044 L913 1071 Q913 1172 873 1231 Q838 1284 762.5 1316 Q687 1348 597 1348 Q461 1348 384 1278 Q313 1213 313 1112 Q313 1002 403 944 Q467 903 673 854 Q845 813 926.5 777.5 Q1008 742 1065 684 Q1170 577 1170 411 Q1170 216 1046 97 Q911 -31 647 -31 Q418 -31 268 84 L268 0 L120 0 Z " />
<glyph glyph-name="afii10055" unicode="&#x406;" horiz-adv-x="660" d="M240 151 L240 1324 L96 1324 L96 1475 L565 1475 L565 1324 L420 1324 L420 151 L565 151 L565 0 L96 0 L96 151 L240 151 Z " />
<glyph glyph-name="afii10056" unicode="&#x407;" horiz-adv-x="660" d="M240 151 L240 1324 L96 1324 L96 1475 L565 1475 L565 1324 L420 1324 L420 151 L565 151 L565 0 L96 0 L96 151 L240 151 Z M51 1651 L51 1845 L228 1845 L228 1651 L51 1651 Z M432 1651 L432 1845 L609 1845 L609 1651 L432 1651 Z " />
<glyph glyph-name="afii10057" unicode="&#x408;" horiz-adv-x="655" d="M241 1324 L90 1324 L90 1475 L565 1475 L565 1324 L421 1324 L421 135 Q421 -1 401.5 -76 Q382 -151 332 -204 Q250 -292 54 -300 L54 -149 Q163 -140 200 -91 Q224 -58 232.5 -13.5 Q241 31 241 124 L241 1324 Z " />
<glyph glyph-name="afii10058" unicode="&#x409;" horiz-adv-x="2056" d="M983 151 L983 1324 L463 1324 L463 1247 Q463 934 439.5 649 Q416 364 380 247 Q339 113 265 56.5 Q191 0 57 0 L-17 0 L-10 151 L37 151 Q113 151 155 199.5 Q197 248 221 363 Q249 502 267.5 748.5 Q286 995 286 1243 L286 1324 L142 1324 L142 1475 L1313 1475 L1313 1324 L1159 1324 L1159 883 L1456 883 Q1696 883 1821 796 Q1986 681 1986 441 Q1986 202 1821 87 Q1696 0 1456 0 L839 0 L839 151 L983 151 Z M1159 151 L1416 151 Q1604 151 1693 211 Q1802 285 1802 444 Q1802 616 1674 687 Q1588 736 1416 736 L1159 736 L1159 151 Z " />
<glyph glyph-name="afii10059" unicode="&#x40a;" horiz-adv-x="2135" d="M237 151 L237 1324 L93 1324 L93 1475 L568 1475 L568 1324 L417 1324 L417 851 L1048 851 L1048 1324 L903 1324 L903 1475 L1378 1475 L1378 1324 L1224 1324 L1224 853 L1534 853 Q1774 853 1899 769 Q2064 658 2064 426 Q2064 195 1899 84 Q1775 0 1534 0 L903 0 L903 151 L1048 151 L1048 700 L417 700 L417 151 L568 151 L568 0 L93 0 L93 151 L237 151 Z M1224 151 L1495 151 Q1683 151 1771 208 Q1880 278 1880 429 Q1880 593 1752 660 Q1666 706 1495 706 L1224 706 L1224 151 Z " />
<glyph glyph-name="afii10060" unicode="&#x40b;" horiz-adv-x="1602" d="M479 151 L479 1324 L201 1324 L201 1085 L45 1085 L45 1475 L1146 1475 L1146 1100 L990 1100 L990 1324 L659 1324 L659 746 Q749 816 800 844 Q923 910 1057 910 Q1256 910 1336 780 Q1367 730 1379 664 Q1391 598 1391 474 L1391 151 L1541 151 L1541 0 L1081 0 L1081 151 L1217 151 L1217 483 Q1217 604 1194 660 Q1155 751 1012 751 Q927 751 850.5 712 Q774 673 659 572 L659 151 L818 151 L818 0 L284 0 L284 151 L479 151 Z " />
<glyph glyph-name="afii10061" unicode="&#x40c;" horiz-adv-x="1366" d="M237 151 L237 1324 L93 1324 L93 1475 L568 1475 L568 1324 L417 1324 L417 848 L674 848 L1000 1324 L857 1324 L857 1475 L1317 1475 L1317 1324 L1198 1324 L827 790 Q896 747 943 677 Q979 624 1036 507 L1214 151 L1358 151 L1358 0 L1069 0 L869 435 Q794 598 734.5 650 Q675 702 562 702 L417 702 L417 151 L568 151 L568 0 L93 0 L93 151 L237 151 Z M602 1596 L784 1920 L1007 1920 L734 1596 L602 1596 Z " />
<glyph glyph-name="uni040D" unicode="&#x40d;" horiz-adv-x="1494" d="M237 151 L237 1324 L93 1324 L93 1475 L563 1475 L563 1324 L413 1324 L413 277 L1068 1475 L1401 1475 L1401 1324 L1257 1324 L1257 151 L1401 151 L1401 0 L930 0 L930 151 L1081 151 L1081 1211 L417 0 L93 0 L93 151 L237 151 Z M715 1596 L461 1920 L657 1920 L839 1596 L715 1596 Z " />
<glyph glyph-name="afii10062" unicode="&#x40e;" horiz-adv-x="1250" d="M565 436 L138 1324 L11 1324 L11 1475 L470 1475 L470 1324 L330 1324 L651 625 L973 1324 L834 1324 L834 1475 L1274 1475 L1274 1324 L1157 1324 L546 0 L263 0 L263 151 L434 151 L565 436 Z M454 1911 Q461 1826 504 1790 Q551 1751 657 1751 Q763 1751 810 1787 Q857 1823 866 1911 L998 1911 Q995 1824 979 1780 Q919 1619 660 1619 Q462 1619 384 1705 Q351 1741 337.5 1785.5 Q324 1830 321 1911 L454 1911 Z " />
<glyph glyph-name="afii10145" unicode="&#x40f;" horiz-adv-x="1450" d="M237 151 L237 1324 L93 1324 L93 1475 L560 1475 L560 1324 L417 1324 L417 151 L1033 151 L1033 1324 L890 1324 L890 1475 L1357 1475 L1357 1324 L1213 1324 L1213 151 L1357 151 L1357 0 L820 0 L797 -360 L653 -360 L630 0 L93 0 L93 151 L237 151 Z " />
<glyph glyph-name="afii10017" unicode="&#x410;" horiz-adv-x="1481" d="M1054 434 L421 434 L317 151 L478 151 L478 0 L11 0 L11 151 L133 151 L637 1475 L835 1475 L1345 151 L1471 151 L1471 0 L998 0 L998 151 L1160 151 L1054 434 Z M998 582 L734 1296 L476 582 L998 582 Z " />
<glyph glyph-name="afii10018" unicode="&#x411;" horiz-adv-x="1342" d="M237 151 L237 1324 L93 1324 L93 1475 L1142 1475 L1142 1085 L986 1085 L986 1324 L413 1324 L413 883 L710 883 Q950 883 1075 796 Q1240 681 1240 441 Q1240 201 1075 87 Q950 0 710 0 L93 0 L93 151 L237 151 Z M413 151 L670 151 Q858 151 947 211 Q1055 285 1055 444 Q1055 616 928 687 Q842 736 670 736 L413 736 L413 151 Z " />
<glyph glyph-name="afii10019" unicode="&#x412;" horiz-adv-x="1342" d="M237 151 L237 1324 L93 1324 L93 1475 L677 1475 Q913 1475 1034 1384 Q1159 1290 1159 1109 Q1159 998 1110 925.5 Q1061 853 954 804 Q1073 777 1144 699 Q1240 593 1240 431 Q1240 202 1062 87 Q928 0 669 0 L93 0 L93 151 L237 151 Z M413 867 L673 867 Q816 867 893 921 Q979 980 979 1093 Q979 1205 899.5 1264.5 Q820 1324 671 1324 L413 1324 L413 867 Z M413 151 L630 151 Q837 151 935 211 Q1056 284 1056 434 Q1056 570 961 645.5 Q866 721 695 721 L413 721 L413 151 Z " />
<glyph glyph-name="afii10020" unicode="&#x413;" horiz-adv-x="1146" d="M237 151 L237 1324 L93 1324 L93 1475 L1106 1475 L1106 1085 L950 1085 L950 1324 L417 1324 L417 151 L622 151 L622 0 L93 0 L93 151 L237 151 Z " />
<glyph glyph-name="afii10021" unicode="&#x414;" horiz-adv-x="1395" d="M1151 0 L166 0 L142 -360 L-7 -360 L-7 151 L141 151 Q204 259 242 556 Q280 853 280 1242 L280 1324 L136 1324 L136 1475 L1301 1475 L1301 1324 L1157 1324 L1157 151 L1324 151 L1324 -360 L1176 -360 L1151 0 Z M977 151 L977 1324 L453 1324 L453 1206 Q446 781 417 544 Q390 316 330 151 L977 151 Z " />
<glyph glyph-name="afii10022" unicode="&#x415;" horiz-adv-x="1259" d="M237 151 L237 1324 L93 1324 L93 1475 L1142 1475 L1142 1116 L986 1116 L986 1324 L417 1324 L417 842 L929 842 L929 691 L417 691 L417 151 L996 151 L996 400 L1152 400 L1152 0 L93 0 L93 151 L237 151 Z " />
<glyph glyph-name="afii10024" unicode="&#x416;" horiz-adv-x="1949" d="M887 151 L887 702 L824 702 Q757 702 716.5 689 Q676 676 639 641 Q573 579 499 427 L292 0 L8 0 L8 151 L152 151 L342 507 Q411 637 456 695 Q501 753 562 791 L168 1324 L56 1324 L56 1475 L503 1475 L503 1332 L361 1332 L716 848 L887 848 L887 1332 L760 1332 L760 1475 L1188 1475 L1188 1332 L1061 1332 L1061 848 L1232 848 L1586 1332 L1445 1332 L1445 1475 L1892 1475 L1892 1324 L1780 1324 L1386 791 Q1447 753 1492 695.5 Q1537 638 1606 507 L1796 151 L1940 151 L1940 0 L1656 0 L1449 427 Q1370 590 1303.5 646 Q1237 702 1124 702 L1061 702 L1061 151 L1211 151 L1211 0 L737 0 L737 151 L887 151 Z " />
<glyph glyph-name="afii10025" unicode="&#x417;" horiz-adv-x="1307" d="M177 303 Q274 206 380.5 163 Q487 120 629 120 Q797 120 901 180 Q1030 255 1030 426 Q1030 549 957 613 Q870 690 664 690 L414 690 L414 836 L620 836 Q762 836 853 887 Q974 956 974 1107 Q974 1245 867 1307 Q788 1352 669 1352 Q571 1352 487 1320 Q403 1288 358 1234 Q311 1176 311 1077 L311 1050 L156 1050 L156 1475 L304 1475 L304 1391 Q392 1453 481 1479.5 Q570 1506 691 1506 Q951 1506 1070 1377 Q1157 1282 1157 1122 Q1157 1004 1116 928 Q1075 852 978 788 Q1084 751 1137 687 Q1214 595 1214 434 Q1214 218 1080 100 Q931 -31 630 -31 Q280 -31 88 169 L177 303 Z " />
<glyph glyph-name="afii10026" unicode="&#x418;" horiz-adv-x="1494" d="M237 151 L237 1324 L93 1324 L93 1475 L563 1475 L563 1324 L413 1324 L413 277 L1068 1475 L1401 1475 L1401 1324 L1257 1324 L1257 151 L1401 151 L1401 0 L930 0 L930 151 L1081 151 L1081 1211 L417 0 L93 0 L93 151 L237 151 Z " />
<glyph glyph-name="afii10027" unicode="&#x419;" horiz-adv-x="1494" d="M540 1911 Q548 1826 591 1790 Q637 1751 744 1751 Q849 1751 896 1787 Q943 1823 952 1911 L1085 1911 Q1082 1824 1065 1780 Q1006 1619 746 1619 Q549 1619 471 1705 Q438 1741 424.5 1785.5 Q411 1830 408 1911 L540 1911 Z M237 151 L237 1324 L93 1324 L93 1475 L563 1475 L563 1324 L413 1324 L413 277 L1068 1475 L1401 1475 L1401 1324 L1257 1324 L1257 151 L1401 151 L1401 0 L930 0 L930 151 L1081 151 L1081 1211 L417 0 L93 0 L93 151 L237 151 Z " />
<glyph glyph-name="afii10028" unicode="&#x41a;" horiz-adv-x="1366" d="M237 151 L237 1324 L93 1324 L93 1475 L568 1475 L568 1324 L417 1324 L417 848 L674 848 L1000 1324 L857 1324 L857 1475 L1317 1475 L1317 1324 L1198 1324 L827 790 Q896 747 943 677 Q979 624 1036 507 L1214 151 L1358 151 L1358 0 L1069 0 L869 435 Q794 598 734.5 650 Q675 702 562 702 L417 702 L417 151 L568 151 L568 0 L93 0 L93 151 L237 151 Z " />
<glyph glyph-name="afii10029" unicode="&#x41b;" horiz-adv-x="1400" d="M141 1324 L141 1475 L1307 1475 L1307 1324 L1163 1324 L1163 151 L1307 151 L1307 0 L831 0 L831 151 L983 151 L983 1324 L462 1324 L462 1247 Q462 932 438.5 648.5 Q415 365 379 247 Q339 113 265 56.5 Q191 0 56 0 L-11 0 L-11 151 L36 151 Q113 151 155 199.5 Q197 248 220 363 Q249 503 267 749 Q285 995 285 1242 L285 1324 L141 1324 Z " />
<glyph glyph-name="afii10030" unicode="&#x41c;" horiz-adv-x="1831" d="M202 151 L284 1324 L139 1324 L139 1475 L518 1475 L864 468 Q889 397 917 269 Q941 386 967 462 L1316 1475 L1691 1475 L1691 1324 L1546 1324 L1628 151 L1757 151 L1757 0 L1314 0 L1314 151 L1452 151 L1399 1023 Q1398 1047 1392 1246 Q1344 1068 1330 1028 L978 0 L853 0 L501 1026 L437 1246 Q432 1049 431 1024 L377 151 L517 151 L517 0 L73 0 L73 151 L202 151 Z " />
<glyph glyph-name="afii10031" unicode="&#x41d;" horiz-adv-x="1494" d="M237 151 L237 1324 L93 1324 L93 1475 L568 1475 L568 1324 L417 1324 L417 851 L1077 851 L1077 1324 L926 1324 L926 1475 L1401 1475 L1401 1324 L1257 1324 L1257 151 L1401 151 L1401 0 L926 0 L926 151 L1077 151 L1077 700 L417 700 L417 151 L568 151 L568 0 L93 0 L93 151 L237 151 Z " />
<glyph glyph-name="afii10032" unicode="&#x41e;" horiz-adv-x="1735" d="M878 1506 Q1102 1506 1291 1382 Q1479 1259 1568 1055 Q1632 907 1632 738 Q1632 439 1442 223 Q1329 95 1174 30 Q1031 -31 867 -31 Q632 -31 444 93 Q258 215 168 421 Q103 569 103 736 Q103 1042 294 1252 Q525 1506 878 1506 Z M860 1348 Q612 1348 443 1165 Q287 995 287 737 Q287 481 443 310 Q612 127 868 127 Q1123 127 1292 310 Q1448 481 1448 736 Q1448 999 1292 1165 Q1119 1348 860 1348 Z " />
<glyph glyph-name="afii10033" unicode="&#x41f;" horiz-adv-x="1452" d="M237 151 L237 1324 L93 1324 L93 1475 L1359 1475 L1359 1324 L1215 1324 L1215 151 L1359 151 L1359 0 L890 0 L890 151 L1035 151 L1035 1324 L417 1324 L417 151 L561 151 L561 0 L93 0 L93 151 L237 151 Z " />
<glyph glyph-name="afii10034" unicode="&#x420;" horiz-adv-x="1260" d="M237 151 L237 1324 L93 1324 L93 1475 L585 1475 Q741 1475 835 1457.5 Q929 1440 1000 1396 Q1188 1283 1188 1020 Q1188 790 1041.5 680.5 Q895 571 586 571 L417 571 L417 151 L600 151 L600 0 L93 0 L93 151 L237 151 Z M417 719 L591 719 Q794 719 887 784 Q1004 864 1004 1024 Q1004 1178 895 1257 Q802 1324 596 1324 L417 1324 L417 719 Z " />
<glyph glyph-name="afii10035" unicode="&#x421;" horiz-adv-x="1497" d="M1274 348 L1388 227 Q1292 110 1184 54 Q1024 -31 810 -31 Q450 -31 268 190 Q103 390 103 722 Q103 1081 297 1297 Q484 1506 800 1506 Q1040 1506 1196 1391 L1196 1475 L1344 1475 L1344 1044 L1189 1044 L1189 1071 Q1189 1171 1140 1228 Q1091 1284 1001.5 1315.5 Q912 1347 804 1347 Q549 1347 412 1161 Q287 990 287 723 Q287 451 428 286 Q560 130 814 130 Q994 130 1130 216 Q1183 250 1274 348 Z " />
<glyph glyph-name="afii10036" unicode="&#x422;" horiz-adv-x="1234" d="M527 151 L527 1324 L205 1324 L205 1085 L49 1085 L49 1475 L1185 1475 L1185 1085 L1029 1085 L1029 1324 L707 1324 L707 151 L903 151 L903 0 L332 0 L332 151 L527 151 Z " />
<glyph glyph-name="afii10037" unicode="&#x423;" horiz-adv-x="1260" d="M565 436 L138 1324 L11 1324 L11 1475 L470 1475 L470 1324 L330 1324 L651 625 L973 1324 L834 1324 L834 1475 L1274 1475 L1274 1324 L1157 1324 L546 0 L263 0 L263 151 L434 151 L565 436 Z " />
<glyph glyph-name="afii10038" unicode="&#x424;" horiz-adv-x="1834" d="M822 44 L822 150 Q567 165 404 246 Q96 399 96 738 Q96 952 227 1099 Q371 1261 653 1307 Q726 1319 822 1325 L822 1431 L677 1431 L677 1567 L1135 1567 L1135 1431 L991 1431 L991 1325 Q1284 1304 1431 1230 Q1738 1074 1738 738 Q1738 524 1607 377 Q1513 272 1365 217.5 Q1217 163 991 150 L991 44 L1135 44 L1135 -92 L677 -92 L677 44 L822 44 Z M822 298 L822 1177 Q627 1168 502 1106 Q280 995 280 738 Q280 333 822 298 Z M991 298 Q1554 325 1554 738 Q1554 1017 1292 1123 Q1185 1167 991 1177 L991 298 Z " />
<glyph glyph-name="afii10039" unicode="&#x425;" horiz-adv-x="1314" d="M182 151 L556 760 L211 1324 L55 1324 L55 1475 L555 1475 L555 1324 L416 1324 L669 893 L915 1324 L774 1324 L774 1475 L1257 1475 L1257 1324 L1111 1324 L762 759 L1132 151 L1298 151 L1298 0 L783 0 L783 151 L928 151 L650 628 L378 151 L524 151 L524 0 L9 0 L9 151 L182 151 Z " />
<glyph glyph-name="afii10040" unicode="&#x426;" horiz-adv-x="1450" d="M237 151 L237 1324 L93 1324 L93 1475 L560 1475 L560 1324 L417 1324 L417 151 L1033 151 L1033 1324 L889 1324 L889 1475 L1357 1475 L1357 1324 L1213 1324 L1213 151 L1380 151 L1380 -360 L1233 -360 L1207 0 L93 0 L93 151 L237 151 Z " />
<glyph glyph-name="afii10041" unicode="&#x427;" horiz-adv-x="1394" d="M977 151 L977 675 Q862 597 772 566.5 Q682 536 564 536 Q295 536 217 717 Q174 816 174 1024 L174 1324 L49 1324 L49 1475 L491 1475 L491 1324 L354 1324 L354 1019 Q354 846 393 783 Q451 692 612 692 Q714 692 794.5 726 Q875 760 977 845 L977 1324 L841 1324 L841 1475 L1302 1475 L1302 1324 L1157 1324 L1157 151 L1302 151 L1302 0 L773 0 L773 151 L977 151 Z " />
<glyph glyph-name="afii10042" unicode="&#x428;" horiz-adv-x="2062" d="M237 151 L237 1324 L93 1324 L93 1475 L551 1475 L551 1324 L417 1324 L417 151 L941 151 L941 1324 L807 1324 L807 1475 L1255 1475 L1255 1324 L1121 1324 L1121 151 L1645 151 L1645 1324 L1511 1324 L1511 1475 L1969 1475 L1969 1324 L1825 1324 L1825 151 L1969 151 L1969 0 L93 0 L93 151 L237 151 Z " />
<glyph glyph-name="afii10043" unicode="&#x429;" horiz-adv-x="2062" d="M237 151 L237 1324 L93 1324 L93 1475 L551 1475 L551 1324 L417 1324 L417 151 L941 151 L941 1324 L807 1324 L807 1475 L1255 1475 L1255 1324 L1121 1324 L1121 151 L1645 151 L1645 1324 L1511 1324 L1511 1475 L1969 1475 L1969 1324 L1825 1324 L1825 151 L1992 151 L1992 -360 L1844 -360 L1819 0 L93 0 L93 151 L237 151 Z " />
<glyph glyph-name="afii10044" unicode="&#x42a;" horiz-adv-x="1694" d="M621 151 L621 1324 L227 1324 L227 1085 L71 1085 L71 1475 L950 1475 L950 1324 L797 1324 L797 883 L1094 883 Q1334 883 1458 796 Q1623 681 1623 441 Q1623 201 1458 87 Q1334 0 1094 0 L477 0 L477 151 L621 151 Z M797 151 L1054 151 Q1242 151 1331 211 Q1439 285 1439 444 Q1439 616 1312 687 Q1226 736 1054 736 L797 736 L797 151 Z " />
<glyph glyph-name="afii10045" unicode="&#x42b;" horiz-adv-x="1850" d="M237 151 L237 1324 L93 1324 L93 1475 L567 1475 L567 1324 L413 1324 L413 883 L711 883 Q951 883 1075 796 Q1240 681 1240 441 Q1240 201 1075 87 Q951 0 711 0 L93 0 L93 151 L237 151 Z M413 151 L671 151 Q859 151 948 211 Q1056 285 1056 444 Q1056 616 929 687 Q843 736 671 736 L413 736 L413 151 Z M1430 151 L1430 1324 L1285 1324 L1285 1475 L1754 1475 L1754 1324 L1610 1324 L1610 151 L1754 151 L1754 0 L1285 0 L1285 151 L1430 151 Z " />
<glyph glyph-name="afii10046" unicode="&#x42c;" horiz-adv-x="1311" d="M237 151 L237 1324 L93 1324 L93 1475 L567 1475 L567 1324 L413 1324 L413 883 L711 883 Q951 883 1075 796 Q1240 681 1240 441 Q1240 201 1075 87 Q951 0 711 0 L93 0 L93 151 L237 151 Z M413 151 L671 151 Q859 151 948 211 Q1056 285 1056 444 Q1056 616 929 687 Q843 736 671 736 L413 736 L413 151 Z " />
<glyph glyph-name="afii10047" unicode="&#x42d;" horiz-adv-x="1427" d="M509 835 L1153 835 Q1131 994 1092 1079 Q969 1347 678 1347 Q575 1347 486.5 1314.5 Q398 1282 354 1228 Q306 1169 306 1071 L306 1044 L151 1044 L151 1475 L299 1475 L299 1391 Q460 1506 680 1506 Q985 1506 1163 1304 Q1343 1099 1343 745 Q1343 407 1187 199 Q1013 -31 666 -31 Q482 -31 353 28.5 Q224 88 107 228 L221 348 Q339 223 434 176.5 Q529 130 668 130 Q828 130 932 198 Q1036 266 1100 413 Q1142 510 1156 689 L509 689 L509 835 Z " />
<glyph glyph-name="afii10048" unicode="&#x42e;" horiz-adv-x="2331" d="M237 151 L237 1324 L93 1324 L93 1475 L568 1475 L568 1324 L417 1324 L417 851 L767 851 Q794 1033 877 1164 Q979 1328 1142 1418 Q1301 1506 1496 1506 Q1837 1506 2052 1253 Q2234 1037 2234 737 Q2234 438 2052 223 Q1837 -31 1497 -31 Q1230 -31 1034 131 Q782 340 761 700 L417 700 L417 151 L568 151 L568 0 L93 0 L93 151 L237 151 Z M1489 1348 Q1250 1348 1091 1166 Q943 996 943 737 Q943 479 1091 309 Q1249 127 1496 127 Q1744 127 1902 309 Q2050 479 2050 736 Q2050 999 1902 1166 Q1741 1348 1489 1348 Z " />
<glyph glyph-name="afii10049" unicode="&#x42f;" horiz-adv-x="1326" d="M909 637 L740 637 Q643 637 593 623.5 Q543 610 507 573 Q471 537 451.5 499 Q432 461 403 372 L281 0 L-9 0 L-9 151 L129 151 L239 464 Q276 570 307.5 616.5 Q339 663 394 693 Q274 746 230 790 Q126 894 126 1064 Q126 1219 205 1322 Q271 1408 375.5 1441.5 Q480 1475 684 1475 L1233 1475 L1233 1324 L1089 1324 L1089 151 L1233 151 L1233 0 L738 0 L738 151 L909 151 L909 637 Z M909 785 L909 1324 L689 1324 Q479 1324 399 1259 Q310 1187 310 1056 Q310 891 445 825 Q525 785 702 785 L909 785 Z " />
<glyph glyph-name="afii10065" unicode="&#x430;" horiz-adv-x="1149" d="M792 582 L792 630 Q792 749 751 793 Q695 853 534 853 Q412 853 365 809 Q335 780 327 702 L164 702 Q169 862 255 930 Q341 998 537 998 Q800 998 896 888 Q936 842 952.5 776 Q969 710 969 593 L969 151 L1107 151 L1107 0 L807 0 L807 111 Q673 -29 443 -29 Q269 -29 173 45 Q75 121 75 277 Q75 469 221 545 Q312 592 521 592 Q610 592 792 582 Z M795 444 Q682 456 529 456 Q374 456 319 423 Q250 381 250 283 Q250 200 300 161 Q354 119 473 119 Q665 119 753 220 Q778 248 786.5 277.5 Q795 307 795 364 L795 444 Z " />
<glyph glyph-name="afii10066" unicode="&#x431;" horiz-adv-x="1176" d="M270 779 Q312 871 377 915 Q467 976 613 976 Q825 976 956 846 Q1091 711 1091 484 Q1091 248 950 106 Q816 -29 601 -29 Q316 -29 190 190 Q100 347 100 635 Q100 909 162 1064 Q224 1219 367 1304 Q471 1365 665 1405 Q751 1423 779.5 1444.5 Q808 1466 812 1516 L963 1516 Q961 1375 891 1321 Q858 1298 825 1286.5 Q792 1275 689 1253 Q460 1204 377 1110 Q294 1016 270 779 Z M587 832 Q445 832 361.5 738 Q278 644 278 484 Q278 305 377 207 Q461 122 596 122 Q730 122 814 206 Q914 306 914 485 Q914 662 813 754 Q728 832 587 832 Z " />
<glyph glyph-name="afii10067" unicode="&#x432;" horiz-adv-x="1187" d="M226 151 L226 818 L79 818 L79 969 L683 969 Q884 969 966 923 Q1069 866 1069 725 Q1069 573 926 510 Q1023 483 1066.5 427.5 Q1110 372 1110 278 Q1110 113 981 47 Q890 0 689 0 L79 0 L79 151 L226 151 Z M400 567 L612 567 Q763 567 814 590 Q892 625 892 710 Q892 777 840.5 802.5 Q789 828 654 828 L400 828 L400 567 Z M400 142 L642 142 Q790 142 849 167 Q926 199 926 284 Q926 370 859 402 Q792 434 612 434 L400 434 L400 142 Z " />
<glyph glyph-name="afii10068" unicode="&#x433;" horiz-adv-x="966" d="M226 151 L226 818 L79 818 L79 969 L936 969 L936 650 L785 650 L785 818 L400 818 L400 151 L601 151 L601 0 L79 0 L79 151 L226 151 Z " />
<glyph glyph-name="afii10069" unicode="&#x434;" horiz-adv-x="1239" d="M1012 0 L164 0 L137 -314 L0 -314 L0 151 L123 151 Q214 233 257 380 Q300 527 300 756 L300 818 L153 818 L153 969 L1152 969 L1152 818 L1006 818 L1006 151 L1176 151 L1176 -314 L1039 -314 L1012 0 Z M832 151 L832 818 L469 818 L469 772 Q469 537 435.5 396.5 Q402 256 322 151 L832 151 Z " />
<glyph glyph-name="afii10070" unicode="&#x435;" horiz-adv-x="1136" d="M1060 435 L260 435 Q273 328 311 267 Q401 122 593 122 Q688 122 770.5 149.5 Q853 177 955 243 L1041 113 Q826 -30 591 -30 Q355 -30 215 117 Q79 259 79 485 Q79 711 213 853 Q348 998 574 998 Q758 998 883 893 Q1058 746 1060 435 Z M875 574 Q858 672 816 731 Q730 851 570 851 Q394 851 311 708 Q279 652 264 574 L875 574 Z " />
<glyph glyph-name="afii10072" unicode="&#x436;" horiz-adv-x="1659" d="M746 151 L746 434 L721 434 Q659 434 622.5 415.5 Q586 397 539 341 L247 0 L15 0 L15 151 L142 151 L413 450 Q445 486 472 506 L184 818 L63 818 L63 969 L482 969 L482 826 L380 826 L606 566 L746 566 L746 826 L643 826 L643 969 L1016 969 L1016 826 L913 826 L913 566 L1054 566 L1280 826 L1178 826 L1178 969 L1597 969 L1597 818 L1476 818 L1188 506 Q1215 486 1247 450 L1519 151 L1645 151 L1645 0 L1413 0 L1121 341 Q1074 397 1037.5 415.5 Q1001 434 938 434 L913 434 L913 151 L1050 151 L1050 0 L610 0 L610 151 L746 151 Z " />
<glyph glyph-name="afii10073" unicode="&#x437;" horiz-adv-x="1021" d="M137 226 Q222 166 300 141.5 Q378 117 488 117 Q781 117 781 284 Q781 359 728.5 394 Q676 429 563 429 L339 429 L339 565 L544 565 Q631 565 682.5 605 Q734 645 734 714 Q734 853 513 853 Q382 853 303 803 Q259 775 259 712 L259 682 L112 682 L112 969 L249 969 L249 927 Q371 998 541 998 Q911 998 911 723 Q911 583 794 520 Q885 485 921.5 435 Q958 385 958 293 Q958 119 817 39 Q696 -30 491 -30 Q226 -30 55 102 L137 226 Z " />
<glyph glyph-name="afii10074" unicode="&#x438;" horiz-adv-x="1309" d="M226 151 L226 818 L79 818 L79 969 L539 969 L539 818 L397 818 L397 258 L913 969 L1231 969 L1231 818 L1084 818 L1084 151 L1231 151 L1231 0 L771 0 L771 151 L913 151 L913 709 L397 0 L79 0 L79 151 L226 151 Z " />
<glyph glyph-name="afii10075" unicode="&#x439;" horiz-adv-x="1309" d="M439 1434 Q447 1349 489 1314 Q537 1274 642 1274 Q748 1274 795 1310 Q842 1346 851 1434 L983 1434 Q980 1347 964 1303 Q905 1142 645 1142 Q448 1142 369 1228 Q337 1264 323 1308.5 Q309 1353 306 1434 L439 1434 Z M226 151 L226 818 L79 818 L79 969 L539 969 L539 818 L397 818 L397 258 L913 969 L1231 969 L1231 818 L1084 818 L1084 151 L1231 151 L1231 0 L771 0 L771 151 L913 151 L913 709 L397 0 L79 0 L79 151 L226 151 Z " />
<glyph glyph-name="afii10076" unicode="&#x43a;" horiz-adv-x="1189" d="M226 151 L226 818 L79 818 L79 969 L532 969 L532 818 L400 818 L400 570 L572 570 L816 818 L722 818 L722 969 L1145 969 L1145 818 L1024 818 L714 510 Q742 490 777 452 L1049 151 L1175 151 L1175 0 L935 0 L646 338 Q596 396 559.5 414.5 Q523 433 460 433 L400 433 L400 151 L542 151 L542 0 L79 0 L79 151 L226 151 Z " />
<glyph glyph-name="afii10077" unicode="&#x43b;" horiz-adv-x="1182" d="M100 818 L100 969 L1104 969 L1104 818 L957 818 L957 151 L1104 151 L1104 0 L641 0 L641 151 L783 151 L783 818 L415 818 L415 760 Q415 326 334.5 163 Q254 0 40 0 L-26 0 L-19 151 L31 151 Q104 151 143.5 183 Q183 215 206 294 Q246 429 246 762 L246 818 L100 818 Z " />
<glyph glyph-name="afii10078" unicode="&#x43c;" horiz-adv-x="1504" d="M182 151 L253 818 L116 818 L116 969 L490 969 L753 258 L1015 969 L1390 969 L1390 818 L1252 818 L1324 151 L1475 151 L1475 0 L1030 0 L1030 151 L1156 151 L1096 758 L814 0 L691 0 L410 758 L350 151 L475 151 L475 0 L30 0 L30 151 L182 151 Z " />
<glyph glyph-name="afii10079" unicode="&#x43d;" horiz-adv-x="1304" d="M226 151 L226 818 L79 818 L79 969 L542 969 L542 818 L400 818 L400 572 L906 572 L906 818 L763 818 L763 969 L1226 969 L1226 818 L1080 818 L1080 151 L1226 151 L1226 0 L763 0 L763 151 L906 151 L906 431 L400 431 L400 151 L542 151 L542 0 L79 0 L79 151 L226 151 Z " />
<glyph glyph-name="afii10080" unicode="&#x43e;" horiz-adv-x="1201" d="M607 998 Q833 998 979 852 Q1120 710 1120 484 Q1120 259 979 117 Q834 -29 600 -29 Q366 -29 222 117 Q80 259 80 483 Q80 714 222 852 Q370 998 607 998 Z M595 847 Q435 847 338 733 Q257 638 257 485 Q257 332 338 236 Q434 122 600 122 Q766 122 862 236 Q943 332 943 483 Q943 639 862 733 Q763 847 595 847 Z " />
<glyph glyph-name="afii10081" unicode="&#x43f;" horiz-adv-x="1274" d="M226 151 L226 818 L79 818 L79 969 L1196 969 L1196 818 L1050 818 L1050 151 L1196 151 L1196 0 L739 0 L739 151 L875 151 L875 818 L400 818 L400 151 L536 151 L536 0 L79 0 L79 151 L226 151 Z " />
<glyph glyph-name="afii10082" unicode="&#x440;" horiz-adv-x="1275" d="M214 -271 L214 818 L65 818 L65 969 L375 969 L375 817 Q423 877 462 908 Q573 998 734 998 Q943 998 1072 852 Q1196 711 1196 484 Q1196 258 1072 117 Q943 -29 736 -29 Q627 -29 545 11 Q463 51 388 141 L388 -271 L564 -271 L564 -422 L65 -422 L65 -271 L214 -271 Z M703 847 Q558 847 468 733 Q388 632 388 484 Q388 338 468 236 Q557 122 708 122 Q858 122 945 235 Q1019 332 1019 483 Q1019 649 935 746 Q847 847 703 847 Z " />
<glyph glyph-name="afii10083" unicode="&#x441;" horiz-adv-x="1027" d="M897 248 L990 127 Q820 -29 559 -29 Q341 -29 215 95 Q80 229 80 474 Q80 709 203 854 Q326 998 536 998 Q685 998 795 914 L795 969 L933 969 L933 637 L786 637 L786 667 Q786 746 746 784 Q678 848 559 848 Q409 848 330 741 Q257 642 257 479 Q257 303 351 207 Q432 123 572 123 Q749 123 897 248 Z " />
<glyph glyph-name="afii10084" unicode="&#x442;" horiz-adv-x="1041" d="M433 151 L433 821 L193 821 L193 650 L42 650 L42 969 L998 969 L998 650 L848 650 L848 821 L607 821 L607 151 L810 151 L810 0 L231 0 L231 151 L433 151 Z " />
<glyph glyph-name="afii10085" unicode="&#x443;" horiz-adv-x="1076" d="M111 818 L8 818 L8 969 L468 969 L468 818 L293 818 L503 357 Q506 350 551 238 Q576 307 605 375 L790 818 L621 818 L621 969 L1076 969 L1076 818 L967 818 L546 -147 Q474 -310 404 -363 Q360 -396 307 -408.5 Q254 -421 155 -422 L155 -271 Q254 -270 292 -248 Q345 -217 389 -112 L462 61 L111 818 Z " />
<glyph glyph-name="afii10086" unicode="&#x444;" horiz-adv-x="1598" d="M718 91 Q660 24 606.5 -2.5 Q553 -29 476 -29 Q284 -29 193 128 Q118 260 118 483 Q118 707 194 839 Q284 998 472 998 Q616 998 718 876 L718 1324 L599 1324 L599 1475 L880 1475 L880 876 Q982 998 1128 998 Q1316 998 1406 839 Q1482 707 1482 483 Q1482 260 1407 128 Q1316 -29 1120 -29 Q1046 -29 991.5 -1.5 Q937 26 880 91 L880 -296 L1088 -296 L1088 -447 L511 -447 L511 -296 L718 -296 L718 91 Z M718 460 L718 529 Q718 847 514 847 Q295 847 295 475 Q295 122 498 122 Q612 122 665 203.5 Q718 285 718 460 Z M880 528 L880 467 Q880 323 912 244 Q962 122 1101 122 Q1205 122 1254 207 Q1305 294 1305 483 Q1305 630 1267 718 Q1211 847 1085 847 Q985 847 932.5 765.5 Q880 684 880 528 Z " />
<glyph glyph-name="afii10087" unicode="&#x445;" horiz-adv-x="1136" d="M460 517 L206 818 L57 818 L57 969 L518 969 L518 833 L393 833 L587 595 L780 833 L654 833 L654 969 L1099 969 L1099 818 L957 818 L677 501 L971 151 L1117 151 L1117 0 L634 0 L634 143 L780 143 L552 422 L326 143 L470 143 L470 0 L10 0 L10 151 L149 151 L460 517 Z " />
<glyph glyph-name="afii10088" unicode="&#x446;" horiz-adv-x="1286" d="M226 151 L226 818 L79 818 L79 969 L539 969 L539 818 L400 818 L400 151 L879 151 L879 818 L741 818 L741 969 L1200 969 L1200 818 L1054 818 L1054 151 L1224 151 L1224 -314 L1087 -314 L1060 0 L79 0 L79 151 L226 151 Z " />
<glyph glyph-name="afii10089" unicode="&#x447;" horiz-adv-x="1192" d="M792 151 L792 402 Q654 318 471 318 Q227 318 152 466 Q115 538 115 716 L115 818 L-13 818 L-13 969 L435 969 L435 818 L290 818 L290 677 Q290 563 340 516 Q390 469 514 469 Q676 469 792 564 L792 818 L656 818 L656 969 L1114 969 L1114 818 L967 818 L967 151 L1114 151 L1114 0 L641 0 L641 151 L792 151 Z " />
<glyph glyph-name="afii10090" unicode="&#x448;" horiz-adv-x="1800" d="M226 151 L226 818 L79 818 L79 969 L536 969 L536 818 L400 818 L400 151 L813 151 L813 818 L678 818 L678 969 L1123 969 L1123 818 L988 818 L988 151 L1401 151 L1401 818 L1265 818 L1265 969 L1722 969 L1722 818 L1575 818 L1575 151 L1722 151 L1722 0 L79 0 L79 151 L226 151 Z " />
<glyph glyph-name="afii10091" unicode="&#x449;" horiz-adv-x="1808" d="M226 151 L226 818 L79 818 L79 969 L536 969 L536 818 L400 818 L400 151 L813 151 L813 818 L678 818 L678 969 L1123 969 L1123 818 L988 818 L988 151 L1401 151 L1401 818 L1265 818 L1265 969 L1722 969 L1722 818 L1575 818 L1575 151 L1745 151 L1745 -314 L1608 -314 L1581 0 L79 0 L79 151 L226 151 Z " />
<glyph glyph-name="afii10092" unicode="&#x44a;" horiz-adv-x="1365" d="M447 151 L447 818 L177 818 L177 660 L26 660 L26 969 L804 969 L804 818 L621 818 L621 622 L885 622 Q1116 622 1205 561 Q1314 485 1314 312 Q1314 123 1184 50 Q1094 0 885 0 L301 0 L301 151 L447 151 Z M621 143 L860 143 Q1003 143 1063 171 Q1137 206 1137 313 Q1137 412 1078.5 447.5 Q1020 483 860 483 L621 483 L621 143 Z " />
<glyph glyph-name="afii10093" unicode="&#x44b;" horiz-adv-x="1699" d="M226 151 L226 818 L79 818 L79 969 L582 969 L582 818 L400 818 L400 622 L663 622 Q894 622 983 561 Q1092 485 1092 312 Q1092 123 962 50 Q873 0 663 0 L79 0 L79 151 L226 151 Z M400 143 L638 143 Q782 143 841 171 Q915 206 915 313 Q915 412 857 447.5 Q799 483 638 483 L400 483 L400 143 Z M1290 151 L1290 818 L1147 818 L1147 969 L1610 969 L1610 818 L1464 818 L1464 151 L1610 151 L1610 0 L1147 0 L1147 151 L1290 151 Z " />
<glyph glyph-name="afii10094" unicode="&#x44c;" horiz-adv-x="1142" d="M226 151 L226 818 L79 818 L79 969 L582 969 L582 818 L400 818 L400 622 L663 622 Q894 622 983 561 Q1092 485 1092 312 Q1092 123 962 50 Q873 0 663 0 L79 0 L79 151 L226 151 Z M400 143 L638 143 Q782 143 841 171 Q915 206 915 313 Q915 412 857 447.5 Q799 483 638 483 L400 483 L400 143 Z " />
<glyph glyph-name="afii10095" unicode="&#x44d;" horiz-adv-x="1053" d="M325 562 L789 562 Q771 652 747 699 Q671 847 495 847 Q374 847 300 788 Q258 753 258 682 L258 652 L111 652 L111 969 L248 969 L248 914 Q314 960 374 979 Q434 998 515 998 Q708 998 829 878 Q973 735 973 475 Q973 221 825 87 Q697 -30 481 -30 Q246 -30 81 140 L174 262 Q250 185 319 153 Q388 121 475 121 Q657 121 740 255 Q774 310 789 426 L325 426 L325 562 Z " />
<glyph glyph-name="afii10096" unicode="&#x44e;" horiz-adv-x="1684" d="M226 151 L226 818 L79 818 L79 969 L400 969 L400 572 L604 572 Q623 701 688 796 Q827 998 1100 998 Q1327 998 1466 853 Q1603 710 1603 484 Q1603 259 1466 117 Q1327 -29 1100 -29 Q922 -29 796 62 Q623 188 600 431 L400 431 L400 151 L539 151 L539 0 L79 0 L79 151 L226 151 Z M1095 847 Q943 847 851 734 Q774 638 774 484 Q774 331 851 235 Q943 122 1100 122 Q1258 122 1349 235 Q1426 331 1426 483 Q1426 638 1349 734 Q1257 847 1095 847 Z " />
<glyph glyph-name="afii10097" unicode="&#x44f;" horiz-adv-x="1225" d="M826 390 L597 390 Q531 390 503.5 364.5 Q476 339 406 215 L286 0 L28 0 L28 151 L175 151 L277 321 Q321 395 354 421 Q137 480 137 684 Q137 847 259 920 Q341 969 522 969 L1147 969 L1147 818 L1001 818 L1001 151 L1147 151 L1147 0 L691 0 L691 151 L826 151 L826 390 Z M826 526 L826 827 L553 827 Q415 827 365 791 Q314 755 314 680 Q314 526 538 526 L826 526 Z " />
<glyph glyph-name="uni0450" unicode="&#x450;" horiz-adv-x="1136" d="M1060 435 L260 435 Q273 328 311 267 Q401 122 593 122 Q688 122 770.5 149.5 Q853 177 955 243 L1041 113 Q826 -30 591 -30 Q355 -30 215 117 Q79 259 79 485 Q79 711 213 853 Q348 998 574 998 Q758 998 883 893 Q1058 746 1060 435 Z M875 574 Q858 672 816 731 Q730 851 570 851 Q394 851 311 708 Q279 652 264 574 L875 574 Z M585 1118 L306 1467 L502 1467 L709 1118 L585 1118 Z " />
<glyph glyph-name="afii10071" unicode="&#x451;" horiz-adv-x="1137" d="M1060 435 L260 435 Q273 328 311 267 Q401 122 593 122 Q688 122 770.5 149.5 Q853 177 955 243 L1041 113 Q826 -30 591 -30 Q355 -30 215 117 Q79 259 79 485 Q79 711 213 853 Q348 998 574 998 Q758 998 883 893 Q1058 746 1060 435 Z M875 574 Q858 672 816 731 Q730 851 570 851 Q394 851 311 708 Q279 652 264 574 L875 574 Z M312 1174 L312 1368 L489 1368 L489 1174 L312 1174 Z M660 1174 L660 1368 L837 1368 L837 1174 L660 1174 Z " />
<glyph glyph-name="afii10099" unicode="&#x452;" horiz-adv-x="1242" d="M218 151 L218 1115 L68 1115 L68 1218 L218 1218 L218 1340 L68 1340 L68 1475 L392 1475 L392 1218 L704 1218 L704 1115 L392 1115 L392 816 Q504 919 583.5 958.5 Q663 998 762 998 Q942 998 1011 868 Q1039 816 1049.5 750 Q1060 684 1060 561 L1060 1 Q1060 -131 1041 -204 Q1022 -277 975 -327 Q895 -412 714 -422 L714 -271 Q814 -262 849 -210 Q871 -177 878.5 -135.5 Q886 -94 886 -4 L886 570 Q886 691 866 747 Q833 839 718 839 Q639 839 570.5 797 Q502 755 392 640 L392 151 L532 151 L532 0 L68 0 L68 151 L218 151 Z " />
<glyph glyph-name="afii10100" unicode="&#x453;" horiz-adv-x="966" d="M226 151 L226 818 L79 818 L79 969 L936 969 L936 650 L785 650 L785 818 L400 818 L400 151 L601 151 L601 0 L79 0 L79 151 L226 151 Z M414 1118 L622 1467 L845 1467 L547 1118 L414 1118 Z " />
<glyph glyph-name="afii10101" unicode="&#x454;" horiz-adv-x="1035" d="M740 562 L740 426 L263 426 Q278 300 327 235 Q412 123 578 123 Q756 123 906 248 L999 127 Q829 -29 564 -29 Q343 -29 216 95 Q80 229 80 474 Q80 708 201 853 Q321 998 533 998 Q689 998 804 914 L804 969 L942 969 L942 652 L794 652 L794 682 Q794 753 752 787 Q679 847 557 847 Q310 847 264 562 L740 562 Z " />
<glyph glyph-name="afii10102" unicode="&#x455;" horiz-adv-x="983" d="M89 0 L89 319 L236 319 L236 285 Q236 210 286 173 Q367 113 522 113 Q626 113 683 150 Q744 189 744 268 Q744 333 689 370 Q665 387 634.5 394.5 Q604 402 462 426 Q340 446 276 468.5 Q212 491 172 526 Q95 594 95 710 Q95 840 188 921 Q278 998 435 998 Q514 998 572 979.5 Q630 961 695 916 L695 969 L833 969 L833 672 L686 672 L686 690 Q686 759 641 795 Q568 855 448 855 Q354 855 308 815 Q266 778 266 720 Q266 658 331 623 Q368 603 517 577 Q653 554 715.5 534.5 Q778 515 818 482 Q911 409 911 270 Q911 127 811 49 Q711 -29 527 -29 Q354 -29 226 53 L226 0 L89 0 Z " />
<glyph glyph-name="afii10103" unicode="&#x456;" horiz-adv-x="606" d="M231 151 L231 818 L80 818 L80 969 L405 969 L405 151 L552 151 L552 0 L74 0 L74 151 L231 151 Z M217 1164 L217 1368 L416 1368 L416 1164 L217 1164 Z " />
<glyph glyph-name="afii10104" unicode="&#x457;" horiz-adv-x="606" d="M231 151 L231 818 L80 818 L80 969 L405 969 L405 151 L551 151 L551 0 L73 0 L73 151 L231 151 Z M40 1174 L40 1368 L217 1368 L217 1174 L40 1174 Z M388 1174 L388 1368 L565 1368 L565 1174 L388 1174 Z " />
<glyph glyph-name="afii10105" unicode="&#x458;" horiz-adv-x="581" d="M69 818 L69 969 L396 969 L396 -33 Q396 -155 377 -222 Q358 -289 311 -336 Q232 -414 51 -422 L51 -271 Q148 -264 185 -219 Q207 -192 214.5 -154.5 Q222 -117 222 -38 L222 818 L69 818 Z M208 1164 L208 1368 L407 1368 L407 1164 L208 1164 Z " />
<glyph glyph-name="afii10106" unicode="&#x459;" horiz-adv-x="1700" d="M783 151 L783 818 L415 818 L415 760 Q415 326 334.5 163 Q254 0 40 0 L-26 0 L-19 151 L31 151 Q104 151 143.5 183 Q183 215 206 294 Q246 430 246 762 L246 818 L100 818 L100 969 L1139 969 L1139 818 L958 818 L958 622 L1220 622 Q1451 622 1540 561 Q1649 485 1649 312 Q1649 123 1519 50 Q1430 0 1220 0 L641 0 L641 151 L783 151 Z M958 143 L1195 143 Q1339 143 1398 171 Q1472 206 1472 313 Q1472 412 1413.5 447.5 Q1355 483 1195 483 L958 483 L958 143 Z " />
<glyph glyph-name="afii10107" unicode="&#x45a;" horiz-adv-x="1822" d="M226 151 L226 818 L79 818 L79 969 L542 969 L542 818 L400 818 L400 588 L905 588 L905 818 L763 818 L763 969 L1262 969 L1262 818 L1079 818 L1079 596 L1343 596 Q1574 596 1662 539 Q1772 469 1772 307 Q1772 122 1642 50 Q1553 0 1343 0 L763 0 L763 151 L905 151 L905 447 L400 447 L400 151 L542 151 L542 0 L79 0 L79 151 L226 151 Z M1079 143 L1318 143 Q1461 143 1521 171 Q1595 205 1595 308 Q1595 396 1537.5 427 Q1480 458 1318 458 L1079 458 L1079 143 Z " />
<glyph glyph-name="afii10108" unicode="&#x45b;" horiz-adv-x="1230" d="M218 1115 L68 1115 L68 1218 L218 1218 L218 1340 L68 1340 L68 1475 L392 1475 L392 1218 L704 1218 L704 1115 L392 1115 L392 816 Q502 918 583 958 Q664 998 763 998 Q942 998 1011 868 Q1039 816 1049.5 750 Q1060 684 1060 561 L1060 151 L1208 151 L1208 0 L751 0 L751 151 L886 151 L886 570 Q886 691 866 747 Q834 839 718 839 Q639 839 569.5 796.5 Q500 754 392 640 L392 151 L532 151 L532 0 L68 0 L68 151 L218 151 L218 1115 Z " />
<glyph glyph-name="afii10109" unicode="&#x45c;" horiz-adv-x="1189" d="M226 151 L226 818 L79 818 L79 969 L532 969 L532 818 L400 818 L400 570 L572 570 L816 818 L722 818 L722 969 L1145 969 L1145 818 L1024 818 L714 510 Q742 490 777 452 L1049 151 L1175 151 L1175 0 L935 0 L646 338 Q596 396 559.5 414.5 Q523 433 460 433 L400 433 L400 151 L542 151 L542 0 L79 0 L79 151 L226 151 Z M514 1118 L721 1467 L944 1467 L646 1118 L514 1118 Z " />
<glyph glyph-name="uni045D" unicode="&#x45d;" horiz-adv-x="1309" d="M226 151 L226 818 L79 818 L79 969 L539 969 L539 818 L397 818 L397 258 L913 969 L1231 969 L1231 818 L1084 818 L1084 151 L1231 151 L1231 0 L771 0 L771 151 L913 151 L913 709 L397 0 L79 0 L79 151 L226 151 Z M649 1118 L370 1467 L566 1467 L773 1118 L649 1118 Z " />
<glyph glyph-name="afii10110" unicode="&#x45e;" horiz-adv-x="1076" d="M111 818 L8 818 L8 969 L468 969 L468 818 L293 818 L503 357 Q506 350 551 238 Q576 307 605 375 L790 818 L621 818 L621 969 L1076 969 L1076 818 L967 818 L546 -147 Q474 -310 404 -363 Q360 -396 307 -408.5 Q254 -421 155 -422 L155 -271 Q254 -270 292 -248 Q345 -217 389 -112 L462 61 L111 818 Z M332 1434 Q340 1349 383 1314 Q430 1274 536 1274 Q641 1274 688 1310 Q735 1346 744 1434 L877 1434 Q874 1347 857 1303 Q798 1142 538 1142 Q341 1142 263 1228 Q230 1264 216.5 1308.5 Q203 1353 200 1434 L332 1434 Z " />
<glyph glyph-name="afii10193" unicode="&#x45f;" horiz-adv-x="1278" d="M226 151 L226 818 L79 818 L79 969 L539 969 L539 818 L400 818 L400 151 L880 151 L880 818 L741 818 L741 969 L1200 969 L1200 818 L1054 818 L1054 151 L1200 151 L1200 0 L732 0 L704 -314 L576 -314 L548 0 L79 0 L79 151 L226 151 Z " />
<glyph glyph-name="uni0462" unicode="&#x462;" horiz-adv-x="1559" d="M482 1168 L239 1168 L239 958 L83 958 L83 1304 L482 1304 L482 1443 L325 1443 L325 1583 L799 1583 L799 1443 L662 1443 L662 1304 L1146 1304 L1146 986 L990 986 L990 1168 L662 1168 L662 836 L959 836 Q1489 836 1489 415 Q1489 0 959 0 L337 0 L337 151 L482 151 L482 1168 Z M662 151 L919 151 Q1101 151 1195 204 Q1305 267 1305 420 Q1305 543 1230 609 Q1139 689 919 689 L662 689 L662 151 Z " />
<glyph glyph-name="uni0463" unicode="&#x463;" horiz-adv-x="1249" d="M302 845 L137 845 L137 722 L-14 722 L-14 969 L302 969 L302 1230 L156 1230 L156 1381 L476 1380 L476 969 L905 969 L905 722 L754 722 L754 845 L476 845 L476 622 L739 622 Q970 622 1059 561 Q1168 485 1168 311 Q1168 122 1038 50 Q948 0 739 0 L156 0 L156 151 L302 151 L302 845 Z M476 143 L714 143 Q871 143 931 180 Q991 217 991 314 Q991 412 932.5 447.5 Q874 483 714 483 L476 483 L476 143 Z " />
<glyph glyph-name="afii10050" unicode="&#x490;" horiz-adv-x="1146" d="M237 151 L237 1324 L93 1324 L93 1475 L919 1475 L957 1835 L1106 1835 L1106 1085 L950 1085 L950 1324 L417 1324 L417 151 L622 151 L622 0 L93 0 L93 151 L237 151 Z " />
<glyph glyph-name="afii10098" unicode="&#x491;" horiz-adv-x="966" d="M226 151 L226 818 L79 818 L79 969 L764 969 L797 1278 L936 1278 L936 650 L785 650 L785 818 L400 818 L400 151 L601 151 L601 0 L79 0 L79 151 L226 151 Z " />
<glyph glyph-name="uni0492" unicode="&#x492;" horiz-adv-x="1146" d="M238 151 L238 711 L20 711 L20 848 L238 848 L238 1324 L93 1324 L93 1475 L1107 1475 L1107 1085 L951 1085 L951 1324 L418 1324 L418 848 L801 848 L801 711 L418 711 L418 151 L622 151 L622 0 L93 0 L93 151 L238 151 Z " />
<glyph glyph-name="uni0493" unicode="&#x493;" horiz-adv-x="966" d="M225 151 L225 390 L51 390 L51 513 L225 513 L225 818 L78 818 L78 969 L935 969 L935 660 L784 660 L784 818 L400 818 L400 513 L637 513 L637 390 L400 390 L400 151 L600 151 L600 0 L78 0 L78 151 L225 151 Z " />
<glyph glyph-name="uni0496" unicode="&#x496;" horiz-adv-x="1949" d="M887 151 L887 702 L824 702 Q757 702 716.5 689 Q676 676 639 641 Q573 579 499 427 L292 0 L8 0 L8 151 L152 151 L342 507 Q411 637 456 695 Q501 753 562 791 L168 1324 L56 1324 L56 1475 L503 1475 L503 1332 L361 1332 L716 848 L887 848 L887 1332 L760 1332 L760 1475 L1188 1475 L1188 1332 L1061 1332 L1061 848 L1232 848 L1586 1332 L1445 1332 L1445 1475 L1892 1475 L1892 1324 L1780 1324 L1386 791 Q1447 753 1492 695.5 Q1537 638 1606 507 L1796 151 L1940 151 L1940 -360 L1792 -360 L1767 0 L1656 0 L1449 427 Q1370 590 1303.5 646 Q1237 702 1124 702 L1061 702 L1061 151 L1211 151 L1211 0 L737 0 L737 151 L887 151 Z " />
<glyph glyph-name="uni0497" unicode="&#x497;" horiz-adv-x="1659" d="M746 151 L746 434 L721 434 Q659 434 622.5 415.5 Q586 397 539 341 L247 0 L15 0 L15 151 L142 151 L413 450 Q445 486 472 506 L184 818 L63 818 L63 969 L482 969 L482 826 L380 826 L606 566 L746 566 L746 826 L643 826 L643 969 L1016 969 L1016 826 L913 826 L913 566 L1054 566 L1280 826 L1178 826 L1178 969 L1597 969 L1597 818 L1476 818 L1188 506 Q1215 486 1247 450 L1519 151 L1655 151 L1655 -314 L1518 -314 L1491 0 L1413 0 L1121 341 Q1074 397 1037.5 415.5 Q1001 434 938 434 L913 434 L913 151 L1050 151 L1050 0 L610 0 L610 151 L746 151 Z " />
<glyph glyph-name="uni0498" unicode="&#x498;" horiz-adv-x="1307" d="M614 -31 Q273 -24 88 169 L177 303 Q274 206 380.5 163 Q487 120 629 120 Q797 120 901 180 Q1030 255 1030 426 Q1030 549 957 613 Q870 690 664 690 L414 690 L414 836 L620 836 Q762 836 853 887 Q974 956 974 1107 Q974 1245 867 1307 Q788 1352 669 1352 Q570 1352 486.5 1320 Q403 1288 358 1234 Q311 1176 311 1077 L311 1050 L156 1050 L156 1475 L304 1475 L304 1391 Q392 1453 481 1479.5 Q570 1506 691 1506 Q951 1506 1070 1377 Q1157 1282 1157 1122 Q1157 1004 1116 928 Q1075 852 978 788 Q1084 751 1137 687 Q1214 595 1214 434 Q1214 22 735 -26 L697 -94 Q783 -101 818 -118 Q915 -162 915 -276 Q915 -374 848.5 -426 Q782 -478 657 -478 Q551 -478 410 -439 L410 -301 Q568 -356 659 -356 Q770 -356 770 -277 Q770 -201 642 -201 Q628 -201 579 -204 L558 -140 L614 -31 Z " />
<glyph glyph-name="uni0499" unicode="&#x499;" horiz-adv-x="1053" d="M603 -24 L565 -94 Q651 -101 686 -118 Q783 -162 783 -276 Q783 -374 716.5 -426 Q650 -478 525 -478 Q418 -478 278 -439 L278 -301 Q435 -356 527 -356 Q638 -356 638 -277 Q638 -201 510 -201 Q496 -201 447 -204 L426 -140 L482 -30 Q215 -27 55 102 L137 226 Q222 166 300 141.5 Q378 117 488 117 Q781 117 781 284 Q781 359 728.5 394 Q676 429 563 429 L339 429 L339 565 L544 565 Q631 565 682.5 605 Q734 645 734 714 Q734 853 513 853 Q382 853 303 803 Q259 775 259 712 L259 682 L112 682 L112 969 L249 969 L249 927 Q370 998 541 998 Q911 998 911 723 Q911 583 794 520 Q886 485 921 436 Q958 384 958 293 Q958 19 603 -24 Z " />
<glyph glyph-name="uni049A" unicode="&#x49a;" horiz-adv-x="1366" d="M237 151 L237 1324 L93 1324 L93 1475 L568 1475 L568 1324 L417 1324 L417 848 L674 848 L1000 1324 L857 1324 L857 1475 L1317 1475 L1317 1324 L1198 1324 L827 790 Q884 755 927.5 695.5 Q971 636 1036 507 L1214 151 L1368 151 L1368 -360 L1220 -360 L1195 0 L1069 0 L869 435 Q797 592 734 647 Q671 702 562 702 L417 702 L417 151 L568 151 L568 0 L93 0 L93 151 L237 151 Z " />
<glyph glyph-name="uni049B" unicode="&#x49b;" horiz-adv-x="1189" d="M226 151 L226 818 L79 818 L79 969 L532 969 L532 818 L400 818 L400 570 L572 570 L816 818 L722 818 L722 969 L1145 969 L1145 818 L1024 818 L714 510 Q742 490 777 452 L1049 151 L1185 151 L1185 -314 L1049 -314 L1021 0 L935 0 L646 338 Q596 396 559.5 414.5 Q523 433 460 433 L400 433 L400 151 L542 151 L542 0 L79 0 L79 151 L226 151 Z " />
<glyph glyph-name="uni049C" unicode="&#x49c;" horiz-adv-x="1387" d="M559 848 L559 1101 L681 1101 L681 850 L700 851 L1023 1324 L879 1324 L879 1475 L1339 1475 L1339 1324 L1220 1324 L849 790 Q906 755 949.5 695.5 Q993 636 1058 507 L1236 151 L1380 151 L1380 0 L1095 0 L896 434 Q785 675 681 698 L681 420 L559 420 L559 702 L417 702 L417 151 L568 151 L568 0 L93 0 L93 151 L237 151 L237 1324 L93 1324 L93 1475 L568 1475 L568 1324 L417 1324 L417 848 L559 848 Z " />
<glyph glyph-name="uni049D" unicode="&#x49d;" horiz-adv-x="1214" d="M495 570 L495 741 L599 741 L599 567 Q618 581 629 592 L841 818 L747 818 L747 969 L1170 969 L1170 818 L1049 818 L740 510 Q761 495 828 420 L1074 151 L1200 151 L1200 0 L960 0 L636 400 Q613 429 599 436 L599 231 L495 231 L495 433 L400 433 L400 151 L521 151 L521 0 L79 0 L79 151 L226 151 L226 818 L79 818 L79 969 L521 969 L521 818 L400 818 L400 570 L495 570 Z " />
<glyph glyph-name="uni04A2" unicode="&#x4a2;" horiz-adv-x="1494" d="M237 151 L237 1324 L93 1324 L93 1475 L568 1475 L568 1324 L417 1324 L417 851 L1077 851 L1077 1324 L926 1324 L926 1475 L1401 1475 L1401 1324 L1257 1324 L1257 151 L1425 151 L1425 -360 L1275 -360 L1250 0 L926 0 L926 151 L1077 151 L1077 700 L417 700 L417 151 L568 151 L568 0 L93 0 L93 151 L237 151 Z " />
<glyph glyph-name="uni04A3" unicode="&#x4a3;" horiz-adv-x="1312" d="M226 151 L226 818 L79 818 L79 969 L542 969 L542 818 L400 818 L400 572 L906 572 L906 818 L763 818 L763 969 L1226 969 L1226 818 L1080 818 L1080 151 L1250 151 L1250 -314 L1113 -314 L1086 0 L763 0 L763 151 L906 151 L906 431 L400 431 L400 151 L542 151 L542 0 L79 0 L79 151 L226 151 Z " />
<glyph glyph-name="uni04AA" unicode="&#x4aa;" horiz-adv-x="1497" d="M1274 347 L1388 227 Q1192 -24 828 -30 L793 -94 Q879 -101 915 -118 Q1011 -162 1011 -276 Q1011 -374 944.5 -426 Q878 -478 753 -478 Q646 -478 506 -439 L506 -301 Q660 -356 756 -356 Q866 -356 866 -278 Q866 -202 738 -202 Q724 -202 675 -204 L654 -140 L713 -26 Q493 -5 355 103 Q103 303 103 722 Q103 1081 297 1297 Q484 1506 800 1506 Q1040 1506 1196 1391 L1196 1475 L1344 1475 L1344 1044 L1188 1044 L1188 1071 Q1188 1172 1139 1228 Q1091 1284 1001.5 1315.5 Q912 1347 803 1347 Q549 1347 412 1161 Q287 990 287 723 Q287 451 428 286 Q560 130 814 130 Q993 130 1130 216 Q1181 249 1274 347 Z " />
</font>
</svg>
