<?xml version="1.0" encoding="UTF-8"?>
<svg xmlns="http://www.w3.org/2000/svg" xmlns:xlink="http://www.w3.org/1999/xlink" version="1.2" >
<font id="A1 Serif Condensed Bold">
<font-face  font-family="A1 Serif Condensed" units-per-em="2048" ascent="1536" descent="-512" font-style="normal" font-weight="700" font-stretch="normal" cap-height="1475" x-height="999" underline-position="-295" underline-thickness="254" />
<missing-glyph  horiz-adv-x="374" d="M37 0 L37 1475 L337 1475 L337 0 L37 0 Z M300 37 L300 1438 L74 1438 L74 37 L300 37 Z " />
<glyph glyph-name="space" unicode="&#x20;" horiz-adv-x="374" d="" />
<glyph glyph-name="exclam" unicode="&#x21;" horiz-adv-x="693" d="M229 456 L195 1475 L498 1475 L464 456 L229 456 Z M209 0 L209 294 L486 294 L486 0 L209 0 Z " />
<glyph glyph-name="quotedbl" unicode="&#x22;" horiz-adv-x="695" d="M106 893 L106 1475 L295 1475 L295 893 L106 893 Z M400 893 L400 1475 L589 1475 L589 893 L400 893 Z " />
<glyph glyph-name="numbersign" unicode="&#x23;" horiz-adv-x="1333" d="M997 848 L965 620 L1128 620 L1101 430 L939 430 L878 0 L672 0 L733 430 L527 430 L466 0 L260 0 L321 430 L143 430 L170 620 L347 620 L379 848 L204 848 L231 1038 L406 1038 L467 1471 L673 1471 L612 1038 L818 1038 L879 1471 L1085 1471 L1024 1038 L1189 1038 L1162 848 L997 848 Z M791 848 L585 848 L553 620 L759 620 L791 848 Z " />
<glyph glyph-name="dollar" unicode="&#x24;" horiz-adv-x="1078" d="M1042 413 Q1042 -15 648 -30 L649 -178 L493 -178 L492 -16 Q374 11 312 97 L308 0 L129 0 L129 432 L342 432 Q350 232 491 191 L489 656 L474 660 Q290 707 207 821 Q133 923 133 1088 Q133 1286 237 1395 Q328 1490 485 1502 L484 1642 L640 1642 L641 1491 Q718 1468 771 1400 L771 1475 L958 1475 L958 1089 L767 1089 Q767 1248 642 1287 L644 857 L667 851 Q884 796 968 686 Q1042 588 1042 413 Z M369 1101 Q369 959 488 903 L486 1286 Q369 1249 369 1101 Z M647 186 Q799 216 799 392 Q799 565 645 615 L647 186 Z " />
<glyph glyph-name="percent" unicode="&#x25;" horiz-adv-x="1499" d="M55 1138 Q55 1324 143 1418 Q221 1500 356 1500 Q511 1500 590 1393 Q658 1301 658 1139 Q658 954 569 861 Q491 779 355 779 Q200 779 123 884 Q55 976 55 1138 Z M461 1138 Q461 1337 356 1337 Q252 1337 252 1137 Q252 942 356 942 Q461 942 461 1138 Z M850 335 Q850 521 938 615 Q1015 697 1151 697 Q1306 697 1385 590 Q1453 498 1453 336 Q1453 151 1364 58 Q1286 -24 1150 -24 Q995 -24 918 81 Q850 173 850 335 Z M1256 335 Q1256 534 1151 534 Q1047 534 1047 334 Q1047 139 1151 139 Q1256 139 1256 335 Z M976 1470 L1176 1470 L539 0 L339 0 L976 1470 Z " />
<glyph glyph-name="ampersand" unicode="&#x26;" horiz-adv-x="1265" d="M939 0 L871 98 Q718 -29 506 -29 Q294 -29 180 94 Q83 198 83 367 Q83 494 143 594.5 Q203 695 359 829 Q271 957 241.5 1028.5 Q212 1100 212 1183 Q212 1353 315 1435 Q403 1506 563 1506 Q745 1506 833 1415 Q909 1338 909 1200 Q909 1090 859 1009.5 Q809 929 660 796 L873 492 Q915 602 948 780 L1170 780 Q1132 474 1021 281 L1213 7 L939 0 Z M563 1298 Q453 1298 453 1176 Q453 1102 534 976 Q615 1046 642.5 1087 Q670 1128 670 1181 Q670 1298 563 1298 Z M534 218 Q658 218 739 286 L489 644 Q414 572 385 517.5 Q356 463 356 395 Q356 218 534 218 Z " />
<glyph glyph-name="quotesingle" unicode="&#x27;" horiz-adv-x="401" d="M106 893 L106 1475 L295 1475 L295 893 L106 893 Z " />
<glyph glyph-name="parenleft" unicode="&#x28;" horiz-adv-x="881" d="M512 -425 Q365 -173 304 65 Q249 278 249 528 Q249 792 310.5 1014.5 Q372 1237 512 1477 L749 1477 Q516 991 516 533 Q516 254 588 -5 Q642 -202 749 -425 L512 -425 Z " />
<glyph glyph-name="parenright" unicode="&#x29;" horiz-adv-x="881" d="M132 -425 Q255 -169 310 58 Q365 287 365 533 Q365 991 132 1477 L369 1477 Q516 1224 577 989 Q632 777 632 528 Q632 263 570 38.5 Q508 -186 369 -425 L132 -425 Z " />
<glyph glyph-name="asterisk" unicode="&#x2a;" horiz-adv-x="1107" d="M132 1108 L203 1328 L442 1235 L441 1507 L663 1507 L661 1234 L900 1325 L975 1106 L728 1034 L897 804 L705 666 L552 907 L397 668 L205 802 L376 1034 L132 1108 Z " />
<glyph glyph-name="plus" unicode="&#x2b;" horiz-adv-x="1078" d="M153 629 L153 842 L432 842 L432 1148 L646 1148 L646 842 L925 842 L925 629 L646 629 L646 323 L432 323 L432 629 L153 629 Z " />
<glyph glyph-name="comma" unicode="&#x2c;" horiz-adv-x="559" d="M62 -293 L188 297 L466 297 L303 -293 L62 -293 Z " />
<glyph glyph-name="hyphen" unicode="&#x2d;" horiz-adv-x="716" d="M84 459 L84 683 L632 683 L632 459 L84 459 Z " />
<glyph glyph-name="period" unicode="&#x2e;" horiz-adv-x="533" d="M128 0 L128 297 L405 297 L405 0 L128 0 Z " />
<glyph glyph-name="slash" unicode="&#x2f;" horiz-adv-x="739" d="M30 -185 L519 1472 L714 1472 L225 -185 L30 -185 Z " />
<glyph glyph-name="zero" unicode="0" horiz-adv-x="1078" d="M540 1504 Q815 1504 932 1270 Q1025 1084 1025 738 Q1025 339 903 153 Q784 -29 539 -29 Q263 -29 145 212 Q53 400 53 744 Q53 1137 177 1323 Q297 1504 540 1504 Z M540 1269 Q424 1269 369 1132 Q318 1003 318 742 Q318 439 380 313 Q433 205 540 205 Q662 205 713 346 Q760 473 760 738 Q760 1269 540 1269 Z " />
<glyph glyph-name="one" unicode="1" horiz-adv-x="1078" d="M963 215 L963 0 L196 0 L196 215 L444 215 L444 1195 L237 1079 L143 1279 L496 1475 L704 1475 L704 215 L963 215 Z " />
<glyph glyph-name="two" unicode="2" horiz-adv-x="1078" d="M982 446 L982 0 L70 0 Q70 159 147 309.5 Q224 460 409 663 Q558 826 612.5 915 Q667 1004 667 1083 Q667 1185 617 1236 Q574 1280 500 1280 Q327 1280 324 1010 L77 1010 Q78 1263 204 1391 Q314 1504 505 1504 Q724 1504 834 1387 Q931 1284 931 1098 Q931 967 857 843 Q796 740 645 575 Q458 368 401 215 L743 215 L743 446 L982 446 Z " />
<glyph glyph-name="three" unicode="3" horiz-adv-x="1078" d="M708 415 Q708 658 445 658 L339 658 L339 860 L441 860 Q669 860 669 1092 Q669 1182 621 1234 Q578 1282 510 1282 Q350 1282 344 1089 L96 1089 Q102 1307 222 1413 Q327 1504 511 1504 Q719 1504 831 1383 Q929 1278 929 1107 Q929 878 738 793 Q973 695 973 411 Q973 191 845 76 Q728 -29 515 -29 Q71 -29 66 430 L317 430 Q323 196 516 196 Q614 196 664 262 Q708 319 708 415 Z " />
<glyph glyph-name="four" unicode="4" horiz-adv-x="1078" d="M826 403 L826 215 L1011 215 L1011 0 L387 0 L387 215 L600 215 L600 403 L71 403 L71 629 L427 1475 L688 1475 L335 612 L600 612 L600 956 L826 956 L826 612 L1039 612 L1039 403 L826 403 Z " />
<glyph glyph-name="five" unicode="5" horiz-adv-x="1078" d="M532 -29 Q304 -29 190 99 Q90 209 82 410 L335 410 Q355 197 531 197 Q724 197 724 444 Q724 577 667 643 Q618 701 529 701 Q426 701 335 613 L138 726 L173 1475 L896 1475 L896 1097 L656 1097 L656 1260 L399 1260 L377 870 Q454 926 572 926 Q780 926 893 784 Q992 658 992 449 Q992 201 860 79 Q743 -29 532 -29 Z " />
<glyph glyph-name="six" unicode="6" horiz-adv-x="1078" d="M595 940 Q802 940 907 798 Q999 675 999 463 Q999 207 869 81 Q755 -29 554 -29 Q288 -29 181 170 Q90 340 90 698 Q90 1123 197 1316 Q251 1413 338 1458.5 Q425 1504 557 1504 Q772 1504 876 1379 Q960 1277 963 1100 L717 1100 Q711 1279 556 1279 Q452 1279 408 1176 Q358 1054 353 835 Q436 940 595 940 Z M550 197 Q646 197 695 274 Q737 341 737 458 Q737 590 682 657 Q634 715 550 715 Q454 715 405 639 Q363 573 363 458 Q363 324 418 256 Q466 197 550 197 Z " />
<glyph glyph-name="seven" unicode="7" horiz-adv-x="1078" d="M547 0 L269 0 L711 1256 L331 1256 L331 1060 L85 1060 L85 1475 L980 1475 L980 1252 L547 0 Z " />
<glyph glyph-name="eight" unicode="8" horiz-adv-x="1078" d="M78 410 Q78 654 277 775 Q194 842 157 918 Q120 994 120 1099 Q120 1302 244 1409 Q353 1503 538 1503 Q751 1503 862 1381 Q958 1276 958 1100 Q958 901 807 783 Q1000 672 1000 417 Q1000 190 866 73 Q747 -30 542 -30 Q305 -30 183 104 Q78 219 78 410 Z M706 1081 Q706 1184 657 1236 Q614 1282 539 1282 Q459 1282 415.5 1230 Q372 1178 372 1082 Q372 979 422 926 Q466 880 541 880 Q620 880 663 932.5 Q706 985 706 1081 Z M735 426 Q735 540 675 606 Q622 664 540 664 Q445 664 390 590 Q343 525 343 426 Q343 313 403 249 Q456 194 539 194 Q635 194 689 265 Q735 327 735 426 Z " />
<glyph glyph-name="nine" unicode="9" horiz-adv-x="1078" d="M879 1340 Q982 1178 982 766 Q982 340 886 157 Q787 -29 531 -29 Q128 -29 120 375 L366 375 Q372 196 527 196 Q633 196 674 303 Q718 424 720 671 Q652 566 471 566 Q271 566 168 699 Q77 816 77 1019 Q77 1267 211 1393 Q329 1504 535 1504 Q774 1504 879 1340 Z M526 787 Q706 787 706 1026 Q706 1155 652 1221 Q605 1278 524 1278 Q430 1278 381 1204 Q339 1139 339 1029 Q339 903 394 841 Q442 787 526 787 Z " />
<glyph glyph-name="colon" unicode="&#x3a;" horiz-adv-x="551" d="M137 0 L137 297 L414 297 L414 0 L137 0 Z M137 644 L137 941 L414 941 L414 644 L137 644 Z " />
<glyph glyph-name="semicolon" unicode="&#x3b;" horiz-adv-x="630" d="M164 644 L164 941 L441 941 L441 644 L164 644 Z M58 -293 L184 297 L462 297 L299 -293 L58 -293 Z " />
<glyph glyph-name="less" unicode="&#x3c;" horiz-adv-x="1078" d="M849 1040 L415 736 L849 431 L849 164 L147 653 L147 818 L849 1307 L849 1040 Z " />
<glyph glyph-name="equal" unicode="&#x3d;" horiz-adv-x="1078" d="M170 1042 L908 1042 L908 815 L170 815 L170 1042 Z M170 652 L908 652 L908 425 L170 425 L170 652 Z " />
<glyph glyph-name="greater" unicode="&#x3e;" horiz-adv-x="1078" d="M899 818 L899 653 L197 164 L197 431 L631 735 L197 1040 L197 1307 L899 818 Z " />
<glyph glyph-name="question" unicode="&#x3f;" horiz-adv-x="971" d="M473 1508 Q680 1508 791 1379 Q891 1263 891 1063 Q891 884 792 774 Q713 686 582 657 L582 457 L339 457 L339 834 Q505 834 568 902 Q618 955 618 1065 Q618 1178 571 1233 Q531 1279 463 1279 Q311 1279 309 1034 L51 1034 Q43 1251 144 1374 Q252 1508 473 1508 Z M323 294 L600 294 L600 0 L323 0 L323 294 Z " />
<glyph glyph-name="at" unicode="&#x40;" horiz-adv-x="1940" d="M1315 1009 L1315 539 Q1315 382 1415 382 Q1486 382 1514 454.5 Q1542 527 1542 709 Q1542 1049 1390 1193 Q1258 1319 986 1319 Q669 1319 514 1098 Q384 912 384 594 Q384 241 585 72 Q752 -70 1045 -70 Q1307 -70 1556 41 L1632 -145 Q1390 -291 1035 -291 Q582 -291 355 -33 Q155 194 155 595 Q155 1066 396 1309 Q610 1525 987 1525 Q1393 1525 1593 1295 Q1770 1090 1770 716 Q1770 413 1669 291 Q1581 186 1395 186 Q1187 186 1148 374 Q1096 189 902 189 Q743 189 665 311 Q596 417 596 606 Q596 824 682 931 Q757 1024 891 1024 Q1038 1024 1103 914 L1103 1009 L1315 1009 Z M960 391 Q1083 391 1083 608 Q1083 823 963 823 Q838 823 838 609 Q838 391 960 391 Z " />
<glyph glyph-name="A" unicode="A" horiz-adv-x="1284" d="M1258 211 L1258 0 L767 0 L767 211 L898 211 L841 429 L434 429 L375 211 L518 211 L518 0 L20 0 L20 211 L110 211 L492 1475 L782 1475 L1164 211 L1258 211 Z M485 636 L790 636 L641 1188 L630 1188 L485 636 Z " />
<glyph glyph-name="B" unicode="B" horiz-adv-x="1210" d="M870 785 Q1002 753 1068 652 Q1126 564 1126 431 Q1126 209 975 97 Q843 0 612 0 L87 0 L87 211 L211 211 L211 1264 L87 1264 L87 1475 L580 1475 Q1060 1475 1060 1093 Q1060 973 1014.5 899 Q969 825 870 785 Z M787 1074 Q787 1170 725 1220 Q671 1264 577 1264 L471 1264 L471 883 L586 883 Q787 883 787 1074 Z M591 211 Q730 211 790 273 Q842 327 842 439 Q842 567 775 623 Q716 672 596 672 L471 672 L471 211 L591 211 Z " />
<glyph glyph-name="C" unicode="C" horiz-adv-x="1184" d="M1106 137 Q928 -31 666 -31 Q96 -31 96 716 Q96 1120 253 1325 Q388 1501 620 1501 Q782 1501 865 1406 L865 1475 L1070 1475 L1070 1021 L855 1021 Q855 1273 669 1273 Q515 1273 439 1104 Q376 964 376 727 Q376 213 688 213 Q849 213 966 328 L1106 137 Z " />
<glyph glyph-name="D" unicode="D" horiz-adv-x="1336" d="M546 1475 Q902 1475 1074 1262 Q1224 1076 1224 737 Q1224 356 1038 166 Q875 0 588 0 L87 0 L87 211 L211 211 L211 1264 L87 1264 L87 1475 L546 1475 Z M558 211 Q945 211 945 733 Q945 1264 558 1264 L477 1264 L477 211 L558 211 Z " />
<glyph glyph-name="E" unicode="E" horiz-adv-x="1153" d="M1068 437 L1068 0 L87 0 L87 211 L211 211 L211 1264 L87 1264 L87 1475 L1037 1475 L1037 1086 L792 1086 L792 1264 L474 1264 L474 864 L825 864 L825 653 L474 653 L474 211 L827 211 L827 437 L1068 437 Z " />
<glyph glyph-name="F" unicode="F" horiz-adv-x="1105" d="M805 1086 L805 1264 L478 1264 L478 842 L841 842 L841 631 L478 631 L478 211 L673 211 L673 0 L87 0 L87 211 L211 211 L211 1264 L87 1264 L87 1475 L1050 1475 L1050 1086 L805 1086 Z " />
<glyph glyph-name="G" unicode="G" horiz-adv-x="1285" d="M907 243 L907 542 L638 542 L638 753 L1151 753 L1151 84 Q943 -31 704 -31 Q95 -31 95 716 Q95 1124 255 1327 Q396 1505 646 1505 Q814 1505 911 1409 L911 1475 L1121 1475 L1121 1041 L906 1041 Q906 1162 841 1221 Q785 1272 689 1272 Q373 1272 373 715 Q373 424 465 307 Q544 206 710 206 Q816 206 907 243 Z " />
<glyph glyph-name="H" unicode="H" horiz-adv-x="1377" d="M1166 1264 L1166 211 L1290 211 L1290 0 L776 0 L776 211 L901 211 L901 660 L476 660 L476 211 L601 211 L601 0 L87 0 L87 211 L211 211 L211 1264 L87 1264 L87 1475 L601 1475 L601 1264 L476 1264 L476 875 L901 875 L901 1264 L776 1264 L776 1475 L1290 1475 L1290 1264 L1166 1264 Z " />
<glyph glyph-name="I" unicode="I" horiz-adv-x="688" d="M601 211 L601 0 L87 0 L87 211 L211 211 L211 1264 L87 1264 L87 1475 L601 1475 L601 1264 L477 1264 L477 211 L601 211 Z " />
<glyph glyph-name="J" unicode="J" horiz-adv-x="679" d="M607 1264 L483 1264 L483 121 Q483 -60 451 -154 Q415 -261 325 -307 Q234 -355 59 -355 L59 -115 Q154 -111 187 -61 Q215 -20 215 72 L215 1264 L81 1264 L81 1475 L607 1475 L607 1264 Z " />
<glyph glyph-name="K" unicode="K" horiz-adv-x="1314" d="M1290 211 L1290 0 L744 0 L744 211 L859 211 L472 726 L472 211 L585 211 L585 0 L87 0 L87 211 L211 211 L211 1264 L87 1264 L87 1475 L578 1475 L578 1264 L472 1264 L472 781 L833 1267 L718 1267 L718 1475 L1214 1475 L1214 1264 L1102 1264 L744 776 L1171 211 L1290 211 Z " />
<glyph glyph-name="L" unicode="L" horiz-adv-x="1122" d="M1062 466 L1062 0 L87 0 L87 211 L211 211 L211 1264 L87 1264 L87 1475 L609 1475 L609 1264 L479 1264 L479 211 L817 211 L817 466 L1062 466 Z " />
<glyph glyph-name="M" unicode="M" horiz-adv-x="1727" d="M1645 215 L1645 0 L1168 0 L1168 215 L1292 215 L1269 897 L1263 1248 Q1249 1186 1217 1061 Q1190 957 1176 897 L970 0 L762 0 L546 897 Q536 937 511 1037 Q476 1173 461 1248 L455 897 L436 215 L559 215 L559 0 L82 0 L82 215 L202 215 L242 1260 L117 1260 L117 1475 L639 1475 L825 622 Q843 537 863 403 L865 421 Q883 563 896 622 L1083 1475 L1605 1475 L1605 1260 L1480 1260 L1525 215 L1645 215 Z " />
<glyph glyph-name="N" unicode="N" horiz-adv-x="1393" d="M534 906 Q481 1016 440 1139 Q449 1001 449 806 L449 211 L597 211 L597 0 L87 0 L87 211 L211 211 L211 1266 L87 1266 L87 1475 L514 1475 L870 703 Q935 561 973 445 Q958 608 958 811 L958 1264 L828 1264 L828 1475 L1320 1475 L1320 1264 L1196 1264 L1196 -8 L970 -8 L534 906 Z " />
<glyph glyph-name="O" unicode="O" horiz-adv-x="1312" d="M653 -31 Q360 -31 219 190 Q95 382 95 733 Q95 1137 258 1334 Q400 1506 657 1506 Q949 1506 1092 1283 Q1217 1088 1217 738 Q1217 337 1053 141 Q910 -31 653 -31 Z M656 212 Q933 212 933 729 Q933 1007 853 1144 Q782 1263 657 1263 Q513 1263 441 1107 Q379 971 379 728 Q379 212 656 212 Z " />
<glyph glyph-name="P" unicode="P" horiz-adv-x="1163" d="M476 542 L476 211 L660 211 L660 0 L87 0 L87 211 L211 211 L211 1264 L87 1264 L87 1475 L581 1475 Q1098 1475 1098 1003 Q1098 542 583 542 L476 542 Z M476 1264 L476 750 L589 750 Q716 750 770 818 Q817 878 817 1001 Q817 1264 597 1264 L476 1264 Z " />
<glyph glyph-name="Q" unicode="Q" horiz-adv-x="1312" d="M738 -26 Q774 -37 845 -75 Q950 -132 1012 -132 Q1073 -132 1155 -103 L1211 -315 Q1102 -363 1016 -363 Q963 -363 919 -348 Q875 -333 804 -290 Q704 -231 641 -231 Q579 -231 523 -252.5 Q467 -274 380 -332 L314 -125 Q455 -41 538 -21 Q349 13 242 156 Q168 255 134 387 Q100 519 95 733 Q95 1137 258 1334 Q400 1506 657 1506 Q949 1506 1092 1283 Q1217 1088 1217 738 Q1212 540 1183 415 Q1147 264 1068 158 Q952 5 738 -26 Z M656 212 Q933 212 933 729 Q933 1007 853 1144 Q782 1263 657 1263 Q513 1263 441 1107 Q379 971 379 728 Q379 212 656 212 Z " />
<glyph glyph-name="R" unicode="R" horiz-adv-x="1268" d="M1232 211 L1232 0 L896 0 L816 297 Q764 489 713 539 Q662 589 541 589 L471 589 L471 211 L626 211 L626 0 L87 0 L87 211 L211 211 L211 1264 L87 1264 L87 1475 L591 1475 Q857 1475 980 1361 Q1094 1256 1094 1044 Q1094 893 1037 809 Q987 734 879 694 Q998 639 1054 435 L1115 211 L1232 211 Z M578 799 Q713 799 766 859 Q814 913 814 1033 Q814 1171 746 1223 Q692 1265 578 1265 L471 1265 L471 799 L578 799 Z " />
<glyph glyph-name="S" unicode="S" horiz-adv-x="1105" d="M659 862 Q882 804 966 693 Q1040 595 1040 418 Q1040 -30 620 -30 Q407 -30 316 88 L311 0 L111 0 L111 434 L353 434 Q359 309 417 255 Q469 207 567 207 Q765 207 765 394 Q765 560 607 602 L459 641 Q272 690 188 807 Q113 911 113 1078 Q113 1294 233 1406 Q337 1504 514 1504 Q667 1504 745 1409 L745 1475 L955 1475 L955 1081 L740 1081 Q740 1178 685 1228 Q638 1272 556 1272 Q472 1272 426 1225.5 Q380 1179 380 1094 Q380 935 548 891 L659 862 Z " />
<glyph glyph-name="T" unicode="T" horiz-adv-x="1224" d="M1169 1475 L1169 1040 L934 1040 L934 1272 L746 1272 L746 211 L916 211 L916 0 L308 0 L308 211 L478 211 L478 1272 L290 1272 L290 1040 L55 1040 L55 1475 L1169 1475 Z " />
<glyph glyph-name="U" unicode="U" horiz-adv-x="1331" d="M659 -31 Q371 -31 257 152 Q213 222 194.5 331 Q176 440 176 628 L176 1260 L52 1260 L52 1475 L569 1475 L569 1260 L445 1260 L445 579 Q445 355 500 275 Q548 204 664 204 Q796 204 844 299 Q886 382 886 579 L886 1260 L761 1260 L761 1475 L1279 1475 L1279 1260 L1155 1260 L1155 628 Q1155 376 1114 246 Q1075 123 986 59 Q861 -31 659 -31 Z " />
<glyph glyph-name="V" unicode="V" horiz-adv-x="1247" d="M501 0 L114 1264 L7 1264 L7 1475 L544 1475 L544 1264 L392 1264 L577 553 Q606 433 626 337 Q656 489 673 553 L859 1264 L714 1264 L714 1475 L1240 1475 L1240 1264 L1133 1264 L755 0 L501 0 Z " />
<glyph glyph-name="W" unicode="W" horiz-adv-x="1684" d="M1679 1264 L1571 1264 L1326 0 L1101 0 L900 796 L895 818 Q862 951 841 1065 Q819 943 782 796 L581 0 L356 0 L111 1264 L3 1264 L3 1475 L500 1475 L500 1264 L376 1264 L446 715 Q464 569 486 455 Q519 591 535 660 Q540 681 548 715 L731 1480 L950 1480 L1133 715 L1142 677 L1196 456 Q1215 558 1236 715 L1306 1264 L1182 1264 L1182 1475 L1679 1475 L1679 1264 Z " />
<glyph glyph-name="X" unicode="X" horiz-adv-x="1215" d="M1188 211 L1188 0 L670 0 L670 211 L807 211 L608 562 L419 211 L551 211 L551 0 L27 0 L27 211 L147 211 L474 750 L167 1264 L59 1264 L59 1475 L573 1475 L573 1264 L446 1264 L627 931 L807 1264 L679 1264 L679 1475 L1159 1475 L1159 1264 L1058 1264 L759 755 L1085 211 L1188 211 Z " />
<glyph glyph-name="Y" unicode="Y" horiz-adv-x="1197" d="M731 619 L731 211 L885 211 L885 0 L312 0 L312 211 L466 211 L466 624 L103 1264 L-7 1264 L-7 1475 L535 1475 L535 1264 L397 1264 L612 835 L827 1264 L686 1264 L686 1475 L1201 1475 L1201 1264 L1092 1264 L731 619 Z " />
<glyph glyph-name="Z" unicode="Z" horiz-adv-x="1104" d="M1017 440 L1017 0 L76 0 L76 208 L710 1264 L342 1264 L342 1062 L107 1062 L107 1475 L1016 1475 L1016 1288 L372 211 L782 211 L782 440 L1017 440 Z " />
<glyph glyph-name="bracketleft" unicode="&#x5b;" horiz-adv-x="879" d="M252 -422 L252 1475 L707 1475 L707 1281 L519 1281 L519 -217 L707 -217 L707 -422 L252 -422 Z " />
<glyph glyph-name="backslash" unicode="&#x5c;" horiz-adv-x="739" d="M25 1472 L220 1472 L709 -185 L514 -185 L25 1472 Z " />
<glyph glyph-name="bracketright" unicode="&#x5d;" horiz-adv-x="879" d="M172 -217 L360 -217 L360 1281 L172 1281 L172 1475 L627 1475 L627 -422 L172 -422 L172 -217 Z " />
<glyph glyph-name="asciicircum" unicode="&#x5e;" horiz-adv-x="980" d="M475 1261 L282 888 L35 888 L362 1475 L588 1475 L914 888 L667 888 L475 1261 Z " />
<glyph glyph-name="underscore" unicode="&#x5f;" horiz-adv-x="856" d="M0 -422 L0 -198 L856 -198 L856 -422 L0 -422 Z " />
<glyph glyph-name="grave" unicode="&#x60;" horiz-adv-x="600" d="M59 1507 L334 1507 L514 1137 L322 1137 L59 1507 Z " />
<glyph glyph-name="a" unicode="a" horiz-adv-x="1034" d="M994 211 L994 0 L706 0 L703 152 Q677 66 587 16 Q509 -27 410 -27 Q229 -27 142 66 Q66 148 66 295 Q66 607 432 607 L640 607 L640 672 Q640 754 609.5 789 Q579 824 507 824 Q445 824 419.5 798.5 Q394 773 393 710 L136 710 Q138 885 235 960 Q322 1028 498 1028 Q734 1028 812 939 Q884 857 884 641 L884 211 L994 211 Z M621 245 Q640 278 640 329 L640 427 L492 427 Q407 427 370 398 Q333 369 333 302 Q333 177 468 177 Q582 177 621 245 Z " />
<glyph glyph-name="b" unicode="b" horiz-adv-x="1077" d="M622 1028 Q810 1028 912 875 Q1005 736 1005 499 Q1005 224 888 86 Q790 -29 627 -29 Q421 -29 359 140 L357 0 L138 0 L138 1264 L21 1264 L21 1475 L385 1475 L385 904 Q471 1028 622 1028 Z M564 193 Q735 193 735 498 Q735 806 566 806 Q391 806 391 504 Q391 193 564 193 Z " />
<glyph glyph-name="c" unicode="c" horiz-adv-x="937" d="M867 80 Q811 29 719.5 0 Q628 -29 524 -29 Q284 -29 169 126 Q72 257 72 491 Q72 757 196 901 Q302 1024 471 1024 Q593 1024 647 941 L647 999 L851 999 L851 621 L640 621 Q640 704 629 737 Q607 809 533 809 Q436 809 386 716 Q342 635 342 498 Q342 197 565 197 Q663 197 757 264 L867 80 Z " />
<glyph glyph-name="d" unicode="d" horiz-adv-x="1102" d="M1049 211 L1049 0 L727 0 L724 162 Q672 -28 452 -28 Q260 -28 162 120 Q72 255 72 498 Q72 768 188 907 Q288 1027 457 1027 Q617 1027 691 903 L691 1264 L536 1264 L536 1475 L938 1475 L938 211 L1049 211 Z M513 194 Q685 194 685 504 Q685 805 509 805 Q342 805 342 500 Q342 194 513 194 Z " />
<glyph glyph-name="e" unicode="e" horiz-adv-x="983" d="M511 1028 Q740 1028 838 850 Q922 698 916 408 L330 408 Q352 191 550 191 Q674 191 777 268 L886 80 Q737 -29 537 -29 Q72 -29 72 492 Q72 768 201 907 Q314 1028 511 1028 Z M509 822 Q432 822 385.5 763 Q339 704 330 593 L669 593 Q663 822 509 822 Z " />
<glyph glyph-name="f" unicode="f" horiz-adv-x="691" d="M69 0 L69 211 L182 211 L182 788 L69 788 L69 989 L182 997 L182 1092 Q182 1309 269 1403 Q353 1494 532 1494 Q612 1494 696 1479 L674 1273 Q623 1277 582 1277 Q495 1277 459.5 1238 Q424 1199 424 1102 L424 999 L640 999 L640 788 L429 788 L429 211 L617 211 L617 0 L69 0 Z " />
<glyph glyph-name="g" unicode="g" horiz-adv-x="1094" d="M1052 999 L1052 788 L944 788 L944 6 Q944 -251 843 -353 Q747 -450 528 -450 Q301 -450 207 -354 Q128 -274 128 -109 L363 -109 Q363 -180 400.5 -210 Q438 -240 528 -240 Q626 -240 666.5 -185 Q707 -130 707 1 L707 121 Q648 -13 468 -13 Q268 -13 165 146 Q78 281 78 504 Q78 765 195 906 Q297 1028 464 1028 Q652 1028 745 849 L745 999 L1052 999 Z M524 203 Q618 203 658 290 Q691 363 691 506 Q691 806 522 806 Q348 806 348 506 Q348 203 524 203 Z " />
<glyph glyph-name="h" unicode="h" horiz-adv-x="1128" d="M1090 211 L1090 0 L633 0 L633 211 L721 211 L721 639 Q721 731 696.5 767.5 Q672 804 611 804 Q505 804 431 670 L431 211 L521 211 L521 0 L62 0 L62 211 L173 211 L173 1264 L49 1264 L49 1475 L420 1475 L420 869 Q535 1026 706 1026 Q979 1026 979 676 L979 211 L1090 211 Z " />
<glyph glyph-name="i" unicode="i" horiz-adv-x="600" d="M174 1414 L441 1414 L441 1137 L174 1137 L174 1414 Z M75 211 L186 211 L186 788 L75 788 L75 999 L446 999 L446 211 L557 211 L557 0 L75 0 L75 211 Z " />
<glyph glyph-name="j" unicode="j" horiz-adv-x="542" d="M147 1419 L424 1419 L424 1136 L147 1136 L147 1419 Z M48 -198 Q112 -195 140 -160.5 Q168 -126 168 -52 L168 788 L57 788 L57 999 L427 999 L427 28 Q427 -147 398 -237 Q366 -337 284 -380 Q204 -422 48 -422 L48 -198 Z " />
<glyph glyph-name="k" unicode="k" horiz-adv-x="1097" d="M1068 211 L1068 0 L592 0 L592 197 L688 197 L411 547 L411 197 L495 197 L495 0 L49 0 L49 211 L160 211 L160 1264 L49 1264 L49 1475 L411 1475 L411 564 L672 823 L542 823 L542 999 L988 999 L988 787 L893 787 L672 563 L963 211 L1068 211 Z " />
<glyph glyph-name="l" unicode="l" horiz-adv-x="590" d="M62 215 L173 215 L173 1260 L49 1260 L49 1475 L426 1475 L426 215 L537 215 L537 0 L62 0 L62 215 Z " />
<glyph glyph-name="m" unicode="m" horiz-adv-x="1679" d="M1641 211 L1641 0 L1183 0 L1183 211 L1271 211 L1271 646 Q1271 737 1247 771.5 Q1223 806 1160 806 Q1057 806 987 680 L987 676 L987 211 L1075 211 L1075 0 L641 0 L641 211 L729 211 L729 633 Q729 731 707 767 Q682 806 618 806 Q513 806 444 681 L444 211 L533 211 L533 0 L75 0 L75 211 L186 211 L186 788 L75 788 L75 999 L413 999 L413 843 Q534 1028 714 1028 Q908 1028 964 850 Q1076 1028 1257 1028 Q1405 1028 1475 919 Q1529 834 1529 693 L1529 211 L1641 211 Z " />
<glyph glyph-name="n" unicode="n" horiz-adv-x="1142" d="M1104 211 L1104 0 L646 0 L646 211 L735 211 L735 639 Q735 731 710.5 767.5 Q686 804 625 804 Q516 804 444 669 L444 211 L534 211 L534 0 L75 0 L75 211 L186 211 L186 788 L75 788 L75 999 L412 999 L412 837 Q532 1026 720 1026 Q993 1026 993 676 L993 211 L1104 211 Z " />
<glyph glyph-name="o" unicode="o" horiz-adv-x="1033" d="M517 -29 Q284 -29 168 132 Q72 267 72 497 Q72 765 202 905 Q317 1028 515 1028 Q746 1028 862 867 Q961 730 961 495 Q961 230 827 91 Q711 -29 517 -29 Z M516 191 Q691 191 691 496 Q691 655 639 737 Q594 808 515 808 Q431 808 386.5 728 Q342 648 342 497 Q342 191 516 191 Z " />
<glyph glyph-name="p" unicode="p" horiz-adv-x="1108" d="M652 1028 Q841 1028 944 871 Q1036 732 1036 499 Q1036 230 918 90 Q819 -29 655 -29 Q500 -29 417 71 L417 -217 L604 -217 L604 -422 L56 -422 L56 -217 L170 -217 L170 788 L56 788 L56 999 L367 999 L367 837 Q418 938 485.5 983 Q553 1028 652 1028 Z M600 195 Q766 195 766 500 Q766 804 597 804 Q423 804 423 504 Q423 195 600 195 Z " />
<glyph glyph-name="q" unicode="q" horiz-adv-x="1113" d="M938 784 L938 -217 L1049 -217 L1049 -422 L504 -422 L504 -217 L691 -217 L691 87 Q619 -29 453 -29 Q264 -29 163 123 Q72 261 72 498 Q72 772 189 908 Q290 1027 468 1027 Q648 1027 739 851 L739 999 L1049 999 L1049 784 L938 784 Z M514 193 Q685 193 685 504 Q685 805 508 805 Q342 805 342 500 Q342 193 514 193 Z " />
<glyph glyph-name="r" unicode="r" horiz-adv-x="814" d="M623 750 Q495 719 452 597 L452 211 L635 211 L635 0 L75 0 L75 211 L194 211 L194 788 L75 788 L75 999 L406 999 L406 759 L408 759 Q462 957 607 1006 Q648 1020 760 1020 L760 760 Q665 760 623 750 Z " />
<glyph glyph-name="s" unicode="s" horiz-adv-x="926" d="M592 606 Q744 574 808 496 Q866 424 866 298 Q866 133 768 48 Q686 -25 549 -25 Q349 -25 296 104 L296 -4 L96 -4 L96 321 L317 321 Q315 250 355 217 Q395 184 484 184 Q613 184 613 282 Q613 327 583 351 Q553 375 474 392 L354 417 Q205 448 145 528 Q93 597 93 722 Q93 875 190 959 Q271 1030 398 1030 Q557 1030 616 926 L616 1003 L807 1003 L807 699 L601 699 Q601 755 564.5 786.5 Q528 818 462 818 Q347 818 347 724 Q347 655 431 639 L592 606 Z " />
<glyph glyph-name="t" unicode="t" horiz-adv-x="705" d="M457 -14 Q291 -14 222 74 Q163 150 163 309 L163 788 L48 788 L48 999 L170 999 L170 1325 L407 1325 L407 999 L625 999 L625 788 L417 788 L417 308 Q417 252 446 228.5 Q475 205 542 205 Q575 205 633 208 L633 -4 Q553 -14 457 -14 Z " />
<glyph glyph-name="u" unicode="u" horiz-adv-x="1102" d="M1059 211 L1059 0 L738 0 L734 151 Q678 66 597.5 19 Q517 -28 428 -28 Q147 -28 147 307 L147 788 L38 788 L38 999 L405 999 L405 354 Q405 262 427 229 Q451 194 513 194 Q616 194 690 297 L690 788 L579 788 L579 999 L948 999 L948 211 L1059 211 Z " />
<glyph glyph-name="v" unicode="v" horiz-adv-x="993" d="M997 788 L898 788 L628 -7 L343 -7 L92 788 L-14 788 L-14 999 L446 999 L446 792 L352 792 L410 554 Q465 326 492 230 L500 230 Q511 273 542 387 Q568 486 586 554 L647 792 L547 792 L547 999 L997 999 L997 788 Z " />
<glyph glyph-name="w" unicode="w" horiz-adv-x="1420" d="M546 0 L313 0 L107 788 L9 788 L9 999 L474 999 L474 788 L349 788 L398 541 Q403 515 417 451 Q434 375 442 316 L447 316 Q458 413 485 510 L621 999 L822 999 L955 509 L958 497 Q985 402 998 316 L1003 316 Q1017 412 1050 537 L1116 788 L986 788 L986 999 L1431 999 L1431 788 L1330 788 L1114 0 L888 0 L764 481 Q754 521 742 591 Q731 652 723 685 L718 685 L707 630 Q687 532 674 482 L546 0 Z " />
<glyph glyph-name="x" unicode="x" horiz-adv-x="1009" d="M552 188 L642 188 L513 384 L384 188 L475 188 L475 0 L36 0 L35 212 L144 212 L358 505 L157 787 L49 787 L49 999 L484 999 L484 821 L402 821 L525 631 L647 821 L559 821 L559 999 L974 999 L974 787 L873 787 L677 508 L885 212 L993 212 L994 0 L552 0 L552 188 Z " />
<glyph glyph-name="y" unicode="y" horiz-adv-x="976" d="M984 788 L900 788 L587 -58 Q538 -191 498.5 -257.5 Q459 -324 409 -360 Q323 -420 121 -422 L121 -197 Q218 -195 260 -171 Q306 -145 334 -75 L366 7 L83 788 L-6 788 L-6 999 L443 999 L443 792 L338 792 L447 410 Q462 355 484 293 Q488 280 490 274 L495 274 Q497 282 507 314 Q524 362 536 405 L649 792 L544 792 L544 999 L984 999 L984 788 Z " />
<glyph glyph-name="z" unicode="z" horiz-adv-x="934" d="M873 378 L873 0 L75 0 L75 196 L567 797 L315 797 L315 668 L109 668 L109 999 L854 999 L854 792 L371 203 L667 203 L667 378 L873 378 Z " />
<glyph glyph-name="braceleft" unicode="&#x7b;" horiz-adv-x="840" d="M516 857 Q516 698 483 633 Q450 568 351 534 Q461 493 491 417 Q516 353 516 191 L516 -8 Q516 -130 551 -171 Q586 -212 689 -212 L754 -212 L754 -422 L655 -422 Q411 -422 330 -334 Q259 -257 259 -59 L259 176 Q259 319 220 375 Q181 431 80 436 L80 631 Q191 637 227 699 Q259 754 259 893 L259 1112 Q259 1334 355 1409 Q441 1475 655 1475 L754 1475 L754 1265 L688 1265 Q579 1265 546 1220 Q516 1180 516 1071 L516 857 Z " />
<glyph glyph-name="bar" unicode="&#x7c;" horiz-adv-x="1024" d="M378 -480 L378 1568 L646 1568 L646 -480 L378 -480 Z " />
<glyph glyph-name="braceright" unicode="&#x7d;" horiz-adv-x="840" d="M581 893 Q581 745 618 691 Q655 637 760 631 L760 436 Q653 431 615 367 Q581 310 581 176 L581 -59 Q581 -283 485 -357 Q401 -422 185 -422 L86 -422 L86 -212 L151 -212 Q260 -212 294 -164 Q324 -122 324 -8 L324 191 Q324 366 355 430.5 Q386 495 489 534 Q383 571 351 646 Q324 710 324 857 L324 1071 Q324 1187 289.5 1226 Q255 1265 152 1265 L86 1265 L86 1475 L185 1475 Q427 1475 509 1386 Q581 1308 581 1112 L581 893 Z " />
<glyph glyph-name="asciitilde" unicode="&#x7e;" horiz-adv-x="1107" d="M57 729 Q149 841 224.5 888 Q300 935 386 935 Q439 935 479 919.5 Q519 904 586 858 Q669 801 713 801 Q801 801 909 924 L1049 745 Q959 637 882 588 Q805 539 725 539 Q637 539 519 616 Q432 673 389 673 Q312 673 200 547 L57 729 Z " />
<glyph glyph-name="Adieresis" unicode="&#xc4;" horiz-adv-x="1284" d="M1258 211 L1258 0 L767 0 L767 211 L898 211 L841 429 L434 429 L375 211 L518 211 L518 0 L20 0 L20 211 L110 211 L492 1475 L782 1475 L1164 211 L1258 211 Z M485 636 L790 636 L641 1188 L630 1188 L485 636 Z M334 1642 L334 1889 L563 1889 L563 1642 L334 1642 Z M701 1642 L701 1889 L930 1889 L930 1642 L701 1642 Z " />
<glyph glyph-name="Aring" unicode="&#xc5;" horiz-adv-x="1284" d="M1258 211 L1258 0 L767 0 L767 211 L898 211 L841 429 L434 429 L375 211 L518 211 L518 0 L20 0 L20 211 L110 211 L492 1475 L782 1475 L1164 211 L1258 211 Z M485 636 L790 636 L641 1188 L630 1188 L485 636 Z M632 2047 Q750 2047 813 1973 Q865 1913 865 1820 Q865 1712 798 1650 Q736 1593 633 1593 Q515 1593 452 1667 Q400 1728 400 1823 Q400 1927 469 1990 Q531 2047 632 2047 Z M632 1924 Q537 1924 537 1821 Q537 1716 632 1716 Q727 1716 727 1820 Q727 1924 632 1924 Z " />
<glyph glyph-name="Ccedilla" unicode="&#xc7;" horiz-adv-x="1184" d="M572 -25 Q358 0 240 156 Q167 251 134 379 Q101 507 96 716 Q96 1120 253 1325 Q388 1501 620 1501 Q782 1501 865 1406 L865 1475 L1070 1475 L1070 1021 L855 1021 Q855 1273 669 1273 Q515 1273 439 1104 Q376 964 376 727 Q376 213 688 213 Q849 213 966 328 L1106 137 Q939 -17 711 -30 L674 -107 Q878 -97 878 -277 Q878 -497 624 -497 Q507 -497 408 -447 L408 -290 Q513 -336 593 -336 Q689 -336 689 -269 Q689 -209 623 -209 Q589 -209 541 -226 L525 -126 L572 -25 Z " />
<glyph glyph-name="Eacute" unicode="&#xc9;" horiz-adv-x="1153" d="M1068 437 L1068 0 L87 0 L87 211 L211 211 L211 1264 L87 1264 L87 1475 L1037 1475 L1037 1086 L792 1086 L792 1264 L474 1264 L474 864 L825 864 L825 653 L474 653 L474 211 L827 211 L827 437 L1068 437 Z M464 1613 L644 1983 L919 1983 L656 1613 L464 1613 Z " />
<glyph glyph-name="Ntilde" unicode="&#xd1;" horiz-adv-x="1393" d="M534 906 Q481 1016 440 1139 Q449 1001 449 806 L449 211 L597 211 L597 0 L87 0 L87 211 L211 211 L211 1266 L87 1266 L87 1475 L514 1475 L870 703 Q935 561 973 445 Q958 608 958 811 L958 1264 L828 1264 L828 1475 L1320 1475 L1320 1264 L1196 1264 L1196 -8 L970 -8 L534 906 Z M375 1641 Q391 1886 589 1886 Q647 1886 742 1837 Q793 1810 824 1810 Q881 1810 881 1885 L1047 1885 Q1037 1635 823 1635 Q759 1635 672 1680 Q625 1705 598 1705 Q574 1705 559 1687.5 Q544 1670 544 1641 L375 1641 Z " />
<glyph glyph-name="Odieresis" unicode="&#xd6;" horiz-adv-x="1312" d="M653 -31 Q360 -31 219 190 Q95 382 95 733 Q95 1137 258 1334 Q400 1506 657 1506 Q949 1506 1092 1283 Q1217 1088 1217 738 Q1217 337 1053 141 Q910 -31 653 -31 Z M656 212 Q933 212 933 729 Q933 1007 853 1144 Q782 1263 657 1263 Q513 1263 441 1107 Q379 971 379 728 Q379 212 656 212 Z M360 1642 L360 1889 L589 1889 L589 1642 L360 1642 Z M727 1642 L727 1889 L956 1889 L956 1642 L727 1642 Z " />
<glyph glyph-name="Udieresis" unicode="&#xdc;" horiz-adv-x="1331" d="M659 -31 Q371 -31 257 152 Q213 222 194.5 331 Q176 440 176 628 L176 1260 L52 1260 L52 1475 L569 1475 L569 1260 L445 1260 L445 579 Q445 355 500 275 Q548 204 664 204 Q796 204 844 299 Q886 382 886 579 L886 1260 L761 1260 L761 1475 L1279 1475 L1279 1260 L1155 1260 L1155 628 Q1155 376 1114 246 Q1075 123 986 59 Q861 -31 659 -31 Z M366 1642 L366 1889 L595 1889 L595 1642 L366 1642 Z M733 1642 L733 1889 L962 1889 L962 1642 L733 1642 Z " />
<glyph glyph-name="aacute" unicode="&#xe1;" horiz-adv-x="1034" d="M994 211 L994 0 L706 0 L703 152 Q677 66 587 16 Q509 -27 410 -27 Q229 -27 142 66 Q66 148 66 295 Q66 607 432 607 L640 607 L640 672 Q640 754 609.5 789 Q579 824 507 824 Q445 824 419.5 798.5 Q394 773 393 710 L136 710 Q138 885 235 960 Q322 1028 498 1028 Q734 1028 812 939 Q884 857 884 641 L884 211 L994 211 Z M621 245 Q640 278 640 329 L640 427 L492 427 Q407 427 370 398 Q333 369 333 302 Q333 177 468 177 Q582 177 621 245 Z M375 1137 L555 1507 L830 1507 L567 1137 L375 1137 Z " />
<glyph glyph-name="agrave" unicode="&#xe0;" horiz-adv-x="1034" d="M994 211 L994 0 L706 0 L703 152 Q677 66 587 16 Q509 -27 410 -27 Q229 -27 142 66 Q66 148 66 295 Q66 607 432 607 L640 607 L640 672 Q640 754 609.5 789 Q579 824 507 824 Q445 824 419.5 798.5 Q394 773 393 710 L136 710 Q138 885 235 960 Q322 1028 498 1028 Q734 1028 812 939 Q884 857 884 641 L884 211 L994 211 Z M621 245 Q640 278 640 329 L640 427 L492 427 Q407 427 370 398 Q333 369 333 302 Q333 177 468 177 Q582 177 621 245 Z M181 1507 L456 1507 L636 1137 L444 1137 L181 1507 Z " />
<glyph glyph-name="acircumflex" unicode="&#xe2;" horiz-adv-x="1034" d="M994 211 L994 0 L706 0 L703 152 Q677 66 587 16 Q509 -27 410 -27 Q229 -27 142 66 Q66 148 66 295 Q66 607 432 607 L640 607 L640 672 Q640 754 609.5 789 Q579 824 507 824 Q445 824 419.5 798.5 Q394 773 393 710 L136 710 Q138 885 235 960 Q322 1028 498 1028 Q734 1028 812 939 Q884 857 884 641 L884 211 L994 211 Z M621 245 Q640 278 640 329 L640 427 L492 427 Q407 427 370 398 Q333 369 333 302 Q333 177 468 177 Q582 177 621 245 Z M505 1334 L361 1137 L180 1137 L387 1487 L624 1487 L830 1137 L651 1137 L505 1334 Z " />
<glyph glyph-name="adieresis" unicode="&#xe4;" horiz-adv-x="1034" d="M994 211 L994 0 L706 0 L703 152 Q677 66 587 16 Q509 -27 410 -27 Q229 -27 142 66 Q66 148 66 295 Q66 607 432 607 L640 607 L640 672 Q640 754 609.5 789 Q579 824 507 824 Q445 824 419.5 798.5 Q394 773 393 710 L136 710 Q138 885 235 960 Q322 1028 498 1028 Q734 1028 812 939 Q884 857 884 641 L884 211 L994 211 Z M621 245 Q640 278 640 329 L640 427 L492 427 Q407 427 370 398 Q333 369 333 302 Q333 177 468 177 Q582 177 621 245 Z M208 1166 L208 1413 L437 1413 L437 1166 L208 1166 Z M575 1166 L575 1413 L804 1413 L804 1166 L575 1166 Z " />
<glyph glyph-name="atilde" unicode="&#xe3;" horiz-adv-x="1034" d="M994 211 L994 0 L706 0 L703 152 Q677 66 587 16 Q509 -27 410 -27 Q229 -27 142 66 Q66 148 66 295 Q66 607 432 607 L640 607 L640 672 Q640 754 609.5 789 Q579 824 507 824 Q445 824 419.5 798.5 Q394 773 393 710 L136 710 Q138 885 235 960 Q322 1028 498 1028 Q734 1028 812 939 Q884 857 884 641 L884 211 L994 211 Z M621 245 Q640 278 640 329 L640 427 L492 427 Q407 427 370 398 Q333 369 333 302 Q333 177 468 177 Q582 177 621 245 Z M171 1165 Q187 1410 385 1410 Q443 1410 538 1361 Q589 1334 620 1334 Q677 1334 677 1409 L843 1409 Q833 1159 619 1159 Q555 1159 468 1204 Q421 1229 394 1229 Q370 1229 355 1211.5 Q340 1194 340 1165 L171 1165 Z " />
<glyph glyph-name="aring" unicode="&#xe5;" horiz-adv-x="1034" d="M994 211 L994 0 L706 0 L703 152 Q677 66 587 16 Q509 -27 410 -27 Q229 -27 142 66 Q66 148 66 295 Q66 607 432 607 L640 607 L640 672 Q640 754 609.5 789 Q579 824 507 824 Q445 824 419.5 798.5 Q394 773 393 710 L136 710 Q138 885 235 960 Q322 1028 498 1028 Q734 1028 812 939 Q884 857 884 641 L884 211 L994 211 Z M621 245 Q640 278 640 329 L640 427 L492 427 Q407 427 370 398 Q333 369 333 302 Q333 177 468 177 Q582 177 621 245 Z M506 1571 Q624 1571 687 1497 Q739 1437 739 1344 Q739 1236 672 1174 Q610 1117 507 1117 Q389 1117 326 1191 Q274 1252 274 1347 Q274 1451 343 1514 Q405 1571 506 1571 Z M506 1448 Q411 1448 411 1345 Q411 1240 506 1240 Q601 1240 601 1344 Q601 1448 506 1448 Z " />
<glyph glyph-name="ccedilla" unicode="&#xe7;" horiz-adv-x="937" d="M447 -25 Q267 -3 173 121 Q80 243 72 491 Q72 757 196 901 Q302 1024 471 1024 Q593 1024 647 941 L647 999 L851 999 L851 621 L640 621 Q640 704 629 737 Q607 809 533 809 Q436 809 386 716 Q342 635 342 498 Q342 197 565 197 Q663 197 757 264 L867 80 Q763 -12 587 -26 L548 -107 Q752 -97 752 -277 Q752 -497 498 -497 Q381 -497 282 -447 L282 -290 Q387 -336 467 -336 Q563 -336 563 -269 Q563 -209 497 -209 Q462 -209 415 -226 L399 -126 L447 -25 Z " />
<glyph glyph-name="eacute" unicode="&#xe9;" horiz-adv-x="983" d="M511 1028 Q740 1028 838 850 Q922 698 916 408 L330 408 Q352 191 550 191 Q674 191 777 268 L886 80 Q737 -29 537 -29 Q72 -29 72 492 Q72 768 201 907 Q314 1028 511 1028 Z M509 822 Q432 822 385.5 763 Q339 704 330 593 L669 593 Q663 822 509 822 Z M371 1137 L551 1507 L826 1507 L563 1137 L371 1137 Z " />
<glyph glyph-name="egrave" unicode="&#xe8;" horiz-adv-x="983" d="M511 1028 Q740 1028 838 850 Q922 698 916 408 L330 408 Q352 191 550 191 Q674 191 777 268 L886 80 Q737 -29 537 -29 Q72 -29 72 492 Q72 768 201 907 Q314 1028 511 1028 Z M509 822 Q432 822 385.5 763 Q339 704 330 593 L669 593 Q663 822 509 822 Z M177 1507 L452 1507 L632 1137 L440 1137 L177 1507 Z " />
<glyph glyph-name="ecircumflex" unicode="&#xea;" horiz-adv-x="983" d="M511 1028 Q740 1028 838 850 Q922 698 916 408 L330 408 Q352 191 550 191 Q674 191 777 268 L886 80 Q737 -29 537 -29 Q72 -29 72 492 Q72 768 201 907 Q314 1028 511 1028 Z M509 822 Q432 822 385.5 763 Q339 704 330 593 L669 593 Q663 822 509 822 Z M501 1334 L357 1137 L176 1137 L383 1487 L620 1487 L826 1137 L647 1137 L501 1334 Z " />
<glyph glyph-name="edieresis" unicode="&#xeb;" horiz-adv-x="983" d="M511 1028 Q740 1028 838 850 Q922 698 916 408 L330 408 Q352 191 550 191 Q674 191 777 268 L886 80 Q737 -29 537 -29 Q72 -29 72 492 Q72 768 201 907 Q314 1028 511 1028 Z M509 822 Q432 822 385.5 763 Q339 704 330 593 L669 593 Q663 822 509 822 Z M204 1166 L204 1413 L433 1413 L433 1166 L204 1166 Z M571 1166 L571 1413 L800 1413 L800 1166 L571 1166 Z " />
<glyph glyph-name="iacute" unicode="&#xed;" horiz-adv-x="597" d="M75 211 L186 211 L186 788 L75 788 L75 999 L446 999 L446 211 L557 211 L557 0 L75 0 L75 211 Z M163 1138 L313 1508 L578 1508 L355 1138 L163 1138 Z " />
<glyph glyph-name="igrave" unicode="&#xec;" horiz-adv-x="597" d="M75 211 L186 211 L186 788 L75 788 L75 999 L446 999 L446 211 L557 211 L557 0 L75 0 L75 211 Z M-31 1508 L244 1508 L424 1138 L232 1138 L-31 1508 Z " />
<glyph glyph-name="icircumflex" unicode="&#xee;" horiz-adv-x="597" d="M75 211 L186 211 L186 788 L75 788 L75 999 L446 999 L446 211 L557 211 L557 0 L75 0 L75 211 Z M299 1335 L155 1138 L-26 1138 L181 1488 L418 1488 L624 1138 L445 1138 L299 1335 Z " />
<glyph glyph-name="idieresis" unicode="&#xef;" horiz-adv-x="597" d="M75 211 L186 211 L186 788 L75 788 L75 999 L446 999 L446 211 L557 211 L557 0 L75 0 L75 211 Z M2 1167 L2 1414 L231 1414 L231 1167 L2 1167 Z M357 1167 L357 1414 L586 1414 L586 1167 L357 1167 Z " />
<glyph glyph-name="ntilde" unicode="&#xf1;" horiz-adv-x="1142" d="M1104 211 L1104 0 L646 0 L646 211 L735 211 L735 639 Q735 731 710.5 767.5 Q686 804 625 804 Q516 804 444 669 L444 211 L534 211 L534 0 L75 0 L75 211 L186 211 L186 788 L75 788 L75 999 L412 999 L412 837 Q532 1026 720 1026 Q993 1026 993 676 L993 211 L1104 211 Z M238 1165 Q254 1410 452 1410 Q510 1410 605 1361 Q656 1334 687 1334 Q744 1334 744 1409 L910 1409 Q900 1159 686 1159 Q622 1159 535 1204 Q488 1229 461 1229 Q437 1229 422 1211.5 Q407 1194 407 1165 L238 1165 Z " />
<glyph glyph-name="oacute" unicode="&#xf3;" horiz-adv-x="1033" d="M517 -29 Q284 -29 168 132 Q72 267 72 497 Q72 765 202 905 Q317 1028 515 1028 Q746 1028 862 867 Q961 730 961 495 Q961 230 827 91 Q711 -29 517 -29 Z M516 191 Q691 191 691 496 Q691 655 639 737 Q594 808 515 808 Q431 808 386.5 728 Q342 648 342 497 Q342 191 516 191 Z M388 1137 L568 1507 L843 1507 L580 1137 L388 1137 Z " />
<glyph glyph-name="ograve" unicode="&#xf2;" horiz-adv-x="1033" d="M517 -29 Q284 -29 168 132 Q72 267 72 497 Q72 765 202 905 Q317 1028 515 1028 Q746 1028 862 867 Q961 730 961 495 Q961 230 827 91 Q711 -29 517 -29 Z M516 191 Q691 191 691 496 Q691 655 639 737 Q594 808 515 808 Q431 808 386.5 728 Q342 648 342 497 Q342 191 516 191 Z M194 1507 L469 1507 L649 1137 L457 1137 L194 1507 Z " />
<glyph glyph-name="ocircumflex" unicode="&#xf4;" horiz-adv-x="1033" d="M517 -29 Q284 -29 168 132 Q72 267 72 497 Q72 765 202 905 Q317 1028 515 1028 Q746 1028 862 867 Q961 730 961 495 Q961 230 827 91 Q711 -29 517 -29 Z M516 191 Q691 191 691 496 Q691 655 639 737 Q594 808 515 808 Q431 808 386.5 728 Q342 648 342 497 Q342 191 516 191 Z M518 1334 L374 1137 L193 1137 L400 1487 L637 1487 L843 1137 L664 1137 L518 1334 Z " />
<glyph glyph-name="odieresis" unicode="&#xf6;" horiz-adv-x="1033" d="M517 -29 Q284 -29 168 132 Q72 267 72 497 Q72 765 202 905 Q317 1028 515 1028 Q746 1028 862 867 Q961 730 961 495 Q961 230 827 91 Q711 -29 517 -29 Z M516 191 Q691 191 691 496 Q691 655 639 737 Q594 808 515 808 Q431 808 386.5 728 Q342 648 342 497 Q342 191 516 191 Z M221 1166 L221 1413 L450 1413 L450 1166 L221 1166 Z M588 1166 L588 1413 L817 1413 L817 1166 L588 1166 Z " />
<glyph glyph-name="otilde" unicode="&#xf5;" horiz-adv-x="1033" d="M517 -29 Q284 -29 168 132 Q72 267 72 497 Q72 765 202 905 Q317 1028 515 1028 Q746 1028 862 867 Q961 730 961 495 Q961 230 827 91 Q711 -29 517 -29 Z M516 191 Q691 191 691 496 Q691 655 639 737 Q594 808 515 808 Q431 808 386.5 728 Q342 648 342 497 Q342 191 516 191 Z M184 1165 Q200 1410 398 1410 Q456 1410 551 1361 Q602 1334 633 1334 Q690 1334 690 1409 L856 1409 Q846 1159 632 1159 Q568 1159 481 1204 Q434 1229 407 1229 Q383 1229 368 1211.5 Q353 1194 353 1165 L184 1165 Z " />
<glyph glyph-name="uacute" unicode="&#xfa;" horiz-adv-x="1102" d="M1059 211 L1059 0 L738 0 L734 151 Q678 66 597.5 19 Q517 -28 428 -28 Q147 -28 147 307 L147 788 L38 788 L38 999 L405 999 L405 354 Q405 262 427 229 Q451 194 513 194 Q616 194 690 297 L690 788 L579 788 L579 999 L948 999 L948 211 L1059 211 Z M399 1137 L579 1507 L854 1507 L591 1137 L399 1137 Z " />
<glyph glyph-name="ugrave" unicode="&#xf9;" horiz-adv-x="1102" d="M1059 211 L1059 0 L738 0 L734 151 Q678 66 597.5 19 Q517 -28 428 -28 Q147 -28 147 307 L147 788 L38 788 L38 999 L405 999 L405 354 Q405 262 427 229 Q451 194 513 194 Q616 194 690 297 L690 788 L579 788 L579 999 L948 999 L948 211 L1059 211 Z M205 1507 L480 1507 L660 1137 L468 1137 L205 1507 Z " />
<glyph glyph-name="ucircumflex" unicode="&#xfb;" horiz-adv-x="1102" d="M1059 211 L1059 0 L738 0 L734 151 Q678 66 597.5 19 Q517 -28 428 -28 Q147 -28 147 307 L147 788 L38 788 L38 999 L405 999 L405 354 Q405 262 427 229 Q451 194 513 194 Q616 194 690 297 L690 788 L579 788 L579 999 L948 999 L948 211 L1059 211 Z M529 1334 L385 1137 L204 1137 L411 1487 L648 1487 L854 1137 L675 1137 L529 1334 Z " />
<glyph glyph-name="udieresis" unicode="&#xfc;" horiz-adv-x="1102" d="M1059 211 L1059 0 L738 0 L734 151 Q678 66 597.5 19 Q517 -28 428 -28 Q147 -28 147 307 L147 788 L38 788 L38 999 L405 999 L405 354 Q405 262 427 229 Q451 194 513 194 Q616 194 690 297 L690 788 L579 788 L579 999 L948 999 L948 211 L1059 211 Z M232 1166 L232 1413 L461 1413 L461 1166 L232 1166 Z M599 1166 L599 1413 L828 1413 L828 1166 L599 1166 Z " />
<glyph glyph-name="dagger" unicode="&#x2020;" horiz-adv-x="1047" d="M408 872 L141 872 L141 1077 L408 1077 L408 1475 L639 1475 L639 1077 L906 1077 L906 872 L639 872 L639 -202 L408 -202 L408 872 Z " />
<glyph glyph-name="degree" unicode="&#xb0;" horiz-adv-x="779" d="M390 1543 Q551 1543 649 1437 Q735 1346 735 1211 Q735 1056 625 961 Q530 878 391 878 Q230 878 131 986 Q45 1079 45 1215 Q45 1368 155 1462 Q251 1543 390 1543 Z M390 1385 Q312 1385 264 1330 Q223 1282 223 1212 Q223 1129 277 1079 Q323 1035 391 1035 Q468 1035 516 1091 Q557 1140 557 1210 Q557 1291 504 1341 Q458 1385 390 1385 Z " />
<glyph glyph-name="cent" unicode="&#xa2;" horiz-adv-x="1078" d="M962 348 Q858 257 671 241 L671 0 L510 0 L510 247 Q315 277 219 425 Q136 553 136 757 Q136 1005 251 1146 Q349 1267 510 1284 L510 1541 L671 1541 L671 1268 Q725 1245 753 1199 L753 1262 L946 1262 L946 891 L756 891 Q756 976 741 1014 Q723 1064 671 1084 L671 453 Q769 461 856 520 L962 348 Z M381 764 Q381 543 510 478 L510 1071 Q381 1000 381 764 Z " />
<glyph glyph-name="sterling" unicode="&#xa3;" horiz-adv-x="1070" d="M1029 410 Q1021 172 924 67 Q838 -29 670 -29 Q520 -29 372 90 Q260 -28 66 -26 L66 222 Q177 246 222 313 Q267 380 267 521 Q267 561 258 629 L65 629 L65 823 L226 823 Q193 964 193 1087 Q193 1300 314 1411 Q414 1504 578 1504 Q650 1504 699 1480 Q748 1456 791 1399 L791 1475 L995 1475 L995 1021 L767 1021 L767 1039 Q767 1276 609 1276 Q525 1276 480 1227 Q435 1178 435 1088 Q435 998 479 823 L755 823 L755 629 L512 629 Q521 532 521 486 Q521 374 478 268 Q561 201 647 201 Q724 201 766 262 Q805 318 800 410 L1029 410 Z " />
<glyph glyph-name="section" unicode="&#xa7;" horiz-adv-x="1171" d="M203 -219 L203 144 L407 144 L407 -12 L505 -12 Q657 -12 657 80 Q657 112 632.5 144.5 Q608 177 544 231 L292 444 Q192 528 153 590 Q114 652 114 729 Q114 919 344 990 Q298 1054 279.5 1103 Q261 1152 261 1211 Q261 1363 413 1426 Q535 1475 772 1475 L934 1475 L934 1110 L732 1110 L732 1271 L687 1271 Q499 1271 499 1193 Q499 1163 525 1129 Q551 1095 622 1033 L883 804 Q1069 640 1069 483 Q1069 381 999 309 Q943 252 852 224 Q918 127 918 46 Q918 -97 788 -165 Q684 -219 507 -219 L203 -219 Z M564 765 Q477 840 430 840 Q393 840 367 813.5 Q341 787 341 749 Q341 718 359 692 Q377 666 431 620 L587 481 Q691 389 757 389 Q795 389 817.5 412.5 Q840 436 840 475 Q840 531 743 613 L564 765 Z " />
<glyph glyph-name="bullet" unicode="&#x2022;" horiz-adv-x="1147" d="M295 472 L295 1046 L852 1046 L852 472 L295 472 Z " />
<glyph glyph-name="paragraph" unicode="&#xb6;" horiz-adv-x="1358" d="M470 -198 L470 615 Q279 633 176 739 Q69 849 69 1045 Q69 1478 571 1478 L1196 1478 L1196 1254 L1079 1254 L1079 -198 L1248 -198 L1248 -422 L312 -422 L312 -198 L470 -198 Z M676 -198 L873 -198 L873 1254 L676 1254 L676 -198 Z " />
<glyph glyph-name="germandbls" unicode="&#xdf;" horiz-adv-x="1170" d="M836 866 Q1102 758 1102 423 Q1102 -4 637 -4 L637 211 Q832 211 832 453 Q832 731 574 731 L549 731 L549 938 L574 938 Q664 938 713 992 Q756 1039 756 1116 Q756 1199 714.5 1245.5 Q673 1292 599 1292 Q445 1292 445 1100 L445 211 L528 211 L528 0 L76 0 L76 211 L191 211 L191 788 L76 788 L76 999 L191 999 L191 1083 Q191 1504 591 1504 Q793 1504 902 1396 Q997 1303 997 1149 Q997 953 836 866 Z " />
<glyph glyph-name="registered" unicode="&#xae;" horiz-adv-x="1177" d="M418 1037 L418 1367 L369 1367 L369 1475 L609 1475 Q811 1475 811 1316 Q811 1227 746 1182 Q765 1160 778 1114 L800 1037 L849 1037 L849 929 L691 929 L666 1047 Q654 1103 636.5 1119.5 Q619 1136 572 1136 L547 1136 L547 1037 L604 1037 L604 929 L369 929 L369 1037 L418 1037 Z M547 1237 L587 1237 Q637 1237 658.5 1253 Q680 1269 680 1306 Q680 1340 661.5 1353.5 Q643 1367 597 1367 L547 1367 L547 1237 Z M587 1771 Q842 1771 982 1596 Q1105 1442 1105 1190 Q1105 907 951 756 Q816 623 590 623 Q329 623 191 797 Q72 947 72 1194 Q72 1482 230 1637 Q366 1771 587 1771 Z M587 1648 Q393 1648 296 1517 Q211 1402 211 1200 Q211 967 322 849 Q420 746 590 746 Q783 746 881 879 Q966 994 966 1197 Q966 1429 855 1546 Q758 1648 587 1648 Z " />
<glyph glyph-name="copyright" unicode="&#xa9;" horiz-adv-x="1177" d="M624 1019 Q680 1019 738 1057 L797 956 Q728 894 603 894 Q346 894 346 1187 Q346 1338 417 1419 Q477 1487 573 1487 Q643 1487 676 1440 L676 1473 L788 1473 L788 1261 L673 1261 Q673 1312 666 1328 Q651 1368 606 1368 Q552 1368 522 1321.5 Q492 1275 492 1191 Q492 1019 624 1019 Z M587 1771 Q842 1771 982 1596 Q1105 1442 1105 1190 Q1105 907 951 756 Q816 623 590 623 Q329 623 191 797 Q72 947 72 1194 Q72 1482 230 1637 Q366 1771 587 1771 Z M590 746 Q783 746 881 879 Q966 994 966 1197 Q966 1429 855 1546 Q758 1648 587 1648 Q393 1648 296 1517 Q211 1402 211 1200 Q211 967 322 849 Q420 746 590 746 Z " />
<glyph glyph-name="trademark" unicode="&#x2122;" horiz-adv-x="1619" d="M76 1475 L690 1475 L690 1241 L535 1241 L535 1348 L465 1348 L465 903 L562 903 L562 767 L204 767 L204 903 L300 903 L300 1348 L231 1348 L231 1241 L76 1241 L76 1475 Z M1569 903 L1569 767 L1311 767 L1311 903 L1379 903 L1378 1408 L1378 1363 L1231 767 L1098 767 L954 1331 L951 903 L1020 903 L1020 767 L763 767 L763 903 L810 903 L820 1339 L751 1339 L751 1475 L1075 1475 L1167 1058 L1249 1475 L1567 1475 L1567 1339 L1510 1339 L1520 903 L1569 903 Z " />
<glyph glyph-name="acute" unicode="&#xb4;" horiz-adv-x="800" d="M172 1137 L352 1507 L627 1507 L364 1137 L172 1137 Z " />
<glyph glyph-name="dieresis" unicode="&#xa8;" horiz-adv-x="800" d="M102 1166 L102 1413 L331 1413 L331 1166 L102 1166 Z M469 1166 L469 1413 L698 1413 L698 1166 L469 1166 Z " />
<glyph glyph-name="notequal" unicode="&#x2260;" horiz-adv-x="1078" d="M240 261 L312 425 L150 425 L150 652 L412 652 L484 815 L150 815 L150 1042 L584 1042 L697 1298 L869 1206 L796 1042 L928 1042 L928 815 L695 815 L622 652 L928 652 L928 425 L521 425 L415 187 L240 261 Z " />
<glyph glyph-name="AE" unicode="&#xc6;" horiz-adv-x="1778" d="M1693 437 L1693 0 L731 0 L731 211 L875 211 L875 475 L489 475 L378 207 L535 207 L535 0 L1 0 L1 211 L108 211 L563 1264 L372 1264 L372 1475 L1687 1475 L1687 1090 L1442 1090 L1442 1264 L1130 1264 L1130 864 L1463 864 L1463 653 L1130 653 L1130 211 L1452 211 L1452 437 L1693 437 Z M875 677 L875 1264 L817 1264 L573 677 L875 677 Z " />
<glyph glyph-name="Oslash" unicode="&#xd8;" horiz-adv-x="1312" d="M436 7 L399 -77 L204 -77 L285 107 Q189 205 145.5 349 Q102 493 95 733 Q95 1137 258 1334 Q400 1506 657 1506 Q790 1501 879 1465 L917 1552 L1112 1552 L1029 1363 Q1123 1267 1166.5 1122.5 Q1210 978 1217 738 Q1217 337 1053 141 Q910 -31 653 -31 Q526 -28 436 7 Z M539 243 Q587 214 656 212 Q933 212 933 729 Q929 928 893 1051 L539 243 Z M775 1228 Q728 1258 657 1263 Q513 1263 441 1107 Q379 971 379 728 Q383 529 419 414 L775 1228 Z " />
<glyph glyph-name="infinity" unicode="&#x221e;" horiz-adv-x="1469" d="M734 572 Q600 374 419 374 Q260 374 178 484 Q110 574 110 716 Q110 881 199 974 Q280 1059 419 1059 Q600 1059 734 861 Q797 962 860 1005 Q938 1059 1049 1059 Q1208 1059 1290 950 Q1358 859 1358 716 Q1358 553 1269 460 Q1186 374 1049 374 Q954 374 880.5 420 Q807 466 734 572 Z M644 717 L628 736 Q561 818 517.5 850.5 Q474 883 433 883 Q374 883 337 836.5 Q300 790 300 717 Q300 637 342 590 Q378 550 433 550 Q474 550 510.5 577.5 Q547 605 626 696 L644 717 Z M823 717 L841 696 Q847 689 869 663 Q926 594 958.5 572 Q991 550 1034 550 Q1094 550 1131 596 Q1168 642 1168 717 Q1168 792 1131 837.5 Q1094 883 1034 883 Q994 883 952 851.5 Q910 820 839 736 L823 717 Z " />
<glyph glyph-name="plusminus" unicode="&#xb1;" horiz-adv-x="1078" d="M194 723 L194 950 L459 950 L459 1233 L686 1233 L686 950 L952 950 L952 723 L686 723 L686 444 L459 444 L459 723 L194 723 Z M194 0 L194 227 L952 227 L952 0 L194 0 Z " />
<glyph glyph-name="lessequal" unicode="&#x2264;" horiz-adv-x="1078" d="M892 383 L190 772 L190 937 L892 1306 L892 1039 L499 853 L892 650 L892 383 Z M922 227 L922 0 L164 0 L164 227 L922 227 Z " />
<glyph glyph-name="greaterequal" unicode="&#x2265;" horiz-adv-x="1078" d="M926 772 L224 383 L224 650 L617 853 L224 1039 L224 1306 L926 937 L926 772 Z M952 227 L952 0 L194 0 L194 227 L952 227 Z " />
<glyph glyph-name="yen" unicode="&#xa5;" horiz-adv-x="1078" d="M993 1264 L725 753 L938 753 L938 609 L659 609 L659 507 L938 507 L938 363 L659 363 L659 211 L813 211 L813 0 L260 0 L260 211 L414 211 L414 363 L135 363 L135 507 L414 507 L414 609 L135 609 L135 753 L352 753 L87 1264 L-9 1264 L-9 1475 L507 1475 L507 1264 L362 1264 L544 835 L734 1264 L588 1264 L588 1475 L1089 1475 L1089 1264 L993 1264 Z " />
<glyph glyph-name="mu" unicode="&#xb5;" horiz-adv-x="1121" d="M1078 215 L1078 0 L757 0 L753 150 Q705 65 638.5 18.5 Q572 -28 498 -28 Q452 -28 415 -10 L415 -213 L599 -213 L599 -422 L56 -422 L56 -213 L170 -213 L170 784 L63 784 L58 999 L425 999 L425 362 Q425 273 448 240 Q472 206 533 206 Q633 206 707 306 L707 784 L596 784 L596 999 L967 999 L967 215 L1078 215 Z " />
<glyph glyph-name="partialdiff" unicode="&#x2202;" horiz-adv-x="1041" d="M354 1517 Q952 1228 952 566 Q952 284 872 157 Q754 -29 509 -29 Q280 -29 163 128 Q64 260 64 477 Q64 732 184 864 Q294 985 491 985 Q604 985 664 922 Q574 1177 245 1342 L354 1517 Z M506 195 Q687 195 687 489 Q687 636 634 712 Q588 778 507 778 Q334 778 334 481 Q334 341 382 265 Q427 195 506 195 Z " />
<glyph glyph-name="summation" unicode="&#x2211;" horiz-adv-x="1215" d="M73 -146 L520 645 L94 1366 L94 1572 L1133 1572 L1133 1160 L888 1160 L888 1361 L399 1361 L824 647 L374 -145 L910 -145 L910 85 L1155 85 L1155 -356 L73 -356 L73 -146 Z " />
<glyph glyph-name="product" unicode="&#x220f;" horiz-adv-x="1430" d="M79 -141 L220 -141 L220 1357 L79 1357 L79 1572 L1351 1572 L1351 1357 L1210 1357 L1210 -141 L1351 -141 L1351 -356 L808 -356 L808 -141 L940 -141 L940 1357 L490 1357 L490 -141 L631 -141 L631 -356 L79 -356 L79 -141 Z " />
<glyph glyph-name="integral" unicode="&#x222b;" horiz-adv-x="877" d="M110 -127 Q164 -150 201 -150 Q271 -150 295 -86 Q314 -34 314 90 L314 1071 Q314 1375 382 1477 Q449 1577 624 1577 Q701 1577 811 1548 L765 1342 Q714 1367 673 1367 Q601 1367 580 1322 Q561 1281 561 1160 L561 155 Q561 -24 548.5 -112.5 Q536 -201 502 -254 Q435 -360 233 -360 Q151 -360 64 -333 L110 -127 Z " />
<glyph glyph-name="ordfeminine" unicode="&#xaa;" horiz-adv-x="739" d="M276 804 Q67 804 67 1012 Q67 1219 323 1219 Q340 1219 370 1218 Q403 1216 439 1215 L439 1245 Q439 1294 412 1312.5 Q385 1331 314 1331 Q243 1331 163 1297 L115 1468 Q225 1506 329 1506 Q508 1506 573 1429 Q629 1363 629 1204 L629 986 L701 986 L701 821 L463 821 L463 894 Q425 844 383.5 824 Q342 804 276 804 Z M335 947 Q382 947 410.5 973 Q439 999 439 1042 L439 1094 Q372 1099 334 1099 Q266 1099 266 1025 Q266 947 335 947 Z " />
<glyph glyph-name="ordmasculine" unicode="&#xba;" horiz-adv-x="781" d="M392 801 Q232 801 146 906 Q68 1000 68 1158 Q68 1329 170 1425 Q257 1506 391 1506 Q547 1506 635 1401 Q713 1307 713 1153 Q713 978 612 882 Q527 801 392 801 Z M391 971 Q506 971 506 1153 Q506 1244 470 1293 Q440 1335 390 1335 Q336 1335 305.5 1287.5 Q275 1240 275 1156 Q275 971 391 971 Z " />
<glyph glyph-name="Omega" unicode="&#x2126;" horiz-adv-x="1397" d="M1350 355 L1350 0 L773 0 L773 355 Q868 383 934 507 Q1003 637 1003 829 Q1003 1043 911 1160 Q831 1263 698 1263 Q546 1263 464 1130 Q393 1015 393 829 Q393 612 480 476 Q542 380 623 355 L623 0 L46 0 L46 355 L228 355 L228 201 L451 201 Q121 374 121 848 Q121 1189 297 1361 Q446 1506 698 1506 Q987 1506 1139 1317 Q1275 1147 1275 848 Q1275 372 941 201 L1168 201 L1168 355 L1350 355 Z " />
<glyph glyph-name="ae" unicode="&#xe6;" horiz-adv-x="1556" d="M404 -29 Q231 -29 143 65 Q66 148 66 295 Q66 465 171 538 Q259 600 427 600 L641 600 L641 668 Q641 754 609.5 790 Q578 826 502 826 Q437 826 409 798 Q381 770 380 706 L123 706 Q125 881 225 958 Q314 1026 494 1026 Q618 1026 686 997 Q755 968 790 900 Q875 1028 1070 1028 Q1302 1028 1403 856 Q1490 708 1489 417 L890 417 Q893 300 962 243 Q1021 194 1122 194 Q1253 194 1357 269 L1466 80 Q1324 -29 1114 -29 Q846 -29 761 142 Q725 52 616 7 Q527 -29 404 -29 Z M1239 594 Q1234 706 1185 762 Q1141 812 1069 812 Q987 812 939.5 754.5 Q892 697 888 594 L1239 594 Z M463 175 Q580 175 621 243 Q641 275 641 327 L641 432 L489 432 Q406 432 368.5 401 Q331 370 331 302 Q331 175 463 175 Z " />
<glyph glyph-name="oslash" unicode="&#xf8;" horiz-adv-x="1033" d="M826 910 Q961 770 961 495 Q961 230 827 91 Q711 -29 517 -29 Q411 -29 328 5 L290 -64 L142 -64 L217 76 Q72 212 72 497 Q72 765 202 905 Q317 1028 515 1028 Q625 1028 710 990 L752 1068 L913 1068 L826 910 Z M333 497 Q333 393 352 326 L604 794 Q566 823 515 823 Q420 823 373 727 Q333 644 333 497 Z M516 176 Q700 176 700 496 Q700 588 684 652 L434 198 Q468 176 516 176 Z " />
<glyph glyph-name="questiondown" unicode="&#xbf;" horiz-adv-x="1058" d="M683 1133 L406 1133 L406 1427 L683 1427 L683 1133 Z M955 263 Q963 44 866 -77 Q760 -211 536 -211 Q326 -211 215 -88 Q115 22 115 214 Q115 400 214 518 Q292 611 424 653 L424 970 L667 970 L667 490 Q498 461 438 388 Q388 329 388 212 Q388 18 543 18 Q622 18 659 77 Q696 136 697 263 L955 263 Z " />
<glyph glyph-name="exclamdown" unicode="&#xa1;" horiz-adv-x="693" d="M486 1133 L209 1133 L209 1427 L486 1427 L486 1133 Z M498 -199 L195 -199 L229 970 L464 970 L498 -199 Z " />
<glyph glyph-name="logicalnot" unicode="&#xac;" horiz-adv-x="1078" d="M122 632 L122 849 L901 849 L901 280 L673 280 L673 632 L122 632 Z " />
<glyph glyph-name="radical" unicode="&#x221a;" horiz-adv-x="1303" d="M422 0 L231 576 L84 576 L84 787 L425 787 L568 282 L1016 1839 L1607 1839 L1607 1626 L1211 1626 L720 0 L422 0 Z " />
<glyph glyph-name="florin" unicode="&#x192;" horiz-adv-x="1078" d="M814 1295 Q761 1295 735 1249.5 Q709 1204 698 1095 L679 900 L899 900 L899 694 L658 694 L604 150 Q579 -108 509 -211 Q431 -326 266 -326 Q175 -326 52 -282 L79 -68 Q159 -101 209 -101 Q275 -101 308 -32.5 Q341 36 358 206 L405 694 L215 694 L215 900 L425 900 L444 1095 Q467 1331 547 1423 Q620 1506 765 1506 Q860 1506 983 1455 L945 1266 Q866 1295 814 1295 Z " />
<glyph glyph-name="approxequal" unicode="&#x2248;" horiz-adv-x="1078" d="M703 734 Q650 734 611.5 749 Q573 764 495 814 Q414 866 378 866 Q337 866 303.5 842.5 Q270 819 214 750 L91 900 Q177 1007 241 1050 Q305 1093 378 1093 Q422 1093 453 1079.5 Q484 1066 543 1022 Q598 981 625.5 969.5 Q653 958 698 958 Q764 958 863 1077 L987 928 Q905 824 839 779 Q773 734 703 734 Z M703 339 Q652 339 616 352.5 Q580 366 503 415 Q492 422 473 435 Q418 471 378 471 Q337 471 303 447.5 Q269 424 215 356 L91 506 Q178 613 241.5 656 Q305 699 377 699 Q418 699 453.5 684 Q489 669 554 625 Q608 588 636.5 576 Q665 564 698 564 Q760 564 864 673 L987 534 Q903 428 838 383.5 Q773 339 703 339 Z " />
<glyph glyph-name="increment" unicode="&#x2206;" horiz-adv-x="1290" d="M1275 0 L15 0 L510 1475 L781 1475 L1275 0 Z M917 223 L645 1207 L373 223 L917 223 Z " />
<glyph glyph-name="guillemotleft" unicode="&#xab;" horiz-adv-x="1011" d="M336 479 L552 118 L316 118 L102 479 L316 841 L552 841 L336 479 Z M672 479 L888 118 L652 118 L438 479 L652 841 L888 841 L672 479 Z " />
<glyph glyph-name="guillemotright" unicode="&#xbb;" horiz-adv-x="1022" d="M330 479 L114 841 L350 841 L564 479 L350 118 L114 118 L330 479 Z M667 479 L450 841 L687 841 L900 479 L687 118 L450 118 L667 479 Z " />
<glyph glyph-name="ellipsis" unicode="&#x2026;" horiz-adv-x="1533" d="M128 0 L128 297 L405 297 L405 0 L128 0 Z M628 0 L628 297 L905 297 L905 0 L628 0 Z M1128 0 L1128 297 L1405 297 L1405 0 L1128 0 Z " />
<glyph glyph-name="Agrave" unicode="&#xc0;" horiz-adv-x="1284" d="M1258 211 L1258 0 L767 0 L767 211 L898 211 L841 429 L434 429 L375 211 L518 211 L518 0 L20 0 L20 211 L110 211 L492 1475 L782 1475 L1164 211 L1258 211 Z M485 636 L790 636 L641 1188 L630 1188 L485 636 Z M307 1983 L582 1983 L762 1613 L570 1613 L307 1983 Z " />
<glyph glyph-name="Atilde" unicode="&#xc3;" horiz-adv-x="1284" d="M1258 211 L1258 0 L767 0 L767 211 L898 211 L841 429 L434 429 L375 211 L518 211 L518 0 L20 0 L20 211 L110 211 L492 1475 L782 1475 L1164 211 L1258 211 Z M485 636 L790 636 L641 1188 L630 1188 L485 636 Z M297 1641 Q313 1886 511 1886 Q569 1886 664 1837 Q715 1810 746 1810 Q803 1810 803 1885 L969 1885 Q959 1635 745 1635 Q681 1635 594 1680 Q547 1705 520 1705 Q496 1705 481 1687.5 Q466 1670 466 1641 L297 1641 Z " />
<glyph glyph-name="Otilde" unicode="&#xd5;" horiz-adv-x="1312" d="M653 -31 Q360 -31 219 190 Q95 382 95 733 Q95 1137 258 1334 Q400 1506 657 1506 Q949 1506 1092 1283 Q1217 1088 1217 738 Q1217 337 1053 141 Q910 -31 653 -31 Z M656 212 Q933 212 933 729 Q933 1007 853 1144 Q782 1263 657 1263 Q513 1263 441 1107 Q379 971 379 728 Q379 212 656 212 Z M323 1641 Q339 1886 537 1886 Q595 1886 690 1837 Q741 1810 772 1810 Q829 1810 829 1885 L995 1885 Q985 1635 771 1635 Q707 1635 620 1680 Q573 1705 546 1705 Q522 1705 507 1687.5 Q492 1670 492 1641 L323 1641 Z " />
<glyph glyph-name="OE" unicode="&#x152;" horiz-adv-x="1756" d="M1671 437 L1671 0 L956 0 Q845 -16 730 -16 Q381 -16 222 194 Q83 377 83 728 Q83 1126 274 1326 Q437 1497 711 1497 Q847 1497 950 1475 L1665 1475 L1665 1086 L1420 1086 L1420 1260 L1108 1260 L1108 864 L1441 864 L1441 649 L1108 649 L1108 215 L1430 215 L1430 437 L1671 437 Z M727 218 Q782 218 847 228 L847 1251 Q789 1266 718 1266 Q363 1266 363 736 Q363 444 466 322 Q552 218 727 218 Z " />
<glyph glyph-name="oe" unicode="&#x153;" horiz-adv-x="1621" d="M523 -29 Q294 -29 174 134 Q72 272 72 497 Q72 765 203 905 Q320 1028 521 1028 Q723 1028 824 878 Q924 1028 1135 1028 Q1366 1028 1468 852 Q1555 702 1554 413 L960 413 Q981 196 1187 196 Q1307 196 1415 270 L1524 81 Q1374 -29 1160 -29 Q936 -29 832 118 Q727 -29 523 -29 Z M1304 594 Q1299 708 1250 767 Q1206 820 1135 820 Q1057 820 1009.5 759.5 Q962 699 958 594 L1304 594 Z M523 195 Q711 195 711 496 Q711 654 657 733 Q609 804 523 804 Q342 804 342 497 Q342 195 523 195 Z " />
<glyph glyph-name="endash" unicode="&#x2013;" horiz-adv-x="1024" d="M82 459 L82 683 L942 683 L942 459 L82 459 Z " />
<glyph glyph-name="emdash" unicode="&#x2014;" horiz-adv-x="1438" d="M84 459 L84 683 L1354 683 L1354 459 L84 459 Z " />
<glyph glyph-name="quotedblleft" unicode="&#x201c;" horiz-adv-x="997" d="M503 1475 L373 958 L88 958 L261 1475 L503 1475 Z M862 1475 L732 958 L447 958 L620 1475 L862 1475 Z " />
<glyph glyph-name="quotedblright" unicode="&#x201d;" horiz-adv-x="957" d="M78 958 L208 1475 L493 1475 L320 958 L78 958 Z M437 958 L567 1475 L852 1475 L679 958 L437 958 Z " />
<glyph glyph-name="quoteleft" unicode="&#x2018;" horiz-adv-x="638" d="M503 1475 L373 958 L88 958 L261 1475 L503 1475 Z " />
<glyph glyph-name="quoteright" unicode="&#x2019;" horiz-adv-x="598" d="M78 958 L208 1475 L493 1475 L320 958 L78 958 Z " />
<glyph glyph-name="divide" unicode="&#xf7;" horiz-adv-x="1078" d="M414 990 L414 1260 L664 1260 L664 990 L414 990 Z M140 622 L140 849 L938 849 L938 622 L140 622 Z M414 219 L414 489 L664 489 L664 219 L414 219 Z " />
<glyph glyph-name="lozenge" unicode="&#x25ca;" horiz-adv-x="1017" d="M-18 704 L508 1452 L1035 704 L508 -44 L-18 704 Z M284 704 L508 341 L733 704 L508 1067 L284 704 Z " />
<glyph glyph-name="ydieresis" unicode="&#xff;" horiz-adv-x="976" d="M984 788 L900 788 L587 -58 Q538 -191 498.5 -257.5 Q459 -324 409 -360 Q323 -420 121 -422 L121 -197 Q218 -195 260 -171 Q306 -145 334 -75 L366 7 L83 788 L-6 788 L-6 999 L443 999 L443 792 L338 792 L447 410 Q462 355 484 293 Q488 280 490 274 L495 274 Q497 282 507 314 Q524 362 536 405 L649 792 L544 792 L544 999 L984 999 L984 788 Z M191 1166 L191 1413 L420 1413 L420 1166 L191 1166 Z M558 1166 L558 1413 L787 1413 L787 1166 L558 1166 Z " />
<glyph glyph-name="Ydieresis" unicode="&#x178;" horiz-adv-x="1197" d="M731 619 L731 211 L885 211 L885 0 L312 0 L312 211 L466 211 L466 624 L103 1264 L-7 1264 L-7 1475 L535 1475 L535 1264 L397 1264 L612 835 L827 1264 L686 1264 L686 1475 L1201 1475 L1201 1264 L1092 1264 L731 619 Z M311 1642 L311 1889 L540 1889 L540 1642 L311 1642 Z M678 1642 L678 1889 L907 1889 L907 1642 L678 1642 Z " />
<glyph glyph-name="fraction" unicode="&#x2044;" horiz-adv-x="418" d="M-217 0 L420 1470 L620 1470 L-17 0 L-217 0 Z " />
<glyph glyph-name="Euro" unicode="&#x20ac;" horiz-adv-x="1078" d="M1066 136 Q898 -31 654 -31 Q205 -31 140 507 L35 507 L35 662 L130 662 Q129 680 129 716 Q129 755 130 774 L35 774 L35 928 L141 928 Q177 1226 315 1373 Q435 1501 619 1501 Q768 1501 846 1405 L845 1475 L1042 1475 L1042 1070 L835 1070 Q835 1281 666 1281 Q452 1281 404 928 L874 928 L874 774 L393 774 Q392 759 392 727 Q392 683 393 662 L787 662 L787 507 L407 507 Q454 204 674 204 Q820 204 931 315 L1066 136 Z " />
<glyph glyph-name="guilsinglleft" unicode="&#x2039;" horiz-adv-x="675" d="M336 479 L552 118 L316 118 L102 479 L316 841 L552 841 L336 479 Z " />
<glyph glyph-name="guilsinglright" unicode="&#x203a;" horiz-adv-x="686" d="M330 479 L114 844 L350 844 L564 479 L350 118 L114 118 L330 479 Z " />
<glyph glyph-name="fi" unicode="&#xfb01;" horiz-adv-x="1296" d="M69 0 L69 211 L182 211 L182 788 L69 788 L69 989 L182 997 L182 1092 Q182 1309 269 1403 Q353 1494 532 1494 Q612 1494 696 1479 L674 1273 Q623 1277 582 1277 Q495 1277 459.5 1238 Q424 1199 424 1102 L424 999 L640 999 L640 788 L429 788 L429 211 L617 211 L617 0 L69 0 Z M870 1414 L1137 1414 L1137 1137 L870 1137 L870 1414 Z M771 211 L882 211 L882 788 L771 788 L771 999 L1142 999 L1142 211 L1253 211 L1253 0 L771 0 L771 211 Z " />
<glyph glyph-name="fl" unicode="&#xfb02;" horiz-adv-x="1308" d="M69 0 L69 211 L182 211 L182 788 L69 788 L69 989 L182 997 L182 1092 Q182 1309 269 1403 Q353 1494 532 1494 Q612 1494 696 1479 L674 1273 Q623 1277 582 1277 Q495 1277 459.5 1238 Q424 1199 424 1102 L424 999 L640 999 L640 788 L429 788 L429 211 L617 211 L617 0 L69 0 Z M780 215 L891 215 L891 1260 L767 1260 L767 1475 L1144 1475 L1144 215 L1255 215 L1255 0 L780 0 L780 215 Z " />
<glyph glyph-name="daggerdbl" unicode="&#x2021;" horiz-adv-x="1077" d="M423 906 L156 906 L156 1112 L423 1112 L423 1508 L654 1508 L654 1112 L921 1112 L921 907 L654 907 L654 434 L921 434 L921 220 L654 220 L654 -168 L423 -168 L423 222 L156 222 L156 436 L423 436 L423 906 Z " />
<glyph glyph-name="periodcentered" unicode="&#xb7;" horiz-adv-x="574" d="M148 422 L148 719 L425 719 L425 422 L148 422 Z " />
<glyph glyph-name="quotesinglbase" unicode="&#x201a;" horiz-adv-x="679" d="M126 -222 L256 295 L541 295 L368 -222 L126 -222 Z " />
<glyph glyph-name="quotedblbase" unicode="&#x201e;" horiz-adv-x="1038" d="M126 -222 L256 295 L541 295 L368 -222 L126 -222 Z M485 -222 L615 295 L900 295 L727 -222 L485 -222 Z " />
<glyph glyph-name="perthousand" unicode="&#x2030;" horiz-adv-x="2181" d="M55 1138 Q55 1324 143 1418 Q221 1500 356 1500 Q511 1500 590 1393 Q658 1301 658 1139 Q658 954 569 861 Q491 779 355 779 Q200 779 123 884 Q55 976 55 1138 Z M461 1138 Q461 1337 356 1337 Q252 1337 252 1137 Q252 942 356 942 Q461 942 461 1138 Z M850 335 Q850 521 938 615 Q1015 697 1151 697 Q1306 697 1385 590 Q1453 498 1453 336 Q1453 149 1364 56 Q1287 -24 1150 -24 Q995 -24 918 81 Q850 173 850 335 Z M1256 335 Q1256 534 1151 534 Q1047 534 1047 334 Q1047 139 1151 139 Q1256 139 1256 335 Z M1532 335 Q1532 521 1620 615 Q1698 697 1833 697 Q1988 697 2067 590 Q2135 498 2135 336 Q2135 149 2046 56 Q1969 -24 1832 -24 Q1677 -24 1600 81 Q1532 174 1532 335 Z M1938 335 Q1938 534 1833 534 Q1729 534 1729 334 Q1729 139 1833 139 Q1938 139 1938 335 Z M976 1470 L1176 1470 L539 0 L339 0 L976 1470 Z " />
<glyph glyph-name="Acircumflex" unicode="&#xc2;" horiz-adv-x="1284" d="M1258 211 L1258 0 L767 0 L767 211 L898 211 L841 429 L434 429 L375 211 L518 211 L518 0 L20 0 L20 211 L110 211 L492 1475 L782 1475 L1164 211 L1258 211 Z M485 636 L790 636 L641 1188 L630 1188 L485 636 Z M631 1810 L487 1613 L306 1613 L513 1963 L750 1963 L956 1613 L777 1613 L631 1810 Z " />
<glyph glyph-name="Ecircumflex" unicode="&#xca;" horiz-adv-x="1153" d="M1068 437 L1068 0 L87 0 L87 211 L211 211 L211 1264 L87 1264 L87 1475 L1037 1475 L1037 1086 L792 1086 L792 1264 L474 1264 L474 864 L825 864 L825 653 L474 653 L474 211 L827 211 L827 437 L1068 437 Z M594 1810 L450 1613 L269 1613 L476 1963 L713 1963 L919 1613 L740 1613 L594 1810 Z " />
<glyph glyph-name="Aacute" unicode="&#xc1;" horiz-adv-x="1284" d="M1258 211 L1258 0 L767 0 L767 211 L898 211 L841 429 L434 429 L375 211 L518 211 L518 0 L20 0 L20 211 L110 211 L492 1475 L782 1475 L1164 211 L1258 211 Z M485 636 L790 636 L641 1188 L630 1188 L485 636 Z M501 1613 L681 1983 L956 1983 L693 1613 L501 1613 Z " />
<glyph glyph-name="Edieresis" unicode="&#xcb;" horiz-adv-x="1153" d="M1068 437 L1068 0 L87 0 L87 211 L211 211 L211 1264 L87 1264 L87 1475 L1037 1475 L1037 1086 L792 1086 L792 1264 L474 1264 L474 864 L825 864 L825 653 L474 653 L474 211 L827 211 L827 437 L1068 437 Z M297 1642 L297 1889 L526 1889 L526 1642 L297 1642 Z M664 1642 L664 1889 L893 1889 L893 1642 L664 1642 Z " />
<glyph glyph-name="Egrave" unicode="&#xc8;" horiz-adv-x="1153" d="M1068 437 L1068 0 L87 0 L87 211 L211 211 L211 1264 L87 1264 L87 1475 L1037 1475 L1037 1086 L792 1086 L792 1264 L474 1264 L474 864 L825 864 L825 653 L474 653 L474 211 L827 211 L827 437 L1068 437 Z M270 1983 L545 1983 L725 1613 L533 1613 L270 1983 Z " />
<glyph glyph-name="Iacute" unicode="&#xcd;" horiz-adv-x="688" d="M601 211 L601 0 L87 0 L87 211 L211 211 L211 1264 L87 1264 L87 1475 L601 1475 L601 1264 L477 1264 L477 211 L601 211 Z M215 1613 L365 1983 L630 1983 L407 1613 L215 1613 Z " />
<glyph glyph-name="Icircumflex" unicode="&#xce;" horiz-adv-x="688" d="M601 211 L601 0 L87 0 L87 211 L211 211 L211 1264 L87 1264 L87 1475 L601 1475 L601 1264 L477 1264 L477 211 L601 211 Z M351 1810 L207 1613 L26 1613 L233 1963 L470 1963 L676 1613 L497 1613 L351 1810 Z " />
<glyph glyph-name="Idieresis" unicode="&#xcf;" horiz-adv-x="688" d="M601 211 L601 0 L87 0 L87 211 L211 211 L211 1264 L87 1264 L87 1475 L601 1475 L601 1264 L477 1264 L477 211 L601 211 Z M54 1642 L54 1889 L283 1889 L283 1642 L54 1642 Z M409 1642 L409 1889 L638 1889 L638 1642 L409 1642 Z " />
<glyph glyph-name="Igrave" unicode="&#xcc;" horiz-adv-x="688" d="M601 211 L601 0 L87 0 L87 211 L211 211 L211 1264 L87 1264 L87 1475 L601 1475 L601 1264 L477 1264 L477 211 L601 211 Z M21 1983 L296 1983 L476 1613 L284 1613 L21 1983 Z " />
<glyph glyph-name="Oacute" unicode="&#xd3;" horiz-adv-x="1312" d="M653 -31 Q360 -31 219 190 Q95 382 95 733 Q95 1137 258 1334 Q400 1506 657 1506 Q949 1506 1092 1283 Q1217 1088 1217 738 Q1217 337 1053 141 Q910 -31 653 -31 Z M656 212 Q933 212 933 729 Q933 1007 853 1144 Q782 1263 657 1263 Q513 1263 441 1107 Q379 971 379 728 Q379 212 656 212 Z M527 1613 L707 1983 L982 1983 L719 1613 L527 1613 Z " />
<glyph glyph-name="Ocircumflex" unicode="&#xd4;" horiz-adv-x="1312" d="M653 -31 Q360 -31 219 190 Q95 382 95 733 Q95 1137 258 1334 Q400 1506 657 1506 Q949 1506 1092 1283 Q1217 1088 1217 738 Q1217 337 1053 141 Q910 -31 653 -31 Z M656 212 Q933 212 933 729 Q933 1007 853 1144 Q782 1263 657 1263 Q513 1263 441 1107 Q379 971 379 728 Q379 212 656 212 Z M657 1810 L513 1613 L332 1613 L539 1963 L776 1963 L982 1613 L803 1613 L657 1810 Z " />
<glyph glyph-name="Ograve" unicode="&#xd2;" horiz-adv-x="1312" d="M653 -31 Q360 -31 219 190 Q95 382 95 733 Q95 1137 258 1334 Q400 1506 657 1506 Q949 1506 1092 1283 Q1217 1088 1217 738 Q1217 337 1053 141 Q910 -31 653 -31 Z M656 212 Q933 212 933 729 Q933 1007 853 1144 Q782 1263 657 1263 Q513 1263 441 1107 Q379 971 379 728 Q379 212 656 212 Z M333 1983 L608 1983 L788 1613 L596 1613 L333 1983 Z " />
<glyph glyph-name="Uacute" unicode="&#xda;" horiz-adv-x="1331" d="M659 -31 Q371 -31 257 152 Q213 222 194.5 331 Q176 440 176 628 L176 1260 L52 1260 L52 1475 L569 1475 L569 1260 L445 1260 L445 579 Q445 355 500 275 Q548 204 664 204 Q796 204 844 299 Q886 382 886 579 L886 1260 L761 1260 L761 1475 L1279 1475 L1279 1260 L1155 1260 L1155 628 Q1155 376 1114 246 Q1075 123 986 59 Q861 -31 659 -31 Z M533 1613 L713 1983 L988 1983 L725 1613 L533 1613 Z " />
<glyph glyph-name="Ucircumflex" unicode="&#xdb;" horiz-adv-x="1331" d="M659 -31 Q371 -31 257 152 Q213 222 194.5 331 Q176 440 176 628 L176 1260 L52 1260 L52 1475 L569 1475 L569 1260 L445 1260 L445 579 Q445 355 500 275 Q548 204 664 204 Q796 204 844 299 Q886 382 886 579 L886 1260 L761 1260 L761 1475 L1279 1475 L1279 1260 L1155 1260 L1155 628 Q1155 376 1114 246 Q1075 123 986 59 Q861 -31 659 -31 Z M663 1810 L519 1613 L338 1613 L545 1963 L782 1963 L988 1613 L809 1613 L663 1810 Z " />
<glyph glyph-name="Ugrave" unicode="&#xd9;" horiz-adv-x="1331" d="M659 -31 Q371 -31 257 152 Q213 222 194.5 331 Q176 440 176 628 L176 1260 L52 1260 L52 1475 L569 1475 L569 1260 L445 1260 L445 579 Q445 355 500 275 Q548 204 664 204 Q796 204 844 299 Q886 382 886 579 L886 1260 L761 1260 L761 1475 L1279 1475 L1279 1260 L1155 1260 L1155 628 Q1155 376 1114 246 Q1075 123 986 59 Q861 -31 659 -31 Z M339 1983 L614 1983 L794 1613 L602 1613 L339 1983 Z " />
<glyph glyph-name="dotlessi" unicode="&#x131;" horiz-adv-x="597" d="M75 211 L186 211 L186 788 L75 788 L75 999 L446 999 L446 211 L557 211 L557 0 L75 0 L75 211 Z " />
<glyph glyph-name="circumflex" unicode="&#x2c6;" horiz-adv-x="800" d="M400 1334 L256 1137 L75 1137 L282 1487 L519 1487 L725 1137 L546 1137 L400 1334 Z " />
<glyph glyph-name="tilde" unicode="&#x2dc;" horiz-adv-x="800" d="M64 1165 Q80 1410 278 1410 Q336 1410 431 1361 Q482 1334 513 1334 Q570 1334 570 1409 L736 1409 Q726 1159 512 1159 Q448 1159 361 1204 Q314 1229 287 1229 Q263 1229 248 1211.5 Q233 1194 233 1165 L64 1165 Z " />
<glyph glyph-name="overscore" unicode="&#xaf;" horiz-adv-x="800" d="M123 1198 L123 1393 L677 1393 L677 1198 L123 1198 Z " />
<glyph glyph-name="breve" unicode="&#x2d8;" horiz-adv-x="800" d="M224 1463 Q231 1389 272.5 1355.5 Q314 1322 400 1322 Q486 1322 528.5 1356 Q571 1390 576 1463 L754 1463 Q747 1129 400 1129 Q53 1129 46 1463 L224 1463 Z " />
<glyph glyph-name="dotaccent" unicode="&#x2d9;" horiz-adv-x="800" d="M262 1419 L539 1419 L539 1136 L262 1136 L262 1419 Z " />
<glyph glyph-name="ring" unicode="&#x2da;" horiz-adv-x="800" d="M399 1571 Q517 1571 580 1497 Q632 1437 632 1344 Q632 1236 565 1174 Q503 1117 400 1117 Q282 1117 219 1191 Q167 1252 167 1347 Q167 1451 236 1514 Q298 1571 399 1571 Z M399 1448 Q304 1448 304 1345 Q304 1240 399 1240 Q494 1240 494 1344 Q494 1448 399 1448 Z " />
<glyph glyph-name="cedilla" unicode="&#xb8;" horiz-adv-x="800" d="M431 -107 Q635 -97 635 -277 Q635 -497 381 -497 Q264 -497 165 -447 L165 -290 Q271 -336 350 -336 Q446 -336 446 -269 Q446 -209 380 -209 Q346 -209 298 -226 L282 -126 L341 0 L482 0 L431 -107 Z " />
<glyph glyph-name="hungarumlaut" unicode="&#x2dd;" horiz-adv-x="800" d="M45 1137 L188 1487 L418 1487 L188 1137 L45 1137 Z M344 1137 L516 1487 L756 1487 L490 1137 L344 1137 Z " />
<glyph glyph-name="ogonek" unicode="&#x2db;" horiz-adv-x="800" d="M582 0 Q485 -81 450.5 -127 Q416 -173 416 -222 Q416 -294 488 -294 L585 -294 L585 -459 L476 -459 Q332 -459 270 -408 Q215 -362 215 -272 Q215 -197 256 -141 Q297 -85 415 0 L582 0 Z " />
<glyph glyph-name="caron" unicode="&#x2c7;" horiz-adv-x="800" d="M725 1487 L519 1137 L282 1137 L75 1487 L256 1487 L400 1290 L546 1487 L725 1487 Z " />
<glyph glyph-name="nbspace" unicode="&#xa0;" horiz-adv-x="374" d="" />
<glyph glyph-name="currency" unicode="&#xa4;" horiz-adv-x="1083" d="M913 705 Q913 556 848 456 L1015 266 L885 143 L711 338 Q634 304 538 304 Q446 304 373 336 L204 143 L60 269 L228 461 Q167 560 167 705 Q167 826 210 918 L43 1108 L170 1236 L332 1055 Q417 1108 535 1108 Q660 1108 748 1052 L906 1236 L1040 1106 L870 914 Q913 823 913 705 Z M537 492 Q624 492 672 557 Q714 613 714 704 Q714 806 660 863 Q612 912 537 912 Q453 912 406 848 Q366 793 366 704 Q366 600 418 542 Q464 492 537 492 Z " />
<glyph glyph-name="brokenbar" unicode="&#xa6;" horiz-adv-x="824" d="M292 843 L292 1467 L533 1467 L533 843 L292 843 Z M292 0 L292 624 L533 624 L533 0 L292 0 Z " />
<glyph glyph-name="uni00AD" unicode="&#xad;" horiz-adv-x="716" d="M84 459 L84 683 L632 683 L632 459 L84 459 Z " />
<glyph glyph-name="twosuperior" unicode="&#xb2;" horiz-adv-x="750" d="M674 1103 L674 820 L48 820 Q48 923 97 1011.5 Q146 1100 274 1230 Q386 1343 412 1378.5 Q438 1414 438 1452 Q438 1539 343 1539 Q292 1539 269.5 1507 Q247 1475 246 1402 L58 1402 Q63 1707 355 1707 Q496 1707 567 1638 Q631 1577 631 1467 Q631 1394 597 1335.5 Q563 1277 460 1172 L414 1126 Q321 1033 295 982 L511 982 L511 1103 L674 1103 Z " />
<glyph glyph-name="threesuperior" unicode="&#xb3;" horiz-adv-x="744" d="M464 1072 Q464 1189 303 1189 L235 1189 L235 1342 L305 1342 Q442 1342 442 1449 Q442 1540 350 1540 Q261 1540 261 1450 L70 1450 Q73 1707 350 1707 Q494 1707 571 1635 Q637 1574 637 1472 Q637 1328 503 1282 Q586 1249 624 1197 Q662 1145 662 1062 Q662 929 571 862 Q492 803 351 803 Q50 803 49 1089 L236 1089 Q239 968 351 968 Q464 968 464 1072 Z " />
<glyph glyph-name="onesuperior" unicode="&#xb9;" horiz-adv-x="744" d="M663 982 L663 820 L163 820 L163 982 L313 982 L313 1483 L166 1411 L94 1561 L354 1690 L511 1690 L511 982 L663 982 Z " />
<glyph glyph-name="onequarter" unicode="&#xbc;" horiz-adv-x="1820" d="M313 766 L313 1267 L166 1195 L94 1345 L354 1474 L511 1474 L511 766 L663 766 L663 604 L163 604 L163 766 L313 766 Z M1768 186 L1650 186 L1650 6 L1471 6 L1471 186 L1117 186 L1117 358 L1395 870 L1596 870 L1322 339 L1471 339 L1471 519 L1650 519 L1650 339 L1768 339 L1768 186 Z M1361 1470 L724 0 L524 0 L1161 1470 L1361 1470 Z " />
<glyph glyph-name="onehalf" unicode="&#xbd;" horiz-adv-x="1884" d="M313 766 L313 1267 L166 1195 L94 1345 L354 1474 L511 1474 L511 766 L663 766 L663 604 L163 604 L163 766 L313 766 Z M1808 283 L1808 0 L1182 0 Q1182 103 1231 191.5 Q1280 280 1408 410 Q1520 523 1546 558.5 Q1572 594 1572 632 Q1572 719 1477 719 Q1426 719 1403.5 687 Q1381 655 1380 582 L1192 582 Q1197 887 1489 887 Q1630 887 1701 818 Q1765 757 1765 647 Q1765 574 1731 515.5 Q1697 457 1594 352 L1548 306 Q1455 213 1429 162 L1645 162 L1645 283 L1808 283 Z M1361 1470 L724 0 L524 0 L1161 1470 L1361 1470 Z " />
<glyph glyph-name="threequarters" unicode="&#xbe;" horiz-adv-x="1799" d="M662 862 Q662 729 571 662 Q492 603 351 603 Q50 603 49 889 L236 889 Q239 768 351 768 Q464 768 464 872 Q464 989 303 989 L235 989 L235 1142 L305 1142 Q442 1142 442 1249 Q442 1340 350 1340 Q261 1340 261 1250 L70 1250 Q73 1507 350 1507 Q494 1507 571 1436 Q637 1374 637 1272 Q637 1128 503 1082 Q586 1049 624 997 Q662 945 662 862 Z M1747 186 L1629 186 L1629 6 L1450 6 L1450 186 L1096 186 L1096 358 L1374 870 L1575 870 L1301 339 L1450 339 L1450 519 L1629 519 L1629 339 L1747 339 L1747 186 Z M1340 1470 L703 0 L503 0 L1140 1470 L1340 1470 Z " />
<glyph glyph-name="Eth" unicode="&#xd0;" horiz-adv-x="1380" d="M255 652 L112 652 L112 861 L255 861 L255 1264 L131 1264 L131 1475 L590 1475 Q946 1475 1118 1262 Q1268 1076 1268 737 Q1268 356 1082 166 Q919 0 632 0 L131 0 L131 211 L255 211 L255 652 Z M521 652 L521 211 L602 211 Q989 211 989 733 Q989 1264 602 1264 L521 1264 L521 861 L759 861 L759 652 L521 652 Z " />
<glyph glyph-name="multiply" unicode="&#xd7;" horiz-adv-x="1078" d="M389 721 L160 963 L311 1113 L539 871 L768 1113 L918 963 L689 721 L918 479 L768 328 L539 571 L311 328 L160 479 L389 721 Z " />
<glyph glyph-name="Yacute" unicode="&#xdd;" horiz-adv-x="1197" d="M731 619 L731 211 L885 211 L885 0 L312 0 L312 211 L466 211 L466 624 L103 1264 L-7 1264 L-7 1475 L535 1475 L535 1264 L397 1264 L612 835 L827 1264 L686 1264 L686 1475 L1201 1475 L1201 1264 L1092 1264 L731 619 Z M478 1613 L658 1983 L933 1983 L670 1613 L478 1613 Z " />
<glyph glyph-name="Thorn" unicode="&#xde;" horiz-adv-x="1213" d="M679 1162 Q1155 1162 1155 757 Q1155 342 679 342 L471 342 L471 205 L601 205 L601 0 L87 0 L87 215 L211 215 L211 1262 L87 1262 L87 1475 L601 1475 L601 1270 L471 1270 L471 1162 L679 1162 Z M659 553 Q784 553 838 608 Q885 656 885 752 Q885 855 830.5 903 Q776 951 659 951 L471 951 L471 553 L659 553 Z " />
<glyph glyph-name="eth" unicode="&#xf0;" horiz-adv-x="1041" d="M678 1293 Q952 1016 952 566 Q952 284 872 157 Q754 -29 509 -29 Q278 -29 162 128 Q64 259 64 476 Q64 732 184 864 Q294 985 491 985 Q604 985 665 921 Q619 1055 510 1164 L357 1046 L273 1148 L408 1250 Q335 1304 245 1349 L354 1517 Q476 1458 579 1380 L713 1482 L791 1380 L678 1293 Z M506 195 Q687 195 687 489 Q687 636 634 712 Q588 778 507 778 Q334 778 334 481 Q334 341 382 265 Q427 195 506 195 Z " />
<glyph glyph-name="yacute" unicode="&#xfd;" horiz-adv-x="976" d="M984 788 L900 788 L587 -58 Q538 -191 498.5 -257.5 Q459 -324 409 -360 Q323 -420 121 -422 L121 -197 Q218 -195 260 -171 Q306 -145 334 -75 L366 7 L83 788 L-6 788 L-6 999 L443 999 L443 792 L338 792 L447 410 Q462 355 484 293 Q488 280 490 274 L495 274 Q497 282 507 314 Q524 362 536 405 L649 792 L544 792 L544 999 L984 999 L984 788 Z M358 1137 L538 1507 L813 1507 L550 1137 L358 1137 Z " />
<glyph glyph-name="thorn" unicode="&#xfe;" horiz-adv-x="1078" d="M622 1028 Q809 1028 913 870 Q1006 729 1006 497 Q1006 232 888 91 Q788 -29 625 -29 Q472 -29 387 72 L387 -217 L574 -217 L574 -422 L26 -422 L26 -217 L140 -217 L140 1264 L21 1264 L21 1475 L387 1475 L387 920 Q475 1028 622 1028 Z M570 195 Q736 195 736 500 Q736 804 567 804 Q393 804 393 504 Q393 195 570 195 Z " />
<glyph glyph-name="Amacron" unicode="&#x100;" horiz-adv-x="1284" d="M1258 211 L1258 0 L767 0 L767 211 L898 211 L841 429 L434 429 L375 211 L518 211 L518 0 L20 0 L20 211 L110 211 L492 1475 L782 1475 L1164 211 L1258 211 Z M485 636 L790 636 L641 1188 L630 1188 L485 636 Z M355 1674 L355 1869 L909 1869 L909 1674 L355 1674 Z " />
<glyph glyph-name="amacron" unicode="&#x101;" horiz-adv-x="1034" d="M994 211 L994 0 L706 0 L703 152 Q677 66 587 16 Q509 -27 410 -27 Q229 -27 142 66 Q66 148 66 295 Q66 607 432 607 L640 607 L640 672 Q640 754 609.5 789 Q579 824 507 824 Q445 824 419.5 798.5 Q394 773 393 710 L136 710 Q138 885 235 960 Q322 1028 498 1028 Q734 1028 812 939 Q884 857 884 641 L884 211 L994 211 Z M621 245 Q640 278 640 329 L640 427 L492 427 Q407 427 370 398 Q333 369 333 302 Q333 177 468 177 Q582 177 621 245 Z M229 1198 L229 1393 L783 1393 L783 1198 L229 1198 Z " />
<glyph glyph-name="Abreve" unicode="&#x102;" horiz-adv-x="1284" d="M1258 211 L1258 0 L767 0 L767 211 L898 211 L841 429 L434 429 L375 211 L518 211 L518 0 L20 0 L20 211 L110 211 L492 1475 L782 1475 L1164 211 L1258 211 Z M485 636 L790 636 L641 1188 L630 1188 L485 636 Z M457 1939 Q464 1865 505.5 1831.5 Q547 1798 633 1798 Q719 1798 761.5 1832 Q804 1866 809 1939 L987 1939 Q980 1605 633 1605 Q286 1605 279 1939 L457 1939 Z " />
<glyph glyph-name="abreve" unicode="&#x103;" horiz-adv-x="1034" d="M994 211 L994 0 L706 0 L703 152 Q677 66 587 16 Q509 -27 410 -27 Q229 -27 142 66 Q66 148 66 295 Q66 607 432 607 L640 607 L640 672 Q640 754 609.5 789 Q579 824 507 824 Q445 824 419.5 798.5 Q394 773 393 710 L136 710 Q138 885 235 960 Q322 1028 498 1028 Q734 1028 812 939 Q884 857 884 641 L884 211 L994 211 Z M621 245 Q640 278 640 329 L640 427 L492 427 Q407 427 370 398 Q333 369 333 302 Q333 177 468 177 Q582 177 621 245 Z M331 1463 Q338 1389 379.5 1355.5 Q421 1322 507 1322 Q593 1322 635.5 1356 Q678 1390 683 1463 L861 1463 Q854 1129 507 1129 Q160 1129 153 1463 L331 1463 Z " />
<glyph glyph-name="Aogonek" unicode="&#x104;" horiz-adv-x="1284" d="M1091 0 L767 0 L767 211 L898 211 L841 429 L434 429 L375 211 L518 211 L518 0 L20 0 L20 211 L110 211 L492 1475 L782 1475 L1164 211 L1258 211 L1258 0 Q1161 -81 1126.5 -127 Q1092 -173 1092 -222 Q1092 -294 1164 -294 L1261 -294 L1261 -459 L1152 -459 Q1008 -459 946 -408 Q891 -362 891 -272 Q891 -197 932 -141 Q973 -85 1091 0 Z M485 636 L790 636 L641 1188 L630 1188 L485 636 Z " />
<glyph glyph-name="aogonek" unicode="&#x105;" horiz-adv-x="1034" d="M830 0 L706 0 L703 152 Q677 66 587 16 Q509 -27 410 -27 Q229 -27 142 66 Q66 148 66 295 Q66 607 432 607 L640 607 L640 672 Q640 754 609.5 789 Q579 824 507 824 Q445 824 419.5 798.5 Q394 773 393 710 L136 710 Q138 885 235 960 Q322 1028 498 1028 Q734 1028 812 939 Q884 857 884 641 L884 211 L994 211 L994 0 L997 0 Q900 -81 865.5 -127 Q831 -173 831 -222 Q831 -294 903 -294 L1000 -294 L1000 -459 L891 -459 Q747 -459 685 -408 Q630 -362 630 -272 Q630 -197 671 -141 Q712 -85 830 0 Z M621 245 Q640 278 640 329 L640 427 L492 427 Q407 427 370 398 Q333 369 333 302 Q333 177 468 177 Q582 177 621 245 Z " />
<glyph glyph-name="Cacute" unicode="&#x106;" horiz-adv-x="1184" d="M1106 137 Q928 -31 666 -31 Q96 -31 96 716 Q96 1120 253 1325 Q388 1501 620 1501 Q782 1501 865 1406 L865 1475 L1070 1475 L1070 1021 L855 1021 Q855 1273 669 1273 Q515 1273 439 1104 Q376 964 376 727 Q376 213 688 213 Q849 213 966 328 L1106 137 Z M505 1613 L685 1983 L960 1983 L697 1613 L505 1613 Z " />
<glyph glyph-name="cacute" unicode="&#x107;" horiz-adv-x="937" d="M867 80 Q811 29 719.5 0 Q628 -29 524 -29 Q284 -29 169 126 Q72 257 72 491 Q72 757 196 901 Q302 1024 471 1024 Q593 1024 647 941 L647 999 L851 999 L851 621 L640 621 Q640 704 629 737 Q607 809 533 809 Q436 809 386 716 Q342 635 342 498 Q342 197 565 197 Q663 197 757 264 L867 80 Z M363 1137 L543 1507 L818 1507 L555 1137 L363 1137 Z " />
<glyph glyph-name="Ccircumflex" unicode="&#x108;" horiz-adv-x="1184" d="M1106 137 Q928 -31 666 -31 Q96 -31 96 716 Q96 1120 253 1325 Q388 1501 620 1501 Q782 1501 865 1406 L865 1475 L1070 1475 L1070 1021 L855 1021 Q855 1273 669 1273 Q515 1273 439 1104 Q376 964 376 727 Q376 213 688 213 Q849 213 966 328 L1106 137 Z M635 1810 L491 1613 L310 1613 L517 1963 L754 1963 L960 1613 L781 1613 L635 1810 Z " />
<glyph glyph-name="ccircumflex" unicode="&#x109;" horiz-adv-x="937" d="M867 80 Q811 29 719.5 0 Q628 -29 524 -29 Q284 -29 169 126 Q72 257 72 491 Q72 757 196 901 Q302 1024 471 1024 Q593 1024 647 941 L647 999 L851 999 L851 621 L640 621 Q640 704 629 737 Q607 809 533 809 Q436 809 386 716 Q342 635 342 498 Q342 197 565 197 Q663 197 757 264 L867 80 Z M493 1334 L349 1137 L168 1137 L375 1487 L612 1487 L818 1137 L639 1137 L493 1334 Z " />
<glyph glyph-name="Cdotaccent" unicode="&#x10a;" horiz-adv-x="1184" d="M1106 137 Q928 -31 666 -31 Q96 -31 96 716 Q96 1120 253 1325 Q388 1501 620 1501 Q782 1501 865 1406 L865 1475 L1070 1475 L1070 1021 L855 1021 Q855 1273 669 1273 Q515 1273 439 1104 Q376 964 376 727 Q376 213 688 213 Q849 213 966 328 L1106 137 Z M494 1895 L771 1895 L771 1612 L494 1612 L494 1895 Z " />
<glyph glyph-name="cdotaccent" unicode="&#x10b;" horiz-adv-x="937" d="M867 80 Q811 29 719.5 0 Q628 -29 524 -29 Q284 -29 169 126 Q72 257 72 491 Q72 757 196 901 Q302 1024 471 1024 Q593 1024 647 941 L647 999 L851 999 L851 621 L640 621 Q640 704 629 737 Q607 809 533 809 Q436 809 386 716 Q342 635 342 498 Q342 197 565 197 Q663 197 757 264 L867 80 Z M352 1419 L629 1419 L629 1136 L352 1136 L352 1419 Z " />
<glyph glyph-name="Ccaron" unicode="&#x10c;" horiz-adv-x="1184" d="M1106 137 Q928 -31 666 -31 Q96 -31 96 716 Q96 1120 253 1325 Q388 1501 620 1501 Q782 1501 865 1406 L865 1475 L1070 1475 L1070 1021 L855 1021 Q855 1273 669 1273 Q515 1273 439 1104 Q376 964 376 727 Q376 213 688 213 Q849 213 966 328 L1106 137 Z M961 1963 L755 1613 L518 1613 L311 1963 L492 1963 L636 1766 L782 1963 L961 1963 Z " />
<glyph glyph-name="ccaron" unicode="&#x10d;" horiz-adv-x="937" d="M867 80 Q811 29 719.5 0 Q628 -29 524 -29 Q284 -29 169 126 Q72 257 72 491 Q72 757 196 901 Q302 1024 471 1024 Q593 1024 647 941 L647 999 L851 999 L851 621 L640 621 Q640 704 629 737 Q607 809 533 809 Q436 809 386 716 Q342 635 342 498 Q342 197 565 197 Q663 197 757 264 L867 80 Z M819 1487 L613 1137 L376 1137 L169 1487 L350 1487 L494 1290 L640 1487 L819 1487 Z " />
<glyph glyph-name="Dcaron" unicode="&#x10e;" horiz-adv-x="1336" d="M546 1475 Q902 1475 1074 1262 Q1224 1076 1224 737 Q1224 356 1038 166 Q875 0 588 0 L87 0 L87 211 L211 211 L211 1264 L87 1264 L87 1475 L546 1475 Z M558 211 Q945 211 945 733 Q945 1264 558 1264 L477 1264 L477 211 L558 211 Z M924 1963 L718 1613 L481 1613 L274 1963 L455 1963 L599 1766 L745 1963 L924 1963 Z " />
<glyph glyph-name="dcaron" unicode="&#x10f;" horiz-adv-x="1102" d="M1049 211 L1049 0 L727 0 L724 162 Q672 -28 452 -28 Q260 -28 162 120 Q72 255 72 498 Q72 768 188 907 Q288 1027 457 1027 Q617 1027 691 903 L691 1264 L536 1264 L536 1475 L938 1475 L938 211 L1049 211 Z M513 194 Q685 194 685 504 Q685 805 509 805 Q342 805 342 500 Q342 194 513 194 Z M1011 1107 L1051 1516 L1300 1516 L1175 1107 L1011 1107 Z " />
<glyph glyph-name="Dcroat" unicode="&#x110;" horiz-adv-x="1380" d="M255 652 L112 652 L112 861 L255 861 L255 1264 L131 1264 L131 1475 L590 1475 Q946 1475 1118 1262 Q1268 1076 1268 737 Q1268 356 1082 166 Q919 0 632 0 L131 0 L131 211 L255 211 L255 652 Z M521 652 L521 211 L602 211 Q989 211 989 733 Q989 1264 602 1264 L521 1264 L521 861 L759 861 L759 652 L521 652 Z " />
<glyph glyph-name="dcroat" unicode="&#x111;" horiz-adv-x="1123" d="M1062 211 L1062 0 L739 0 L737 135 Q675 -28 463 -28 Q276 -28 169 127 Q72 267 72 498 Q72 763 196 906 Q301 1027 470 1027 Q627 1027 707 919 L707 1086 L403 1086 L403 1209 L707 1209 L707 1303 L549 1303 L549 1475 L951 1475 L951 1209 L1041 1209 L1041 1086 L951 1086 L951 211 L1062 211 Z M519 195 Q696 195 696 504 Q696 804 519 804 Q342 804 342 500 Q342 195 519 195 Z " />
<glyph glyph-name="Emacron" unicode="&#x112;" horiz-adv-x="1153" d="M1068 437 L1068 0 L87 0 L87 211 L211 211 L211 1264 L87 1264 L87 1475 L1037 1475 L1037 1086 L792 1086 L792 1264 L474 1264 L474 864 L825 864 L825 653 L474 653 L474 211 L827 211 L827 437 L1068 437 Z M318 1674 L318 1869 L872 1869 L872 1674 L318 1674 Z " />
<glyph glyph-name="emacron" unicode="&#x113;" horiz-adv-x="983" d="M511 1028 Q740 1028 838 850 Q922 698 916 408 L330 408 Q352 191 550 191 Q674 191 777 268 L886 80 Q737 -29 537 -29 Q72 -29 72 492 Q72 768 201 907 Q314 1028 511 1028 Z M509 822 Q432 822 385.5 763 Q339 704 330 593 L669 593 Q663 822 509 822 Z M225 1198 L225 1393 L779 1393 L779 1198 L225 1198 Z " />
<glyph glyph-name="Ebreve" unicode="&#x114;" horiz-adv-x="1153" d="M1068 437 L1068 0 L87 0 L87 211 L211 211 L211 1264 L87 1264 L87 1475 L1037 1475 L1037 1086 L792 1086 L792 1264 L474 1264 L474 864 L825 864 L825 653 L474 653 L474 211 L827 211 L827 437 L1068 437 Z M420 1939 Q427 1865 468.5 1831.5 Q510 1798 596 1798 Q682 1798 724.5 1832 Q767 1866 772 1939 L950 1939 Q943 1605 596 1605 Q249 1605 242 1939 L420 1939 Z " />
<glyph glyph-name="ebreve" unicode="&#x115;" horiz-adv-x="983" d="M511 1028 Q740 1028 838 850 Q922 698 916 408 L330 408 Q352 191 550 191 Q674 191 777 268 L886 80 Q737 -29 537 -29 Q72 -29 72 492 Q72 768 201 907 Q314 1028 511 1028 Z M509 822 Q432 822 385.5 763 Q339 704 330 593 L669 593 Q663 822 509 822 Z M327 1463 Q334 1389 375.5 1355.5 Q417 1322 503 1322 Q589 1322 631.5 1356 Q674 1390 679 1463 L857 1463 Q850 1129 503 1129 Q156 1129 149 1463 L327 1463 Z " />
<glyph glyph-name="Edotaccent" unicode="&#x116;" horiz-adv-x="1153" d="M1068 437 L1068 0 L87 0 L87 211 L211 211 L211 1264 L87 1264 L87 1475 L1037 1475 L1037 1086 L792 1086 L792 1264 L474 1264 L474 864 L825 864 L825 653 L474 653 L474 211 L827 211 L827 437 L1068 437 Z M453 1895 L730 1895 L730 1612 L453 1612 L453 1895 Z " />
<glyph glyph-name="edotaccent" unicode="&#x117;" horiz-adv-x="983" d="M511 1028 Q740 1028 838 850 Q922 698 916 408 L330 408 Q352 191 550 191 Q674 191 777 268 L886 80 Q737 -29 537 -29 Q72 -29 72 492 Q72 768 201 907 Q314 1028 511 1028 Z M509 822 Q432 822 385.5 763 Q339 704 330 593 L669 593 Q663 822 509 822 Z M360 1419 L637 1419 L637 1136 L360 1136 L360 1419 Z " />
<glyph glyph-name="Eogonek" unicode="&#x118;" horiz-adv-x="1153" d="M901 0 L87 0 L87 211 L211 211 L211 1264 L87 1264 L87 1475 L1037 1475 L1037 1086 L792 1086 L792 1264 L474 1264 L474 864 L825 864 L825 653 L474 653 L474 211 L827 211 L827 437 L1068 437 L1068 0 Q971 -81 936.5 -127 Q902 -173 902 -222 Q902 -294 974 -294 L1071 -294 L1071 -459 L962 -459 Q818 -459 756 -408 Q701 -362 701 -272 Q701 -197 742 -141 Q783 -85 901 0 Z " />
<glyph glyph-name="eogonek" unicode="&#x119;" horiz-adv-x="983" d="M539 -29 L537 -29 Q72 -29 72 492 Q72 768 201 907 Q314 1028 511 1028 Q740 1028 838 850 Q922 698 916 408 L330 408 Q352 191 550 191 Q674 191 777 268 L886 80 Q827 38 763 13 Q758 9 734 -11 Q660 -72 630 -115.5 Q600 -159 598 -208 Q598 -280 670 -280 L767 -280 L767 -445 L658 -445 Q514 -445 452 -393 Q397 -348 397 -258 Q400 -191 431 -141 Q462 -91 539 -29 Z M509 822 Q432 822 385.5 763 Q339 704 330 593 L669 593 Q663 822 509 822 Z " />
<glyph glyph-name="Ecaron" unicode="&#x11a;" horiz-adv-x="1153" d="M1068 437 L1068 0 L87 0 L87 211 L211 211 L211 1264 L87 1264 L87 1475 L1037 1475 L1037 1086 L792 1086 L792 1264 L474 1264 L474 864 L825 864 L825 653 L474 653 L474 211 L827 211 L827 437 L1068 437 Z M920 1963 L714 1613 L477 1613 L270 1963 L451 1963 L595 1766 L741 1963 L920 1963 Z " />
<glyph glyph-name="ecaron" unicode="&#x11b;" horiz-adv-x="983" d="M511 1028 Q740 1028 838 850 Q922 698 916 408 L330 408 Q352 191 550 191 Q674 191 777 268 L886 80 Q737 -29 537 -29 Q72 -29 72 492 Q72 768 201 907 Q314 1028 511 1028 Z M509 822 Q432 822 385.5 763 Q339 704 330 593 L669 593 Q663 822 509 822 Z M827 1487 L621 1137 L384 1137 L177 1487 L358 1487 L502 1290 L648 1487 L827 1487 Z " />
<glyph glyph-name="Gcircumflex" unicode="&#x11c;" horiz-adv-x="1285" d="M907 243 L907 542 L638 542 L638 753 L1151 753 L1151 84 Q943 -31 704 -31 Q95 -31 95 716 Q95 1124 255 1327 Q396 1505 646 1505 Q814 1505 911 1409 L911 1475 L1121 1475 L1121 1041 L906 1041 Q906 1162 841 1221 Q785 1272 689 1272 Q373 1272 373 715 Q373 424 465 307 Q544 206 710 206 Q816 206 907 243 Z M662 1810 L518 1613 L337 1613 L544 1963 L781 1963 L987 1613 L808 1613 L662 1810 Z " />
<glyph glyph-name="gcircumflex" unicode="&#x11d;" horiz-adv-x="1094" d="M1052 999 L1052 788 L944 788 L944 6 Q944 -251 843 -353 Q747 -450 528 -450 Q301 -450 207 -354 Q128 -274 128 -109 L363 -109 Q363 -180 400.5 -210 Q438 -240 528 -240 Q626 -240 666.5 -185 Q707 -130 707 1 L707 121 Q648 -13 468 -13 Q268 -13 165 146 Q78 281 78 504 Q78 765 195 906 Q297 1028 464 1028 Q652 1028 745 849 L745 999 L1052 999 Z M524 203 Q618 203 658 290 Q691 363 691 506 Q691 806 522 806 Q348 806 348 506 Q348 203 524 203 Z M519 1334 L375 1137 L194 1137 L401 1487 L638 1487 L844 1137 L665 1137 L519 1334 Z " />
<glyph glyph-name="Gbreve" unicode="&#x11e;" horiz-adv-x="1285" d="M907 243 L907 542 L638 542 L638 753 L1151 753 L1151 84 Q943 -31 704 -31 Q95 -31 95 716 Q95 1124 255 1327 Q396 1505 646 1505 Q814 1505 911 1409 L911 1475 L1121 1475 L1121 1041 L906 1041 Q906 1162 841 1221 Q785 1272 689 1272 Q373 1272 373 715 Q373 424 465 307 Q544 206 710 206 Q816 206 907 243 Z M488 1939 Q495 1865 536.5 1831.5 Q578 1798 664 1798 Q750 1798 792.5 1832 Q835 1866 840 1939 L1018 1939 Q1011 1605 664 1605 Q317 1605 310 1939 L488 1939 Z " />
<glyph glyph-name="gbreve" unicode="&#x11f;" horiz-adv-x="1094" d="M1052 999 L1052 788 L944 788 L944 6 Q944 -251 843 -353 Q747 -450 528 -450 Q301 -450 207 -354 Q128 -274 128 -109 L363 -109 Q363 -180 400.5 -210 Q438 -240 528 -240 Q626 -240 666.5 -185 Q707 -130 707 1 L707 121 Q648 -13 468 -13 Q268 -13 165 146 Q78 281 78 504 Q78 765 195 906 Q297 1028 464 1028 Q652 1028 745 849 L745 999 L1052 999 Z M524 203 Q618 203 658 290 Q691 363 691 506 Q691 806 522 806 Q348 806 348 506 Q348 203 524 203 Z M345 1463 Q352 1389 393.5 1355.5 Q435 1322 521 1322 Q607 1322 649.5 1356 Q692 1390 697 1463 L875 1463 Q868 1129 521 1129 Q174 1129 167 1463 L345 1463 Z " />
<glyph glyph-name="Gdotaccent" unicode="&#x120;" horiz-adv-x="1285" d="M907 243 L907 542 L638 542 L638 753 L1151 753 L1151 84 Q943 -31 704 -31 Q95 -31 95 716 Q95 1124 255 1327 Q396 1505 646 1505 Q814 1505 911 1409 L911 1475 L1121 1475 L1121 1041 L906 1041 Q906 1162 841 1221 Q785 1272 689 1272 Q373 1272 373 715 Q373 424 465 307 Q544 206 710 206 Q816 206 907 243 Z M521 1895 L798 1895 L798 1612 L521 1612 L521 1895 Z " />
<glyph glyph-name="gdotaccent" unicode="&#x121;" horiz-adv-x="1094" d="M1052 999 L1052 788 L944 788 L944 6 Q944 -251 843 -353 Q747 -450 528 -450 Q301 -450 207 -354 Q128 -274 128 -109 L363 -109 Q363 -180 400.5 -210 Q438 -240 528 -240 Q626 -240 666.5 -185 Q707 -130 707 1 L707 121 Q648 -13 468 -13 Q268 -13 165 146 Q78 281 78 504 Q78 765 195 906 Q297 1028 464 1028 Q652 1028 745 849 L745 999 L1052 999 Z M524 203 Q618 203 658 290 Q691 363 691 506 Q691 806 522 806 Q348 806 348 506 Q348 203 524 203 Z M378 1419 L655 1419 L655 1136 L378 1136 L378 1419 Z " />
<glyph glyph-name="Gcommaaccent" unicode="&#x122;" horiz-adv-x="1285" d="M907 243 L907 542 L638 542 L638 753 L1151 753 L1151 84 Q943 -31 704 -31 Q95 -31 95 716 Q95 1124 255 1327 Q396 1505 646 1505 Q814 1505 911 1409 L911 1475 L1121 1475 L1121 1041 L906 1041 Q906 1162 841 1221 Q785 1272 689 1272 Q373 1272 373 715 Q373 424 465 307 Q544 206 710 206 Q816 206 907 243 Z M545 -141 L811 -141 L566 -491 L393 -491 L545 -141 Z " />
<glyph glyph-name="gcommaaccent" unicode="&#x123;" horiz-adv-x="1094" d="M1052 999 L1052 788 L944 788 L944 6 Q944 -251 843 -353 Q747 -450 528 -450 Q301 -450 207 -354 Q128 -274 128 -109 L363 -109 Q363 -180 400.5 -210 Q438 -240 528 -240 Q626 -240 666.5 -185 Q707 -130 707 1 L707 121 Q648 -13 468 -13 Q268 -13 165 146 Q78 281 78 504 Q78 765 195 906 Q297 1028 464 1028 Q652 1028 745 849 L745 999 L1052 999 Z M524 203 Q618 203 658 290 Q691 363 691 506 Q691 806 522 806 Q348 806 348 506 Q348 203 524 203 Z M776 1487 L624 1137 L358 1137 L603 1487 L776 1487 Z " />
<glyph glyph-name="Hcircumflex" unicode="&#x124;" horiz-adv-x="1377" d="M1166 1264 L1166 211 L1290 211 L1290 0 L776 0 L776 211 L901 211 L901 660 L476 660 L476 211 L601 211 L601 0 L87 0 L87 211 L211 211 L211 1264 L87 1264 L87 1475 L601 1475 L601 1264 L476 1264 L476 875 L901 875 L901 1264 L776 1264 L776 1475 L1290 1475 L1290 1264 L1166 1264 Z M687 1810 L543 1613 L362 1613 L569 1963 L806 1963 L1012 1613 L833 1613 L687 1810 Z " />
<glyph glyph-name="hcircumflex" unicode="&#x125;" horiz-adv-x="1128" d="M1090 211 L1090 0 L633 0 L633 211 L721 211 L721 639 Q721 731 696.5 767.5 Q672 804 611 804 Q505 804 431 670 L431 211 L521 211 L521 0 L62 0 L62 211 L173 211 L173 1264 L49 1264 L49 1475 L420 1475 L420 869 Q535 1026 706 1026 Q979 1026 979 676 L979 211 L1090 211 Z M281 1810 L137 1613 L-44 1613 L163 1963 L400 1963 L606 1613 L427 1613 L281 1810 Z " />
<glyph glyph-name="Hbar" unicode="&#x126;" horiz-adv-x="1409" d="M227 1009 L99 1009 L99 1130 L227 1130 L227 1264 L103 1264 L103 1475 L617 1475 L617 1264 L492 1264 L492 1130 L917 1130 L917 1264 L792 1264 L792 1475 L1306 1475 L1306 1264 L1182 1264 L1182 1130 L1310 1130 L1310 1009 L1182 1009 L1182 211 L1306 211 L1306 0 L792 0 L792 211 L917 211 L917 660 L492 660 L492 211 L617 211 L617 0 L103 0 L103 211 L227 211 L227 1009 Z M492 1009 L492 875 L917 875 L917 1009 L492 1009 Z " />
<glyph glyph-name="hbar" unicode="&#x127;" horiz-adv-x="1138" d="M1100 211 L1100 0 L643 0 L643 211 L731 211 L731 639 Q731 731 706.5 767.5 Q682 804 621 804 Q513 804 439 666 L439 211 L526 211 L526 0 L70 0 L70 211 L181 211 L181 1086 L55 1086 L55 1209 L181 1209 L181 1303 L57 1303 L57 1475 L431 1475 L431 1209 L691 1209 L691 1086 L431 1086 L431 871 Q545 1026 716 1026 Q989 1026 989 676 L989 211 L1100 211 Z " />
<glyph glyph-name="Itilde" unicode="&#x128;" horiz-adv-x="688" d="M601 211 L601 0 L87 0 L87 211 L211 211 L211 1264 L87 1264 L87 1475 L601 1475 L601 1264 L477 1264 L477 211 L601 211 Z M51 1641 Q63 1886 240 1886 Q303 1886 381 1837 Q424 1810 447 1810 Q496 1810 493 1885 L655 1885 Q645 1635 455 1635 Q413 1635 386 1644.5 Q359 1654 308 1687 Q280 1705 261 1705 Q213 1705 215 1641 L51 1641 Z " />
<glyph glyph-name="itilde" unicode="&#x129;" horiz-adv-x="597" d="M75 211 L186 211 L186 788 L75 788 L75 999 L446 999 L446 211 L557 211 L557 0 L75 0 L75 211 Z M-1 1166 Q11 1411 188 1411 Q251 1411 329 1362 Q372 1335 395 1335 Q444 1335 441 1410 L603 1410 Q593 1160 403 1160 Q361 1160 334 1169.5 Q307 1179 256 1212 Q228 1230 209 1230 Q161 1230 163 1166 L-1 1166 Z " />
<glyph glyph-name="Imacron" unicode="&#x12a;" horiz-adv-x="688" d="M601 211 L601 0 L87 0 L87 211 L211 211 L211 1264 L87 1264 L87 1475 L601 1475 L601 1264 L477 1264 L477 211 L601 211 Z M91 1674 L91 1869 L595 1869 L595 1674 L91 1674 Z " />
<glyph glyph-name="imacron" unicode="&#x12b;" horiz-adv-x="597" d="M75 211 L186 211 L186 788 L75 788 L75 999 L446 999 L446 211 L557 211 L557 0 L75 0 L75 211 Z M39 1199 L39 1394 L543 1394 L543 1199 L39 1199 Z " />
<glyph glyph-name="Ibreve" unicode="&#x12c;" horiz-adv-x="688" d="M601 211 L601 0 L87 0 L87 211 L211 211 L211 1264 L87 1264 L87 1475 L601 1475 L601 1264 L477 1264 L477 211 L601 211 Z M204 1943 Q209 1869 243 1835.5 Q277 1802 347 1802 Q481 1802 490 1943 L668 1943 Q661 1609 347 1609 Q33 1609 26 1943 L204 1943 Z " />
<glyph glyph-name="ibreve" unicode="&#x12d;" horiz-adv-x="597" d="M75 211 L186 211 L186 788 L75 788 L75 999 L446 999 L446 211 L557 211 L557 0 L75 0 L75 211 Z M152 1468 Q157 1394 191 1360.5 Q225 1327 295 1327 Q429 1327 438 1468 L616 1468 Q609 1134 295 1134 Q-19 1134 -26 1468 L152 1468 Z " />
<glyph glyph-name="Iogonek" unicode="&#x12e;" horiz-adv-x="688" d="M434 0 L87 0 L87 211 L211 211 L211 1264 L87 1264 L87 1475 L601 1475 L601 1264 L477 1264 L477 211 L601 211 L601 0 Q504 -81 469.5 -127 Q435 -173 435 -222 Q435 -294 507 -294 L604 -294 L604 -459 L495 -459 Q351 -459 289 -408 Q234 -362 234 -272 Q234 -197 275 -141 Q316 -85 434 0 Z " />
<glyph glyph-name="iogonek" unicode="&#x12f;" horiz-adv-x="600" d="M390 0 L75 0 L75 211 L186 211 L186 788 L75 788 L75 999 L446 999 L446 211 L557 211 L557 0 Q460 -81 425.5 -127 Q391 -173 391 -222 Q391 -294 463 -294 L560 -294 L560 -459 L451 -459 Q307 -459 245 -408 Q190 -362 190 -272 Q190 -197 231 -141 Q272 -85 390 0 Z M174 1414 L441 1414 L441 1137 L174 1137 L174 1414 Z " />
<glyph glyph-name="Idot" unicode="&#x130;" horiz-adv-x="688" d="M601 211 L601 0 L87 0 L87 211 L211 211 L211 1264 L87 1264 L87 1475 L601 1475 L601 1264 L477 1264 L477 211 L601 211 Z M204 1895 L481 1895 L481 1612 L204 1612 L204 1895 Z " />
<glyph glyph-name="IJ" unicode="&#x132;" horiz-adv-x="1367" d="M601 211 L601 0 L87 0 L87 211 L211 211 L211 1264 L87 1264 L87 1475 L601 1475 L601 1264 L477 1264 L477 211 L601 211 Z M1295 1264 L1171 1264 L1171 121 Q1171 -60 1139 -154 Q1103 -261 1013 -307 Q922 -355 747 -355 L747 -115 Q842 -111 875 -61 Q903 -20 903 72 L903 1264 L769 1264 L769 1475 L1295 1475 L1295 1264 Z " />
<glyph glyph-name="ij" unicode="&#x133;" horiz-adv-x="1141" d="M174 1414 L441 1414 L441 1137 L174 1137 L174 1414 Z M75 211 L186 211 L186 788 L75 788 L75 999 L446 999 L446 211 L557 211 L557 0 L75 0 L75 211 Z M746 1419 L1023 1419 L1023 1136 L746 1136 L746 1419 Z M647 -198 Q711 -195 739 -160.5 Q767 -126 767 -52 L767 788 L656 788 L656 999 L1026 999 L1026 28 Q1026 -147 997 -237 Q965 -337 883 -380 Q803 -422 647 -422 L647 -198 Z " />
<glyph glyph-name="Jcircumflex" unicode="&#x134;" horiz-adv-x="679" d="M607 1264 L483 1264 L483 121 Q483 -60 451 -154 Q415 -261 325 -307 Q234 -355 59 -355 L59 -115 Q154 -111 187 -61 Q215 -20 215 72 L215 1264 L81 1264 L81 1475 L607 1475 L607 1264 Z M357 1810 L213 1613 L32 1613 L239 1963 L476 1963 L682 1613 L503 1613 L357 1810 Z " />
<glyph glyph-name="jcircumflex" unicode="&#x135;" horiz-adv-x="542" d="M48 -198 Q112 -195 140 -160.5 Q168 -126 168 -52 L168 788 L57 788 L57 999 L427 999 L427 28 Q427 -147 398 -237 Q366 -337 284 -380 Q204 -422 48 -422 L48 -198 Z M298 1334 L154 1137 L-27 1137 L180 1487 L417 1487 L623 1137 L444 1137 L298 1334 Z " />
<glyph glyph-name="Kcommaaccent" unicode="&#x136;" horiz-adv-x="1314" d="M1290 211 L1290 0 L744 0 L744 211 L859 211 L472 726 L472 211 L585 211 L585 0 L87 0 L87 211 L211 211 L211 1264 L87 1264 L87 1475 L578 1475 L578 1264 L472 1264 L472 781 L833 1267 L718 1267 L718 1475 L1214 1475 L1214 1264 L1102 1264 L744 776 L1171 211 L1290 211 Z M533 -141 L799 -141 L554 -491 L381 -491 L533 -141 Z " />
<glyph glyph-name="kcommaaccent" unicode="&#x137;" horiz-adv-x="1097" d="M1068 211 L1068 0 L592 0 L592 197 L688 197 L411 547 L411 197 L495 197 L495 0 L49 0 L49 211 L160 211 L160 1264 L49 1264 L49 1475 L411 1475 L411 564 L672 823 L542 823 L542 999 L988 999 L988 787 L893 787 L672 563 L963 211 L1068 211 Z M433 -141 L699 -141 L454 -491 L281 -491 L433 -141 Z " />
<glyph glyph-name="kgreenlandic" unicode="&#x138;" horiz-adv-x="1143" d="M1114 215 L1114 0 L639 0 L639 204 L718 204 L442 547 L442 204 L523 204 L523 0 L75 0 L75 215 L186 215 L186 784 L75 784 L75 999 L442 999 L442 564 L696 813 L596 813 L596 999 L1042 999 L1042 787 L944 787 L712 562 L1014 215 L1114 215 Z " />
<glyph glyph-name="Lacute" unicode="&#x139;" horiz-adv-x="1122" d="M1062 466 L1062 0 L87 0 L87 211 L211 211 L211 1264 L87 1264 L87 1475 L609 1475 L609 1264 L479 1264 L479 211 L817 211 L817 466 L1062 466 Z M220 1613 L400 1983 L675 1983 L412 1613 L220 1613 Z " />
<glyph glyph-name="lacute" unicode="&#x13a;" horiz-adv-x="590" d="M62 215 L173 215 L173 1260 L49 1260 L49 1475 L426 1475 L426 215 L537 215 L537 0 L62 0 L62 215 Z M160 1613 L340 1983 L615 1983 L352 1613 L160 1613 Z " />
<glyph glyph-name="Lcommaaccent" unicode="&#x13b;" horiz-adv-x="1122" d="M1062 466 L1062 0 L87 0 L87 211 L211 211 L211 1264 L87 1264 L87 1475 L609 1475 L609 1264 L479 1264 L479 211 L817 211 L817 466 L1062 466 Z M459 -141 L725 -141 L480 -491 L307 -491 L459 -141 Z " />
<glyph glyph-name="lcommaaccent" unicode="&#x13c;" horiz-adv-x="590" d="M62 215 L173 215 L173 1260 L49 1260 L49 1475 L426 1475 L426 215 L537 215 L537 0 L62 0 L62 215 Z M165 -141 L431 -141 L186 -491 L13 -491 L165 -141 Z " />
<glyph glyph-name="Lcaron" unicode="&#x13d;" horiz-adv-x="1122" d="M1062 466 L1062 0 L87 0 L87 211 L211 211 L211 1264 L87 1264 L87 1475 L609 1475 L609 1264 L479 1264 L479 211 L817 211 L817 466 L1062 466 Z M785 1113 L825 1522 L1074 1522 L949 1113 L785 1113 Z " />
<glyph glyph-name="lcaron" unicode="&#x13e;" horiz-adv-x="590" d="M62 215 L173 215 L173 1260 L49 1260 L49 1475 L426 1475 L426 215 L537 215 L537 0 L62 0 L62 215 Z M502 1107 L542 1516 L791 1516 L666 1107 L502 1107 Z " />
<glyph glyph-name="Ldot" unicode="&#x13f;" horiz-adv-x="1202" d="M1062 466 L1062 0 L87 0 L87 211 L211 211 L211 1264 L87 1264 L87 1475 L609 1475 L609 1264 L479 1264 L479 211 L817 211 L817 466 L1062 466 Z M808 681 L808 978 L1085 978 L1085 681 L808 681 Z " />
<glyph glyph-name="ldot" unicode="&#x140;" horiz-adv-x="751" d="M62 215 L173 215 L173 1260 L49 1260 L49 1475 L426 1475 L426 215 L537 215 L537 0 L62 0 L62 215 Z M528 552 L528 849 L805 849 L805 552 L528 552 Z " />
<glyph glyph-name="Lslash" unicode="&#x141;" horiz-adv-x="1175" d="M532 942 L774 1084 L774 874 L532 732 L532 211 L870 211 L870 466 L1115 466 L1115 0 L140 0 L140 211 L264 211 L264 574 L111 484 L111 694 L264 784 L264 1264 L140 1264 L140 1475 L662 1475 L662 1264 L532 1264 L532 942 Z " />
<glyph glyph-name="lslash" unicode="&#x142;" horiz-adv-x="681" d="M479 733 L479 215 L594 215 L594 0 L116 0 L116 215 L231 215 L231 584 L65 484 L65 694 L231 794 L231 1260 L103 1260 L103 1475 L479 1475 L479 943 L646 1043 L646 833 L479 733 Z " />
<glyph glyph-name="Nacute" unicode="&#x143;" horiz-adv-x="1393" d="M534 906 Q481 1016 440 1139 Q449 1001 449 806 L449 211 L597 211 L597 0 L87 0 L87 211 L211 211 L211 1266 L87 1266 L87 1475 L514 1475 L870 703 Q935 561 973 445 Q958 608 958 811 L958 1264 L828 1264 L828 1475 L1320 1475 L1320 1264 L1196 1264 L1196 -8 L970 -8 L534 906 Z M579 1613 L759 1983 L1034 1983 L771 1613 L579 1613 Z " />
<glyph glyph-name="nacute" unicode="&#x144;" horiz-adv-x="1142" d="M1104 211 L1104 0 L646 0 L646 211 L735 211 L735 639 Q735 731 710.5 767.5 Q686 804 625 804 Q516 804 444 669 L444 211 L534 211 L534 0 L75 0 L75 211 L186 211 L186 788 L75 788 L75 999 L412 999 L412 837 Q532 1026 720 1026 Q993 1026 993 676 L993 211 L1104 211 Z M442 1137 L622 1507 L897 1507 L634 1137 L442 1137 Z " />
<glyph glyph-name="Ncommaaccent" unicode="&#x145;" horiz-adv-x="1393" d="M534 906 Q481 1016 440 1139 Q449 1001 449 806 L449 211 L597 211 L597 0 L87 0 L87 211 L211 211 L211 1266 L87 1266 L87 1475 L514 1475 L870 703 Q935 561 973 445 Q958 608 958 811 L958 1264 L828 1264 L828 1475 L1320 1475 L1320 1264 L1196 1264 L1196 -8 L970 -8 L534 906 Z M592 -141 L858 -141 L613 -491 L440 -491 L592 -141 Z " />
<glyph glyph-name="ncommaaccent" unicode="&#x146;" horiz-adv-x="1142" d="M1104 211 L1104 0 L646 0 L646 211 L735 211 L735 639 Q735 731 710.5 767.5 Q686 804 625 804 Q516 804 444 669 L444 211 L534 211 L534 0 L75 0 L75 211 L186 211 L186 788 L75 788 L75 999 L412 999 L412 837 Q532 1026 720 1026 Q993 1026 993 676 L993 211 L1104 211 Z M457 -141 L723 -141 L478 -491 L305 -491 L457 -141 Z " />
<glyph glyph-name="Ncaron" unicode="&#x147;" horiz-adv-x="1393" d="M534 906 Q481 1016 440 1139 Q449 1001 449 806 L449 211 L597 211 L597 0 L87 0 L87 211 L211 211 L211 1266 L87 1266 L87 1475 L514 1475 L870 703 Q935 561 973 445 Q958 608 958 811 L958 1264 L828 1264 L828 1475 L1320 1475 L1320 1264 L1196 1264 L1196 -8 L970 -8 L534 906 Z M1035 1963 L829 1613 L592 1613 L385 1963 L566 1963 L710 1766 L856 1963 L1035 1963 Z " />
<glyph glyph-name="ncaron" unicode="&#x148;" horiz-adv-x="1142" d="M1104 211 L1104 0 L646 0 L646 211 L735 211 L735 639 Q735 731 710.5 767.5 Q686 804 625 804 Q516 804 444 669 L444 211 L534 211 L534 0 L75 0 L75 211 L186 211 L186 788 L75 788 L75 999 L412 999 L412 837 Q532 1026 720 1026 Q993 1026 993 676 L993 211 L1104 211 Z M898 1487 L692 1137 L455 1137 L248 1487 L429 1487 L573 1290 L719 1487 L898 1487 Z " />
<glyph glyph-name="napostrophe" unicode="&#x149;" horiz-adv-x="1515" d="M18 958 L148 1475 L433 1475 L260 958 L18 958 Z M1477 211 L1477 0 L1019 0 L1019 211 L1108 211 L1108 639 Q1108 731 1083.5 767.5 Q1059 804 998 804 Q889 804 817 669 L817 211 L907 211 L907 0 L448 0 L448 211 L559 211 L559 788 L448 788 L448 999 L785 999 L785 837 Q904 1026 1093 1026 Q1366 1026 1366 676 L1366 211 L1477 211 Z " />
<glyph glyph-name="Eng" unicode="&#x14a;" horiz-adv-x="1393" d="M1320 1475 L1320 1264 L1196 1264 L1196 -8 L1195 -8 Q1191 -258 1100 -342 Q1014 -422 793 -422 L793 -198 Q875 -195 909 -162 Q943 -129 943 -52 L943 64 L534 906 Q481 1016 440 1139 Q449 1001 449 806 L449 211 L597 211 L597 0 L87 0 L87 211 L211 211 L211 1266 L87 1266 L87 1475 L514 1475 L870 703 Q935 561 973 445 Q958 608 958 811 L958 1264 L828 1264 L828 1475 L1320 1475 Z " />
<glyph glyph-name="eng" unicode="&#x14b;" horiz-adv-x="1084" d="M720 1026 Q993 1026 993 676 L993 -2 Q993 -163 963 -246 Q929 -340 843 -381 Q757 -422 591 -422 L591 -182 Q670 -179 701.5 -142.5 Q733 -106 733 -16 L733 633 Q733 723 709 758.5 Q685 794 625 794 Q517 794 446 659 L446 215 L536 215 L536 0 L75 0 L75 215 L186 215 L186 784 L75 784 L75 999 L412 999 L412 837 Q532 1026 720 1026 Z " />
<glyph glyph-name="Omacron" unicode="&#x14c;" horiz-adv-x="1312" d="M653 -31 Q360 -31 219 190 Q95 382 95 733 Q95 1137 258 1334 Q400 1506 657 1506 Q949 1506 1092 1283 Q1217 1088 1217 738 Q1217 337 1053 141 Q910 -31 653 -31 Z M656 212 Q933 212 933 729 Q933 1007 853 1144 Q782 1263 657 1263 Q513 1263 441 1107 Q379 971 379 728 Q379 212 656 212 Z M381 1674 L381 1869 L935 1869 L935 1674 L381 1674 Z " />
<glyph glyph-name="omacron" unicode="&#x14d;" horiz-adv-x="1033" d="M517 -29 Q284 -29 168 132 Q72 267 72 497 Q72 765 202 905 Q317 1028 515 1028 Q746 1028 862 867 Q961 730 961 495 Q961 230 827 91 Q711 -29 517 -29 Z M516 191 Q691 191 691 496 Q691 655 639 737 Q594 808 515 808 Q431 808 386.5 728 Q342 648 342 497 Q342 191 516 191 Z M242 1198 L242 1393 L796 1393 L796 1198 L242 1198 Z " />
<glyph glyph-name="Obreve" unicode="&#x14e;" horiz-adv-x="1312" d="M653 -31 Q360 -31 219 190 Q95 382 95 733 Q95 1137 258 1334 Q400 1506 657 1506 Q949 1506 1092 1283 Q1217 1088 1217 738 Q1217 337 1053 141 Q910 -31 653 -31 Z M656 212 Q933 212 933 729 Q933 1007 853 1144 Q782 1263 657 1263 Q513 1263 441 1107 Q379 971 379 728 Q379 212 656 212 Z M483 1939 Q490 1865 531.5 1831.5 Q573 1798 659 1798 Q745 1798 787.5 1832 Q830 1866 835 1939 L1013 1939 Q1006 1605 659 1605 Q312 1605 305 1939 L483 1939 Z " />
<glyph glyph-name="obreve" unicode="&#x14f;" horiz-adv-x="1033" d="M517 -29 Q284 -29 168 132 Q72 267 72 497 Q72 765 202 905 Q317 1028 515 1028 Q746 1028 862 867 Q961 730 961 495 Q961 230 827 91 Q711 -29 517 -29 Z M516 191 Q691 191 691 496 Q691 655 639 737 Q594 808 515 808 Q431 808 386.5 728 Q342 648 342 497 Q342 191 516 191 Z M344 1463 Q351 1389 392.5 1355.5 Q434 1322 520 1322 Q606 1322 648.5 1356 Q691 1390 696 1463 L874 1463 Q867 1129 520 1129 Q173 1129 166 1463 L344 1463 Z " />
<glyph glyph-name="Ohungarumlaut" unicode="&#x150;" horiz-adv-x="1312" d="M653 -31 Q360 -31 219 190 Q95 382 95 733 Q95 1137 258 1334 Q400 1506 657 1506 Q949 1506 1092 1283 Q1217 1088 1217 738 Q1217 337 1053 141 Q910 -31 653 -31 Z M656 212 Q933 212 933 729 Q933 1007 853 1144 Q782 1263 657 1263 Q513 1263 441 1107 Q379 971 379 728 Q379 212 656 212 Z M397 1613 L540 1963 L770 1963 L540 1613 L397 1613 Z M696 1613 L868 1963 L1108 1963 L842 1613 L696 1613 Z " />
<glyph glyph-name="ohungarumlaut" unicode="&#x151;" horiz-adv-x="1033" d="M517 -29 Q284 -29 168 132 Q72 267 72 497 Q72 765 202 905 Q317 1028 515 1028 Q746 1028 862 867 Q961 730 961 495 Q961 230 827 91 Q711 -29 517 -29 Z M516 191 Q691 191 691 496 Q691 655 639 737 Q594 808 515 808 Q431 808 386.5 728 Q342 648 342 497 Q342 191 516 191 Z M258 1137 L401 1487 L631 1487 L401 1137 L258 1137 Z M557 1137 L729 1487 L969 1487 L703 1137 L557 1137 Z " />
<glyph glyph-name="Racute" unicode="&#x154;" horiz-adv-x="1268" d="M1232 211 L1232 0 L896 0 L816 297 Q764 489 713 539 Q662 589 541 589 L471 589 L471 211 L626 211 L626 0 L87 0 L87 211 L211 211 L211 1264 L87 1264 L87 1475 L591 1475 Q857 1475 980 1361 Q1094 1256 1094 1044 Q1094 893 1037 809 Q987 734 879 694 Q998 639 1054 435 L1115 211 L1232 211 Z M578 799 Q713 799 766 859 Q814 913 814 1033 Q814 1171 746 1223 Q692 1265 578 1265 L471 1265 L471 799 L578 799 Z M477 1613 L657 1983 L932 1983 L669 1613 L477 1613 Z " />
<glyph glyph-name="racute" unicode="&#x155;" horiz-adv-x="814" d="M623 750 Q495 719 452 597 L452 211 L635 211 L635 0 L75 0 L75 211 L194 211 L194 788 L75 788 L75 999 L406 999 L406 759 L408 759 Q462 957 607 1006 Q648 1020 760 1020 L760 760 Q665 760 623 750 Z M308 1137 L488 1507 L763 1507 L500 1137 L308 1137 Z " />
<glyph glyph-name="Rcommaaccent" unicode="&#x156;" horiz-adv-x="1268" d="M1232 211 L1232 0 L896 0 L816 297 Q764 489 713 539 Q662 589 541 589 L471 589 L471 211 L626 211 L626 0 L87 0 L87 211 L211 211 L211 1264 L87 1264 L87 1475 L591 1475 Q857 1475 980 1361 Q1094 1256 1094 1044 Q1094 893 1037 809 Q987 734 879 694 Q998 639 1054 435 L1115 211 L1232 211 Z M578 799 Q713 799 766 859 Q814 913 814 1033 Q814 1171 746 1223 Q692 1265 578 1265 L471 1265 L471 799 L578 799 Z M552 -141 L818 -141 L573 -491 L400 -491 L552 -141 Z " />
<glyph glyph-name="rcommaaccent" unicode="&#x157;" horiz-adv-x="814" d="M623 750 Q495 719 452 597 L452 211 L635 211 L635 0 L75 0 L75 211 L194 211 L194 788 L75 788 L75 999 L406 999 L406 759 L408 759 Q462 957 607 1006 Q648 1020 760 1020 L760 760 Q665 760 623 750 Z M205 -141 L471 -141 L226 -491 L53 -491 L205 -141 Z " />
<glyph glyph-name="Rcaron" unicode="&#x158;" horiz-adv-x="1268" d="M1232 211 L1232 0 L896 0 L816 297 Q764 489 713 539 Q662 589 541 589 L471 589 L471 211 L626 211 L626 0 L87 0 L87 211 L211 211 L211 1264 L87 1264 L87 1475 L591 1475 Q857 1475 980 1361 Q1094 1256 1094 1044 Q1094 893 1037 809 Q987 734 879 694 Q998 639 1054 435 L1115 211 L1232 211 Z M578 799 Q713 799 766 859 Q814 913 814 1033 Q814 1171 746 1223 Q692 1265 578 1265 L471 1265 L471 799 L578 799 Z M933 1963 L727 1613 L490 1613 L283 1963 L464 1963 L608 1766 L754 1963 L933 1963 Z " />
<glyph glyph-name="rcaron" unicode="&#x159;" horiz-adv-x="814" d="M623 750 Q495 719 452 597 L452 211 L635 211 L635 0 L75 0 L75 211 L194 211 L194 788 L75 788 L75 999 L406 999 L406 759 L408 759 Q462 957 607 1006 Q648 1020 760 1020 L760 760 Q665 760 623 750 Z M764 1487 L558 1137 L321 1137 L114 1487 L295 1487 L439 1290 L585 1487 L764 1487 Z " />
<glyph glyph-name="Sacute" unicode="&#x15a;" horiz-adv-x="1105" d="M659 862 Q882 804 966 693 Q1040 595 1040 418 Q1040 -30 620 -30 Q407 -30 316 88 L311 0 L111 0 L111 434 L353 434 Q359 309 417 255 Q469 207 567 207 Q765 207 765 394 Q765 560 607 602 L459 641 Q272 690 188 807 Q113 911 113 1078 Q113 1294 233 1406 Q337 1504 514 1504 Q667 1504 745 1409 L745 1475 L955 1475 L955 1081 L740 1081 Q740 1178 685 1228 Q638 1272 556 1272 Q472 1272 426 1225.5 Q380 1179 380 1094 Q380 935 548 891 L659 862 Z M433 1613 L613 1983 L888 1983 L625 1613 L433 1613 Z " />
<glyph glyph-name="sacute" unicode="&#x15b;" horiz-adv-x="926" d="M592 606 Q744 574 808 496 Q866 424 866 298 Q866 133 768 48 Q686 -25 549 -25 Q349 -25 296 104 L296 -4 L96 -4 L96 321 L317 321 Q315 250 355 217 Q395 184 484 184 Q613 184 613 282 Q613 327 583 351 Q553 375 474 392 L354 417 Q205 448 145 528 Q93 597 93 722 Q93 875 190 959 Q271 1030 398 1030 Q557 1030 616 926 L616 1003 L807 1003 L807 699 L601 699 Q601 755 564.5 786.5 Q528 818 462 818 Q347 818 347 724 Q347 655 431 639 L592 606 Z M338 1137 L518 1507 L793 1507 L530 1137 L338 1137 Z " />
<glyph glyph-name="Scircumflex" unicode="&#x15c;" horiz-adv-x="1105" d="M659 862 Q882 804 966 693 Q1040 595 1040 418 Q1040 -30 620 -30 Q407 -30 316 88 L311 0 L111 0 L111 434 L353 434 Q359 309 417 255 Q469 207 567 207 Q765 207 765 394 Q765 560 607 602 L459 641 Q272 690 188 807 Q113 911 113 1078 Q113 1294 233 1406 Q337 1504 514 1504 Q667 1504 745 1409 L745 1475 L955 1475 L955 1081 L740 1081 Q740 1178 685 1228 Q638 1272 556 1272 Q472 1272 426 1225.5 Q380 1179 380 1094 Q380 935 548 891 L659 862 Z M563 1810 L419 1613 L238 1613 L445 1963 L682 1963 L888 1613 L709 1613 L563 1810 Z " />
<glyph glyph-name="scircumflex" unicode="&#x15d;" horiz-adv-x="926" d="M592 606 Q744 574 808 496 Q866 424 866 298 Q866 133 768 48 Q686 -25 549 -25 Q349 -25 296 104 L296 -4 L96 -4 L96 321 L317 321 Q315 250 355 217 Q395 184 484 184 Q613 184 613 282 Q613 327 583 351 Q553 375 474 392 L354 417 Q205 448 145 528 Q93 597 93 722 Q93 875 190 959 Q271 1030 398 1030 Q557 1030 616 926 L616 1003 L807 1003 L807 699 L601 699 Q601 755 564.5 786.5 Q528 818 462 818 Q347 818 347 724 Q347 655 431 639 L592 606 Z M468 1334 L324 1137 L143 1137 L350 1487 L587 1487 L793 1137 L614 1137 L468 1334 Z " />
<glyph glyph-name="Scedilla" unicode="&#x15e;" horiz-adv-x="1105" d="M509 -21 Q384 4 316 88 L311 0 L111 0 L111 434 L353 434 Q359 309 417 255 Q469 207 567 207 Q765 207 765 394 Q765 560 607 602 L459 641 Q272 690 188 807 Q113 911 113 1078 Q113 1294 233 1406 Q337 1504 514 1504 Q667 1504 745 1409 L745 1475 L955 1475 L955 1081 L740 1081 Q740 1178 685 1228 Q638 1272 556 1272 Q472 1272 426 1225.5 Q380 1179 380 1094 Q380 935 548 891 L659 862 Q882 804 966 693 Q1040 595 1040 418 Q1032 152 897 48 Q808 -20 646 -29 L609 -107 Q813 -97 813 -277 Q813 -497 559 -497 Q442 -497 343 -447 L343 -290 Q448 -336 528 -336 Q624 -336 624 -269 Q624 -209 558 -209 Q524 -209 476 -226 L460 -126 L509 -21 Z " />
<glyph glyph-name="scedilla" unicode="&#x15f;" horiz-adv-x="926" d="M403 0 Q327 32 296 104 L296 -4 L96 -4 L96 321 L317 321 Q315 250 355 217 Q395 184 484 184 Q613 184 613 282 Q613 327 583 351 Q553 375 474 392 L354 417 Q205 448 145 528 Q93 597 93 722 Q93 875 190 959 Q271 1030 398 1030 Q557 1030 616 926 L616 1003 L807 1003 L807 699 L601 699 Q601 755 564.5 786.5 Q528 818 462 818 Q347 818 347 724 Q347 655 431 639 L592 606 Q744 574 808 496 Q866 424 866 298 Q866 133 769 48 Q686 -25 549 -25 L532 -25 L493 -107 Q697 -97 697 -277 Q697 -497 443 -497 Q326 -497 227 -447 L227 -290 Q332 -336 412 -336 Q508 -336 508 -269 Q508 -209 442 -209 Q407 -209 360 -226 L344 -126 L403 0 Z " />
<glyph glyph-name="Scaron" unicode="&#x160;" horiz-adv-x="1105" d="M659 862 Q882 804 966 693 Q1040 595 1040 418 Q1040 -30 620 -30 Q407 -30 316 88 L311 0 L111 0 L111 434 L353 434 Q359 309 417 255 Q469 207 567 207 Q765 207 765 394 Q765 560 607 602 L459 641 Q272 690 188 807 Q113 911 113 1078 Q113 1294 233 1406 Q337 1504 514 1504 Q667 1504 745 1409 L745 1475 L955 1475 L955 1081 L740 1081 Q740 1178 685 1228 Q638 1272 556 1272 Q472 1272 426 1225.5 Q380 1179 380 1094 Q380 935 548 891 L659 862 Z M889 1963 L683 1613 L446 1613 L239 1963 L420 1963 L564 1766 L710 1963 L889 1963 Z " />
<glyph glyph-name="scaron" unicode="&#x161;" horiz-adv-x="926" d="M592 606 Q744 574 808 496 Q866 424 866 298 Q866 133 768 48 Q686 -25 549 -25 Q349 -25 296 104 L296 -4 L96 -4 L96 321 L317 321 Q315 250 355 217 Q395 184 484 184 Q613 184 613 282 Q613 327 583 351 Q553 375 474 392 L354 417 Q205 448 145 528 Q93 597 93 722 Q93 875 190 959 Q271 1030 398 1030 Q557 1030 616 926 L616 1003 L807 1003 L807 699 L601 699 Q601 755 564.5 786.5 Q528 818 462 818 Q347 818 347 724 Q347 655 431 639 L592 606 Z M794 1487 L588 1137 L351 1137 L144 1487 L325 1487 L469 1290 L615 1487 L794 1487 Z " />
<glyph glyph-name="Tcommaaccent" unicode="&#x162;" horiz-adv-x="1224" d="M1169 1475 L1169 1040 L934 1040 L934 1272 L746 1272 L746 211 L916 211 L916 0 L308 0 L308 211 L478 211 L478 1272 L290 1272 L290 1040 L55 1040 L55 1475 L1169 1475 Z M503 -141 L769 -141 L524 -491 L351 -491 L503 -141 Z " />
<glyph glyph-name="tcommaaccent" unicode="&#x163;" horiz-adv-x="705" d="M457 -14 Q291 -14 222 74 Q163 150 163 309 L163 788 L48 788 L48 999 L170 999 L170 1325 L407 1325 L407 999 L625 999 L625 788 L417 788 L417 308 Q417 252 446 228.5 Q475 205 542 205 Q575 205 633 208 L633 -4 Q553 -14 457 -14 Z M245 -141 L511 -141 L266 -491 L93 -491 L245 -141 Z " />
<glyph glyph-name="Tcaron" unicode="&#x164;" horiz-adv-x="1224" d="M1169 1475 L1169 1040 L934 1040 L934 1272 L746 1272 L746 211 L916 211 L916 0 L308 0 L308 211 L478 211 L478 1272 L290 1272 L290 1040 L55 1040 L55 1475 L1169 1475 Z M937 1963 L731 1613 L494 1613 L287 1963 L468 1963 L612 1766 L758 1963 L937 1963 Z " />
<glyph glyph-name="tcaron" unicode="&#x165;" horiz-adv-x="705" d="M457 -14 Q291 -14 222 74 Q163 150 163 309 L163 788 L48 788 L48 999 L170 999 L170 1325 L407 1325 L407 999 L625 999 L625 788 L417 788 L417 308 Q417 252 446 228.5 Q475 205 542 205 Q575 205 633 208 L633 -4 Q553 -14 457 -14 Z M515 1137 L555 1546 L804 1546 L679 1137 L515 1137 Z " />
<glyph glyph-name="Tbar" unicode="&#x166;" horiz-adv-x="1222" d="M478 640 L231 640 L231 834 L478 834 L478 1272 L290 1272 L290 1040 L55 1040 L55 1475 L1169 1475 L1169 1040 L934 1040 L934 1272 L746 1272 L746 834 L989 834 L989 640 L746 640 L746 211 L916 211 L916 0 L308 0 L308 211 L478 211 L478 640 Z " />
<glyph glyph-name="tbar" unicode="&#x167;" horiz-adv-x="751" d="M180 490 L63 490 L63 638 L180 638 L180 788 L65 788 L65 999 L187 999 L187 1325 L424 1325 L424 999 L642 999 L642 788 L434 788 L434 638 L633 638 L633 490 L434 490 L434 308 Q434 252 463 228.5 Q492 205 559 205 Q592 205 650 208 L650 -4 Q570 -14 474 -14 Q307 -14 239 74 Q180 150 180 309 L180 490 Z " />
<glyph glyph-name="Utilde" unicode="&#x168;" horiz-adv-x="1331" d="M659 -31 Q371 -31 257 152 Q213 222 194.5 331 Q176 440 176 628 L176 1260 L52 1260 L52 1475 L569 1475 L569 1260 L445 1260 L445 579 Q445 355 500 275 Q548 204 664 204 Q796 204 844 299 Q886 382 886 579 L886 1260 L761 1260 L761 1475 L1279 1475 L1279 1260 L1155 1260 L1155 628 Q1155 376 1114 246 Q1075 123 986 59 Q861 -31 659 -31 Z M329 1641 Q345 1886 543 1886 Q601 1886 696 1837 Q747 1810 778 1810 Q835 1810 835 1885 L1001 1885 Q991 1635 777 1635 Q713 1635 626 1680 Q579 1705 552 1705 Q528 1705 513 1687.5 Q498 1670 498 1641 L329 1641 Z " />
<glyph glyph-name="utilde" unicode="&#x169;" horiz-adv-x="1102" d="M1059 211 L1059 0 L738 0 L734 151 Q678 66 597.5 19 Q517 -28 428 -28 Q147 -28 147 307 L147 788 L38 788 L38 999 L405 999 L405 354 Q405 262 427 229 Q451 194 513 194 Q616 194 690 297 L690 788 L579 788 L579 999 L948 999 L948 211 L1059 211 Z M195 1165 Q211 1410 409 1410 Q467 1410 562 1361 Q613 1334 644 1334 Q701 1334 701 1409 L867 1409 Q857 1159 643 1159 Q579 1159 492 1204 Q445 1229 418 1229 Q394 1229 379 1211.5 Q364 1194 364 1165 L195 1165 Z " />
<glyph glyph-name="Umacron" unicode="&#x16a;" horiz-adv-x="1331" d="M659 -31 Q371 -31 257 152 Q213 222 194.5 331 Q176 440 176 628 L176 1260 L52 1260 L52 1475 L569 1475 L569 1260 L445 1260 L445 579 Q445 355 500 275 Q548 204 664 204 Q796 204 844 299 Q886 382 886 579 L886 1260 L761 1260 L761 1475 L1279 1475 L1279 1260 L1155 1260 L1155 628 Q1155 376 1114 246 Q1075 123 986 59 Q861 -31 659 -31 Z M387 1674 L387 1869 L941 1869 L941 1674 L387 1674 Z " />
<glyph glyph-name="umacron" unicode="&#x16b;" horiz-adv-x="1102" d="M1059 211 L1059 0 L738 0 L734 151 Q678 66 597.5 19 Q517 -28 428 -28 Q147 -28 147 307 L147 788 L38 788 L38 999 L405 999 L405 354 Q405 262 427 229 Q451 194 513 194 Q616 194 690 297 L690 788 L579 788 L579 999 L948 999 L948 211 L1059 211 Z M253 1198 L253 1393 L807 1393 L807 1198 L253 1198 Z " />
<glyph glyph-name="Ubreve" unicode="&#x16c;" horiz-adv-x="1331" d="M659 -31 Q371 -31 257 152 Q213 222 194.5 331 Q176 440 176 628 L176 1260 L52 1260 L52 1475 L569 1475 L569 1260 L445 1260 L445 579 Q445 355 500 275 Q548 204 664 204 Q796 204 844 299 Q886 382 886 579 L886 1260 L761 1260 L761 1475 L1279 1475 L1279 1260 L1155 1260 L1155 628 Q1155 376 1114 246 Q1075 123 986 59 Q861 -31 659 -31 Z M489 1939 Q496 1865 537.5 1831.5 Q579 1798 665 1798 Q751 1798 793.5 1832 Q836 1866 841 1939 L1019 1939 Q1012 1605 665 1605 Q318 1605 311 1939 L489 1939 Z " />
<glyph glyph-name="ubreve" unicode="&#x16d;" horiz-adv-x="1102" d="M1059 211 L1059 0 L738 0 L734 151 Q678 66 597.5 19 Q517 -28 428 -28 Q147 -28 147 307 L147 788 L38 788 L38 999 L405 999 L405 354 Q405 262 427 229 Q451 194 513 194 Q616 194 690 297 L690 788 L579 788 L579 999 L948 999 L948 211 L1059 211 Z M355 1463 Q362 1389 403.5 1355.5 Q445 1322 531 1322 Q617 1322 659.5 1356 Q702 1390 707 1463 L885 1463 Q878 1129 531 1129 Q184 1129 177 1463 L355 1463 Z " />
<glyph glyph-name="Uring" unicode="&#x16e;" horiz-adv-x="1331" d="M659 -31 Q371 -31 257 152 Q213 222 194.5 331 Q176 440 176 628 L176 1260 L52 1260 L52 1475 L569 1475 L569 1260 L445 1260 L445 579 Q445 355 500 275 Q548 204 664 204 Q796 204 844 299 Q886 382 886 579 L886 1260 L761 1260 L761 1475 L1279 1475 L1279 1260 L1155 1260 L1155 628 Q1155 376 1114 246 Q1075 123 986 59 Q861 -31 659 -31 Z M664 2047 Q782 2047 845 1973 Q897 1913 897 1820 Q897 1712 830 1650 Q768 1593 665 1593 Q547 1593 484 1667 Q432 1728 432 1823 Q432 1927 501 1990 Q563 2047 664 2047 Z M664 1924 Q569 1924 569 1821 Q569 1716 664 1716 Q759 1716 759 1820 Q759 1924 664 1924 Z " />
<glyph glyph-name="uring" unicode="&#x16f;" horiz-adv-x="1102" d="M1059 211 L1059 0 L738 0 L734 151 Q678 66 597.5 19 Q517 -28 428 -28 Q147 -28 147 307 L147 788 L38 788 L38 999 L405 999 L405 354 Q405 262 427 229 Q451 194 513 194 Q616 194 690 297 L690 788 L579 788 L579 999 L948 999 L948 211 L1059 211 Z M530 1571 Q648 1571 711 1497 Q763 1437 763 1344 Q763 1236 696 1174 Q634 1117 531 1117 Q413 1117 350 1191 Q298 1252 298 1347 Q298 1451 367 1514 Q429 1571 530 1571 Z M530 1448 Q435 1448 435 1345 Q435 1240 530 1240 Q625 1240 625 1344 Q625 1448 530 1448 Z " />
<glyph glyph-name="Uhungarumlaut" unicode="&#x170;" horiz-adv-x="1331" d="M659 -31 Q371 -31 257 152 Q213 222 194.5 331 Q176 440 176 628 L176 1260 L52 1260 L52 1475 L569 1475 L569 1260 L445 1260 L445 579 Q445 355 500 275 Q548 204 664 204 Q796 204 844 299 Q886 382 886 579 L886 1260 L761 1260 L761 1475 L1279 1475 L1279 1260 L1155 1260 L1155 628 Q1155 376 1114 246 Q1075 123 986 59 Q861 -31 659 -31 Z M403 1613 L546 1963 L776 1963 L546 1613 L403 1613 Z M702 1613 L874 1963 L1114 1963 L848 1613 L702 1613 Z " />
<glyph glyph-name="uhungarumlaut" unicode="&#x171;" horiz-adv-x="1102" d="M1059 211 L1059 0 L738 0 L734 151 Q678 66 597.5 19 Q517 -28 428 -28 Q147 -28 147 307 L147 788 L38 788 L38 999 L405 999 L405 354 Q405 262 427 229 Q451 194 513 194 Q616 194 690 297 L690 788 L579 788 L579 999 L948 999 L948 211 L1059 211 Z M269 1137 L412 1487 L642 1487 L412 1137 L269 1137 Z M568 1137 L740 1487 L980 1487 L714 1137 L568 1137 Z " />
<glyph glyph-name="Uogonek" unicode="&#x172;" horiz-adv-x="1331" d="M674 -31 L659 -31 Q371 -31 257 152 Q213 222 194.5 331 Q176 440 176 628 L176 1260 L52 1260 L52 1475 L569 1475 L569 1260 L445 1260 L445 579 Q445 355 500 275 Q548 204 664 204 Q796 204 844 299 Q886 382 886 579 L886 1260 L761 1260 L761 1475 L1279 1475 L1279 1260 L1155 1260 L1155 628 Q1155 376 1114 246 Q1075 123 986 59 Q939 27 897 11 L868 -12 Q794 -73 763.5 -117.5 Q733 -162 731 -211 Q731 -283 803 -283 L900 -283 L900 -448 L791 -448 Q647 -448 585 -397 Q530 -351 530 -261 Q532 -194 563.5 -143.5 Q595 -93 674 -31 Z " />
<glyph glyph-name="uogonek" unicode="&#x173;" horiz-adv-x="1102" d="M892 0 L738 0 L734 151 Q678 66 597.5 19 Q517 -28 428 -28 Q147 -28 147 307 L147 788 L38 788 L38 999 L405 999 L405 354 Q405 262 427 229 Q451 194 513 194 Q616 194 690 297 L690 788 L579 788 L579 999 L948 999 L948 211 L1059 211 L1059 0 Q962 -81 927.5 -127 Q893 -173 893 -222 Q893 -294 965 -294 L1062 -294 L1062 -459 L953 -459 Q809 -459 747 -408 Q692 -362 692 -272 Q692 -197 733 -141 Q774 -85 892 0 Z " />
<glyph glyph-name="Wcircumflex" unicode="&#x174;" horiz-adv-x="1684" d="M1679 1264 L1571 1264 L1326 0 L1101 0 L900 796 L895 818 Q862 951 841 1065 Q819 943 782 796 L581 0 L356 0 L111 1264 L3 1264 L3 1475 L500 1475 L500 1264 L376 1264 L446 715 Q464 569 486 455 Q519 591 535 660 Q540 681 548 715 L731 1480 L950 1480 L1133 715 L1142 677 L1196 456 Q1215 558 1236 715 L1306 1264 L1182 1264 L1182 1475 L1679 1475 L1679 1264 Z M844 1810 L700 1613 L519 1613 L726 1963 L963 1963 L1169 1613 L990 1613 L844 1810 Z " />
<glyph glyph-name="wcircumflex" unicode="&#x175;" horiz-adv-x="1420" d="M546 0 L313 0 L107 788 L9 788 L9 999 L474 999 L474 788 L349 788 L398 541 Q403 515 417 451 Q434 375 442 316 L447 316 Q458 413 485 510 L621 999 L822 999 L955 509 L958 497 Q985 402 998 316 L1003 316 Q1017 412 1050 537 L1116 788 L986 788 L986 999 L1431 999 L1431 788 L1330 788 L1114 0 L888 0 L764 481 Q754 521 742 591 Q731 652 723 685 L718 685 L707 630 Q687 532 674 482 L546 0 Z M716 1334 L572 1137 L391 1137 L598 1487 L835 1487 L1041 1137 L862 1137 L716 1334 Z " />
<glyph glyph-name="Ycircumflex" unicode="&#x176;" horiz-adv-x="1197" d="M731 619 L731 211 L885 211 L885 0 L312 0 L312 211 L466 211 L466 624 L103 1264 L-7 1264 L-7 1475 L535 1475 L535 1264 L397 1264 L612 835 L827 1264 L686 1264 L686 1475 L1201 1475 L1201 1264 L1092 1264 L731 619 Z M608 1810 L464 1613 L283 1613 L490 1963 L727 1963 L933 1613 L754 1613 L608 1810 Z " />
<glyph glyph-name="ycircumflex" unicode="&#x177;" horiz-adv-x="976" d="M984 788 L900 788 L587 -58 Q538 -191 498.5 -257.5 Q459 -324 409 -360 Q323 -420 121 -422 L121 -197 Q218 -195 260 -171 Q306 -145 334 -75 L366 7 L83 788 L-6 788 L-6 999 L443 999 L443 792 L338 792 L447 410 Q462 355 484 293 Q488 280 490 274 L495 274 Q497 282 507 314 Q524 362 536 405 L649 792 L544 792 L544 999 L984 999 L984 788 Z M488 1334 L344 1137 L163 1137 L370 1487 L607 1487 L813 1137 L634 1137 L488 1334 Z " />
<glyph glyph-name="Zacute" unicode="&#x179;" horiz-adv-x="1104" d="M1017 440 L1017 0 L76 0 L76 208 L710 1264 L342 1264 L342 1062 L107 1062 L107 1475 L1016 1475 L1016 1288 L372 211 L782 211 L782 440 L1017 440 Z M425 1613 L605 1983 L880 1983 L617 1613 L425 1613 Z " />
<glyph glyph-name="zacute" unicode="&#x17a;" horiz-adv-x="934" d="M873 378 L873 0 L75 0 L75 196 L567 797 L315 797 L315 668 L109 668 L109 999 L854 999 L854 792 L371 203 L667 203 L667 378 L873 378 Z M360 1137 L540 1507 L815 1507 L552 1137 L360 1137 Z " />
<glyph glyph-name="Zdotaccent" unicode="&#x17b;" horiz-adv-x="1104" d="M1017 440 L1017 0 L76 0 L76 208 L710 1264 L342 1264 L342 1062 L107 1062 L107 1475 L1016 1475 L1016 1288 L372 211 L782 211 L782 440 L1017 440 Z M414 1895 L691 1895 L691 1612 L414 1612 L414 1895 Z " />
<glyph glyph-name="zdotaccent" unicode="&#x17c;" horiz-adv-x="934" d="M873 378 L873 0 L75 0 L75 196 L567 797 L315 797 L315 668 L109 668 L109 999 L854 999 L854 792 L371 203 L667 203 L667 378 L873 378 Z M349 1419 L626 1419 L626 1136 L349 1136 L349 1419 Z " />
<glyph glyph-name="Zcaron" unicode="&#x17d;" horiz-adv-x="1104" d="M1017 440 L1017 0 L76 0 L76 208 L710 1264 L342 1264 L342 1062 L107 1062 L107 1475 L1016 1475 L1016 1288 L372 211 L782 211 L782 440 L1017 440 Z M881 1963 L675 1613 L438 1613 L231 1963 L412 1963 L556 1766 L702 1963 L881 1963 Z " />
<glyph glyph-name="zcaron" unicode="&#x17e;" horiz-adv-x="934" d="M873 378 L873 0 L75 0 L75 196 L567 797 L315 797 L315 668 L109 668 L109 999 L854 999 L854 792 L371 203 L667 203 L667 378 L873 378 Z M816 1487 L610 1137 L373 1137 L166 1487 L347 1487 L491 1290 L637 1487 L816 1487 Z " />
<glyph glyph-name="uni018F" unicode="&#x18f;" horiz-adv-x="1248" d="M597 1498 Q1165 1498 1165 719 Q1165 330 1004 132 Q861 -44 609 -44 Q322 -44 191 162 Q78 340 78 681 Q78 754 83 833 L886 833 Q871 1245 586 1245 Q398 1245 252 1124 L135 1338 Q344 1498 597 1498 Z M615 201 Q875 201 887 606 L353 606 Q359 201 615 201 Z " />
<glyph glyph-name="uni01CD" unicode="&#x1cd;" horiz-adv-x="1284" d="M1258 211 L1258 0 L767 0 L767 211 L898 211 L841 429 L434 429 L375 211 L518 211 L518 0 L20 0 L20 211 L110 211 L492 1475 L782 1475 L1164 211 L1258 211 Z M485 636 L790 636 L641 1188 L630 1188 L485 636 Z M957 1963 L751 1613 L514 1613 L307 1963 L488 1963 L632 1766 L778 1963 L957 1963 Z " />
<glyph glyph-name="uni01CE" unicode="&#x1ce;" horiz-adv-x="1034" d="M994 211 L994 0 L706 0 L703 152 Q677 66 587 16 Q509 -27 410 -27 Q229 -27 142 66 Q66 148 66 295 Q66 607 432 607 L640 607 L640 672 Q640 754 609.5 789 Q579 824 507 824 Q445 824 419.5 798.5 Q394 773 393 710 L136 710 Q138 885 235 960 Q322 1028 498 1028 Q734 1028 812 939 Q884 857 884 641 L884 211 L994 211 Z M621 245 Q640 278 640 329 L640 427 L492 427 Q407 427 370 398 Q333 369 333 302 Q333 177 468 177 Q582 177 621 245 Z M831 1487 L625 1137 L388 1137 L181 1487 L362 1487 L506 1290 L652 1487 L831 1487 Z " />
<glyph glyph-name="uni01D3" unicode="&#x1d3;" horiz-adv-x="1331" d="M659 -31 Q371 -31 257 152 Q213 222 194.5 331 Q176 440 176 628 L176 1260 L52 1260 L52 1475 L569 1475 L569 1260 L445 1260 L445 579 Q445 355 500 275 Q548 204 664 204 Q796 204 844 299 Q886 382 886 579 L886 1260 L761 1260 L761 1475 L1279 1475 L1279 1260 L1155 1260 L1155 628 Q1155 376 1114 246 Q1075 123 986 59 Q861 -31 659 -31 Z M989 1963 L783 1613 L546 1613 L339 1963 L520 1963 L664 1766 L810 1963 L989 1963 Z " />
<glyph glyph-name="uni01D4" unicode="&#x1d4;" horiz-adv-x="1102" d="M1059 211 L1059 0 L738 0 L734 151 Q678 66 597.5 19 Q517 -28 428 -28 Q147 -28 147 307 L147 788 L38 788 L38 999 L405 999 L405 354 Q405 262 427 229 Q451 194 513 194 Q616 194 690 297 L690 788 L579 788 L579 999 L948 999 L948 211 L1059 211 Z M855 1487 L649 1137 L412 1137 L205 1487 L386 1487 L530 1290 L676 1487 L855 1487 Z " />
<glyph glyph-name="uni01DD" unicode="&#x1dd;" horiz-adv-x="948" d="M432 1028 Q673 1028 792 876 Q896 744 896 507 Q896 228 774 92 Q666 -29 468 -29 Q240 -29 139 128 Q53 262 53 517 Q53 554 55 597 L635 597 Q609 808 412 808 Q286 808 182 727 L73 915 Q227 1028 432 1028 Z M466 175 Q547 175 592.5 238.5 Q638 302 639 417 L304 417 Q304 281 349 224 Q388 175 466 175 Z " />
<glyph glyph-name="Gcaron" unicode="&#x1e6;" horiz-adv-x="1285" d="M907 243 L907 542 L638 542 L638 753 L1151 753 L1151 84 Q943 -31 704 -31 Q95 -31 95 716 Q95 1124 255 1327 Q396 1505 646 1505 Q814 1505 911 1409 L911 1475 L1121 1475 L1121 1041 L906 1041 Q906 1162 841 1221 Q785 1272 689 1272 Q373 1272 373 715 Q373 424 465 307 Q544 206 710 206 Q816 206 907 243 Z M988 1963 L782 1613 L545 1613 L338 1963 L519 1963 L663 1766 L809 1963 L988 1963 Z " />
<glyph glyph-name="gcaron" unicode="&#x1e7;" horiz-adv-x="1094" d="M1052 999 L1052 788 L944 788 L944 6 Q944 -251 843 -353 Q747 -450 528 -450 Q301 -450 207 -354 Q128 -274 128 -109 L363 -109 Q363 -180 400.5 -210 Q438 -240 528 -240 Q626 -240 666.5 -185 Q707 -130 707 1 L707 121 Q648 -13 468 -13 Q268 -13 165 146 Q78 281 78 504 Q78 765 195 906 Q297 1028 464 1028 Q652 1028 745 849 L745 999 L1052 999 Z M524 203 Q618 203 658 290 Q691 363 691 506 Q691 806 522 806 Q348 806 348 506 Q348 203 524 203 Z M845 1487 L639 1137 L402 1137 L195 1487 L376 1487 L520 1290 L666 1487 L845 1487 Z " />
<glyph glyph-name="uni01F4" unicode="&#x1f4;" horiz-adv-x="1285" d="M907 243 L907 542 L638 542 L638 753 L1151 753 L1151 84 Q943 -31 704 -31 Q95 -31 95 716 Q95 1124 255 1327 Q396 1505 646 1505 Q814 1505 911 1409 L911 1475 L1121 1475 L1121 1041 L906 1041 Q906 1162 841 1221 Q785 1272 689 1272 Q373 1272 373 715 Q373 424 465 307 Q544 206 710 206 Q816 206 907 243 Z M532 1613 L712 1983 L987 1983 L724 1613 L532 1613 Z " />
<glyph glyph-name="uni01F5" unicode="&#x1f5;" horiz-adv-x="1094" d="M1052 999 L1052 788 L944 788 L944 6 Q944 -251 843 -353 Q747 -450 528 -450 Q301 -450 207 -354 Q128 -274 128 -109 L363 -109 Q363 -180 400.5 -210 Q438 -240 528 -240 Q626 -240 666.5 -185 Q707 -130 707 1 L707 121 Q648 -13 468 -13 Q268 -13 165 146 Q78 281 78 504 Q78 765 195 906 Q297 1028 464 1028 Q652 1028 745 849 L745 999 L1052 999 Z M524 203 Q618 203 658 290 Q691 363 691 506 Q691 806 522 806 Q348 806 348 506 Q348 203 524 203 Z M389 1137 L569 1507 L844 1507 L581 1137 L389 1137 Z " />
<glyph glyph-name="Scommaaccent" unicode="&#x218;" horiz-adv-x="1105" d="M659 862 Q882 804 966 693 Q1040 595 1040 418 Q1040 -30 620 -30 Q407 -30 316 88 L311 0 L111 0 L111 434 L353 434 Q359 309 417 255 Q469 207 567 207 Q765 207 765 394 Q765 560 607 602 L459 641 Q272 690 188 807 Q113 911 113 1078 Q113 1294 233 1406 Q337 1504 514 1504 Q667 1504 745 1409 L745 1475 L955 1475 L955 1081 L740 1081 Q740 1178 685 1228 Q638 1272 556 1272 Q472 1272 426 1225.5 Q380 1179 380 1094 Q380 935 548 891 L659 862 Z M469 -141 L735 -141 L490 -491 L317 -491 L469 -141 Z " />
<glyph glyph-name="scommaaccent" unicode="&#x219;" horiz-adv-x="926" d="M592 606 Q744 574 808 496 Q866 424 866 298 Q866 133 768 48 Q686 -25 549 -25 Q349 -25 296 104 L296 -4 L96 -4 L96 321 L317 321 Q315 250 355 217 Q395 184 484 184 Q613 184 613 282 Q613 327 583 351 Q553 375 474 392 L354 417 Q205 448 145 528 Q93 597 93 722 Q93 875 190 959 Q271 1030 398 1030 Q557 1030 616 926 L616 1003 L807 1003 L807 699 L601 699 Q601 755 564.5 786.5 Q528 818 462 818 Q347 818 347 724 Q347 655 431 639 L592 606 Z M353 -141 L619 -141 L374 -491 L201 -491 L353 -141 Z " />
<glyph glyph-name="uni021A" unicode="&#x21a;" horiz-adv-x="1224" d="M1169 1475 L1169 1040 L934 1040 L934 1272 L746 1272 L746 211 L916 211 L916 0 L308 0 L308 211 L478 211 L478 1272 L290 1272 L290 1040 L55 1040 L55 1475 L1169 1475 Z M503 -141 L769 -141 L524 -491 L351 -491 L503 -141 Z " />
<glyph glyph-name="uni021B" unicode="&#x21b;" horiz-adv-x="705" d="M457 -14 Q291 -14 222 74 Q163 150 163 309 L163 788 L48 788 L48 999 L170 999 L170 1325 L407 1325 L407 999 L625 999 L625 788 L417 788 L417 308 Q417 252 446 228.5 Q475 205 542 205 Q575 205 633 208 L633 -4 Q553 -14 457 -14 Z M245 -141 L511 -141 L266 -491 L93 -491 L245 -141 Z " />
<glyph glyph-name="uni0226" unicode="&#x226;" horiz-adv-x="1284" d="M1258 211 L1258 0 L767 0 L767 211 L898 211 L841 429 L434 429 L375 211 L518 211 L518 0 L20 0 L20 211 L110 211 L492 1475 L782 1475 L1164 211 L1258 211 Z M485 636 L790 636 L641 1188 L630 1188 L485 636 Z M490 1895 L767 1895 L767 1612 L490 1612 L490 1895 Z " />
<glyph glyph-name="uni0227" unicode="&#x227;" horiz-adv-x="1034" d="M994 211 L994 0 L706 0 L703 152 Q677 66 587 16 Q509 -27 410 -27 Q229 -27 142 66 Q66 148 66 295 Q66 607 432 607 L640 607 L640 672 Q640 754 609.5 789 Q579 824 507 824 Q445 824 419.5 798.5 Q394 773 393 710 L136 710 Q138 885 235 960 Q322 1028 498 1028 Q734 1028 812 939 Q884 857 884 641 L884 211 L994 211 Z M621 245 Q640 278 640 329 L640 427 L492 427 Q407 427 370 398 Q333 369 333 302 Q333 177 468 177 Q582 177 621 245 Z M364 1419 L641 1419 L641 1136 L364 1136 L364 1419 Z " />
<glyph glyph-name="uni0237" unicode="&#x237;" horiz-adv-x="542" d="M48 -198 Q112 -195 140 -160.5 Q168 -126 168 -52 L168 788 L57 788 L57 999 L427 999 L427 28 Q427 -147 398 -237 Q366 -337 284 -380 Q204 -422 48 -422 L48 -198 Z " />
<glyph glyph-name="uni0259" unicode="&#x259;" horiz-adv-x="948" d="M432 1028 Q673 1028 792 876 Q896 744 896 507 Q896 228 774 92 Q666 -29 468 -29 Q240 -29 139 128 Q53 262 53 517 Q53 554 55 597 L635 597 Q609 808 412 808 Q286 808 182 727 L73 915 Q227 1028 432 1028 Z M466 175 Q547 175 592.5 238.5 Q638 302 639 417 L304 417 Q304 281 349 224 Q388 175 466 175 Z " />
<glyph glyph-name="uni02C9" unicode="&#x2c9;" horiz-adv-x="800" d="M123 1198 L123 1393 L677 1393 L677 1198 L123 1198 Z " />
<glyph glyph-name="uni0312" unicode="&#x312;" horiz-adv-x="600" d="M446 1487 L294 1137 L28 1137 L273 1487 L446 1487 Z " />
<glyph glyph-name="uni0313" unicode="&#x313;" horiz-adv-x="600" d="M29 1137 L69 1546 L318 1546 L193 1137 L29 1137 Z " />
<glyph glyph-name="uni031B" unicode="&#x31b;" horiz-adv-x="600" d="M29 1137 L69 1546 L318 1546 L193 1137 L29 1137 Z " />
<glyph glyph-name="commaaccent" unicode="&#x326;" horiz-adv-x="800" d="M343 -141 L609 -141 L364 -491 L191 -491 L343 -141 Z " />
<glyph glyph-name="uni037E" unicode="&#x37e;" horiz-adv-x="630" d="M164 644 L164 941 L441 941 L441 644 L164 644 Z M58 -293 L184 297 L462 297 L299 -293 L58 -293 Z " />
<glyph glyph-name="uni0387" unicode="&#x387;" horiz-adv-x="574" d="M148 422 L148 719 L425 719 L425 422 L148 422 Z " />
<glyph glyph-name="uni0400" unicode="&#x400;" horiz-adv-x="1153" d="M1068 437 L1068 0 L87 0 L87 211 L211 211 L211 1264 L87 1264 L87 1475 L1037 1475 L1037 1086 L792 1086 L792 1264 L474 1264 L474 864 L825 864 L825 653 L474 653 L474 211 L827 211 L827 437 L1068 437 Z M270 1983 L545 1983 L725 1613 L533 1613 L270 1983 Z " />
<glyph glyph-name="afii10023" unicode="&#x401;" horiz-adv-x="1153" d="M1068 437 L1068 0 L87 0 L87 211 L211 211 L211 1264 L87 1264 L87 1475 L1037 1475 L1037 1086 L792 1086 L792 1264 L474 1264 L474 864 L825 864 L825 653 L474 653 L474 211 L827 211 L827 437 L1068 437 Z M297 1642 L297 1889 L526 1889 L526 1642 L297 1642 Z M664 1642 L664 1889 L893 1889 L893 1642 L664 1642 Z " />
<glyph glyph-name="afii10051" unicode="&#x402;" horiz-adv-x="1512" d="M1074 923 Q1268 923 1341 808 Q1403 711 1403 495 L1403 21 Q1403 -156 1372 -248 Q1337 -353 1248 -398 Q1158 -445 987 -445 L987 -214 Q1082 -210 1115 -160 Q1143 -119 1143 -26 L1143 494 Q1143 601 1113 643 Q1080 691 996 691 Q917 691 863 668 Q809 645 746 585 L746 211 L880 211 L880 0 L326 0 L326 211 L484 211 L484 1264 L300 1264 L300 1040 L65 1040 L65 1475 L1185 1475 L1185 1057 L950 1057 L950 1264 L746 1264 L746 826 Q833 880 906.5 901.5 Q980 923 1074 923 Z " />
<glyph glyph-name="afii10052" unicode="&#x403;" horiz-adv-x="1094" d="M1053 1475 L1053 1038 L813 1038 L813 1264 L474 1264 L474 211 L657 211 L657 0 L87 0 L87 211 L211 211 L211 1264 L87 1264 L87 1475 L1053 1475 Z M460 1613 L640 1983 L915 1983 L652 1613 L460 1613 Z " />
<glyph glyph-name="afii10053" unicode="&#x404;" horiz-adv-x="1187" d="M1109 137 Q930 -31 666 -31 Q359 -31 218 179 Q96 363 96 713 Q96 1117 251 1322 Q387 1501 622 1501 Q785 1501 868 1406 L868 1475 L1073 1475 L1073 1021 L858 1021 Q858 1273 670 1273 Q535 1273 458 1145 Q392 1033 377 837 L891 837 L891 622 L376 622 Q406 213 684 213 Q852 213 969 328 L1109 137 Z " />
<glyph glyph-name="afii10054" unicode="&#x405;" horiz-adv-x="1105" d="M659 862 Q882 804 966 693 Q1040 595 1040 418 Q1040 -30 620 -30 Q407 -30 316 88 L311 0 L111 0 L111 434 L353 434 Q359 309 417 255 Q469 207 567 207 Q765 207 765 394 Q765 560 607 602 L459 641 Q272 690 188 807 Q113 911 113 1078 Q113 1294 233 1406 Q337 1504 514 1504 Q667 1504 745 1409 L745 1475 L955 1475 L955 1081 L740 1081 Q740 1178 685 1228 Q638 1272 556 1272 Q472 1272 426 1225.5 Q380 1179 380 1094 Q380 935 548 891 L659 862 Z " />
<glyph glyph-name="afii10055" unicode="&#x406;" horiz-adv-x="688" d="M601 211 L601 0 L87 0 L87 211 L211 211 L211 1264 L87 1264 L87 1475 L601 1475 L601 1264 L477 1264 L477 211 L601 211 Z " />
<glyph glyph-name="afii10056" unicode="&#x407;" horiz-adv-x="688" d="M601 211 L601 0 L87 0 L87 211 L211 211 L211 1264 L87 1264 L87 1475 L601 1475 L601 1264 L477 1264 L477 211 L601 211 Z M54 1642 L54 1889 L283 1889 L283 1642 L54 1642 Z M409 1642 L409 1889 L638 1889 L638 1642 L409 1642 Z " />
<glyph glyph-name="afii10057" unicode="&#x408;" horiz-adv-x="679" d="M607 1264 L483 1264 L483 121 Q483 -60 451 -154 Q415 -261 325 -307 Q234 -355 59 -355 L59 -115 Q154 -111 187 -61 Q215 -20 215 72 L215 1264 L81 1264 L81 1475 L607 1475 L607 1264 Z " />
<glyph glyph-name="afii10058" unicode="&#x409;" horiz-adv-x="1886" d="M881 1264 L571 1264 L571 1200 Q571 913 549 639.5 Q527 366 495 253 Q453 103 369 48 Q295 0 154 0 L51 0 L51 224 L105 224 Q182 224 215 277 Q257 344 281 603 Q307 887 307 1211 L307 1264 L156 1264 L156 1475 L1305 1475 L1305 1264 L1146 1264 L1146 897 L1319 897 Q1572 897 1705 763 Q1820 646 1820 448 Q1820 221 1671 103 Q1540 0 1319 0 L747 0 L747 211 L881 211 L881 1264 Z M1146 211 L1260 211 Q1418 211 1486 275 Q1546 331 1546 444 Q1546 687 1260 687 L1146 687 L1146 211 Z " />
<glyph glyph-name="afii10059" unicode="&#x40a;" horiz-adv-x="1900" d="M1342 878 Q1573 878 1703 764 Q1834 650 1834 436 Q1834 197 1667 84 Q1541 0 1342 0 L776 0 L776 211 L900 211 L900 660 L477 660 L477 211 L601 211 L601 0 L87 0 L87 211 L211 211 L211 1264 L87 1264 L87 1475 L601 1475 L601 1264 L477 1264 L477 875 L900 875 L900 1264 L776 1264 L776 1475 L1319 1475 L1319 1264 L1160 1264 L1160 878 L1342 878 Z M1283 211 Q1560 211 1560 441 Q1560 555 1492.5 609.5 Q1425 664 1283 664 L1160 664 L1160 211 L1283 211 Z " />
<glyph glyph-name="afii10060" unicode="&#x40b;" horiz-adv-x="1604" d="M1555 211 L1555 0 L1035 0 L1035 211 L1163 211 L1163 494 Q1163 599 1133 641 Q1100 688 1016 688 Q931 688 869.5 664.5 Q808 641 746 584 L746 211 L880 211 L880 0 L326 0 L326 211 L484 211 L484 1264 L300 1264 L300 1040 L65 1040 L65 1475 L1185 1475 L1185 1057 L950 1057 L950 1264 L746 1264 L746 824 Q841 879 918.5 901 Q996 923 1094 923 Q1288 923 1362 807 Q1423 712 1423 509 L1423 211 L1555 211 Z " />
<glyph glyph-name="afii10061" unicode="&#x40c;" horiz-adv-x="1322" d="M1267 211 L1267 0 L929 0 L776 401 Q713 568 672.5 613.5 Q632 659 547 659 L471 659 L471 211 L612 211 L612 0 L87 0 L87 211 L211 211 L211 1263 L87 1263 L87 1475 L596 1475 L596 1263 L471 1263 L471 871 L616 871 L854 1263 L724 1263 L724 1475 L1236 1475 L1236 1263 L1112 1263 L833 801 Q891 768 933 702.5 Q975 637 1032 490 L1137 211 L1267 211 Z M521 1613 L701 1983 L976 1983 L713 1613 L521 1613 Z " />
<glyph glyph-name="uni040D" unicode="&#x40d;" horiz-adv-x="1408" d="M211 211 L211 1264 L87 1264 L87 1475 L597 1475 L597 1264 L451 1264 L451 483 L438 230 Q480 399 509 483 L853 1475 L1321 1475 L1321 1264 L1197 1264 L1197 211 L1321 211 L1321 0 L779 0 L779 211 L957 211 L957 1046 L965 1230 Q941 1129 912 1046 L545 0 L87 0 L87 211 L211 211 Z M399 1983 L674 1983 L854 1613 L662 1613 L399 1983 Z " />
<glyph glyph-name="afii10062" unicode="&#x40e;" horiz-adv-x="1221" d="M1215 1264 L1114 1264 L570 0 L242 0 L242 211 L388 211 L493 453 L131 1264 L9 1264 L9 1475 L530 1475 L530 1264 L412 1264 L622 724 L835 1264 L721 1264 L721 1475 L1215 1475 L1215 1264 Z M438 1945 Q445 1871 486.5 1837.5 Q528 1804 614 1804 Q700 1804 742.5 1838 Q785 1872 790 1945 L968 1945 Q961 1611 614 1611 Q267 1611 260 1945 L438 1945 Z " />
<glyph glyph-name="afii10145" unicode="&#x40f;" horiz-adv-x="1339" d="M1128 1265 L1128 210 L1252 210 L1252 0 L804 0 L772 -360 L567 -360 L535 0 L87 0 L87 210 L211 210 L211 1265 L87 1265 L87 1475 L601 1475 L601 1265 L478 1265 L478 210 L861 210 L861 1265 L738 1265 L738 1475 L1252 1475 L1252 1265 L1128 1265 Z " />
<glyph glyph-name="afii10017" unicode="&#x410;" horiz-adv-x="1284" d="M1258 211 L1258 0 L767 0 L767 211 L898 211 L841 429 L434 429 L375 211 L518 211 L518 0 L20 0 L20 211 L110 211 L492 1475 L782 1475 L1164 211 L1258 211 Z M485 636 L790 636 L641 1188 L630 1188 L485 636 Z " />
<glyph glyph-name="afii10018" unicode="&#x411;" horiz-adv-x="1229" d="M654 846 Q917 846 1044 717 Q1151 609 1151 422 Q1151 0 653 0 L87 0 L87 211 L211 211 L211 1264 L87 1264 L87 1475 L1042 1475 L1042 1038 L802 1038 L802 1264 L474 1264 L474 846 L654 846 Z M647 211 Q766 211 826 275 Q876 328 876 418 Q876 539 809 590 Q752 633 636 633 L474 633 L474 211 L647 211 Z " />
<glyph glyph-name="afii10019" unicode="&#x412;" horiz-adv-x="1210" d="M870 785 Q1002 753 1068 652 Q1126 564 1126 431 Q1126 209 975 97 Q843 0 612 0 L87 0 L87 211 L211 211 L211 1264 L87 1264 L87 1475 L580 1475 Q1060 1475 1060 1093 Q1060 973 1014.5 899 Q969 825 870 785 Z M787 1074 Q787 1170 725 1220 Q671 1264 577 1264 L471 1264 L471 883 L586 883 Q787 883 787 1074 Z M591 211 Q730 211 790 273 Q842 327 842 439 Q842 567 775 623 Q716 672 596 672 L471 672 L471 211 L591 211 Z " />
<glyph glyph-name="afii10020" unicode="&#x413;" horiz-adv-x="1094" d="M1053 1475 L1053 1038 L813 1038 L813 1264 L474 1264 L474 211 L657 211 L657 0 L87 0 L87 211 L211 211 L211 1264 L87 1264 L87 1475 L1053 1475 Z " />
<glyph glyph-name="afii10021" unicode="&#x414;" horiz-adv-x="1373" d="M1058 0 L309 0 L286 -360 L59 -360 L59 211 L200 211 Q242 296 273 479 Q323 776 323 1214 L323 1273 L163 1273 L163 1484 L1284 1484 L1284 1273 L1140 1273 L1140 211 L1308 211 L1308 -360 L1081 -360 L1058 0 Z M876 211 L876 1282 L581 1282 L581 1180 Q581 737 535 459 Q512 322 481 211 L876 211 Z " />
<glyph glyph-name="afii10022" unicode="&#x415;" horiz-adv-x="1153" d="M1068 437 L1068 0 L87 0 L87 211 L211 211 L211 1264 L87 1264 L87 1475 L1037 1475 L1037 1086 L792 1086 L792 1264 L474 1264 L474 864 L825 864 L825 653 L474 653 L474 211 L827 211 L827 437 L1068 437 Z " />
<glyph glyph-name="afii10024" unicode="&#x416;" horiz-adv-x="1903" d="M1848 211 L1848 0 L1521 0 L1381 401 Q1325 562 1282 610.5 Q1239 659 1152 659 L1080 659 L1080 211 L1221 211 L1221 0 L682 0 L682 211 L823 211 L823 659 L751 659 Q658 659 611 598 Q574 549 522 401 L382 0 L55 0 L55 211 L174 211 L271 489 Q321 632 363 700 Q405 768 465 801 L186 1264 L61 1264 L61 1475 L569 1475 L569 1264 L444 1264 L682 871 L823 871 L823 1264 L682 1264 L682 1475 L1210 1475 L1210 1264 L1080 1264 L1080 871 L1221 871 L1459 1264 L1334 1264 L1334 1475 L1842 1475 L1842 1264 L1717 1264 L1438 801 Q1498 767 1540 699.5 Q1582 632 1632 489 L1729 211 L1848 211 Z " />
<glyph glyph-name="afii10025" unicode="&#x417;" horiz-adv-x="1120" d="M805 795 Q1031 693 1031 429 Q1031 199 869 78 Q728 -28 492 -28 Q215 -28 37 135 L176 331 Q308 216 489 216 Q616 216 689 276 Q756 332 756 427 Q756 668 474 668 L315 668 L315 880 L431 880 Q601 880 669 937 Q726 985 726 1087 Q726 1274 516 1274 Q319 1274 299 1053 L115 1053 L115 1475 L296 1475 L296 1408 Q388 1504 547 1504 Q765 1504 881 1393 Q982 1295 982 1132 Q982 898 805 795 Z " />
<glyph glyph-name="afii10026" unicode="&#x418;" horiz-adv-x="1408" d="M211 211 L211 1264 L87 1264 L87 1475 L597 1475 L597 1264 L451 1264 L451 483 L438 230 Q480 399 509 483 L853 1475 L1321 1475 L1321 1264 L1197 1264 L1197 211 L1321 211 L1321 0 L779 0 L779 211 L957 211 L957 1046 L965 1230 Q941 1129 912 1046 L545 0 L87 0 L87 211 L211 211 Z " />
<glyph glyph-name="afii10027" unicode="&#x419;" horiz-adv-x="1408" d="M211 211 L211 1264 L87 1264 L87 1475 L597 1475 L597 1264 L451 1264 L451 483 L438 230 Q480 399 509 483 L853 1475 L1321 1475 L1321 1264 L1197 1264 L1197 211 L1321 211 L1321 0 L779 0 L779 211 L957 211 L957 1046 L965 1230 Q941 1129 912 1046 L545 0 L87 0 L87 211 L211 211 Z M543 1945 Q550 1871 591.5 1837.5 Q633 1804 719 1804 Q805 1804 847.5 1838 Q890 1872 895 1945 L1073 1945 Q1066 1611 719 1611 Q372 1611 365 1945 L543 1945 Z " />
<glyph glyph-name="afii10028" unicode="&#x41a;" horiz-adv-x="1322" d="M1267 211 L1267 0 L929 0 L776 401 Q713 568 672.5 613.5 Q632 659 547 659 L471 659 L471 211 L612 211 L612 0 L87 0 L87 211 L211 211 L211 1263 L87 1263 L87 1475 L596 1475 L596 1263 L471 1263 L471 871 L616 871 L854 1263 L724 1263 L724 1475 L1236 1475 L1236 1263 L1112 1263 L833 801 Q891 768 933 702.5 Q975 637 1032 490 L1137 211 L1267 211 Z " />
<glyph glyph-name="afii10029" unicode="&#x41b;" horiz-adv-x="1351" d="M156 1264 L156 1475 L1264 1475 L1264 1264 L1132 1264 L1132 211 L1264 211 L1264 0 L705 0 L705 211 L862 211 L862 1264 L571 1264 L571 1200 Q571 913 549 639.5 Q527 366 495 253 Q453 103 369 48 Q295 0 154 0 L51 0 L51 224 L105 224 Q182 224 215 277 Q257 344 281 603 Q307 887 307 1211 L307 1264 L156 1264 Z " />
<glyph glyph-name="afii10030" unicode="&#x41c;" horiz-adv-x="1727" d="M1645 215 L1645 0 L1168 0 L1168 215 L1292 215 L1269 897 L1263 1248 Q1249 1186 1217 1061 Q1190 957 1176 897 L970 0 L762 0 L546 897 Q536 937 511 1037 Q476 1173 461 1248 L455 897 L436 215 L559 215 L559 0 L82 0 L82 215 L202 215 L242 1260 L117 1260 L117 1475 L639 1475 L825 622 Q843 537 863 403 L865 421 Q883 563 896 622 L1083 1475 L1605 1475 L1605 1260 L1480 1260 L1525 215 L1645 215 Z " />
<glyph glyph-name="afii10031" unicode="&#x41d;" horiz-adv-x="1377" d="M1166 1264 L1166 211 L1290 211 L1290 0 L776 0 L776 211 L901 211 L901 660 L476 660 L476 211 L601 211 L601 0 L87 0 L87 211 L211 211 L211 1264 L87 1264 L87 1475 L601 1475 L601 1264 L476 1264 L476 875 L901 875 L901 1264 L776 1264 L776 1475 L1290 1475 L1290 1264 L1166 1264 Z " />
<glyph glyph-name="afii10032" unicode="&#x41e;" horiz-adv-x="1312" d="M653 -31 Q360 -31 219 190 Q95 382 95 733 Q95 1137 258 1334 Q400 1506 657 1506 Q949 1506 1092 1283 Q1217 1088 1217 738 Q1217 337 1053 141 Q910 -31 653 -31 Z M656 212 Q933 212 933 729 Q933 1007 853 1144 Q782 1263 657 1263 Q513 1263 441 1107 Q379 971 379 728 Q379 212 656 212 Z " />
<glyph glyph-name="afii10033" unicode="&#x41f;" horiz-adv-x="1353" d="M1142 1264 L1142 211 L1266 211 L1266 0 L752 0 L752 211 L875 211 L875 1264 L478 1264 L478 211 L601 211 L601 0 L87 0 L87 211 L211 211 L211 1264 L87 1264 L87 1475 L1266 1475 L1266 1264 L1142 1264 Z " />
<glyph glyph-name="afii10034" unicode="&#x420;" horiz-adv-x="1163" d="M476 542 L476 211 L660 211 L660 0 L87 0 L87 211 L211 211 L211 1264 L87 1264 L87 1475 L581 1475 Q1098 1475 1098 1003 Q1098 542 583 542 L476 542 Z M476 1264 L476 750 L589 750 Q716 750 770 818 Q817 878 817 1001 Q817 1264 597 1264 L476 1264 Z " />
<glyph glyph-name="afii10035" unicode="&#x421;" horiz-adv-x="1184" d="M1106 137 Q928 -31 666 -31 Q96 -31 96 716 Q96 1120 253 1325 Q388 1501 620 1501 Q782 1501 865 1406 L865 1475 L1070 1475 L1070 1021 L855 1021 Q855 1273 669 1273 Q515 1273 439 1104 Q376 964 376 727 Q376 213 688 213 Q849 213 966 328 L1106 137 Z " />
<glyph glyph-name="afii10036" unicode="&#x422;" horiz-adv-x="1224" d="M1169 1475 L1169 1040 L934 1040 L934 1272 L746 1272 L746 211 L916 211 L916 0 L308 0 L308 211 L478 211 L478 1272 L290 1272 L290 1040 L55 1040 L55 1475 L1169 1475 Z " />
<glyph glyph-name="afii10037" unicode="&#x423;" horiz-adv-x="1221" d="M1215 1264 L1114 1264 L570 0 L242 0 L242 211 L388 211 L493 453 L131 1264 L9 1264 L9 1475 L530 1475 L530 1264 L412 1264 L622 724 L835 1264 L721 1264 L721 1475 L1215 1475 L1215 1264 Z " />
<glyph glyph-name="afii10038" unicode="&#x424;" horiz-adv-x="1570" d="M1494 736 Q1494 455 1331 320 Q1187 201 902 180 L902 72 L1042 72 L1042 -115 L528 -115 L528 72 L668 72 L668 181 Q343 205 201 357 Q76 491 76 737 Q76 1018 240 1155 Q384 1275 668 1297 L668 1403 L528 1403 L528 1590 L1042 1590 L1042 1403 L902 1403 L902 1296 Q1226 1271 1369 1117 Q1494 983 1494 736 Z M347 736 Q347 424 668 412 L668 1066 Q347 1045 347 736 Z M1223 735 Q1223 1044 902 1065 L902 411 Q1223 423 1223 735 Z " />
<glyph glyph-name="afii10039" unicode="&#x425;" horiz-adv-x="1215" d="M1188 211 L1188 0 L670 0 L670 211 L807 211 L608 562 L419 211 L551 211 L551 0 L27 0 L27 211 L147 211 L474 750 L167 1264 L59 1264 L59 1475 L573 1475 L573 1264 L446 1264 L627 931 L807 1264 L679 1264 L679 1475 L1159 1475 L1159 1264 L1058 1264 L759 755 L1085 211 L1188 211 Z " />
<glyph glyph-name="afii10040" unicode="&#x426;" horiz-adv-x="1356" d="M1039 0 L87 0 L87 211 L211 211 L211 1264 L87 1264 L87 1475 L601 1475 L601 1264 L478 1264 L478 211 L861 211 L861 1264 L738 1264 L738 1475 L1252 1475 L1252 1264 L1128 1264 L1128 211 L1289 211 L1289 -360 L1062 -360 L1039 0 Z " />
<glyph glyph-name="afii10041" unicode="&#x427;" horiz-adv-x="1305" d="M830 211 L830 593 Q740 543 669 523.5 Q598 504 510 504 Q317 504 238 625 Q169 731 169 958 L169 1264 L45 1264 L45 1475 L559 1475 L559 1264 L435 1264 L435 1004 Q435 847 470 792 Q506 736 599 736 Q664 736 715 755 Q766 774 830 821 L830 1264 L705 1264 L705 1475 L1218 1475 L1218 1264 L1094 1264 L1094 211 L1218 211 L1218 0 L619 0 L619 211 L830 211 Z " />
<glyph glyph-name="afii10042" unicode="&#x428;" horiz-adv-x="1953" d="M1742 1264 L1742 211 L1866 211 L1866 0 L87 0 L87 211 L211 211 L211 1264 L87 1264 L87 1475 L599 1475 L599 1264 L477 1264 L477 211 L848 211 L848 1264 L726 1264 L726 1475 L1236 1475 L1236 1264 L1114 1264 L1114 211 L1476 211 L1476 1264 L1354 1264 L1354 1475 L1866 1475 L1866 1264 L1742 1264 Z " />
<glyph glyph-name="afii10043" unicode="&#x429;" horiz-adv-x="1982" d="M1681 0 L87 0 L87 211 L211 211 L211 1264 L87 1264 L87 1475 L599 1475 L599 1264 L477 1264 L477 211 L848 211 L848 1264 L726 1264 L726 1475 L1236 1475 L1236 1264 L1114 1264 L1114 211 L1476 211 L1476 1264 L1354 1264 L1354 1475 L1866 1475 L1866 1264 L1742 1264 L1742 211 L1931 211 L1931 -360 L1704 -360 L1681 0 Z " />
<glyph glyph-name="afii10044" unicode="&#x42a;" horiz-adv-x="1552" d="M971 1475 L971 1264 L812 1264 L812 897 L985 897 Q1238 897 1371 763 Q1486 646 1486 448 Q1486 221 1337 103 Q1206 0 985 0 L413 0 L413 211 L547 211 L547 1260 L271 1260 L271 1036 L36 1036 L36 1475 L971 1475 Z M812 211 L926 211 Q1084 211 1152 275 Q1212 331 1212 444 Q1212 687 926 687 L812 687 L812 211 Z " />
<glyph glyph-name="afii10045" unicode="&#x42b;" horiz-adv-x="1836" d="M221 211 L221 1264 L87 1264 L87 1475 L645 1475 L645 1264 L486 1264 L486 897 L659 897 Q912 897 1045 763 Q1160 646 1160 448 Q1160 221 1011 103 Q880 0 659 0 L87 0 L87 211 L221 211 Z M486 211 L600 211 Q758 211 826 275 Q886 331 886 444 Q886 687 600 687 L486 687 L486 211 Z M1749 211 L1749 0 L1235 0 L1235 211 L1359 211 L1359 1264 L1235 1264 L1235 1475 L1749 1475 L1749 1264 L1625 1264 L1625 211 L1749 211 Z " />
<glyph glyph-name="afii10046" unicode="&#x42c;" horiz-adv-x="1226" d="M221 211 L221 1264 L87 1264 L87 1475 L645 1475 L645 1264 L486 1264 L486 897 L659 897 Q912 897 1045 763 Q1160 646 1160 448 Q1160 221 1011 103 Q880 0 659 0 L87 0 L87 211 L221 211 Z M486 211 L600 211 Q758 211 826 275 Q886 331 886 444 Q886 687 600 687 L486 687 L486 211 Z " />
<glyph glyph-name="afii10047" unicode="&#x42d;" horiz-adv-x="1165" d="M558 1501 Q1070 1501 1070 719 Q1070 313 916 131 Q779 -31 507 -31 Q243 -31 65 137 L206 330 Q332 213 496 213 Q645 213 717 326 Q780 425 792 624 L277 624 L277 839 L792 839 Q765 1270 513 1270 Q319 1270 319 1021 L104 1021 L104 1475 L309 1475 L309 1402 Q388 1501 558 1501 Z " />
<glyph glyph-name="afii10048" unicode="&#x42e;" horiz-adv-x="1873" d="M1218 1506 Q1510 1506 1653 1283 Q1778 1088 1778 738 Q1778 337 1614 141 Q1471 -31 1214 -31 Q691 -31 664 660 L466 660 L466 211 L590 211 L590 0 L87 0 L87 211 L211 211 L211 1264 L87 1264 L87 1475 L590 1475 L590 1264 L466 1264 L466 875 L668 875 Q695 1208 852 1367 Q989 1506 1218 1506 Z M1217 212 Q1498 212 1498 729 Q1498 1007 1416 1144 Q1345 1263 1218 1263 Q1073 1263 999 1102 Q936 964 936 728 Q936 459 1016 328 Q1088 212 1217 212 Z " />
<glyph glyph-name="afii10049" unicode="&#x42f;" horiz-adv-x="1265" d="M1054 1264 L1054 211 L1178 211 L1178 0 L639 0 L639 211 L794 211 L794 589 L724 589 Q588 589 535 522 Q492 467 451 297 L378 0 L42 0 L42 211 L158 211 L215 435 Q264 629 376 685 Q156 784 156 1044 Q156 1285 304 1389 Q425 1475 657 1475 L1178 1475 L1178 1264 L1054 1264 Z M794 799 L794 1265 L670 1265 Q538 1265 484 1209 Q432 1155 432 1033 Q432 899 502 844 Q559 799 670 799 L794 799 Z " />
<glyph glyph-name="afii10065" unicode="&#x430;" horiz-adv-x="1034" d="M994 211 L994 0 L706 0 L703 152 Q677 66 587 16 Q509 -27 410 -27 Q229 -27 142 66 Q66 148 66 295 Q66 607 432 607 L640 607 L640 672 Q640 754 609.5 789 Q579 824 507 824 Q445 824 419.5 798.5 Q394 773 393 710 L136 710 Q138 885 235 960 Q322 1028 498 1028 Q734 1028 812 939 Q884 857 884 641 L884 211 L994 211 Z M621 245 Q640 278 640 329 L640 427 L492 427 Q407 427 370 398 Q333 369 333 302 Q333 177 468 177 Q582 177 621 245 Z " />
<glyph glyph-name="afii10066" unicode="&#x431;" horiz-adv-x="1036" d="M565 993 Q755 993 866 845 Q964 712 964 500 Q964 235 839 97 Q726 -29 523 -29 Q248 -29 153 191 Q87 342 87 663 Q87 894 153 1078 Q207 1229 290 1303 Q383 1387 519 1419 Q591 1436 622 1457.5 Q653 1479 660 1516 L884 1516 Q882 1382 855.5 1332.5 Q829 1283 740 1250 Q681 1228 633 1215 Q541 1191 498 1166.5 Q455 1142 416 1092 Q346 1003 317 847 Q343 913 411.5 953 Q480 993 565 993 Z M519 195 Q610 195 657 286 Q697 363 697 489 Q697 776 522 776 Q348 776 348 483 Q348 195 519 195 Z " />
<glyph glyph-name="afii10067" unicode="&#x432;" horiz-adv-x="1027" d="M794 539 Q888 514 929.5 457 Q971 400 971 297 Q971 124 865 58 Q771 0 561 0 L71 0 L71 211 L182 211 L182 788 L71 788 L71 999 L563 999 Q760 999 846 926 Q921 862 921 733 Q921 580 794 539 Z M418 595 L566 595 Q680 595 680 696 Q680 800 566 800 L418 800 L418 595 Z M577 200 Q648 200 679.5 226 Q711 252 711 310 Q711 420 577 420 L418 420 L418 200 L577 200 Z " />
<glyph glyph-name="afii10068" unicode="&#x433;" horiz-adv-x="913" d="M71 211 L182 211 L182 788 L71 788 L71 999 L885 999 L885 595 L646 595 L646 788 L439 788 L439 211 L615 211 L615 0 L71 0 L71 211 Z " />
<glyph glyph-name="afii10069" unicode="&#x434;" horiz-adv-x="1134" d="M864 0 L259 0 L228 -311 L28 -311 L28 211 L143 211 Q265 379 265 761 L265 788 L154 788 L154 999 L1050 999 L1050 788 L939 788 L939 211 L1099 211 L1099 -311 L896 -311 L864 0 Z M695 200 L695 807 L504 807 L504 755 Q504 565 481.5 440 Q459 315 404 200 L695 200 Z " />
<glyph glyph-name="afii10070" unicode="&#x435;" horiz-adv-x="983" d="M511 1028 Q740 1028 838 850 Q922 698 916 408 L330 408 Q352 191 550 191 Q674 191 777 268 L886 80 Q737 -29 537 -29 Q72 -29 72 492 Q72 768 201 907 Q314 1028 511 1028 Z M509 822 Q432 822 385.5 763 Q339 704 330 593 L669 593 Q663 822 509 822 Z " />
<glyph glyph-name="afii10072" unicode="&#x436;" horiz-adv-x="1595" d="M1559 211 L1559 0 L1251 0 L1104 319 Q1061 413 959 413 L913 413 L913 209 L1034 209 L1034 0 L561 0 L561 209 L682 209 L682 413 L636 413 Q534 413 491 319 L344 0 L36 0 L36 211 L156 211 L247 398 Q291 490 350 544 L157 788 L61 788 L61 999 L503 999 L503 795 L407 795 L571 592 L682 592 L682 798 L583 798 L583 999 L1012 999 L1012 798 L913 798 L913 592 L1024 592 L1188 795 L1092 795 L1092 999 L1534 999 L1534 788 L1438 788 L1245 544 Q1304 490 1348 398 L1439 211 L1559 211 Z " />
<glyph glyph-name="afii10073" unicode="&#x437;" horiz-adv-x="899" d="M686 531 Q837 473 837 301 Q837 -24 432 -24 Q308 -24 225 1 Q142 26 36 96 L135 281 Q212 233 273.5 214 Q335 195 416 195 Q575 195 575 312 Q575 378 525 398 Q487 414 388 414 L272 414 L272 596 L381 596 Q467 596 504 620.5 Q541 645 541 701 Q541 816 413 816 Q280 816 280 696 L83 696 L83 999 L265 999 L265 927 Q340 1027 490 1027 Q652 1027 734 943 Q805 869 805 741 Q805 587 686 531 Z " />
<glyph glyph-name="afii10074" unicode="&#x438;" horiz-adv-x="1184" d="M1002 788 L1002 211 L1113 211 L1113 0 L671 0 L671 210 L769 210 L769 706 L475 0 L71 0 L71 211 L182 211 L182 788 L71 788 L71 999 L515 999 L515 788 L415 788 L415 245 L719 999 L1113 999 L1113 788 L1002 788 Z " />
<glyph glyph-name="afii10075" unicode="&#x439;" horiz-adv-x="1184" d="M1002 788 L1002 211 L1113 211 L1113 0 L671 0 L671 210 L769 210 L769 706 L475 0 L71 0 L71 211 L182 211 L182 788 L71 788 L71 999 L515 999 L515 788 L415 788 L415 245 L719 999 L1113 999 L1113 788 L1002 788 Z M419 1469 Q426 1395 467.5 1361.5 Q509 1328 595 1328 Q681 1328 723.5 1362 Q766 1396 771 1469 L949 1469 Q942 1135 595 1135 Q248 1135 241 1469 L419 1469 Z " />
<glyph glyph-name="afii10076" unicode="&#x43a;" horiz-adv-x="1102" d="M1066 211 L1066 0 L767 0 L633 322 Q595 416 507 416 L425 416 L425 211 L547 211 L547 0 L71 0 L71 211 L182 211 L182 788 L71 788 L71 999 L515 999 L515 802 L425 802 L425 595 L563 595 L716 802 L612 802 L612 999 L1059 999 L1059 788 L963 788 L769 536 Q826 490 865 401 L950 211 L1066 211 Z " />
<glyph glyph-name="afii10077" unicode="&#x43b;" horiz-adv-x="1110" d="M104 788 L104 999 L1039 999 L1039 788 L928 788 L928 211 L1039 211 L1039 0 L565 0 L565 211 L675 211 L675 788 L479 788 L479 709 Q479 337 415 170 Q370 59 263 22 Q180 -7 26 -3 L26 214 Q107 214 143.5 246.5 Q180 279 198 366 Q223 487 223 703 L223 788 L104 788 Z " />
<glyph glyph-name="afii10078" unicode="&#x43c;" horiz-adv-x="1397" d="M1334 211 L1334 0 L940 0 L940 211 L1030 211 L1013 794 L780 0 L609 0 L375 805 L363 211 L453 211 L453 0 L63 0 L63 211 L162 211 L184 788 L82 788 L82 999 L536 999 L698 366 L869 999 L1312 999 L1312 788 L1213 788 L1234 211 L1334 211 Z " />
<glyph glyph-name="afii10079" unicode="&#x43d;" horiz-adv-x="1141" d="M959 788 L959 211 L1070 211 L1070 0 L623 0 L623 210 L721 210 L721 425 L420 425 L420 210 L518 210 L518 0 L71 0 L71 211 L182 211 L182 788 L71 788 L71 999 L518 999 L518 788 L420 788 L420 604 L721 604 L721 788 L623 788 L623 999 L1070 999 L1070 788 L959 788 Z " />
<glyph glyph-name="afii10080" unicode="&#x43e;" horiz-adv-x="1033" d="M517 -29 Q284 -29 168 132 Q72 267 72 497 Q72 765 202 905 Q317 1028 515 1028 Q746 1028 862 867 Q961 730 961 495 Q961 230 827 91 Q711 -29 517 -29 Z M516 191 Q691 191 691 496 Q691 655 639 737 Q594 808 515 808 Q431 808 386.5 728 Q342 648 342 497 Q342 191 516 191 Z " />
<glyph glyph-name="afii10081" unicode="&#x43f;" horiz-adv-x="1150" d="M968 788 L968 211 L1079 211 L1079 0 L626 0 L626 211 L710 211 L710 788 L440 788 L440 211 L524 211 L524 0 L71 0 L71 211 L182 211 L182 788 L71 788 L71 999 L1079 999 L1079 788 L968 788 Z " />
<glyph glyph-name="afii10082" unicode="&#x440;" horiz-adv-x="1108" d="M652 1028 Q841 1028 944 871 Q1036 732 1036 499 Q1036 230 918 90 Q819 -29 655 -29 Q500 -29 417 71 L417 -217 L604 -217 L604 -422 L56 -422 L56 -217 L170 -217 L170 788 L56 788 L56 999 L367 999 L367 837 Q418 938 485.5 983 Q553 1028 652 1028 Z M600 195 Q766 195 766 500 Q766 804 597 804 Q423 804 423 504 Q423 195 600 195 Z " />
<glyph glyph-name="afii10083" unicode="&#x441;" horiz-adv-x="937" d="M867 80 Q811 29 719.5 0 Q628 -29 524 -29 Q284 -29 169 126 Q72 257 72 491 Q72 757 196 901 Q302 1024 471 1024 Q593 1024 647 941 L647 999 L851 999 L851 621 L640 621 Q640 704 629 737 Q607 809 533 809 Q436 809 386 716 Q342 635 342 498 Q342 197 565 197 Q663 197 757 264 L867 80 Z " />
<glyph glyph-name="afii10084" unicode="&#x442;" horiz-adv-x="990" d="M209 211 L374 211 L374 803 L234 803 L234 604 L24 604 L24 999 L966 999 L966 604 L756 604 L756 803 L616 803 L616 211 L781 211 L781 0 L209 0 L209 211 Z " />
<glyph glyph-name="afii10085" unicode="&#x443;" horiz-adv-x="976" d="M984 788 L900 788 L587 -58 Q538 -191 498.5 -257.5 Q459 -324 409 -360 Q323 -420 121 -422 L121 -197 Q218 -195 260 -171 Q306 -145 334 -75 L366 7 L83 788 L-6 788 L-6 999 L443 999 L443 792 L338 792 L447 410 Q462 355 484 293 Q488 280 490 274 L495 274 Q497 282 507 314 Q524 362 536 405 L649 792 L544 792 L544 999 L984 999 L984 788 Z " />
<glyph glyph-name="afii10086" unicode="&#x444;" horiz-adv-x="1445" d="M1043 1028 Q1204 1028 1295 867 Q1377 723 1377 488 Q1377 229 1278 92 Q1192 -29 1045 -29 Q883 -29 831 136 L831 -273 L981 -273 L981 -478 L464 -478 L464 -273 L614 -273 L614 135 Q559 -29 402 -29 Q234 -29 146 126 Q68 263 68 493 Q68 761 170 905 Q257 1028 395 1028 Q544 1028 614 871 L614 1264 L491 1264 L491 1475 L829 1475 L829 872 Q889 1028 1043 1028 Z M604 534 Q604 804 477 804 Q332 804 332 496 Q332 195 479 195 Q546 195 575 258 Q604 321 604 466 L604 534 Z M966 195 Q1113 195 1113 496 Q1113 804 968 804 Q841 804 841 534 L841 466 Q841 313 874 250 Q903 195 966 195 Z " />
<glyph glyph-name="afii10087" unicode="&#x445;" horiz-adv-x="1009" d="M552 188 L642 188 L513 384 L384 188 L475 188 L475 0 L36 0 L35 212 L144 212 L358 505 L157 787 L49 787 L49 999 L484 999 L484 821 L402 821 L525 631 L647 821 L559 821 L559 999 L974 999 L974 787 L873 787 L677 508 L885 212 L993 212 L994 0 L552 0 L552 188 Z " />
<glyph glyph-name="afii10088" unicode="&#x446;" horiz-adv-x="1148" d="M182 211 L182 788 L71 788 L71 999 L522 999 L522 788 L440 788 L440 211 L706 211 L706 788 L624 788 L624 999 L1075 999 L1075 788 L964 788 L964 211 L1111 211 L1111 -311 L905 -311 L867 0 L71 0 L71 211 L182 211 Z " />
<glyph glyph-name="afii10089" unicode="&#x447;" horiz-adv-x="1085" d="M654 211 L654 383 Q558 327 416 327 Q208 327 146 454 Q107 534 107 734 L107 788 L12 788 L12 999 L454 999 L454 788 L356 788 L356 695 Q356 608 386 572.5 Q416 537 489 537 Q579 537 654 586 L654 788 L559 788 L559 999 L1014 999 L1014 788 L903 788 L903 211 L1014 211 L1014 0 L506 0 L506 211 L654 211 Z " />
<glyph glyph-name="afii10090" unicode="&#x448;" horiz-adv-x="1632" d="M1561 211 L1561 0 L71 0 L71 211 L182 211 L182 788 L71 788 L71 999 L521 999 L521 788 L438 788 L438 211 L688 211 L688 788 L605 788 L605 999 L1027 999 L1027 788 L944 788 L944 211 L1194 211 L1194 788 L1111 788 L1111 999 L1561 999 L1561 788 L1450 788 L1450 211 L1561 211 Z " />
<glyph glyph-name="afii10091" unicode="&#x449;" horiz-adv-x="1633" d="M1352 0 L71 0 L71 211 L182 211 L182 788 L71 788 L71 999 L521 999 L521 788 L438 788 L438 211 L688 211 L688 788 L605 788 L605 999 L1027 999 L1027 788 L944 788 L944 211 L1194 211 L1194 788 L1111 788 L1111 999 L1561 999 L1561 788 L1450 788 L1450 211 L1596 211 L1596 -311 L1390 -311 L1352 0 Z " />
<glyph glyph-name="afii10092" unicode="&#x44a;" horiz-adv-x="1266" d="M407 788 L407 788 L240 788 L240 605 L3 605 L3 999 L795 999 L795 788 L667 788 L667 628 L855 628 Q1235 628 1235 323 Q1235 0 874 0 L309 0 L309 211 L420 211 L420 788 L407 788 Z M667 203 L844 203 Q973 203 973 319 Q973 430 844 430 L667 430 L667 203 Z " />
<glyph glyph-name="afii10093" unicode="&#x44b;" horiz-adv-x="1573" d="M71 211 L182 211 L182 788 L71 788 L71 999 L557 999 L557 788 L429 788 L429 628 L578 628 Q769 628 865 546 Q957 468 957 323 Q957 0 597 0 L71 0 L71 211 Z M550 203 Q695 203 695 319 Q695 430 550 430 L429 430 L429 203 L550 203 Z M1023 211 L1134 211 L1134 788 L1023 788 L1023 999 L1502 999 L1502 788 L1391 788 L1391 211 L1502 211 L1502 0 L1023 0 L1023 211 Z " />
<glyph glyph-name="afii10094" unicode="&#x44c;" horiz-adv-x="1028" d="M182 211 L182 788 L71 788 L71 999 L557 999 L557 788 L429 788 L429 628 L617 628 Q997 628 997 323 Q997 0 636 0 L71 0 L71 211 L182 211 Z M429 203 L606 203 Q735 203 735 319 Q735 430 606 430 L429 430 L429 203 Z " />
<glyph glyph-name="afii10095" unicode="&#x44d;" horiz-adv-x="942" d="M464 1024 Q665 1024 775 862 Q870 721 870 494 Q870 220 731 85 Q613 -29 410 -29 Q201 -29 56 98 L171 280 Q274 198 375 198 Q575 198 605 408 L191 408 L191 576 L607 576 Q583 809 419 809 Q327 809 296 740 Q283 709 283 652 L72 652 L72 999 L276 999 L276 943 Q335 1024 464 1024 Z " />
<glyph glyph-name="afii10096" unicode="&#x44e;" horiz-adv-x="1519" d="M1001 1028 Q1229 1028 1345 871 Q1447 735 1447 498 Q1447 227 1315 90 Q1200 -29 1000 -29 Q796 -29 685 104 Q589 220 574 425 L424 425 L424 211 L532 211 L532 0 L71 0 L71 212 L182 212 L182 788 L71 788 L71 999 L424 999 L424 604 L576 604 Q600 824 722 933 Q829 1028 1001 1028 Z M1001 197 Q1176 197 1176 498 Q1176 802 1001 802 Q827 802 827 497 Q827 197 1001 197 Z " />
<glyph glyph-name="afii10097" unicode="&#x44f;" horiz-adv-x="1083" d="M903 788 L903 211 L1012 211 L1012 0 L580 0 L580 211 L666 211 L666 389 L557 389 Q515 389 496.5 367 Q478 345 451 264 L363 0 L36 0 L36 211 L166 211 L221 355 Q247 423 290 455 Q202 474 153 538 Q105 601 105 699 Q105 873 204 942 Q287 999 462 999 L1012 999 L1012 788 L903 788 Z M666 800 L484 800 Q357 800 357 677 Q357 567 477 567 L666 567 L666 800 Z " />
<glyph glyph-name="uni0450" unicode="&#x450;" horiz-adv-x="983" d="M511 1028 Q740 1028 838 850 Q922 698 916 408 L330 408 Q352 191 550 191 Q674 191 777 268 L886 80 Q737 -29 537 -29 Q72 -29 72 492 Q72 768 201 907 Q314 1028 511 1028 Z M509 822 Q432 822 385.5 763 Q339 704 330 593 L669 593 Q663 822 509 822 Z M177 1507 L452 1507 L632 1137 L440 1137 L177 1507 Z " />
<glyph glyph-name="afii10071" unicode="&#x451;" horiz-adv-x="983" d="M511 1028 Q740 1028 838 850 Q922 698 916 408 L330 408 Q352 191 550 191 Q674 191 777 268 L886 80 Q737 -29 537 -29 Q72 -29 72 492 Q72 768 201 907 Q314 1028 511 1028 Z M509 822 Q432 822 385.5 763 Q339 704 330 593 L669 593 Q663 822 509 822 Z M204 1166 L204 1413 L433 1413 L433 1166 L204 1166 Z M571 1166 L571 1413 L800 1413 L800 1166 L571 1166 Z " />
<glyph glyph-name="afii10099" unicode="&#x452;" horiz-adv-x="1075" d="M713 1026 Q984 1026 984 676 L984 28 Q984 -148 954 -237 Q920 -337 834 -380 Q748 -422 581 -422 L581 -198 Q660 -195 693 -162 Q726 -129 726 -52 L726 633 Q726 723 702 758.5 Q678 794 618 794 Q509 794 439 659 L439 211 L526 211 L526 0 L70 0 L70 211 L181 211 L181 1086 L55 1086 L55 1209 L181 1209 L181 1303 L57 1303 L57 1475 L439 1475 L439 1209 L691 1209 L691 1086 L439 1086 L439 885 Q551 1026 713 1026 Z " />
<glyph glyph-name="afii10100" unicode="&#x453;" horiz-adv-x="913" d="M71 211 L182 211 L182 788 L71 788 L71 999 L885 999 L885 595 L646 595 L646 788 L439 788 L439 211 L615 211 L615 0 L71 0 L71 211 Z M353 1137 L533 1507 L808 1507 L545 1137 L353 1137 Z " />
<glyph glyph-name="afii10101" unicode="&#x454;" horiz-adv-x="940" d="M891 80 Q833 29 737.5 0 Q642 -29 532 -29 Q300 -29 180 122 Q72 257 72 494 Q72 755 195 898 Q303 1024 478 1024 Q607 1024 666 943 L666 999 L870 999 L870 652 L659 652 Q659 709 646 740 Q617 809 531 809 Q360 809 335 576 L751 576 L751 408 L337 408 Q367 196 566 196 Q677 196 779 262 L891 80 Z " />
<glyph glyph-name="afii10102" unicode="&#x455;" horiz-adv-x="926" d="M592 606 Q744 574 808 496 Q866 424 866 298 Q866 133 768 48 Q686 -25 549 -25 Q349 -25 296 104 L296 -4 L96 -4 L96 321 L317 321 Q315 250 355 217 Q395 184 484 184 Q613 184 613 282 Q613 327 583 351 Q553 375 474 392 L354 417 Q205 448 145 528 Q93 597 93 722 Q93 875 190 959 Q271 1030 398 1030 Q557 1030 616 926 L616 1003 L807 1003 L807 699 L601 699 Q601 755 564.5 786.5 Q528 818 462 818 Q347 818 347 724 Q347 655 431 639 L592 606 Z " />
<glyph glyph-name="afii10103" unicode="&#x456;" horiz-adv-x="600" d="M174 1414 L441 1414 L441 1137 L174 1137 L174 1414 Z M75 211 L186 211 L186 788 L75 788 L75 999 L446 999 L446 211 L557 211 L557 0 L75 0 L75 211 Z " />
<glyph glyph-name="afii10104" unicode="&#x457;" horiz-adv-x="597" d="M75 211 L186 211 L186 788 L75 788 L75 999 L446 999 L446 211 L557 211 L557 0 L75 0 L75 211 Z M2 1167 L2 1414 L231 1414 L231 1167 L2 1167 Z M357 1167 L357 1414 L586 1414 L586 1167 L357 1167 Z " />
<glyph glyph-name="afii10105" unicode="&#x458;" horiz-adv-x="542" d="M147 1419 L424 1419 L424 1136 L147 1136 L147 1419 Z M48 -198 Q112 -195 140 -160.5 Q168 -126 168 -52 L168 788 L57 788 L57 999 L427 999 L427 28 Q427 -147 398 -237 Q366 -337 284 -380 Q204 -422 48 -422 L48 -198 Z " />
<glyph glyph-name="afii10106" unicode="&#x459;" horiz-adv-x="1521" d="M564 788 L479 788 L479 709 Q479 328 415 170 Q370 59 263 22 Q180 -7 26 -3 L26 214 Q107 214 143.5 246.5 Q180 279 198 366 Q223 487 223 703 L223 788 L104 788 L104 999 L1050 999 L1050 788 L922 788 L922 628 L1110 628 Q1490 628 1490 323 Q1490 0 1129 0 L564 0 L564 211 L675 211 L675 788 L564 788 Z M922 203 L1099 203 Q1228 203 1228 319 Q1228 430 1099 430 L922 430 L922 203 Z " />
<glyph glyph-name="afii10107" unicode="&#x45a;" horiz-adv-x="1537" d="M1118 606 Q1506 606 1506 316 Q1506 146 1397 66 Q1306 0 1147 0 L618 0 L618 211 L719 211 L719 427 L420 427 L420 210 L516 210 L516 0 L71 0 L71 211 L182 211 L182 788 L71 788 L71 999 L516 999 L516 788 L420 788 L420 606 L719 606 L719 788 L618 788 L618 999 L1085 999 L1085 788 L957 788 L957 606 L1118 606 Z M1100 199 Q1245 199 1245 311 Q1245 427 1100 427 L957 427 L957 199 L1100 199 Z " />
<glyph glyph-name="afii10108" unicode="&#x45b;" horiz-adv-x="1138" d="M1100 211 L1100 0 L643 0 L643 211 L731 211 L731 639 Q731 731 706.5 767.5 Q682 804 621 804 Q513 804 439 666 L439 211 L526 211 L526 0 L70 0 L70 211 L181 211 L181 1086 L55 1086 L55 1209 L181 1209 L181 1303 L57 1303 L57 1475 L431 1475 L431 1209 L691 1209 L691 1086 L431 1086 L431 871 Q545 1026 716 1026 Q989 1026 989 676 L989 211 L1100 211 Z " />
<glyph glyph-name="afii10109" unicode="&#x45c;" horiz-adv-x="1102" d="M1066 211 L1066 0 L767 0 L633 322 Q595 416 507 416 L425 416 L425 211 L547 211 L547 0 L71 0 L71 211 L182 211 L182 788 L71 788 L71 999 L515 999 L515 802 L425 802 L425 595 L563 595 L716 802 L612 802 L612 999 L1059 999 L1059 788 L963 788 L769 536 Q826 490 865 401 L950 211 L1066 211 Z M459 1137 L639 1507 L914 1507 L651 1137 L459 1137 Z " />
<glyph glyph-name="uni045D" unicode="&#x45d;" horiz-adv-x="1184" d="M1002 788 L1002 211 L1113 211 L1113 0 L671 0 L671 210 L769 210 L769 706 L475 0 L71 0 L71 211 L182 211 L182 788 L71 788 L71 999 L515 999 L515 788 L415 788 L415 245 L719 999 L1113 999 L1113 788 L1002 788 Z M275 1507 L550 1507 L730 1137 L538 1137 L275 1507 Z " />
<glyph glyph-name="afii10110" unicode="&#x45e;" horiz-adv-x="976" d="M984 788 L900 788 L587 -58 Q538 -191 498.5 -257.5 Q459 -324 409 -360 Q323 -420 121 -422 L121 -197 Q218 -195 260 -171 Q306 -145 334 -75 L366 7 L83 788 L-6 788 L-6 999 L443 999 L443 792 L338 792 L447 410 Q462 355 484 293 Q488 280 490 274 L495 274 Q497 282 507 314 Q524 362 536 405 L649 792 L544 792 L544 999 L984 999 L984 788 Z M308 1469 Q315 1395 356.5 1361.5 Q398 1328 484 1328 Q570 1328 612.5 1362 Q655 1396 660 1469 L838 1469 Q831 1135 484 1135 Q137 1135 130 1469 L308 1469 Z " />
<glyph glyph-name="afii10193" unicode="&#x45f;" horiz-adv-x="1144" d="M962 788 L962 211 L1073 211 L1073 0 L698 0 L665 -311 L479 -311 L446 0 L71 0 L71 211 L182 211 L182 788 L71 788 L71 999 L521 999 L521 788 L439 788 L439 205 L705 205 L705 788 L623 788 L623 999 L1073 999 L1073 788 L962 788 Z " />
<glyph glyph-name="uni0462" unicode="&#x462;" horiz-adv-x="1410" d="M272 211 L406 211 L406 1063 L288 1063 L288 913 L85 913 L85 1243 L406 1243 L406 1370 L272 1370 L272 1571 L823 1571 L823 1370 L664 1370 L664 1243 L1080 1243 L1080 913 L877 913 L877 1063 L664 1063 L664 809 L887 809 Q1106 809 1226 704 Q1346 599 1346 403 Q1346 184 1192 79 Q1075 0 893 0 L272 0 L272 211 Z M834 211 Q951 211 1013 261 Q1072 309 1072 399 Q1072 503 1015.5 550.5 Q959 598 834 598 L664 598 L664 211 L834 211 Z " />
<glyph glyph-name="uni0463" unicode="&#x463;" horiz-adv-x="1161" d="M752 616 Q1131 616 1131 312 Q1131 145 1021 66 Q930 0 771 0 L195 0 L195 215 L306 215 L306 826 L187 826 L187 705 L7 705 L7 999 L306 999 L306 1264 L182 1264 L182 1475 L558 1475 L558 999 L918 999 L918 705 L738 705 L738 826 L558 826 L558 616 L752 616 Z M724 207 Q869 207 869 308 Q869 418 724 418 L558 418 L558 207 L724 207 Z " />
<glyph glyph-name="afii10050" unicode="&#x490;" horiz-adv-x="1061" d="M1020 1835 L1020 1260 L474 1260 L474 211 L657 211 L657 0 L87 0 L87 211 L211 211 L211 1260 L87 1260 L87 1475 L770 1475 L793 1835 L1020 1835 Z " />
<glyph glyph-name="afii10098" unicode="&#x491;" horiz-adv-x="913" d="M641 999 L679 1310 L885 1310 L885 595 L646 595 L646 788 L439 788 L439 211 L615 211 L615 0 L71 0 L71 211 L182 211 L182 788 L71 788 L71 999 L641 999 Z " />
<glyph glyph-name="uni0492" unicode="&#x492;" horiz-adv-x="1128" d="M245 659 L88 659 L88 874 L245 874 L245 1264 L121 1264 L121 1475 L1087 1475 L1087 1038 L847 1038 L847 1264 L508 1264 L508 874 L776 874 L776 659 L508 659 L508 211 L691 211 L691 0 L121 0 L121 211 L245 211 L245 659 Z " />
<glyph glyph-name="uni0493" unicode="&#x493;" horiz-adv-x="912" d="M181 429 L68 429 L68 566 L181 566 L181 788 L70 788 L70 999 L884 999 L884 595 L645 595 L645 788 L438 788 L438 566 L624 566 L624 429 L438 429 L438 211 L614 211 L614 0 L70 0 L70 211 L181 211 L181 429 Z " />
<glyph glyph-name="uni0496" unicode="&#x496;" horiz-adv-x="1964" d="M1729 211 L1729 211 L1913 211 L1913 -360 L1686 -360 L1663 0 L1521 0 L1381 401 Q1325 562 1282 610.5 Q1239 659 1152 659 L1080 659 L1080 211 L1221 211 L1221 0 L682 0 L682 211 L823 211 L823 659 L751 659 Q658 659 611 598 Q574 549 522 401 L382 0 L55 0 L55 211 L174 211 L271 489 Q321 632 363 700 Q405 768 465 801 L186 1264 L61 1264 L61 1475 L569 1475 L569 1264 L444 1264 L682 871 L823 871 L823 1264 L682 1264 L682 1475 L1210 1475 L1210 1264 L1080 1264 L1080 871 L1221 871 L1459 1264 L1334 1264 L1334 1475 L1842 1475 L1842 1264 L1717 1264 L1438 801 Q1498 767 1540 699.5 Q1582 632 1632 489 L1729 211 Z " />
<glyph glyph-name="uni0497" unicode="&#x497;" horiz-adv-x="1628" d="M1439 211 L1439 211 L1591 211 L1591 -311 L1385 -311 L1347 0 L1251 0 L1104 319 Q1061 413 959 413 L913 413 L913 209 L1034 209 L1034 0 L561 0 L561 209 L682 209 L682 413 L636 413 Q534 413 491 319 L344 0 L36 0 L36 211 L156 211 L247 398 Q291 490 350 544 L157 788 L61 788 L61 999 L503 999 L503 795 L407 795 L571 592 L682 592 L682 798 L583 798 L583 999 L1012 999 L1012 798 L913 798 L913 592 L1024 592 L1188 795 L1092 795 L1092 999 L1534 999 L1534 788 L1438 788 L1245 544 Q1304 490 1348 398 L1439 211 Z " />
<glyph glyph-name="uni0498" unicode="&#x498;" horiz-adv-x="1120" d="M488 -28 Q211 -22 37 135 L176 331 Q308 216 489 216 Q616 216 689 276 Q756 332 756 427 Q756 668 474 668 L315 668 L315 880 L431 880 Q601 880 669 937 Q726 985 726 1087 Q726 1274 516 1274 Q319 1274 299 1053 L115 1053 L115 1475 L296 1475 L296 1408 Q388 1504 547 1504 Q765 1504 881 1393 Q982 1295 982 1132 Q982 898 805 795 Q1031 693 1031 429 Q1027 344 1014 295 Q977 160 873 81 Q776 6 634 -17 L591 -107 Q795 -97 795 -277 Q795 -497 541 -497 Q424 -497 325 -447 L325 -290 Q430 -336 510 -336 Q606 -336 606 -269 Q606 -209 540 -209 Q506 -209 458 -226 L442 -126 L488 -28 Z " />
<glyph glyph-name="uni0499" unicode="&#x499;" horiz-adv-x="899" d="M377 -23 Q285 -19 208 8 Q131 35 36 96 L135 281 Q212 233 273.5 214 Q335 195 416 195 Q575 195 575 312 Q575 378 525 398 Q487 414 388 414 L272 414 L272 596 L381 596 Q467 596 504 620.5 Q541 645 541 701 Q541 816 413 816 Q280 816 280 696 L83 696 L83 999 L265 999 L265 927 Q340 1027 490 1027 Q652 1027 734 943 Q805 869 805 741 Q805 587 686 531 Q837 473 837 301 Q832 132 730 54 Q649 -8 520 -20 L478 -107 Q682 -97 682 -277 Q682 -497 428 -497 Q311 -497 212 -447 L212 -290 Q317 -336 397 -336 Q493 -336 493 -269 Q493 -209 427 -209 Q392 -209 345 -226 L329 -126 L377 -23 Z " />
<glyph glyph-name="uni049A" unicode="&#x49a;" horiz-adv-x="1372" d="M1137 211 L1137 211 L1321 211 L1321 -360 L1094 -360 L1071 0 L929 0 L776 401 Q713 568 672.5 613.5 Q632 659 547 659 L471 659 L471 211 L612 211 L612 0 L87 0 L87 211 L211 211 L211 1263 L87 1263 L87 1475 L596 1475 L596 1263 L471 1263 L471 871 L616 871 L854 1263 L724 1263 L724 1475 L1236 1475 L1236 1263 L1112 1263 L833 801 Q891 768 933 702.5 Q975 637 1032 490 L1137 211 Z " />
<glyph glyph-name="uni049B" unicode="&#x49b;" horiz-adv-x="1144" d="M950 211 L950 211 L1107 211 L1107 -311 L901 -311 L863 0 L767 0 L633 322 Q595 416 507 416 L425 416 L425 211 L547 211 L547 0 L71 0 L71 211 L182 211 L182 788 L71 788 L71 999 L515 999 L515 802 L425 802 L425 595 L563 595 L716 802 L612 802 L612 999 L1059 999 L1059 788 L963 788 L769 536 Q826 490 865 401 L950 211 Z " />
<glyph glyph-name="uni049C" unicode="&#x49c;" horiz-adv-x="1386" d="M1331 215 L1331 0 L993 0 L790 546 Q769 603 747 628 Q725 653 690 658 L690 415 L566 415 L566 659 L471 659 L471 215 L612 215 L612 0 L87 0 L87 215 L211 215 L211 1260 L87 1260 L87 1475 L601 1475 L601 1260 L471 1260 L471 860 L566 860 L566 1103 L690 1103 L690 860 L695 860 L920 1260 L784 1260 L784 1475 L1300 1475 L1300 1260 L1176 1260 L903 811 Q957 776 998 708.5 Q1039 641 1098 489 L1200 215 L1331 215 Z " />
<glyph glyph-name="uni049D" unicode="&#x49d;" horiz-adv-x="1145" d="M1109 211 L1109 0 L801 0 L664 322 Q627 412 586 419 L586 280 L503 280 L503 420 L417 420 L417 211 L556 211 L556 0 L71 0 L71 211 L182 211 L182 788 L71 788 L71 999 L524 999 L524 802 L417 802 L417 589 L503 589 L503 744 L586 744 L586 589 L594 589 L742 802 L634 802 L634 999 L1084 999 L1084 788 L988 788 L795 547 Q853 493 898 401 L991 211 L1109 211 Z " />
<glyph glyph-name="uni04A2" unicode="&#x4a2;" horiz-adv-x="1374" d="M1073 0 L776 0 L776 211 L901 211 L901 660 L476 660 L476 211 L601 211 L601 0 L87 0 L87 211 L211 211 L211 1264 L87 1264 L87 1475 L601 1475 L601 1264 L476 1264 L476 875 L901 875 L901 1264 L776 1264 L776 1475 L1290 1475 L1290 1264 L1166 1264 L1166 211 L1323 211 L1323 -360 L1096 -360 L1073 0 Z " />
<glyph glyph-name="uni04A3" unicode="&#x4a3;" horiz-adv-x="1176" d="M895 0 L623 0 L623 210 L721 210 L721 425 L420 425 L420 210 L518 210 L518 0 L71 0 L71 211 L182 211 L182 788 L71 788 L71 999 L518 999 L518 788 L420 788 L420 604 L721 604 L721 788 L623 788 L623 999 L1070 999 L1070 788 L959 788 L959 211 L1139 211 L1139 -311 L933 -311 L895 0 Z " />
<glyph glyph-name="uni04AA" unicode="&#x4aa;" horiz-adv-x="1184" d="M572 -25 Q358 0 240 156 Q167 251 134 379 Q101 507 96 716 Q96 1120 253 1325 Q388 1501 620 1501 Q782 1501 865 1406 L865 1475 L1070 1475 L1070 1021 L855 1021 Q855 1273 669 1273 Q515 1273 439 1104 Q376 964 376 727 Q376 213 688 213 Q849 213 966 328 L1106 137 Q939 -17 711 -30 L674 -107 Q878 -97 878 -277 Q878 -497 624 -497 Q507 -497 408 -447 L408 -290 Q513 -336 593 -336 Q689 -336 689 -269 Q689 -209 623 -209 Q589 -209 541 -226 L525 -126 L572 -25 Z " />
<glyph glyph-name="uni04AB" unicode="&#x4ab;" horiz-adv-x="937" d="M447 -25 Q267 -3 173 121 Q80 243 72 491 Q72 757 196 901 Q302 1024 471 1024 Q593 1024 647 941 L647 999 L851 999 L851 621 L640 621 Q640 704 629 737 Q607 809 533 809 Q436 809 386 716 Q342 635 342 498 Q342 197 565 197 Q663 197 757 264 L867 80 Q763 -12 587 -26 L548 -107 Q752 -97 752 -277 Q752 -497 498 -497 Q381 -497 282 -447 L282 -290 Q387 -336 467 -336 Q563 -336 563 -269 Q563 -209 497 -209 Q462 -209 415 -226 L399 -126 L447 -25 Z " />
<glyph glyph-name="uni04AE" unicode="&#x4ae;" horiz-adv-x="1197" d="M731 619 L731 211 L885 211 L885 0 L312 0 L312 211 L466 211 L466 624 L103 1264 L-7 1264 L-7 1475 L535 1475 L535 1264 L397 1264 L612 835 L827 1264 L686 1264 L686 1475 L1201 1475 L1201 1264 L1092 1264 L731 619 Z " />
<glyph glyph-name="uni04AF" unicode="&#x4af;" horiz-adv-x="963" d="M603 2 L603 -217 L753 -217 L753 -422 L207 -422 L207 -217 L357 -217 L357 0 L73 788 L-14 788 L-14 999 L437 999 L437 792 L332 792 L398 550 Q407 515 430 433 Q466 306 479 244 L487 244 Q508 351 564 549 L634 792 L531 792 L531 999 L978 999 L978 788 L889 788 L603 2 Z " />
<glyph glyph-name="uni04B0" unicode="&#x4b0;" horiz-adv-x="1199" d="M1094 1264 L747 645 L969 645 L969 465 L724 465 L724 211 L880 211 L880 0 L315 0 L315 211 L477 211 L477 465 L232 465 L232 645 L459 645 L103 1264 L-7 1264 L-7 1475 L535 1475 L535 1264 L397 1264 L613 835 L829 1264 L688 1264 L688 1475 L1203 1475 L1203 1264 L1094 1264 Z " />
<glyph glyph-name="uni04B1" unicode="&#x4b1;" horiz-adv-x="973" d="M357 0 L129 0 L129 149 L303 149 L73 788 L-14 788 L-14 999 L437 999 L437 792 L332 792 L398 550 Q407 515 430 433 Q466 306 479 244 L487 244 Q508 351 564 549 L634 792 L531 792 L531 999 L978 999 L978 788 L889 788 L657 149 L851 149 L851 0 L603 0 L603 -217 L753 -217 L753 -422 L207 -422 L207 -217 L357 -217 L357 0 Z " />
<glyph glyph-name="uni04B2" unicode="&#x4b2;" horiz-adv-x="1302" d="M1085 211 L1085 211 L1251 211 L1251 -360 L1024 -360 L1001 0 L670 0 L670 211 L807 211 L608 562 L419 211 L551 211 L551 0 L27 0 L27 211 L147 211 L474 750 L167 1264 L59 1264 L59 1475 L573 1475 L573 1264 L446 1264 L627 931 L807 1264 L679 1264 L679 1475 L1159 1475 L1159 1264 L1058 1264 L759 755 L1085 211 Z " />
<glyph glyph-name="uni04B3" unicode="&#x4b3;" horiz-adv-x="1050" d="M769 0 L552 0 L552 188 L642 188 L513 384 L384 188 L475 188 L475 0 L36 0 L35 212 L144 212 L358 505 L157 787 L49 787 L49 999 L484 999 L484 821 L402 821 L525 631 L647 821 L559 821 L559 999 L974 999 L974 787 L873 787 L677 508 L885 212 L993 212 L993 211 L1013 211 L1013 -311 L807 -311 L769 0 Z " />
<glyph glyph-name="uni04B6" unicode="&#x4b6;" horiz-adv-x="1316" d="M1015 0 L619 0 L619 211 L830 211 L830 593 Q740 543 669 523.5 Q598 504 510 504 Q317 504 238 625 Q169 731 169 958 L169 1264 L45 1264 L45 1475 L559 1475 L559 1264 L435 1264 L435 1004 Q435 847 470 792 Q506 736 599 736 Q664 736 715 755 Q766 774 830 821 L830 1264 L705 1264 L705 1475 L1218 1475 L1218 1264 L1094 1264 L1094 211 L1265 211 L1265 -360 L1038 -360 L1015 0 Z " />
<glyph glyph-name="uni04B7" unicode="&#x4b7;" horiz-adv-x="1087" d="M806 0 L506 0 L506 211 L654 211 L654 383 Q558 327 416 327 Q208 327 146 454 Q107 534 107 734 L107 788 L12 788 L12 999 L454 999 L454 788 L356 788 L356 695 Q356 608 386 572.5 Q416 537 489 537 Q579 537 654 586 L654 788 L559 788 L559 999 L1014 999 L1014 788 L903 788 L903 211 L1050 211 L1050 -311 L844 -311 L806 0 Z " />
<glyph glyph-name="uni04B8" unicode="&#x4b8;" horiz-adv-x="1305" d="M569 738 L569 1041 L685 1041 L685 746 Q751 763 830 821 L830 1264 L705 1264 L705 1475 L1218 1475 L1218 1264 L1094 1264 L1094 211 L1218 211 L1218 0 L619 0 L619 211 L830 211 L830 593 Q745 548 685 529 L685 353 L569 353 L569 506 L557 505 Q527 504 510 504 Q317 504 238 625 Q169 731 169 958 L169 1264 L45 1264 L45 1475 L559 1475 L559 1264 L435 1264 L435 1004 L435 982 Q436 874 454 826 Q484 747 569 738 Z " />
<glyph glyph-name="uni04B9" unicode="&#x4b9;" horiz-adv-x="1095" d="M913 784 L913 215 L1024 215 L1024 0 L561 0 L561 186 L664 186 L664 385 Q613 358 550 346 L550 238 L467 238 L467 335 Q454 334 426 334 Q211 334 147 458 Q107 537 107 734 L107 784 L12 784 L12 999 L454 999 L454 784 L356 784 L356 695 Q356 611 381.5 572.5 Q407 534 467 527 L467 702 L550 702 L550 530 Q610 542 664 586 L664 784 L566 784 L566 999 L1024 999 L1024 784 L913 784 Z " />
<glyph glyph-name="uni04BA" unicode="&#x4ba;" horiz-adv-x="1302" d="M87 211 L211 211 L211 1264 L87 1264 L87 1475 L599 1475 L599 1264 L475 1264 L475 923 Q642 1022 788 1022 Q987 1022 1068 901 Q1139 795 1139 568 L1139 211 L1263 211 L1263 0 L749 0 L749 211 L873 211 L873 522 Q873 679 838 734 Q801 790 706 790 Q641 790 590 770.5 Q539 751 475 702 L475 211 L600 211 L600 0 L87 0 L87 211 Z " />
<glyph glyph-name="uni04BB" unicode="&#x4bb;" horiz-adv-x="1128" d="M1090 211 L1090 0 L633 0 L633 211 L721 211 L721 639 Q721 731 696.5 767.5 Q672 804 611 804 Q505 804 431 670 L431 211 L521 211 L521 0 L62 0 L62 211 L173 211 L173 1264 L49 1264 L49 1475 L420 1475 L420 869 Q535 1026 706 1026 Q979 1026 979 676 L979 211 L1090 211 Z " />
<glyph glyph-name="uni04C0" unicode="&#x4c0;" horiz-adv-x="688" d="M601 211 L601 0 L87 0 L87 211 L211 211 L211 1264 L87 1264 L87 1475 L601 1475 L601 1264 L477 1264 L477 211 L601 211 Z " />
<glyph glyph-name="uni04C1" unicode="&#x4c1;" horiz-adv-x="1903" d="M1848 211 L1848 0 L1521 0 L1381 401 Q1325 562 1282 610.5 Q1239 659 1152 659 L1080 659 L1080 211 L1221 211 L1221 0 L682 0 L682 211 L823 211 L823 659 L751 659 Q658 659 611 598 Q574 549 522 401 L382 0 L55 0 L55 211 L174 211 L271 489 Q321 632 363 700 Q405 768 465 801 L186 1264 L61 1264 L61 1475 L569 1475 L569 1264 L444 1264 L682 871 L823 871 L823 1264 L682 1264 L682 1475 L1210 1475 L1210 1264 L1080 1264 L1080 871 L1221 871 L1459 1264 L1334 1264 L1334 1475 L1842 1475 L1842 1264 L1717 1264 L1438 801 Q1498 767 1540 699.5 Q1582 632 1632 489 L1729 211 L1848 211 Z M764 1945 Q771 1871 812.5 1837.5 Q854 1804 940 1804 Q1026 1804 1068.5 1838 Q1111 1872 1116 1945 L1294 1945 Q1287 1611 940 1611 Q593 1611 586 1945 L764 1945 Z " />
<glyph glyph-name="uni04C2" unicode="&#x4c2;" horiz-adv-x="1595" d="M1559 211 L1559 0 L1251 0 L1104 319 Q1061 413 959 413 L913 413 L913 209 L1034 209 L1034 0 L561 0 L561 209 L682 209 L682 413 L636 413 Q534 413 491 319 L344 0 L36 0 L36 211 L156 211 L247 398 Q291 490 350 544 L157 788 L61 788 L61 999 L503 999 L503 795 L407 795 L571 592 L682 592 L682 798 L583 798 L583 999 L1012 999 L1012 798 L913 798 L913 592 L1024 592 L1188 795 L1092 795 L1092 999 L1534 999 L1534 788 L1438 788 L1245 544 Q1304 490 1348 398 L1439 211 L1559 211 Z M624 1469 Q631 1395 672.5 1361.5 Q714 1328 800 1328 Q886 1328 928.5 1362 Q971 1396 976 1469 L1154 1469 Q1147 1135 800 1135 Q453 1135 446 1469 L624 1469 Z " />
<glyph glyph-name="uni04CF" unicode="&#x4cf;" horiz-adv-x="688" d="M601 211 L601 0 L87 0 L87 211 L211 211 L211 1264 L87 1264 L87 1475 L601 1475 L601 1264 L477 1264 L477 211 L601 211 Z " />
<glyph glyph-name="uni04D4" unicode="&#x4d4;" horiz-adv-x="1778" d="M1693 437 L1693 0 L731 0 L731 211 L875 211 L875 475 L489 475 L378 207 L535 207 L535 0 L1 0 L1 211 L108 211 L563 1264 L372 1264 L372 1475 L1687 1475 L1687 1090 L1442 1090 L1442 1264 L1130 1264 L1130 864 L1463 864 L1463 653 L1130 653 L1130 211 L1452 211 L1452 437 L1693 437 Z M875 677 L875 1264 L817 1264 L573 677 L875 677 Z " />
<glyph glyph-name="uni04D5" unicode="&#x4d5;" horiz-adv-x="1556" d="M404 -29 Q231 -29 143 65 Q66 148 66 295 Q66 465 171 538 Q259 600 427 600 L641 600 L641 668 Q641 754 609.5 790 Q578 826 502 826 Q437 826 409 798 Q381 770 380 706 L123 706 Q125 881 225 958 Q314 1026 494 1026 Q618 1026 686 997 Q755 968 790 900 Q875 1028 1070 1028 Q1302 1028 1403 856 Q1490 708 1489 417 L890 417 Q893 300 962 243 Q1021 194 1122 194 Q1253 194 1357 269 L1466 80 Q1324 -29 1114 -29 Q846 -29 761 142 Q725 52 616 7 Q527 -29 404 -29 Z M1239 594 Q1234 706 1185 762 Q1141 812 1069 812 Q987 812 939.5 754.5 Q892 697 888 594 L1239 594 Z M463 175 Q580 175 621 243 Q641 275 641 327 L641 432 L489 432 Q406 432 368.5 401 Q331 370 331 302 Q331 175 463 175 Z " />
<glyph glyph-name="uni04D8" unicode="&#x4d8;" horiz-adv-x="1248" d="M597 1498 Q1165 1498 1165 719 Q1165 330 1004 132 Q861 -44 609 -44 Q322 -44 191 162 Q78 340 78 681 Q78 754 83 833 L886 833 Q871 1245 586 1245 Q398 1245 252 1124 L135 1338 Q344 1498 597 1498 Z M615 201 Q875 201 887 606 L353 606 Q359 201 615 201 Z " />
<glyph glyph-name="afii10846" unicode="&#x4d9;" horiz-adv-x="948" d="M432 1028 Q673 1028 792 876 Q896 744 896 507 Q896 228 774 92 Q666 -29 468 -29 Q240 -29 139 128 Q53 262 53 517 Q53 554 55 597 L635 597 Q609 808 412 808 Q286 808 182 727 L73 915 Q227 1028 432 1028 Z M466 175 Q547 175 592.5 238.5 Q638 302 639 417 L304 417 Q304 281 349 224 Q388 175 466 175 Z " />
<glyph glyph-name="uni04E2" unicode="&#x4e2;" horiz-adv-x="1408" d="M211 211 L211 1264 L87 1264 L87 1475 L597 1475 L597 1264 L451 1264 L451 483 L438 230 Q480 399 509 483 L853 1475 L1321 1475 L1321 1264 L1197 1264 L1197 211 L1321 211 L1321 0 L779 0 L779 211 L957 211 L957 1046 L965 1230 Q941 1129 912 1046 L545 0 L87 0 L87 211 L211 211 Z M447 1674 L447 1869 L1001 1869 L1001 1674 L447 1674 Z " />
<glyph glyph-name="uni04E3" unicode="&#x4e3;" horiz-adv-x="1184" d="M1002 788 L1002 211 L1113 211 L1113 0 L671 0 L671 210 L769 210 L769 706 L475 0 L71 0 L71 211 L182 211 L182 788 L71 788 L71 999 L515 999 L515 788 L415 788 L415 245 L719 999 L1113 999 L1113 788 L1002 788 Z M323 1198 L323 1393 L877 1393 L877 1198 L323 1198 Z " />
<glyph glyph-name="uni04E8" unicode="&#x4e8;" horiz-adv-x="1312" d="M653 -31 Q360 -31 219 190 Q95 382 95 733 Q95 1137 258 1334 Q400 1506 657 1506 Q949 1506 1092 1283 Q1217 1088 1217 738 Q1217 337 1053 141 Q910 -31 653 -31 Z M384 855 L928 855 Q909 1101 809 1201 Q753 1257 657 1263 Q588 1258 549 1235 Q487 1200 447 1118 Q397 1016 384 855 Z M930 640 L381 640 Q392 457 442 355 Q511 216 656 212 Q801 216 869 353 Q925 467 930 640 Z " />
<glyph glyph-name="uni04E9" unicode="&#x4e9;" horiz-adv-x="1025" d="M511 1028 Q742 1028 858 867 Q957 730 957 495 Q957 230 823 91 Q707 -29 513 -29 Q280 -29 164 132 Q68 267 68 497 Q68 765 198 905 Q313 1028 511 1028 Z M511 815 Q351 815 329 571 L696 571 Q684 697 631 760 Q584 815 511 815 Z M512 184 Q676 184 696 428 L329 428 Q349 184 512 184 Z " />
<glyph glyph-name="uni04EE" unicode="&#x4ee;" horiz-adv-x="1221" d="M1215 1264 L1114 1264 L570 0 L242 0 L242 211 L388 211 L493 453 L131 1264 L9 1264 L9 1475 L530 1475 L530 1264 L412 1264 L622 724 L835 1264 L721 1264 L721 1475 L1215 1475 L1215 1264 Z M342 1674 L342 1869 L896 1869 L896 1674 L342 1674 Z " />
<glyph glyph-name="uni04EF" unicode="&#x4ef;" horiz-adv-x="976" d="M984 788 L900 788 L587 -58 Q538 -191 498.5 -257.5 Q459 -324 409 -360 Q323 -420 121 -422 L121 -197 Q218 -195 260 -171 Q306 -145 334 -75 L366 7 L83 788 L-6 788 L-6 999 L443 999 L443 792 L338 792 L447 410 Q462 355 484 293 Q488 280 490 274 L495 274 Q497 282 507 314 Q524 362 536 405 L649 792 L544 792 L544 999 L984 999 L984 788 Z M212 1198 L212 1393 L766 1393 L766 1198 L212 1198 Z " />
<glyph glyph-name="uni1E1E" unicode="&#x1e1e;" horiz-adv-x="1105" d="M805 1086 L805 1264 L478 1264 L478 842 L841 842 L841 631 L478 631 L478 211 L673 211 L673 0 L87 0 L87 211 L211 211 L211 1264 L87 1264 L87 1475 L1050 1475 L1050 1086 L805 1086 Z M463 1895 L740 1895 L740 1612 L463 1612 L463 1895 Z " />
<glyph glyph-name="Wdieresis" unicode="&#x1e84;" horiz-adv-x="1684" d="M1679 1264 L1571 1264 L1326 0 L1101 0 L900 796 L895 818 Q862 951 841 1065 Q819 943 782 796 L581 0 L356 0 L111 1264 L3 1264 L3 1475 L500 1475 L500 1264 L376 1264 L446 715 Q464 569 486 455 Q519 591 535 660 Q540 681 548 715 L731 1480 L950 1480 L1133 715 L1142 677 L1196 456 Q1215 558 1236 715 L1306 1264 L1182 1264 L1182 1475 L1679 1475 L1679 1264 Z M547 1642 L547 1889 L776 1889 L776 1642 L547 1642 Z M914 1642 L914 1889 L1143 1889 L1143 1642 L914 1642 Z " />
<glyph glyph-name="wdieresis" unicode="&#x1e85;" horiz-adv-x="1420" d="M546 0 L313 0 L107 788 L9 788 L9 999 L474 999 L474 788 L349 788 L398 541 Q403 515 417 451 Q434 375 442 316 L447 316 Q458 413 485 510 L621 999 L822 999 L955 509 L958 497 Q985 402 998 316 L1003 316 Q1017 412 1050 537 L1116 788 L986 788 L986 999 L1431 999 L1431 788 L1330 788 L1114 0 L888 0 L764 481 Q754 521 742 591 Q731 652 723 685 L718 685 L707 630 Q687 532 674 482 L546 0 Z M419 1166 L419 1413 L648 1413 L648 1166 L419 1166 Z M786 1166 L786 1413 L1015 1413 L1015 1166 L786 1166 Z " />
<glyph glyph-name="uni2007" unicode="&#x2007;" horiz-adv-x="1078" d="" />
<glyph glyph-name="uni2011" unicode="&#x2011;" horiz-adv-x="716" d="M84 459 L84 683 L632 683 L632 459 L84 459 Z " />
<glyph glyph-name="figuredash" unicode="&#x2012;" horiz-adv-x="1024" d="M82 459 L82 683 L942 683 L942 459 L82 459 Z " />
<glyph glyph-name="afii00208" unicode="&#x2015;" horiz-adv-x="1438" d="M84 459 L84 683 L1354 683 L1354 459 L84 459 Z " />
<glyph glyph-name="zerosuperior" unicode="&#x2070;" horiz-adv-x="744" d="M373 1707 Q706 1707 706 1258 Q706 803 372 803 Q38 803 38 1263 Q38 1707 373 1707 Z M373 1529 Q302 1529 270.5 1466 Q239 1403 239 1262 Q239 1099 276 1034 Q307 980 373 980 Q444 980 474 1044.5 Q504 1109 504 1259 Q504 1400 473 1464.5 Q442 1529 373 1529 Z " />
<glyph glyph-name="foursuperior" unicode="&#x2074;" horiz-adv-x="754" d="M702 1006 L584 1006 L584 826 L405 826 L405 1006 L51 1006 L51 1178 L329 1690 L530 1690 L256 1159 L405 1159 L405 1339 L584 1339 L584 1159 L702 1159 L702 1006 Z " />
<glyph glyph-name="fivesuperior" unicode="&#x2075;" horiz-adv-x="744" d="M371 803 Q74 803 60 1071 L252 1071 Q269 968 369 968 Q480 968 480 1085 Q480 1204 367 1204 Q303 1204 250 1160 L98 1248 L122 1690 L623 1690 L623 1446 L469 1446 L469 1532 L298 1532 L285 1340 Q326 1370 402 1370 Q543 1370 618 1285 Q684 1211 684 1085 Q684 939 593 867 Q514 803 371 803 Z " />
<glyph glyph-name="sixsuperior" unicode="&#x2076;" horiz-adv-x="745" d="M405 1370 Q549 1370 622 1289 Q687 1217 687 1090 Q687 942 599 868 Q520 803 379 803 Q200 803 128 920 Q65 1023 65 1243 Q65 1477 133 1588 Q206 1707 382 1707 Q657 1707 662 1458 L475 1458 Q474 1544 384 1544 Q322 1544 296 1493 Q268 1437 265 1317 Q310 1370 405 1370 Z M378 971 Q488 971 488 1093 Q488 1215 380 1215 Q271 1215 271 1090 Q271 971 378 971 Z " />
<glyph glyph-name="sevensuperior" unicode="&#x2077;" horiz-adv-x="745" d="M386 820 L173 820 L472 1524 L235 1524 L235 1426 L54 1426 L54 1690 L684 1690 L684 1521 L386 820 Z " />
<glyph glyph-name="eightsuperior" unicode="&#x2078;" horiz-adv-x="744" d="M57 1067 Q57 1199 184 1277 Q129 1322 106.5 1364 Q84 1406 84 1463 Q84 1587 169 1650 Q243 1706 371 1706 Q518 1706 593 1634 Q659 1571 659 1464 Q659 1354 566 1282 Q687 1217 687 1073 Q687 934 596 864 Q516 802 374 802 Q211 802 128 883 Q57 952 57 1067 Z M468 1449 Q468 1547 372 1547 Q275 1547 275 1449 Q275 1346 373 1346 Q468 1346 468 1449 Z M485 1079 Q485 1132 453.5 1165 Q422 1198 373 1198 Q322 1198 290.5 1164.5 Q259 1131 259 1078 Q259 1027 290 996 Q321 965 373 965 Q424 965 454.5 996 Q485 1027 485 1079 Z " />
<glyph glyph-name="ninesuperior" unicode="&#x2079;" horiz-adv-x="745" d="M605 1603 Q675 1507 675 1275 Q675 1031 610 918 Q544 803 366 803 Q89 803 83 1053 L270 1053 Q272 967 363 967 Q425 967 448 1022 Q475 1087 475 1216 Q438 1150 319 1150 Q184 1150 116 1227 Q55 1295 55 1416 Q55 1567 147 1641 Q227 1707 370 1707 Q530 1707 605 1603 Z M363 1309 Q466 1309 466 1424 Q466 1544 360 1544 Q254 1544 254 1425 Q254 1309 363 1309 Z " />
<glyph glyph-name="zeroinferior" unicode="&#x2080;" horiz-adv-x="744" d="M373 887 Q706 887 706 438 Q706 -17 372 -17 Q38 -17 38 443 Q38 887 373 887 Z M373 709 Q302 709 270.5 646 Q239 583 239 442 Q239 279 276 214 Q307 160 373 160 Q444 160 474 224.5 Q504 289 504 439 Q504 580 473 644.5 Q442 709 373 709 Z " />
<glyph glyph-name="oneinferior" unicode="&#x2081;" horiz-adv-x="744" d="M663 162 L663 0 L163 0 L163 162 L313 162 L313 663 L166 591 L94 741 L354 870 L511 870 L511 162 L663 162 Z " />
<glyph glyph-name="twoinferior" unicode="&#x2082;" horiz-adv-x="750" d="M674 283 L674 0 L48 0 Q48 103 97 191.5 Q146 280 274 410 Q386 523 412 558.5 Q438 594 438 632 Q438 719 343 719 Q292 719 269.5 687 Q247 655 246 582 L58 582 Q63 887 355 887 Q496 887 567 818 Q631 757 631 647 Q631 574 597 515.5 Q563 457 460 352 L414 306 Q321 213 295 162 L511 162 L511 283 L674 283 Z " />
<glyph glyph-name="threeinferior" unicode="&#x2083;" horiz-adv-x="744" d="M464 252 Q464 369 303 369 L235 369 L235 522 L305 522 Q442 522 442 629 Q442 720 350 720 Q261 720 261 630 L70 630 Q73 887 350 887 Q494 887 571 816 Q637 754 637 652 Q637 508 503 462 Q586 429 624 377 Q662 325 662 242 Q662 109 571 42 Q492 -17 351 -17 Q50 -17 49 269 L236 269 Q239 148 351 148 Q464 148 464 252 Z " />
<glyph glyph-name="fourinferior" unicode="&#x2084;" horiz-adv-x="754" d="M702 186 L584 186 L584 6 L405 6 L405 186 L51 186 L51 358 L329 870 L530 870 L256 339 L405 339 L405 519 L584 519 L584 339 L702 339 L702 186 Z " />
<glyph glyph-name="fiveinferior" unicode="&#x2085;" horiz-adv-x="744" d="M371 -17 Q74 -17 60 251 L252 251 Q269 148 369 148 Q480 148 480 265 Q480 384 367 384 Q303 384 250 340 L98 428 L122 870 L623 870 L623 626 L469 626 L469 712 L298 712 L285 520 Q326 550 402 550 Q543 550 618 465 Q684 391 684 265 Q684 119 593 47 Q514 -17 371 -17 Z " />
<glyph glyph-name="sixinferior" unicode="&#x2086;" horiz-adv-x="745" d="M405 550 Q549 550 622 469 Q687 397 687 270 Q687 122 599 48 Q520 -17 379 -17 Q200 -17 128 100 Q65 203 65 423 Q65 657 133 768 Q206 887 382 887 Q657 887 662 638 L475 638 Q474 724 384 724 Q321 724 296 673 Q268 617 265 497 Q310 550 405 550 Z M378 151 Q488 151 488 273 Q488 395 380 395 Q271 395 271 270 Q271 151 378 151 Z " />
<glyph glyph-name="seveninferior" unicode="&#x2087;" horiz-adv-x="745" d="M386 0 L173 0 L472 704 L235 704 L235 606 L54 606 L54 870 L684 870 L684 701 L386 0 Z " />
</font>
</svg>
