<?xml version="1.0" encoding="UTF-8"?>
<svg xmlns="http://www.w3.org/2000/svg" xmlns:xlink="http://www.w3.org/1999/xlink" version="1.2" >
<font id="A1 Serif Condensed Light">
<font-face  font-family="A1 Serif Condensed" units-per-em="2048" ascent="1536" descent="-512" font-style="normal" font-weight="300" font-stretch="normal" cap-height="1475" x-height="945" underline-position="-379" underline-thickness="86" />
<missing-glyph  horiz-adv-x="383" d="M38 0 L38 1475 L345 1475 L345 0 L38 0 Z M307 38 L307 1437 L76 1437 L76 38 L307 38 Z " />
<glyph glyph-name="space" unicode="&#x20;" horiz-adv-x="383" d="" />
<glyph glyph-name="exclam" unicode="&#x21;" horiz-adv-x="584" d="M240 335 L225 1475 L353 1475 L337 335 L240 335 Z M218 0 L218 154 L366 154 L366 0 L218 0 Z " />
<glyph glyph-name="quotedbl" unicode="&#x22;" horiz-adv-x="638" d="M139 920 L139 1475 L231 1475 L231 920 L139 920 Z M407 920 L407 1475 L499 1475 L499 920 L407 920 Z " />
<glyph glyph-name="numbersign" unicode="&#x23;" horiz-adv-x="1245" d="M882 871 L839 565 L1078 565 L1065 473 L826 473 L760 0 L660 0 L727 473 L439 473 L372 0 L272 0 L338 473 L110 473 L123 565 L351 565 L394 871 L162 871 L175 963 L407 963 L476 1455 L577 1455 L508 963 L796 963 L865 1455 L964 1455 L895 963 L1130 963 L1117 871 L882 871 Z M783 871 L495 871 L452 565 L740 565 L783 871 Z " />
<glyph glyph-name="dollar" unicode="&#x24;" horiz-adv-x="1078" d="M1000 390 Q1000 183 886 75 Q787 -19 612 -27 L612 -158 L532 -158 L532 -26 Q325 -11 243 144 L244 0 L154 0 L154 425 L244 425 Q244 258 329 165 Q404 83 532 70 L532 729 L486 739 Q313 777 236 882 Q167 976 167 1130 Q167 1320 274 1416 Q367 1499 532 1504 L532 1639 L612 1639 L612 1501 Q764 1481 831 1348 L831 1475 L921 1475 L921 1121 L829 1121 Q829 1376 612 1405 L612 814 L648 807 Q840 769 924 658 Q1000 559 1000 390 Z M532 830 L532 1408 Q399 1402 332 1322 Q273 1251 273 1131 Q273 881 522 832 L532 830 Z M612 68 Q757 77 830 169 Q894 250 894 386 Q894 532 817 612 Q750 682 614 711 L612 711 L612 68 Z " />
<glyph glyph-name="percent" unicode="&#x25;" horiz-adv-x="1397" d="M61 1174 Q61 1346 142 1433 Q212 1509 333 1509 Q472 1509 544 1406 Q605 1318 605 1168 Q605 993 525 905 Q455 829 333 829 Q193 829 122 931 Q61 1020 61 1174 Z M507 1169 Q507 1301 456 1366 Q412 1423 333 1423 Q159 1423 159 1171 Q159 914 333 914 Q507 914 507 1169 Z M796 314 Q796 486 877 573 Q947 649 1068 649 Q1207 649 1279 546 Q1340 458 1340 308 Q1340 133 1260 45 Q1190 -31 1068 -31 Q928 -31 857 71 Q796 160 796 314 Z M1242 309 Q1242 441 1191 506 Q1147 563 1068 563 Q894 563 894 311 Q894 54 1068 54 Q1242 54 1242 309 Z M957 1500 L1068 1500 L448 0 L337 0 L957 1500 Z " />
<glyph glyph-name="ampersand" unicode="&#x26;" horiz-adv-x="1154" d="M996 0 L853 199 Q727 -29 476 -29 Q281 -29 174 91 Q82 195 82 362 Q82 517 147 639 Q212 761 360 885 Q215 1088 215 1238 Q215 1367 301 1440 Q376 1504 494 1504 Q626 1504 698 1423 Q760 1353 760 1244 Q760 1146 708 1070.5 Q656 995 503 871 L497 866 L828 397 Q879 550 909 781 L1012 781 Q969 472 899 297 L1109 0 L996 0 Z M491 1406 Q410 1406 366.5 1361.5 Q323 1317 323 1235 Q323 1119 439 949 Q555 1040 596 1091 Q652 1160 652 1233 Q652 1314 609.5 1360 Q567 1406 491 1406 Z M480 68 Q679 68 786 292 L419 802 Q304 703 253 612 Q193 506 193 380 Q193 222 280 139 Q355 68 480 68 Z " />
<glyph glyph-name="quotesingle" unicode="&#x27;" horiz-adv-x="370" d="M139 920 L139 1475 L231 1475 L231 920 L139 920 Z " />
<glyph glyph-name="parenleft" unicode="&#x28;" horiz-adv-x="768" d="M509 -437 Q364 -219 299 20 Q237 247 237 525 Q237 843 318 1095 Q382 1295 509 1490 L606 1490 Q468 1247 411 1041 Q347 810 347 525 Q347 257 408 31 Q469 -195 606 -437 L509 -437 Z " />
<glyph glyph-name="parenright" unicode="&#x29;" horiz-adv-x="768" d="M162 -437 Q294 -204 354 8 Q421 247 421 525 Q421 803 362.5 1021.5 Q304 1240 162 1490 L259 1490 Q405 1267 469 1033 Q531 806 531 525 Q531 210 450 -43 Q385 -246 259 -437 L162 -437 Z " />
<glyph glyph-name="asterisk" unicode="&#x2a;" horiz-adv-x="990" d="M127 1207 L162 1299 L454 1193 L446 1507 L544 1507 L536 1193 L828 1298 L863 1206 L560 1115 L762 855 L682 797 L495 1069 L308 797 L227 855 L431 1115 L127 1207 Z " />
<glyph glyph-name="plus" unicode="&#x2b;" horiz-adv-x="1078" d="M174 690 L174 784 L492 784 L492 1125 L591 1125 L591 784 L904 784 L904 690 L591 690 L591 350 L492 350 L492 690 L174 690 Z " />
<glyph glyph-name="comma" unicode="&#x2c;" horiz-adv-x="507" d="M88 -258 L194 162 L341 162 L198 -258 L88 -258 Z " />
<glyph glyph-name="hyphen" unicode="&#x2d;" horiz-adv-x="717" d="M102 482 L102 588 L615 588 L615 482 L102 482 Z " />
<glyph glyph-name="period" unicode="&#x2e;" horiz-adv-x="496" d="M170 0 L170 170 L326 170 L326 0 L170 0 Z " />
<glyph glyph-name="slash" unicode="&#x2f;" horiz-adv-x="818" d="M129 -190 L624 1506 L723 1506 L228 -190 L129 -190 Z " />
<glyph glyph-name="zero" unicode="0" horiz-adv-x="1078" d="M538 1504 Q973 1504 973 728 Q973 317 849 131 Q743 -29 540 -29 Q105 -29 105 731 Q105 1504 538 1504 Z M538 1404 Q373 1404 291 1209 Q218 1036 218 727 Q218 71 539 71 Q860 71 860 725 Q860 1079 765 1253 Q683 1404 538 1404 Z " />
<glyph glyph-name="one" unicode="1" horiz-adv-x="1078" d="M928 94 L928 0 L205 0 L205 94 L517 94 L517 1361 L244 1236 L206 1324 L527 1475 L625 1475 L625 94 L928 94 Z " />
<glyph glyph-name="two" unicode="2" horiz-adv-x="1078" d="M949 379 L949 0 L133 0 Q144 140 223 273 Q302 406 487 595 Q662 774 727.5 884.5 Q793 995 793 1111 Q793 1252 711 1333 Q640 1404 531 1404 Q389 1404 315 1302 Q250 1212 249 1058 L142 1058 Q144 1284 261 1402 Q362 1504 533 1504 Q714 1504 817 1383 Q907 1278 907 1113 Q907 958 825 824 Q752 706 571 528 Q431 392 375 316 Q294 207 266 94 L854 94 L854 379 L949 379 Z " />
<glyph glyph-name="three" unicode="3" horiz-adv-x="1078" d="M820 401 Q820 736 480 736 L357 736 L357 829 L451 829 Q622 829 706 918 Q775 992 775 1118 Q775 1258 695 1336 Q624 1405 511 1405 Q265 1405 239 1131 L131 1131 Q142 1320 256 1419 Q355 1504 511 1504 Q694 1504 796 1385 Q885 1282 885 1119 Q885 884 684 797 Q808 757 873 647 Q932 546 932 398 Q932 190 817 77 Q710 -29 521 -29 Q119 -29 104 378 L211 378 Q217 219 308 140 Q387 71 521 71 Q676 71 753 169 Q820 254 820 401 Z " />
<glyph glyph-name="four" unicode="4" horiz-adv-x="1078" d="M772 384 L772 94 L960 94 L960 0 L469 0 L469 94 L666 94 L666 384 L91 384 L91 479 L473 1475 L592 1475 L205 478 L666 478 L666 1048 L772 1048 L772 478 L981 478 L981 384 L772 384 Z " />
<glyph glyph-name="five" unicode="5" horiz-adv-x="1078" d="M518 -29 Q316 -29 213 90 Q123 194 119 378 L226 378 Q229 224 320 141 Q398 71 521 71 Q674 71 755 179 Q825 274 825 431 Q825 617 730 721 Q648 811 517 811 Q356 811 239 688 L169 726 L204 1475 L861 1475 L861 1169 L766 1169 L766 1381 L305 1381 L277 822 Q378 912 539 912 Q733 912 842 766 Q937 639 937 438 Q937 199 813 77 Q705 -29 518 -29 Z " />
<glyph glyph-name="six" unicode="6" horiz-adv-x="1078" d="M560 922 Q760 922 868 779 Q962 655 962 451 Q962 213 841 85 Q734 -29 555 -29 Q323 -29 223 159 Q133 328 133 675 Q133 1137 256 1346 Q349 1504 556 1504 Q741 1504 841 1394 Q929 1298 930 1139 L823 1139 Q803 1406 557 1406 Q476 1406 424.5 1374.5 Q373 1343 334 1270 Q250 1113 239 722 Q323 922 560 922 Z M553 71 Q699 71 779 186 Q850 286 850 447 Q850 632 759 733 Q680 821 552 821 Q405 821 326 709 Q256 610 256 448 Q256 274 346 167 Q427 71 553 71 Z " />
<glyph glyph-name="seven" unicode="7" horiz-adv-x="1078" d="M496 0 L385 0 L838 1381 L210 1381 L210 1126 L117 1126 L117 1475 L942 1475 L942 1379 L496 0 Z " />
<glyph glyph-name="eight" unicode="8" horiz-adv-x="1078" d="M116 394 Q116 541 181 643 Q240 735 345 780 Q259 822 211 911 Q163 1000 163 1117 Q163 1305 279 1411 Q380 1504 542 1504 Q727 1504 829 1385 Q917 1282 917 1117 Q917 873 738 780 Q962 668 962 392 Q962 184 832 70 Q720 -29 539 -29 Q331 -29 216 99 Q116 211 116 394 Z M804 1119 Q804 1265 727 1339 Q659 1404 540 1404 Q405 1404 336 1320 Q276 1247 276 1120 Q276 972 355 895 Q424 827 542 827 Q675 827 744 913 Q804 989 804 1119 Z M850 401 Q850 563 756 652 Q674 729 539 729 Q386 729 302 631 Q228 545 228 405 Q228 242 323 151 Q406 71 541 71 Q694 71 777 171 Q850 259 850 401 Z " />
<glyph glyph-name="nine" unicode="9" horiz-adv-x="1078" d="M838 1351 Q896 1266 921 1127 Q946 988 946 755 Q946 306 849 137 Q754 -29 537 -29 Q354 -29 258 84 Q176 179 175 336 L282 336 Q301 69 534 69 Q694 69 764 205 Q839 351 838 764 Q801 676 717 627.5 Q633 579 519 579 Q324 579 219 717 Q127 837 127 1037 Q127 1269 249 1394 Q356 1504 533 1504 Q735 1504 838 1351 Z M533 678 Q676 678 755 784 Q823 877 823 1029 Q823 1209 732 1313 Q652 1404 527 1404 Q388 1404 308 1291 Q239 1193 239 1037 Q239 860 328 763 Q406 678 533 678 Z " />
<glyph glyph-name="colon" unicode="&#x3a;" horiz-adv-x="600" d="M170 0 L170 170 L326 170 L326 0 L170 0 Z M170 630 L170 800 L326 800 L326 630 L170 630 Z " />
<glyph glyph-name="semicolon" unicode="&#x3b;" horiz-adv-x="600" d="M185 630 L185 800 L341 800 L341 630 L185 630 Z M93 -258 L199 162 L346 162 L203 -258 L93 -258 Z " />
<glyph glyph-name="less" unicode="&#x3c;" horiz-adv-x="1078" d="M810 1124 L293 741 L810 356 L810 226 L169 708 L169 773 L810 1252 L810 1124 Z " />
<glyph glyph-name="equal" unicode="&#x3d;" horiz-adv-x="1078" d="M174 931 L904 931 L904 836 L174 836 L174 931 Z M174 638 L904 638 L904 544 L174 544 L174 638 Z " />
<glyph glyph-name="greater" unicode="&#x3e;" horiz-adv-x="1078" d="M858 770 L858 705 L217 226 L217 354 L734 737 L217 1122 L217 1252 L858 770 Z " />
<glyph glyph-name="question" unicode="&#x3f;" horiz-adv-x="915" d="M421 1508 Q607 1508 706 1376 Q791 1263 791 1081 Q791 890 692 771 Q607 668 464 641 L464 335 L358 335 L358 722 Q517 724 602 824 Q680 916 680 1074 Q680 1240 602 1331 Q532 1411 418 1411 Q286 1411 217 1310 Q157 1221 157 1067 L48 1067 Q48 1290 160 1407 Q257 1508 421 1508 Z M338 154 L486 154 L486 0 L338 0 L338 154 Z " />
<glyph glyph-name="at" unicode="&#x40;" horiz-adv-x="1729" d="M876 -94 Q1179 -94 1410 56 L1457 -34 Q1209 -190 876 -190 Q510 -190 330 47 Q169 258 169 642 Q169 1082 371 1307 Q549 1506 857 1506 Q1214 1506 1389 1277 Q1541 1076 1541 716 Q1541 449 1463 341 Q1395 246 1248 246 Q1076 246 1039 391 Q983 248 822 248 Q670 248 595 366 Q532 466 532 641 Q532 821 622 932 Q703 1033 827 1033 Q967 1033 1027 904 L1027 1023 L1127 1023 L1127 457 Q1127 336 1250 336 Q1364 336 1406 436 Q1442 522 1442 717 Q1442 1082 1270 1258 Q1123 1410 857 1410 Q557 1410 403 1173 Q271 970 271 624 Q271 250 452 65 Q606 -94 876 -94 Z M832 338 Q931 338 984 430 Q1030 510 1030 644 Q1030 793 971 873 Q920 943 835 943 Q743 943 687 842 Q640 758 640 641 Q640 491 695 411 Q745 338 832 338 Z " />
<glyph glyph-name="A" unicode="A" horiz-adv-x="1249" d="M1224 94 L1224 0 L835 0 L835 94 L995 94 L896 448 L348 448 L244 94 L410 94 L410 0 L31 0 L31 94 L130 94 L561 1475 L698 1475 L1114 94 L1224 94 Z M379 542 L865 542 L628 1361 L623 1361 L379 542 Z " />
<glyph glyph-name="B" unicode="B" horiz-adv-x="1186" d="M804 786 Q1072 700 1072 406 Q1072 204 947 98 Q830 0 618 0 L111 0 L111 94 L246 94 L246 1381 L111 1381 L111 1475 L534 1475 Q993 1475 993 1102 Q993 864 804 786 Z M356 1381 L356 829 L592 829 Q752 829 821 901 Q882 964 882 1090 Q882 1249 792 1319 Q712 1381 556 1381 L356 1381 Z M599 94 Q959 94 959 407 Q959 735 600 735 L356 735 L356 94 L599 94 Z " />
<glyph glyph-name="C" unicode="C" horiz-adv-x="1144" d="M1036 115 Q877 -31 635 -31 Q107 -31 107 713 Q107 1122 260 1327 Q392 1503 619 1503 Q828 1503 912 1344 L913 1475 L1004 1475 L1004 1054 L911 1054 Q911 1228 825 1321 Q751 1401 629 1401 Q421 1401 315 1203 Q220 1028 220 721 Q220 72 650 72 Q831 72 974 199 L1036 115 Z " />
<glyph glyph-name="D" unicode="D" horiz-adv-x="1291" d="M526 1475 Q862 1475 1031 1247 Q1171 1057 1171 738 Q1171 369 994 176 Q832 0 546 0 L111 0 L111 94 L246 94 L246 1381 L111 1381 L111 1475 L526 1475 Z M534 94 Q810 94 944 288 Q1058 452 1058 738 Q1058 1062 902 1230 Q762 1381 514 1381 L357 1381 L357 94 L534 94 Z " />
<glyph glyph-name="E" unicode="E" horiz-adv-x="1150" d="M1015 371 L1015 0 L111 0 L111 94 L256 94 L256 1381 L111 1381 L111 1475 L991 1475 L991 1139 L896 1139 L896 1381 L367 1381 L367 811 L829 811 L829 717 L367 717 L367 94 L920 94 L920 371 L1015 371 Z " />
<glyph glyph-name="F" unicode="F" horiz-adv-x="1070" d="M996 1475 L996 1139 L901 1139 L901 1381 L367 1381 L367 810 L796 810 L796 716 L367 716 L367 94 L590 94 L590 0 L111 0 L111 94 L256 94 L256 1381 L111 1381 L111 1475 L996 1475 Z " />
<glyph glyph-name="G" unicode="G" horiz-adv-x="1249" d="M982 154 L982 604 L597 604 L597 698 L1087 698 L1087 92 Q957 22 865 -4.5 Q773 -31 662 -31 Q363 -31 227 173 Q106 355 106 709 Q106 1133 262 1333 Q397 1504 641 1504 Q875 1504 954 1351 L957 1475 L1047 1475 L1047 1069 L953 1069 Q953 1402 648 1402 Q423 1402 314 1203 Q219 1028 219 708 Q219 357 344 202 Q452 67 666 67 Q821 67 982 154 Z " />
<glyph glyph-name="H" unicode="H" horiz-adv-x="1370" d="M1114 1381 L1114 94 L1259 94 L1259 0 L855 0 L855 94 L1003 94 L1003 730 L367 730 L367 94 L515 94 L515 0 L111 0 L111 94 L256 94 L256 1381 L111 1381 L111 1475 L515 1475 L515 1381 L367 1381 L367 824 L1003 824 L1003 1381 L855 1381 L855 1475 L1259 1475 L1259 1381 L1114 1381 Z " />
<glyph glyph-name="I" unicode="I" horiz-adv-x="623" d="M512 94 L512 0 L111 0 L111 94 L256 94 L256 1381 L111 1381 L111 1475 L512 1475 L512 1381 L367 1381 L367 94 L512 94 Z " />
<glyph glyph-name="J" unicode="J" horiz-adv-x="605" d="M513 1381 L371 1381 L371 50 Q371 -109 309 -181 Q247 -252 113 -259 L113 -162 Q193 -158 226.5 -111 Q260 -64 260 43 L260 1381 L114 1381 L114 1475 L513 1475 L513 1381 Z " />
<glyph glyph-name="K" unicode="K" horiz-adv-x="1266" d="M1241 94 L1241 0 L819 0 L819 94 L964 94 L369 757 L369 94 L514 94 L514 0 L111 0 L111 94 L258 94 L258 1381 L111 1381 L111 1475 L515 1475 L515 1381 L369 1381 L369 768 L901 1381 L767 1381 L767 1475 L1160 1475 L1160 1381 L1037 1381 L500 766 L1107 94 L1241 94 Z " />
<glyph glyph-name="L" unicode="L" horiz-adv-x="1101" d="M1009 389 L1009 0 L111 0 L111 94 L256 94 L256 1381 L111 1381 L111 1475 L515 1475 L515 1381 L367 1381 L367 94 L909 94 L909 389 L1009 389 Z " />
<glyph glyph-name="M" unicode="M" horiz-adv-x="1664" d="M1580 94 L1580 0 L1202 0 L1202 94 L1327 94 L1283 1123 L1280 1329 Q1272 1303 1254 1234 Q1233 1153 1223 1123 L857 0 L808 0 L432 1123 Q420 1158 392 1258 Q379 1304 374 1322 L372 1123 L337 94 L462 94 L462 0 L84 0 L84 94 L226 94 L282 1381 L141 1381 L141 1475 L422 1475 L778 406 Q800 338 833 220 Q838 236 847 272 Q873 365 886 406 L1232 1475 L1523 1475 L1523 1381 L1373 1381 L1438 94 L1580 94 Z " />
<glyph glyph-name="N" unicode="N" horiz-adv-x="1376" d="M430 1160 Q389 1235 352 1326 Q360 1246 360 1161 L360 94 L528 94 L528 0 L111 0 L111 94 L256 94 L256 1381 L111 1381 L111 1475 L378 1475 L973 367 Q1017 286 1053 192 Q1044 281 1044 418 L1044 1381 L878 1381 L878 1475 L1293 1475 L1293 1381 L1148 1381 L1148 -17 L1066 -17 L430 1160 Z " />
<glyph glyph-name="O" unicode="O" horiz-adv-x="1261" d="M632 -29 Q357 -29 223 194 Q106 389 106 740 Q106 1139 260 1335 Q392 1506 627 1506 Q903 1506 1038 1282 Q1155 1087 1155 736 Q1155 335 1003 141 Q871 -29 632 -29 Z M632 73 Q846 73 951 269 Q1042 439 1042 740 Q1042 1083 921 1254 Q816 1404 631 1404 Q418 1404 312 1210 Q219 1040 219 742 Q219 398 341 225 Q447 73 632 73 Z " />
<glyph glyph-name="P" unicode="P" horiz-adv-x="1141" d="M525 1475 Q800 1475 932 1346 Q1046 1235 1046 1036 Q1046 806 901 694 Q775 596 550 596 L357 596 L357 94 L530 94 L530 0 L111 0 L111 94 L246 94 L246 1381 L111 1381 L111 1475 L525 1475 Z M555 690 Q933 690 933 1030 Q933 1381 545 1381 L357 1381 L357 690 L555 690 Z " />
<glyph glyph-name="Q" unicode="Q" horiz-adv-x="1275" d="M684 -27 Q736 -40 838 -107 Q852 -116 861 -122 Q929 -164 982 -164 Q1055 -164 1127 -111 L1180 -190 Q1090 -267 988 -267 Q936 -267 892 -250 Q848 -233 777 -185 Q677 -118 615 -118 Q568 -118 525.5 -141 Q483 -164 416 -227 L352 -154 Q460 -49 557 -24 Q368 -2 256 146 Q180 246 146 381.5 Q112 517 106 740 Q106 1139 260 1335 Q392 1506 627 1506 Q903 1506 1038 1282 Q1155 1087 1155 736 Q1150 510 1115 376 Q1070 204 967 100 Q856 -12 684 -27 Z M632 73 Q846 73 951 269 Q1042 439 1042 740 Q1042 1083 921 1254 Q816 1404 631 1404 Q418 1404 312 1210 Q219 1040 219 742 Q219 398 341 225 Q447 73 632 73 Z " />
<glyph glyph-name="R" unicode="R" horiz-adv-x="1244" d="M1209 94 L1209 0 L981 0 L830 452 Q784 591 719 632 Q660 669 529 669 L367 669 L367 94 L526 94 L526 0 L111 0 L111 94 L256 94 L256 1381 L111 1381 L111 1475 L510 1475 Q805 1475 925 1365 Q1030 1269 1030 1064 Q1030 905 962 816 Q902 738 784 704 Q834 681 868.5 633.5 Q903 586 933 496 L1067 94 L1209 94 Z M570 763 Q767 763 846 844 Q916 915 916 1066 Q916 1241 811 1315 Q718 1381 529 1381 L367 1381 L367 763 L570 763 Z " />
<glyph glyph-name="S" unicode="S" horiz-adv-x="1109" d="M635 809 Q829 770 913 660 Q989 561 989 391 Q989 175 866 67 Q759 -28 570 -28 Q323 -28 233 141 L233 0 L140 0 L140 425 L235 425 Q235 245 334 152 Q421 71 569 71 Q728 71 807 163 Q877 244 877 386 Q877 531 801 609 Q735 679 600 708 L472 736 Q300 774 222 880 Q153 974 153 1128 Q153 1324 266 1420 Q364 1504 538 1504 Q737 1504 816 1350 L816 1475 L909 1475 L909 1120 L814 1120 Q814 1405 541 1405 Q399 1405 327 1325 Q264 1254 264 1130 Q264 883 510 834 L635 809 Z " />
<glyph glyph-name="T" unicode="T" horiz-adv-x="1155" d="M1095 1475 L1095 1103 L999 1103 L999 1381 L633 1381 L633 94 L807 94 L807 0 L348 0 L348 94 L522 94 L522 1381 L156 1381 L156 1103 L60 1103 L60 1475 L1095 1475 Z " />
<glyph glyph-name="U" unicode="U" horiz-adv-x="1311" d="M652 -29 Q383 -29 282 168 Q242 245 228.5 336 Q215 427 215 616 L215 1381 L72 1381 L72 1475 L471 1475 L471 1381 L326 1381 L326 555 Q326 291 406 180 Q484 73 655 73 Q854 73 928 216 Q985 325 985 549 L985 1381 L840 1381 L840 1475 L1239 1475 L1239 1381 L1096 1381 L1096 613 Q1096 358 1059 243 Q1022 126 923 50 Q821 -29 652 -29 Z " />
<glyph glyph-name="V" unicode="V" horiz-adv-x="1175" d="M532 0 L113 1381 L-14 1381 L-14 1475 L425 1475 L425 1381 L232 1381 L535 339 Q561 247 583 160 Q595 218 632 339 L942 1381 L754 1381 L754 1475 L1180 1475 L1180 1381 L1058 1381 L637 0 L532 0 Z " />
<glyph glyph-name="W" unicode="W" horiz-adv-x="1627" d="M1605 1381 L1491 1381 L1219 -10 L1117 -10 L864 1060 Q850 1120 832 1242 Q826 1282 822 1305 Q797 1144 777 1061 L515 -10 L413 -10 L153 1381 L30 1381 L30 1475 L427 1475 L427 1381 L266 1381 L442 338 Q460 231 467 178 L474 221 Q487 297 497 338 L777 1490 L869 1490 L1136 338 Q1152 269 1167 183 Q1171 212 1185 276 Q1193 315 1197 338 L1380 1381 L1219 1381 L1219 1475 L1605 1475 L1605 1381 Z " />
<glyph glyph-name="X" unicode="X" horiz-adv-x="1214" d="M1183 94 L1183 0 L757 0 L757 94 L914 94 L613 671 L315 94 L476 94 L476 0 L40 0 L40 94 L196 94 L556 765 L226 1381 L87 1381 L87 1475 L497 1475 L497 1381 L346 1381 L618 856 L888 1381 L735 1381 L735 1475 L1131 1475 L1131 1381 L1005 1381 L675 766 L1033 94 L1183 94 Z " />
<glyph glyph-name="Y" unicode="Y" horiz-adv-x="1117" d="M615 643 L615 94 L791 94 L791 0 L327 0 L327 94 L504 94 L504 650 L133 1381 L-14 1381 L-14 1475 L429 1475 L429 1381 L252 1381 L560 749 L872 1381 L706 1381 L706 1475 L1136 1475 L1136 1381 L988 1381 L615 643 Z " />
<glyph glyph-name="Z" unicode="Z" horiz-adv-x="1076" d="M965 379 L965 0 L105 0 L105 93 L835 1381 L231 1381 L231 1103 L137 1103 L137 1475 L967 1475 L967 1406 L230 94 L871 94 L871 379 L965 379 Z " />
<glyph glyph-name="bracketleft" unicode="&#x5b;" horiz-adv-x="829" d="M322 -422 L322 1475 L611 1475 L611 1382 L432 1382 L432 -329 L611 -329 L611 -422 L322 -422 Z " />
<glyph glyph-name="backslash" unicode="&#x5c;" horiz-adv-x="850" d="M93 1506 L192 1506 L687 -190 L588 -190 L93 1506 Z " />
<glyph glyph-name="bracketright" unicode="&#x5d;" horiz-adv-x="829" d="M218 -329 L397 -329 L397 1382 L218 1382 L218 1475 L507 1475 L507 -422 L218 -422 L218 -329 Z " />
<glyph glyph-name="asciicircum" unicode="&#x5e;" horiz-adv-x="980" d="M461 1383 L182 916 L60 916 L404 1475 L519 1475 L862 916 L740 916 L461 1383 Z " />
<glyph glyph-name="underscore" unicode="&#x5f;" horiz-adv-x="806" d="M0 -422 L0 -328 L806 -328 L806 -422 L0 -422 Z " />
<glyph glyph-name="grave" unicode="&#x60;" horiz-adv-x="800" d="M243 1458 L385 1458 L557 1110 L471 1110 L243 1458 Z " />
<glyph glyph-name="a" unicode="a" horiz-adv-x="931" d="M895 91 L895 0 L669 0 L669 138 Q600 -29 384 -29 Q229 -29 152 58 Q85 134 85 267 Q85 548 429 548 L654 548 L654 654 Q654 778 608.5 828 Q563 878 450 878 Q348 878 303.5 838 Q259 798 253 699 L147 699 Q164 974 449 974 Q620 974 693 889 Q755 815 755 668 L755 91 L895 91 Z M623 176 Q654 227 654 347 L654 459 L420 459 Q300 459 246 409 Q197 364 197 271 Q197 66 397 66 Q555 66 623 176 Z " />
<glyph glyph-name="b" unicode="b" horiz-adv-x="986" d="M531 974 Q714 974 811 824 Q896 692 896 468 Q896 214 787 83 Q693 -29 535 -29 Q331 -29 256 141 L249 0 L156 0 L156 1384 L14 1384 L14 1475 L260 1475 L260 806 Q341 974 531 974 Z M522 66 Q657 66 725 185 Q784 289 784 469 Q784 677 706 785 Q637 879 519 879 Q383 879 314 760 Q254 656 254 473 Q254 263 333 158 Q402 66 522 66 Z " />
<glyph glyph-name="c" unicode="c" horiz-adv-x="876" d="M782 77 Q671 -29 493 -29 Q281 -29 177 116 Q88 241 88 464 Q88 731 206 862 Q304 972 470 972 Q631 972 681 853 L681 945 L770 945 L770 643 L674 643 Q674 721 652 772 Q627 829 585 853.5 Q543 878 469 878 Q338 878 267 766 Q200 660 200 472 Q200 66 500 66 Q618 66 723 154 L782 77 Z " />
<glyph glyph-name="d" unicode="d" horiz-adv-x="1009" d="M971 91 L971 0 L740 0 L740 174 Q670 -29 456 -29 Q274 -29 176 122 Q90 253 90 468 Q90 718 203 855 Q301 974 460 974 Q648 974 726 802 L726 1384 L540 1384 L540 1475 L829 1475 L829 91 L971 91 Z M465 66 Q603 66 671 185 Q731 289 731 473 Q731 683 654 788 Q586 879 467 879 Q332 879 263 758 Q202 652 202 470 Q202 264 280 158 Q348 66 465 66 Z " />
<glyph glyph-name="e" unicode="e" horiz-adv-x="887" d="M458 974 Q646 974 730 825 Q802 696 799 448 L197 448 Q197 251 282 152 Q354 67 477 67 Q603 67 718 139 L769 59 Q644 -29 478 -29 Q272 -29 174 116 Q88 243 88 473 Q88 731 198 861 Q293 974 458 974 Z M455 879 Q331 879 264 778 Q205 691 198 538 L692 538 Q683 879 455 879 Z " />
<glyph glyph-name="f" unicode="f" horiz-adv-x="602" d="M80 0 L80 91 L222 91 L222 854 L80 854 L80 945 L222 945 L222 1146 Q222 1341 292 1419 Q354 1487 486 1487 Q541 1487 613 1476 L601 1386 Q544 1392 506 1392 Q394 1392 357 1328 Q328 1278 328 1158 L328 945 L552 945 L552 854 L328 854 L328 91 L532 91 L532 0 L80 0 Z " />
<glyph glyph-name="g" unicode="g" horiz-adv-x="1007" d="M974 945 L974 854 L832 854 L832 -22 Q832 -271 744 -367 Q664 -454 482 -454 Q305 -454 227 -375 Q158 -306 152 -164 L255 -164 Q261 -272 314 -316.5 Q367 -361 487 -361 Q630 -361 685 -278 Q734 -204 734 -34 L734 146 Q694 64 620 17.5 Q546 -29 455 -29 Q274 -29 178 121 Q94 252 94 473 Q94 725 203 859 Q297 974 454 974 Q667 974 743 778 L743 945 L974 945 Z M469 66 Q604 66 674 186 Q734 291 734 472 Q734 680 655 786 Q585 879 465 879 Q333 879 265 759 Q206 654 206 475 Q206 268 285 160 Q353 66 469 66 Z " />
<glyph glyph-name="h" unicode="h" horiz-adv-x="1036" d="M1001 91 L1001 0 L619 0 L619 91 L751 91 L751 662 Q751 777 713 829.5 Q675 882 591 882 Q436 882 301 673 L301 91 L433 91 L433 0 L51 0 L51 91 L193 91 L193 1384 L51 1384 L51 1475 L300 1475 L300 790 Q432 974 607 974 Q859 974 859 684 L859 91 L1001 91 Z " />
<glyph glyph-name="i" unicode="i" horiz-adv-x="511" d="M183 1332 L325 1332 L325 1184 L183 1184 L183 1332 Z M77 91 L219 91 L219 854 L77 854 L77 945 L327 945 L327 91 L469 91 L469 0 L77 0 L77 91 Z " />
<glyph glyph-name="j" unicode="j" horiz-adv-x="474" d="M179 1332 L321 1332 L321 1184 L179 1184 L179 1332 Z M60 -328 Q147 -324 178.5 -287 Q210 -250 210 -150 L210 854 L64 854 L64 945 L316 945 L316 -153 Q316 -293 257 -356 Q196 -422 60 -422 L60 -328 Z " />
<glyph glyph-name="k" unicode="k" horiz-adv-x="987" d="M999 91 L999 0 L585 0 L585 91 L723 91 L298 529 L298 91 L430 91 L430 0 L51 0 L51 91 L193 91 L193 1384 L51 1384 L51 1475 L298 1475 L298 533 L636 864 L496 864 L496 945 L895 945 L895 854 L756 854 L427 536 L864 91 L999 91 Z " />
<glyph glyph-name="l" unicode="l" horiz-adv-x="490" d="M51 91 L193 91 L193 1384 L51 1384 L51 1475 L300 1475 L300 91 L442 91 L442 0 L51 0 L51 91 Z " />
<glyph glyph-name="m" unicode="m" horiz-adv-x="1596" d="M1561 91 L1561 0 L1179 0 L1179 91 L1311 91 L1311 649 Q1311 778 1266 833 Q1228 879 1151 879 Q1011 879 873 682 L873 667 L873 91 L1015 91 L1015 0 L633 0 L633 91 L765 91 L765 649 Q765 778 720 833 Q682 879 605 879 Q458 879 327 687 L327 91 L459 91 L459 0 L77 0 L77 91 L219 91 L219 854 L77 854 L77 945 L315 945 L315 782 Q370 871 454.5 922.5 Q539 974 631 974 Q820 974 862 783 Q1000 974 1177 974 Q1299 974 1361 890 Q1419 812 1419 667 L1419 91 L1561 91 Z " />
<glyph glyph-name="n" unicode="n" horiz-adv-x="1062" d="M1027 91 L1027 0 L645 0 L645 91 L777 91 L777 662 Q777 777 739 829.5 Q701 882 617 882 Q462 882 327 673 L327 91 L459 91 L459 0 L77 0 L77 91 L219 91 L219 854 L77 854 L77 945 L315 945 L315 777 L316 775 Q451 974 633 974 Q885 974 885 684 L885 91 L1027 91 Z " />
<glyph glyph-name="o" unicode="o" horiz-adv-x="937" d="M469 -29 Q276 -29 175 120 Q88 249 88 470 Q88 725 202 858 Q301 974 468 974 Q660 974 761 823 Q849 692 849 469 Q849 215 736 85 Q637 -29 469 -29 Z M468 67 Q606 67 676 187 Q737 291 737 474 Q737 682 658 787 Q588 878 468 878 Q330 878 261 759 Q200 655 200 473 Q200 264 278 159 Q347 67 468 67 Z " />
<glyph glyph-name="p" unicode="p" horiz-adv-x="1025" d="M569 974 Q752 974 849 823 Q935 690 935 467 Q935 215 826 84 Q731 -29 571 -29 Q378 -29 298 132 L298 -331 L502 -331 L502 -422 L54 -422 L54 -331 L196 -331 L196 854 L54 854 L54 945 L284 945 L284 776 Q320 877 400 928 Q471 974 569 974 Z M560 67 Q694 67 763 186 Q823 291 823 470 Q823 677 744 785 Q675 878 558 878 Q423 878 355 759 Q297 657 294 473 Q297 262 373 158 Q440 67 560 67 Z " />
<glyph glyph-name="q" unicode="q" horiz-adv-x="1001" d="M829 854 L829 -331 L971 -331 L971 -422 L520 -422 L520 -331 L725 -331 L725 156 Q657 -29 452 -29 Q271 -29 175 123 Q90 256 90 475 Q90 725 204 859 Q302 974 462 974 Q664 974 740 767 L740 945 L971 945 L971 854 L829 854 Z M465 67 Q603 67 671 186 Q731 290 731 473 Q731 682 654 787 Q586 878 467 878 Q332 878 263 757 Q202 651 202 470 Q202 264 280 159 Q348 67 465 67 Z " />
<glyph glyph-name="r" unicode="r" horiz-adv-x="710" d="M501 931 Q571 960 682 960 L682 858 Q573 862 502 829 Q393 774 333 627 L333 91 L544 91 L544 0 L83 0 L83 91 L225 91 L225 854 L77 854 L77 945 L321 945 L321 730 Q381 881 501 931 Z " />
<glyph glyph-name="s" unicode="s" horiz-adv-x="833" d="M499 520 Q640 497 701 426 Q756 362 756 250 Q756 -29 453 -29 Q267 -29 192 104 L192 0 L108 0 L108 271 L205 271 Q224 164 282.5 114 Q341 64 448 64 Q651 64 651 242 Q651 328 610 370.5 Q569 413 471 428 L387 441 Q114 484 114 709 Q114 844 198 914 Q272 974 397 974 Q561 974 610 849 L610 945 L694 945 L694 698 L600 698 Q600 882 409 882 Q217 882 217 709 Q217 565 418 533 L499 520 Z " />
<glyph glyph-name="t" unicode="t" horiz-adv-x="576" d="M405 -11 Q273 -11 224 51 Q183 104 183 224 L183 854 L56 854 L56 945 L183 945 L183 1313 L289 1313 L289 945 L515 945 L515 854 L289 854 L289 247 Q289 152 317.5 118 Q346 84 424 84 Q460 84 534 88 L534 -2 Q471 -11 405 -11 Z " />
<glyph glyph-name="u" unicode="u" horiz-adv-x="1020" d="M978 91 L978 0 L743 0 L742 165 Q621 -29 420 -29 Q178 -29 178 263 L178 854 L36 854 L36 945 L286 945 L286 299 Q286 171 322 118.5 Q358 66 446 66 Q612 66 728 272 L728 854 L586 854 L586 945 L836 945 L836 91 L978 91 Z " />
<glyph glyph-name="v" unicode="v" horiz-adv-x="897" d="M894 854 L778 854 L492 0 L385 0 L100 854 L-5 854 L-5 945 L354 945 L354 854 L207 854 L370 335 Q405 224 436 123 L441 123 Q453 163 480 246 Q496 296 506 327 L673 854 L515 854 L515 945 L894 945 L894 854 Z " />
<glyph glyph-name="w" unicode="w" horiz-adv-x="1276" d="M434 0 L308 0 L99 854 L4 854 L4 945 L369 945 L369 854 L205 854 L309 380 Q316 348 335 256 Q355 158 368 105 L373 105 L442 380 L585 943 L692 943 L823 426 Q830 399 844 345 Q883 191 901 106 L906 106 Q926 210 974 426 L1068 854 L933 854 L933 945 L1283 945 L1283 854 L1172 854 L963 0 L838 0 L704 529 Q677 635 642 793 L636 793 Q629 764 601 660 Q577 572 567 531 L434 0 Z " />
<glyph glyph-name="x" unicode="x" horiz-adv-x="991" d="M947 91 L947 0 L562 0 L562 91 L706 91 L491 418 L288 91 L435 91 L435 0 L44 0 L44 91 L169 91 L432 488 L182 854 L58 854 L58 945 L425 945 L425 854 L294 854 L492 561 L682 854 L559 854 L559 945 L938 945 L938 854 L789 854 L549 493 L822 91 L947 91 Z " />
<glyph glyph-name="y" unicode="y" horiz-adv-x="877" d="M887 854 L782 854 L421 -201 Q373 -341 304 -385 Q246 -421 122 -422 L122 -328 Q218 -326 258.5 -297 Q299 -268 326 -183 L386 3 L86 854 L-19 854 L-19 945 L369 945 L369 854 L198 854 L365 337 Q384 276 415 185 Q428 149 434 130 L441 130 Q454 177 493 297 L504 331 L673 854 L497 854 L497 945 L887 945 L887 854 Z " />
<glyph glyph-name="z" unicode="z" horiz-adv-x="839" d="M755 275 L755 0 L90 0 L90 84 L625 856 L212 856 L212 673 L112 673 L112 945 L750 945 L750 870 L214 91 L655 91 L655 275 L755 275 Z " />
<glyph glyph-name="braceleft" unicode="&#x7b;" horiz-adv-x="780" d="M443 893 Q443 723 403.5 650.5 Q364 578 252 542 Q371 503 410 421 Q443 349 443 190 L443 -43 L443 -104 Q443 -227 479 -272 Q524 -327 644 -327 L683 -327 L683 -421 L636 -421 Q447 -421 386 -332 Q333 -254 333 -47 L333 171 Q333 370 276 433 Q225 488 84 495 L84 589 Q242 594 290 669 Q333 735 333 914 L333 1101 Q333 1338 404 1411 Q466 1475 636 1475 L683 1475 L683 1381 L644 1381 Q512 1381 476 1318 Q443 1263 443 1096 L443 893 Z " />
<glyph glyph-name="bar" unicode="&#x7c;" horiz-adv-x="1021" d="M462 -480 L462 1565 L559 1565 L559 -480 L462 -480 Z " />
<glyph glyph-name="braceright" unicode="&#x7d;" horiz-adv-x="780" d="M447 914 Q447 713 505 649 Q556 593 696 589 L696 495 Q537 487 489 413 Q447 348 447 171 L447 -47 Q447 -281 375 -355 Q312 -421 144 -421 L97 -421 L97 -327 L136 -327 Q273 -327 313 -254 Q338 -208 337 -74 Q337 -54 337 -43 L337 190 Q337 361 376.5 433.5 Q416 506 528 542 Q409 581 370 663 Q337 735 337 893 L337 1096 Q337 1283 293 1335 Q253 1381 136 1381 L97 1381 L97 1475 L144 1475 Q268 1475 330 1444 Q394 1412 420.5 1334.5 Q447 1257 447 1101 L447 914 Z " />
<glyph glyph-name="asciitilde" unicode="&#x7e;" horiz-adv-x="1046" d="M135 696 Q249 848 360 848 Q399 848 433 834.5 Q467 821 535 780 Q632 720 681 720 Q765 720 844 836 L911 774 Q809 619 686 619 Q620 619 507 685 Q409 743 364 743 Q323 743 287 719 Q251 695 200 633 L135 696 Z " />
<glyph glyph-name="Adieresis" unicode="&#xc4;" horiz-adv-x="1249" d="M1224 94 L1224 0 L835 0 L835 94 L995 94 L896 448 L348 448 L244 94 L410 94 L410 0 L31 0 L31 94 L130 94 L561 1475 L698 1475 L1114 94 L1224 94 Z M379 542 L865 542 L628 1361 L623 1361 L379 542 Z M393 1706 L393 1859 L530 1859 L530 1706 L393 1706 Z M727 1706 L727 1859 L864 1859 L864 1706 L727 1706 Z " />
<glyph glyph-name="Aring" unicode="&#xc5;" horiz-adv-x="1249" d="M1224 94 L1224 0 L835 0 L835 94 L995 94 L896 448 L348 448 L244 94 L410 94 L410 0 L31 0 L31 94 L130 94 L561 1475 L698 1475 L1114 94 L1224 94 Z M379 542 L865 542 L628 1361 L623 1361 L379 542 Z M628 2004 Q726 2004 778 1942 Q820 1891 820 1811 Q820 1719 765 1667 Q714 1618 629 1618 Q530 1618 479 1680 Q437 1732 437 1814 Q437 1904 493 1956 Q544 2004 628 2004 Z M627 1933 Q518 1933 518 1812 Q518 1689 627 1689 Q739 1689 739 1811 Q739 1933 627 1933 Z " />
<glyph glyph-name="Ccedilla" unicode="&#xc7;" horiz-adv-x="1144" d="M565 -27 Q361 -7 248 141 Q176 237 143.5 367.5 Q111 498 107 713 Q107 1122 260 1327 Q392 1503 619 1503 Q828 1503 912 1344 L913 1475 L1004 1475 L1004 1054 L911 1054 Q911 1228 825 1321 Q751 1401 629 1401 Q421 1401 315 1203 Q220 1028 220 721 Q220 72 650 72 Q831 72 974 199 L1036 115 Q879 -25 650 -31 L612 -134 Q632 -131 649 -131 Q718 -131 759.5 -172 Q801 -213 801 -282 Q801 -368 743 -417 Q690 -461 602 -461 Q502 -461 415 -419 L415 -330 Q521 -371 600 -371 Q704 -371 704 -278 Q704 -197 621 -197 Q587 -197 539 -210 L531 -117 L565 -27 Z " />
<glyph glyph-name="Eacute" unicode="&#xc9;" horiz-adv-x="1150" d="M1015 371 L1015 0 L111 0 L111 94 L256 94 L256 1381 L111 1381 L111 1475 L991 1475 L991 1139 L896 1139 L896 1381 L367 1381 L367 811 L829 811 L829 717 L367 717 L367 94 L920 94 L920 371 L1015 371 Z M519 1640 L691 1988 L834 1988 L606 1640 L519 1640 Z " />
<glyph glyph-name="Ntilde" unicode="&#xd1;" horiz-adv-x="1376" d="M430 1160 Q389 1235 352 1326 Q360 1246 360 1161 L360 94 L528 94 L528 0 L111 0 L111 94 L256 94 L256 1381 L111 1381 L111 1475 L378 1475 L973 367 Q1017 286 1053 192 Q1044 281 1044 418 L1044 1381 L878 1381 L878 1475 L1293 1475 L1293 1381 L1148 1381 L1148 -17 L1066 -17 L430 1160 Z M404 1705 Q413 1791 457 1837.5 Q501 1884 573 1884 Q623 1884 707 1835 Q777 1794 812 1794 Q884 1794 892 1877 L979 1877 Q978 1784 918 1736 Q874 1700 810 1700 Q774 1700 746 1709.5 Q718 1719 655 1754 Q600 1784 568 1784 Q505 1784 494 1705 L404 1705 Z " />
<glyph glyph-name="Odieresis" unicode="&#xd6;" horiz-adv-x="1261" d="M632 -29 Q357 -29 223 194 Q106 389 106 740 Q106 1139 260 1335 Q392 1506 627 1506 Q903 1506 1038 1282 Q1155 1087 1155 736 Q1155 335 1003 141 Q871 -29 632 -29 Z M632 73 Q846 73 951 269 Q1042 439 1042 740 Q1042 1083 921 1254 Q816 1404 631 1404 Q418 1404 312 1210 Q219 1040 219 742 Q219 398 341 225 Q447 73 632 73 Z M394 1737 L394 1890 L531 1890 L531 1737 L394 1737 Z M728 1737 L728 1890 L865 1890 L865 1737 L728 1737 Z " />
<glyph glyph-name="Udieresis" unicode="&#xdc;" horiz-adv-x="1311" d="M652 -29 Q383 -29 282 168 Q242 245 228.5 336 Q215 427 215 616 L215 1381 L72 1381 L72 1475 L471 1475 L471 1381 L326 1381 L326 555 Q326 291 406 180 Q484 73 655 73 Q854 73 928 216 Q985 325 985 549 L985 1381 L840 1381 L840 1475 L1239 1475 L1239 1381 L1096 1381 L1096 613 Q1096 358 1059 243 Q1022 126 923 50 Q821 -29 652 -29 Z M428 1706 L428 1859 L565 1859 L565 1706 L428 1706 Z M762 1706 L762 1859 L899 1859 L899 1706 L762 1706 Z " />
<glyph glyph-name="aacute" unicode="&#xe1;" horiz-adv-x="931" d="M895 91 L895 0 L669 0 L669 138 Q600 -29 384 -29 Q229 -29 152 58 Q85 134 85 267 Q85 548 429 548 L654 548 L654 654 Q654 778 608.5 828 Q563 878 450 878 Q348 878 303.5 838 Q259 798 253 699 L147 699 Q164 974 449 974 Q620 974 693 889 Q755 815 755 668 L755 91 L895 91 Z M623 176 Q654 227 654 347 L654 459 L420 459 Q300 459 246 409 Q197 364 197 271 Q197 66 397 66 Q555 66 623 176 Z M366 1110 L538 1458 L681 1458 L453 1110 L366 1110 Z " />
<glyph glyph-name="agrave" unicode="&#xe0;" horiz-adv-x="931" d="M895 91 L895 0 L669 0 L669 138 Q600 -29 384 -29 Q229 -29 152 58 Q85 134 85 267 Q85 548 429 548 L654 548 L654 654 Q654 778 608.5 828 Q563 878 450 878 Q348 878 303.5 838 Q259 798 253 699 L147 699 Q164 974 449 974 Q620 974 693 889 Q755 815 755 668 L755 91 L895 91 Z M623 176 Q654 227 654 347 L654 459 L420 459 Q300 459 246 409 Q197 364 197 271 Q197 66 397 66 Q555 66 623 176 Z M215 1458 L357 1458 L529 1110 L443 1110 L215 1458 Z " />
<glyph glyph-name="acircumflex" unicode="&#xe2;" horiz-adv-x="931" d="M895 91 L895 0 L669 0 L669 138 Q600 -29 384 -29 Q229 -29 152 58 Q85 134 85 267 Q85 548 429 548 L654 548 L654 654 Q654 778 608.5 828 Q563 878 450 878 Q348 878 303.5 838 Q259 798 253 699 L147 699 Q164 974 449 974 Q620 974 693 889 Q755 815 755 668 L755 91 L895 91 Z M623 176 Q654 227 654 347 L654 459 L420 459 Q300 459 246 409 Q197 364 197 271 Q197 66 397 66 Q555 66 623 176 Z M453 1353 L261 1110 L169 1110 L381 1440 L518 1440 L732 1110 L640 1110 L453 1353 Z " />
<glyph glyph-name="adieresis" unicode="&#xe4;" horiz-adv-x="931" d="M895 91 L895 0 L669 0 L669 138 Q600 -29 384 -29 Q229 -29 152 58 Q85 134 85 267 Q85 548 429 548 L654 548 L654 654 Q654 778 608.5 828 Q563 878 450 878 Q348 878 303.5 838 Q259 798 253 699 L147 699 Q164 974 449 974 Q620 974 693 889 Q755 815 755 668 L755 91 L895 91 Z M623 176 Q654 227 654 347 L654 459 L420 459 Q300 459 246 409 Q197 364 197 271 Q197 66 397 66 Q555 66 623 176 Z M217 1176 L217 1329 L354 1329 L354 1176 L217 1176 Z M551 1176 L551 1329 L688 1329 L688 1176 L551 1176 Z " />
<glyph glyph-name="atilde" unicode="&#xe3;" horiz-adv-x="931" d="M895 91 L895 0 L669 0 L669 138 Q600 -29 384 -29 Q229 -29 152 58 Q85 134 85 267 Q85 548 429 548 L654 548 L654 654 Q654 778 608.5 828 Q563 878 450 878 Q348 878 303.5 838 Q259 798 253 699 L147 699 Q164 974 449 974 Q620 974 693 889 Q755 815 755 668 L755 91 L895 91 Z M623 176 Q654 227 654 347 L654 459 L420 459 Q300 459 246 409 Q197 364 197 271 Q197 66 397 66 Q555 66 623 176 Z M167 1175 Q176 1261 220 1307.5 Q264 1354 336 1354 Q386 1354 470 1305 Q540 1264 575 1264 Q647 1264 655 1347 L742 1347 Q741 1254 681 1206 Q637 1170 573 1170 Q537 1170 509 1179.5 Q481 1189 418 1224 Q363 1254 331 1254 Q268 1254 257 1175 L167 1175 Z " />
<glyph glyph-name="aring" unicode="&#xe5;" horiz-adv-x="931" d="M895 91 L895 0 L669 0 L669 138 Q600 -29 384 -29 Q229 -29 152 58 Q85 134 85 267 Q85 548 429 548 L654 548 L654 654 Q654 778 608.5 828 Q563 878 450 878 Q348 878 303.5 838 Q259 798 253 699 L147 699 Q164 974 449 974 Q620 974 693 889 Q755 815 755 668 L755 91 L895 91 Z M623 176 Q654 227 654 347 L654 459 L420 459 Q300 459 246 409 Q197 364 197 271 Q197 66 397 66 Q555 66 623 176 Z M452 1474 Q550 1474 602 1412 Q644 1361 644 1281 Q644 1189 589 1137 Q538 1088 453 1088 Q354 1088 303 1150 Q261 1202 261 1284 Q261 1374 317 1426 Q368 1474 452 1474 Z M451 1403 Q342 1403 342 1282 Q342 1159 451 1159 Q563 1159 563 1281 Q563 1403 451 1403 Z " />
<glyph glyph-name="ccedilla" unicode="&#xe7;" horiz-adv-x="876" d="M431 -26 Q274 -10 184 106 Q96 223 88 464 Q88 731 206 862 Q304 972 470 972 Q631 972 681 853 L681 945 L770 945 L770 643 L674 643 Q674 721 652 772 Q627 829 585 853.5 Q543 878 469 878 Q338 878 267 766 Q200 660 200 472 Q200 66 500 66 Q618 66 723 154 L782 77 Q677 -21 516 -29 L477 -134 Q495 -131 514 -131 Q583 -131 624.5 -172 Q666 -213 666 -282 Q666 -368 607 -417 Q555 -461 467 -461 Q367 -461 280 -419 L280 -330 Q386 -371 465 -371 Q569 -371 569 -278 Q569 -197 487 -197 Q453 -197 404 -210 L396 -117 L431 -26 Z " />
<glyph glyph-name="eacute" unicode="&#xe9;" horiz-adv-x="887" d="M458 974 Q646 974 730 825 Q802 696 799 448 L197 448 Q197 251 282 152 Q354 67 477 67 Q603 67 718 139 L769 59 Q644 -29 478 -29 Q272 -29 174 116 Q88 243 88 473 Q88 731 198 861 Q293 974 458 974 Z M455 879 Q331 879 264 778 Q205 691 198 538 L692 538 Q683 879 455 879 Z M364 1110 L536 1458 L679 1458 L451 1110 L364 1110 Z " />
<glyph glyph-name="egrave" unicode="&#xe8;" horiz-adv-x="887" d="M458 974 Q646 974 730 825 Q802 696 799 448 L197 448 Q197 251 282 152 Q354 67 477 67 Q603 67 718 139 L769 59 Q644 -29 478 -29 Q272 -29 174 116 Q88 243 88 473 Q88 731 198 861 Q293 974 458 974 Z M455 879 Q331 879 264 778 Q205 691 198 538 L692 538 Q683 879 455 879 Z M213 1458 L355 1458 L527 1110 L441 1110 L213 1458 Z " />
<glyph glyph-name="ecircumflex" unicode="&#xea;" horiz-adv-x="887" d="M458 974 Q646 974 730 825 Q802 696 799 448 L197 448 Q197 251 282 152 Q354 67 477 67 Q603 67 718 139 L769 59 Q644 -29 478 -29 Q272 -29 174 116 Q88 243 88 473 Q88 731 198 861 Q293 974 458 974 Z M455 879 Q331 879 264 778 Q205 691 198 538 L692 538 Q683 879 455 879 Z M451 1353 L259 1110 L167 1110 L379 1440 L516 1440 L730 1110 L638 1110 L451 1353 Z " />
<glyph glyph-name="edieresis" unicode="&#xeb;" horiz-adv-x="887" d="M458 974 Q646 974 730 825 Q802 696 799 448 L197 448 Q197 251 282 152 Q354 67 477 67 Q603 67 718 139 L769 59 Q644 -29 478 -29 Q272 -29 174 116 Q88 243 88 473 Q88 731 198 861 Q293 974 458 974 Z M455 879 Q331 879 264 778 Q205 691 198 538 L692 538 Q683 879 455 879 Z M215 1176 L215 1329 L352 1329 L352 1176 L215 1176 Z M549 1176 L549 1329 L686 1329 L686 1176 L549 1176 Z " />
<glyph glyph-name="iacute" unicode="&#xed;" horiz-adv-x="511" d="M77 91 L219 91 L219 854 L77 854 L77 945 L327 945 L327 91 L469 91 L469 0 L77 0 L77 91 Z M170 1110 L309 1458 L447 1458 L255 1110 L170 1110 Z " />
<glyph glyph-name="igrave" unicode="&#xec;" horiz-adv-x="511" d="M77 91 L219 91 L219 854 L77 854 L77 945 L327 945 L327 91 L469 91 L469 0 L77 0 L77 91 Z M17 1458 L159 1458 L331 1110 L245 1110 L17 1458 Z " />
<glyph glyph-name="icircumflex" unicode="&#xee;" horiz-adv-x="511" d="M77 91 L219 91 L219 854 L77 854 L77 945 L327 945 L327 91 L469 91 L469 0 L77 0 L77 91 Z M247 1353 L80 1110 L-14 1110 L178 1440 L309 1440 L503 1110 L409 1110 L247 1353 Z " />
<glyph glyph-name="idieresis" unicode="&#xef;" horiz-adv-x="511" d="M77 91 L219 91 L219 854 L77 854 L77 945 L327 945 L327 91 L469 91 L469 0 L77 0 L77 91 Z M35 1176 L35 1329 L172 1329 L172 1176 L35 1176 Z M319 1176 L319 1329 L456 1329 L456 1176 L319 1176 Z " />
<glyph glyph-name="ntilde" unicode="&#xf1;" horiz-adv-x="1062" d="M1027 91 L1027 0 L645 0 L645 91 L777 91 L777 662 Q777 777 739 829.5 Q701 882 617 882 Q462 882 327 673 L327 91 L459 91 L459 0 L77 0 L77 91 L219 91 L219 854 L77 854 L77 945 L315 945 L315 777 L316 775 Q451 974 633 974 Q885 974 885 684 L885 91 L1027 91 Z M253 1175 Q262 1261 306 1307.5 Q350 1354 422 1354 Q472 1354 556 1305 Q626 1264 661 1264 Q733 1264 741 1347 L828 1347 Q827 1254 767 1206 Q723 1170 659 1170 Q623 1170 595 1179.5 Q567 1189 504 1224 Q449 1254 417 1254 Q354 1254 343 1175 L253 1175 Z " />
<glyph glyph-name="oacute" unicode="&#xf3;" horiz-adv-x="937" d="M469 -29 Q276 -29 175 120 Q88 249 88 470 Q88 725 202 858 Q301 974 468 974 Q660 974 761 823 Q849 692 849 469 Q849 215 736 85 Q637 -29 469 -29 Z M468 67 Q606 67 676 187 Q737 291 737 474 Q737 682 658 787 Q588 878 468 878 Q330 878 261 759 Q200 655 200 473 Q200 264 278 159 Q347 67 468 67 Z M383 1110 L555 1458 L698 1458 L470 1110 L383 1110 Z " />
<glyph glyph-name="ograve" unicode="&#xf2;" horiz-adv-x="937" d="M469 -29 Q276 -29 175 120 Q88 249 88 470 Q88 725 202 858 Q301 974 468 974 Q660 974 761 823 Q849 692 849 469 Q849 215 736 85 Q637 -29 469 -29 Z M468 67 Q606 67 676 187 Q737 291 737 474 Q737 682 658 787 Q588 878 468 878 Q330 878 261 759 Q200 655 200 473 Q200 264 278 159 Q347 67 468 67 Z M232 1458 L374 1458 L546 1110 L460 1110 L232 1458 Z " />
<glyph glyph-name="ocircumflex" unicode="&#xf4;" horiz-adv-x="937" d="M469 -29 Q276 -29 175 120 Q88 249 88 470 Q88 725 202 858 Q301 974 468 974 Q660 974 761 823 Q849 692 849 469 Q849 215 736 85 Q637 -29 469 -29 Z M468 67 Q606 67 676 187 Q737 291 737 474 Q737 682 658 787 Q588 878 468 878 Q330 878 261 759 Q200 655 200 473 Q200 264 278 159 Q347 67 468 67 Z M470 1353 L278 1110 L186 1110 L398 1440 L535 1440 L749 1110 L657 1110 L470 1353 Z " />
<glyph glyph-name="odieresis" unicode="&#xf6;" horiz-adv-x="937" d="M469 -29 Q276 -29 175 120 Q88 249 88 470 Q88 725 202 858 Q301 974 468 974 Q660 974 761 823 Q849 692 849 469 Q849 215 736 85 Q637 -29 469 -29 Z M468 67 Q606 67 676 187 Q737 291 737 474 Q737 682 658 787 Q588 878 468 878 Q330 878 261 759 Q200 655 200 473 Q200 264 278 159 Q347 67 468 67 Z M234 1176 L234 1329 L371 1329 L371 1176 L234 1176 Z M568 1176 L568 1329 L705 1329 L705 1176 L568 1176 Z " />
<glyph glyph-name="otilde" unicode="&#xf5;" horiz-adv-x="937" d="M469 -29 Q276 -29 175 120 Q88 249 88 470 Q88 725 202 858 Q301 974 468 974 Q660 974 761 823 Q849 692 849 469 Q849 215 736 85 Q637 -29 469 -29 Z M468 67 Q606 67 676 187 Q737 291 737 474 Q737 682 658 787 Q588 878 468 878 Q330 878 261 759 Q200 655 200 473 Q200 264 278 159 Q347 67 468 67 Z M184 1175 Q193 1261 237 1307.5 Q281 1354 353 1354 Q403 1354 487 1305 Q557 1264 592 1264 Q664 1264 672 1347 L759 1347 Q758 1254 698 1206 Q654 1170 590 1170 Q554 1170 526 1179.5 Q498 1189 435 1224 Q380 1254 348 1254 Q285 1254 274 1175 L184 1175 Z " />
<glyph glyph-name="uacute" unicode="&#xfa;" horiz-adv-x="1020" d="M978 91 L978 0 L743 0 L742 165 Q621 -29 420 -29 Q178 -29 178 263 L178 854 L36 854 L36 945 L286 945 L286 299 Q286 171 322 118.5 Q358 66 446 66 Q612 66 728 272 L728 854 L586 854 L586 945 L836 945 L836 91 L978 91 Z M401 1110 L573 1458 L716 1458 L488 1110 L401 1110 Z " />
<glyph glyph-name="ugrave" unicode="&#xf9;" horiz-adv-x="1020" d="M978 91 L978 0 L743 0 L742 165 Q621 -29 420 -29 Q178 -29 178 263 L178 854 L36 854 L36 945 L286 945 L286 299 Q286 171 322 118.5 Q358 66 446 66 Q612 66 728 272 L728 854 L586 854 L586 945 L836 945 L836 91 L978 91 Z M250 1458 L392 1458 L564 1110 L478 1110 L250 1458 Z " />
<glyph glyph-name="ucircumflex" unicode="&#xfb;" horiz-adv-x="1020" d="M978 91 L978 0 L743 0 L742 165 Q621 -29 420 -29 Q178 -29 178 263 L178 854 L36 854 L36 945 L286 945 L286 299 Q286 171 322 118.5 Q358 66 446 66 Q612 66 728 272 L728 854 L586 854 L586 945 L836 945 L836 91 L978 91 Z M488 1353 L296 1110 L204 1110 L416 1440 L553 1440 L767 1110 L675 1110 L488 1353 Z " />
<glyph glyph-name="udieresis" unicode="&#xfc;" horiz-adv-x="1020" d="M978 91 L978 0 L743 0 L742 165 Q621 -29 420 -29 Q178 -29 178 263 L178 854 L36 854 L36 945 L286 945 L286 299 Q286 171 322 118.5 Q358 66 446 66 Q612 66 728 272 L728 854 L586 854 L586 945 L836 945 L836 91 L978 91 Z M252 1176 L252 1329 L389 1329 L389 1176 L252 1176 Z M586 1176 L586 1329 L723 1329 L723 1176 L586 1176 Z " />
<glyph glyph-name="dagger" unicode="&#x2020;" horiz-adv-x="987" d="M444 932 L153 932 L153 1025 L444 1025 L444 1475 L539 1475 L539 1025 L824 1025 L824 932 L539 932 L539 -197 L444 -197 L444 932 Z " />
<glyph glyph-name="degree" unicode="&#xb0;" horiz-adv-x="678" d="M339 1530 Q468 1530 548 1441 Q617 1364 617 1252 Q617 1123 529 1043 Q452 974 340 974 Q210 974 130 1064 Q60 1142 60 1256 Q60 1384 149 1462 Q226 1530 339 1530 Z M339 1456 Q249 1456 194 1392 Q146 1337 146 1255 Q146 1159 208 1101 Q261 1050 340 1050 Q429 1050 484 1115 Q532 1171 532 1253 Q532 1348 470 1406 Q417 1456 339 1456 Z " />
<glyph glyph-name="cent" unicode="&#xa2;" horiz-adv-x="1078" d="M894 356 Q783 251 599 250 L599 0 L499 0 L499 258 Q330 288 249 428 Q178 548 178 743 Q178 981 276 1113 Q358 1222 499 1245 L499 1541 L599 1541 L599 1250 Q744 1240 792 1131 L792 1224 L882 1224 L882 922 L785 922 Q785 1001 762 1051 Q738 1105 700.5 1129.5 Q663 1154 599 1159 L599 342 L603 342 Q726 342 834 433 L894 356 Z M290 751 Q290 419 499 356 L499 1151 Q395 1123 341 1014 Q290 911 290 751 Z " />
<glyph glyph-name="sterling" unicode="&#xa3;" horiz-adv-x="1078" d="M1006 385 Q1008 170 903 67 Q812 -21 648 -21 Q480 -21 311 106 Q204 5 67 -3 L67 95 Q207 123 264 222 Q312 304 312 449 Q312 545 279 697 L57 697 L57 789 L256 789 Q205 988 205 1084 Q205 1294 324 1409 Q423 1504 570 1504 Q742 1504 841 1374 L841 1475 L934 1475 L934 1062 L840 1062 L840 1096 Q840 1258 760 1337 Q691 1405 570 1405 Q453 1405 381 1316 Q314 1232 314 1095 Q314 988 366 789 L646 789 L646 697 L388 697 Q422 548 422 424 Q422 305 362 190 Q517 78 651 78 Q797 78 863 182 Q913 261 908 385 L1006 385 Z " />
<glyph glyph-name="section" unicode="&#xa7;" horiz-adv-x="1148" d="M255 -200 L255 118 L348 118 L348 -107 L495 -107 Q609 -107 660 -77.5 Q711 -48 711 19 Q711 125 585 244 L325 490 Q211 597 172.5 660 Q134 723 134 800 Q134 912 218 976 Q292 1032 406 1033 Q311 1157 311 1263 Q311 1383 412 1432 Q500 1475 686 1475 L851 1475 L851 1162 L766 1162 L766 1382 L623 1382 Q423 1382 423 1255 Q423 1203 460.5 1144.5 Q498 1086 592 991 L786 795 Q961 619 961 477 Q961 279 733 236 Q825 123 825 18 Q825 -104 730 -155 Q646 -200 472 -200 L255 -200 Z M596 830 Q476 953 385 953 Q320 953 276 912 Q232 871 232 810 Q232 766 254 729 Q276 692 342 626 L525 443 Q635 333 717 333 Q774 333 813.5 374.5 Q853 416 853 476 Q853 564 744 676 L596 830 Z " />
<glyph glyph-name="bullet" unicode="&#x2022;" horiz-adv-x="1147" d="M295 472 L295 1046 L852 1046 L852 472 L295 472 Z " />
<glyph glyph-name="paragraph" unicode="&#xb6;" horiz-adv-x="1237" d="M469 -328 L469 689 Q68 728 68 1080 Q68 1286 212 1389 Q333 1475 535 1475 L1052 1475 L1052 1381 L904 1381 L904 -328 L1086 -328 L1086 -422 L295 -422 L295 -328 L469 -328 Z M575 -328 L798 -328 L798 1381 L575 1381 L575 -328 Z " />
<glyph glyph-name="germandbls" unicode="&#xdf;" horiz-adv-x="1084" d="M726 868 Q866 832 935 708 Q996 600 996 439 Q996 191 875 86 Q769 -7 552 -7 L552 85 Q743 85 818 177 Q885 258 885 438 Q885 809 564 809 L524 809 L524 902 L564 902 Q669 902 726 980 Q775 1047 775 1158 Q775 1285 709 1351 Q653 1408 558 1408 Q324 1408 324 1106 L324 94 L426 94 L426 0 L82 0 L82 94 L220 94 L220 851 L82 851 L82 945 L220 945 L220 1114 Q220 1320 321 1420 Q406 1504 554 1504 Q719 1504 805 1403 Q880 1316 880 1173 Q880 1055 834 971 Q793 898 726 868 Z " />
<glyph glyph-name="registered" unicode="&#xae;" horiz-adv-x="1133" d="M413 1017 L413 1402 L363 1402 L363 1475 L545 1475 Q658 1475 708.5 1439.5 Q759 1404 759 1325 Q759 1232 683 1191 Q701 1169 715 1130 L756 1017 L810 1017 L810 945 L696 945 L637 1107 Q623 1145 604 1157 Q585 1169 539 1169 L490 1169 L490 1017 L553 1017 L553 945 L363 945 L363 1017 L413 1017 Z M490 1241 L548 1241 Q678 1241 678 1322 Q678 1402 550 1402 L490 1402 L490 1241 Z M563 1765 Q808 1765 939 1596 Q1052 1450 1052 1208 Q1052 931 906 782 Q778 652 568 652 Q325 652 195 822 Q81 970 81 1214 Q81 1492 226 1638 Q352 1765 563 1765 Z M563 1688 Q361 1688 254 1547 Q161 1424 161 1215 Q161 972 284 842 Q391 729 568 729 Q770 729 878 874 Q972 1000 972 1209 Q972 1449 849 1576 Q742 1688 563 1688 Z " />
<glyph glyph-name="copyright" unicode="&#xa9;" horiz-adv-x="1133" d="M588 975 Q653 975 716 1025 L757 964 Q688 902 580 902 Q335 902 335 1196 Q335 1352 405 1431 Q464 1497 562 1497 Q652 1497 683 1431 L683 1481 L750 1481 L750 1294 L679 1294 Q679 1341 667 1368 Q641 1426 570 1426 Q499 1426 459.5 1366.5 Q420 1307 420 1201 Q420 975 588 975 Z M563 1765 Q808 1765 939 1596 Q1052 1450 1052 1208 Q1052 931 906 782 Q778 652 568 652 Q325 652 195 822 Q81 970 81 1214 Q81 1492 226 1638 Q352 1765 563 1765 Z M568 729 Q770 729 878 874 Q972 1000 972 1209 Q972 1449 849 1576 Q742 1688 563 1688 Q361 1688 254 1547 Q161 1424 161 1215 Q161 972 284 842 Q391 729 568 729 Z " />
<glyph glyph-name="trademark" unicode="&#x2122;" horiz-adv-x="1510" d="M42 1475 L612 1475 L612 1279 L532 1279 L532 1398 L375 1398 L375 844 L466 844 L466 767 L188 767 L188 844 L280 844 L280 1398 L123 1398 L123 1279 L42 1279 L42 1475 Z M1464 844 L1464 767 L1255 767 L1255 844 L1320 844 L1303 1374 L1101 767 L1039 767 L829 1373 L816 844 L881 844 L881 767 L672 767 L672 844 L730 844 L752 1398 L686 1398 L686 1475 L880 1475 L1071 925 L1252 1475 L1440 1475 L1440 1398 L1381 1398 L1405 844 L1464 844 Z " />
<glyph glyph-name="acute" unicode="&#xb4;" horiz-adv-x="800" d="M242 1110 L414 1458 L557 1458 L329 1110 L242 1110 Z " />
<glyph glyph-name="dieresis" unicode="&#xa8;" horiz-adv-x="800" d="M165 1176 L165 1329 L302 1329 L302 1176 L165 1176 Z M499 1176 L499 1329 L636 1329 L636 1176 L499 1176 Z " />
<glyph glyph-name="notequal" unicode="&#x2260;" horiz-adv-x="1078" d="M300 359 L387 544 L174 544 L174 638 L432 638 L525 836 L174 836 L174 931 L570 931 L675 1154 L759 1115 L672 931 L904 931 L904 836 L628 836 L535 638 L904 638 L904 544 L490 544 L385 321 L300 359 Z " />
<glyph glyph-name="AE" unicode="&#xc6;" horiz-adv-x="1817" d="M1682 371 L1682 0 L786 0 L786 94 L951 94 L951 488 L451 488 L256 94 L454 94 L454 0 L24 0 L24 94 L135 94 L784 1381 L568 1381 L568 1475 L1662 1475 L1662 1139 L1567 1139 L1567 1381 L1060 1381 L1060 811 L1500 811 L1500 717 L1060 717 L1060 94 L1587 94 L1587 371 L1682 371 Z M951 582 L951 1381 L894 1381 L498 582 L951 582 Z " />
<glyph glyph-name="Oslash" unicode="&#xd8;" horiz-adv-x="1261" d="M380 34 L332 -75 L220 -75 L297 99 Q201 195 156.5 344.5 Q112 494 106 740 Q106 1139 260 1335 Q392 1506 627 1506 Q782 1501 890 1437 L945 1561 L1057 1561 L972 1369 Q1065 1269 1107 1123 Q1149 977 1155 736 Q1155 335 1003 141 Q871 -29 632 -29 Q478 -24 380 34 Z M426 137 Q506 78 632 73 Q846 73 951 269 Q1042 439 1042 740 Q1038 931 1010 1048.5 Q982 1166 921 1255 L426 137 Z M845 1335 Q761 1399 631 1404 Q418 1404 312 1210 Q219 1040 219 742 Q223 561 248 449 Q278 310 348 214 L845 1335 Z " />
<glyph glyph-name="infinity" unicode="&#x221e;" horiz-adv-x="1328" d="M664 665 Q605 548 539.5 495 Q474 442 388 442 Q266 442 196 535 Q136 615 136 736 Q136 877 215 959 Q283 1031 389 1031 Q552 1031 664 808 Q770 1031 939 1031 Q1061 1031 1132 938 Q1193 859 1193 736 Q1193 597 1115 514 Q1047 442 941 442 Q778 442 664 665 Z M618 736 L610 755 Q572 843 514 896.5 Q456 950 399 950 Q318 950 270 882 Q228 823 228 736 Q228 633 283 573 Q329 522 399 522 Q510 522 609 718 L618 736 Z M712 736 L720 718 Q759 628 816 575 Q873 522 930 522 Q1011 522 1059 590 Q1101 649 1101 736 Q1101 839 1047 899 Q1000 950 930 950 Q873 950 816 897.5 Q759 845 720 755 L712 736 Z " />
<glyph glyph-name="plusminus" unicode="&#xb1;" horiz-adv-x="1078" d="M175 697 L175 791 L490 791 L490 1122 L589 1122 L589 791 L904 791 L904 697 L589 697 L589 370 L490 370 L490 697 L175 697 Z M174 0 L174 94 L904 94 L904 0 L174 0 Z " />
<glyph glyph-name="lessequal" unicode="&#x2264;" horiz-adv-x="1078" d="M823 326 L182 708 L182 773 L823 1152 L823 1030 L307 741 L823 446 L823 326 Z M891 94 L891 0 L161 0 L161 94 L891 94 Z " />
<glyph glyph-name="greaterequal" unicode="&#x2265;" horiz-adv-x="1078" d="M893 708 L252 326 L252 446 L768 741 L252 1030 L252 1152 L893 773 L893 708 Z M914 94 L914 0 L184 0 L184 94 L914 94 Z " />
<glyph glyph-name="yen" unicode="&#xa5;" horiz-adv-x="1078" d="M939 1381 L611 683 L918 683 L918 591 L590 591 L590 467 L918 467 L918 375 L590 375 L590 94 L770 94 L770 0 L306 0 L306 94 L487 94 L487 375 L159 375 L159 467 L487 467 L487 591 L159 591 L159 683 L469 683 L138 1381 L-7 1381 L-7 1475 L436 1475 L436 1381 L257 1381 L539 749 L823 1381 L655 1381 L655 1475 L1085 1475 L1085 1381 L939 1381 Z " />
<glyph glyph-name="mu" unicode="&#xb5;" horiz-adv-x="1044" d="M1002 94 L1002 0 L764 0 L763 161 Q643 -29 464 -29 Q364 -29 309 27 L309 -328 L512 -328 L512 -422 L63 -422 L63 -328 L205 -328 L205 237 L206 237 Q205 245 205 263 L205 851 L54 851 L54 945 L310 945 L310 299 Q310 172 346 120 Q382 68 470 68 Q636 68 752 272 L752 851 L597 851 L597 945 L860 945 L860 94 L1002 94 Z " />
<glyph glyph-name="partialdiff" unicode="&#x2202;" horiz-adv-x="939" d="M318 1472 Q599 1305 725 1054 Q838 828 838 511 Q838 283 767 143 Q680 -29 462 -29 Q269 -29 173 119 Q90 247 90 469 Q90 726 201 860 Q296 974 453 974 Q626 974 700 844 Q646 1034 527 1176 Q430 1292 268 1403 L318 1472 Z M464 67 Q599 67 668 187 Q728 292 728 474 Q728 878 469 878 Q331 878 262 759 Q202 655 202 473 Q202 265 279 159 Q347 67 464 67 Z " />
<glyph glyph-name="summation" unicode="&#x2211;" horiz-adv-x="1177" d="M65 -270 L606 642 L118 1494 L118 1572 L1079 1572 L1079 1201 L984 1201 L984 1478 L250 1478 L732 640 L190 -262 L1002 -262 L1002 23 L1097 23 L1097 -356 L65 -356 L65 -270 Z " />
<glyph glyph-name="product" unicode="&#x220f;" horiz-adv-x="1444" d="M124 -262 L271 -262 L271 1478 L124 1478 L124 1572 L1320 1572 L1320 1478 L1173 1478 L1173 -262 L1320 -262 L1320 -356 L916 -356 L916 -262 L1062 -262 L1062 1478 L382 1478 L382 -262 L528 -262 L528 -356 L124 -356 L124 -262 Z " />
<glyph glyph-name="integral" unicode="&#x222b;" horiz-adv-x="702" d="M59 -249 Q96 -262 138 -262 Q231 -262 262 -213 Q293 -164 293 -14 L293 1225 Q293 1420 355 1499 Q417 1579 560 1579 Q606 1579 658 1567 L638 1468 Q596 1482 556 1482 Q469 1482 436.5 1435 Q404 1388 404 1264 L404 -5 Q404 -218 342 -289 Q280 -359 117 -359 Q70 -359 39 -349 L59 -249 Z " />
<glyph glyph-name="ordfeminine" unicode="&#xaa;" horiz-adv-x="660" d="M267 873 Q73 873 73 1057 Q73 1163 143 1206 Q202 1243 320 1243 Q367 1243 443 1239 L443 1296 Q443 1421 313 1421 Q240 1421 148 1383 L113 1459 Q207 1506 317 1506 Q438 1506 490 1447 Q535 1396 535 1291 L535 968 L612 968 L612 889 L456 889 L456 964 Q388 873 267 873 Z M281 952 Q357 952 400 994.5 Q443 1037 443 1112 L443 1166 Q387 1172 299 1172 Q169 1172 169 1057 Q169 952 281 952 Z " />
<glyph glyph-name="ordmasculine" unicode="&#xba;" horiz-adv-x="636" d="M319 872 Q188 872 115 967 Q51 1051 51 1189 Q51 1345 131 1431 Q202 1506 318 1506 Q451 1506 523 1408 Q585 1323 585 1187 Q585 1030 503 945 Q433 872 319 872 Z M316 951 Q399 951 449 1025 Q494 1092 494 1196 Q494 1308 444 1370 Q398 1427 322 1427 Q234 1427 185 1353 Q143 1289 143 1189 Q143 1073 198 1007 Q244 951 316 951 Z " />
<glyph glyph-name="Omega" unicode="&#x2126;" horiz-adv-x="1242" d="M1202 289 L1202 0 L717 0 L717 125 Q879 207 962 404 Q1032 573 1032 800 Q1032 1104 910 1265 Q803 1405 624 1405 Q418 1405 307 1223 Q210 1064 210 803 Q210 543 305 357 Q387 194 525 125 L525 0 L40 0 L40 289 L129 289 L129 94 L399 94 Q250 197 169 409 Q98 593 98 813 Q98 1150 260 1340 Q400 1506 623 1506 Q878 1506 1020 1293 Q1144 1108 1144 814 Q1144 559 1053 358 Q973 183 843 94 L1114 94 L1114 289 L1202 289 Z " />
<glyph glyph-name="ae" unicode="&#xe6;" horiz-adv-x="1402" d="M369 -29 Q214 -29 138 59 Q73 134 73 267 Q73 414 171 486 Q253 547 393 547 L645 547 L645 617 Q645 780 595 831 Q549 878 425 878 Q332 878 289.5 836.5 Q247 795 241 699 L135 699 Q137 838 221 909 Q299 974 439 974 Q548 974 611.5 935 Q675 896 711 808 Q786 974 996 974 Q1346 974 1331 448 L743 448 Q743 68 1027 68 Q1143 68 1249 142 L1300 61 Q1172 -29 1022 -29 Q897 -29 809 28 Q732 77 700 159 Q637 -29 369 -29 Z M1223 539 Q1223 878 993 878 Q869 878 803 775 Q745 686 744 539 L1223 539 Z M372 66 Q543 66 611 171 Q645 223 645 347 L645 459 L405 459 Q287 459 235 411 Q186 366 186 271 Q186 66 372 66 Z " />
<glyph glyph-name="oslash" unicode="&#xf8;" horiz-adv-x="937" d="M750 840 Q849 705 849 469 Q849 215 736 85 Q638 -29 469 -29 Q363 -29 283 17 L239 -60 L138 -60 L213 72 Q88 203 88 470 Q88 725 202 858 Q301 974 468 974 Q597 974 686 905 L739 998 L840 998 L750 840 Z M197 473 Q197 276 269 170 L635 815 Q569 878 468 878 Q329 878 259 759 Q197 655 197 473 Z M468 67 Q608 67 678 187 Q740 291 740 474 Q740 635 691 736 L333 105 Q391 67 468 67 Z " />
<glyph glyph-name="questiondown" unicode="&#xbf;" horiz-adv-x="966" d="M584 1177 L436 1177 L436 1331 L584 1331 L584 1177 Z M874 174 Q874 -56 768 -168 Q675 -267 504 -267 Q322 -267 220 -144 Q131 -36 131 139 Q131 320 229 443 Q313 550 458 594 L458 975 L564 975 L564 519 Q401 495 316 384 Q242 288 242 143 Q242 -12 324 -96 Q393 -168 505 -168 Q642 -168 708 -66 Q765 21 765 174 L874 174 Z " />
<glyph glyph-name="exclamdown" unicode="&#xa1;" horiz-adv-x="576" d="M362 1177 L214 1177 L214 1331 L362 1331 L362 1177 Z M349 -255 L221 -255 L236 975 L333 975 L349 -255 Z " />
<glyph glyph-name="logicalnot" unicode="&#xac;" horiz-adv-x="1078" d="M127 749 L127 843 L857 843 L857 347 L759 347 L759 749 L127 749 Z " />
<glyph glyph-name="radical" unicode="&#x221a;" horiz-adv-x="1303" d="M554 0 L295 635 L130 635 L130 722 L384 722 L594 199 L1035 1713 L1532 1713 L1532 1625 L1122 1625 L643 0 L554 0 Z " />
<glyph glyph-name="florin" unicode="&#x192;" horiz-adv-x="1078" d="M807 1409 Q740 1409 710.5 1367.5 Q681 1326 666 1209 L620 849 L818 849 L818 756 L609 756 L515 15 Q492 -165 441 -243 Q380 -335 262 -335 Q191 -335 98 -297 L129 -210 Q199 -237 242 -237 Q316 -237 357 -174.5 Q398 -112 415 30 L505 756 L328 756 L328 849 L517 849 L563 1221 Q582 1377 633 1439 Q688 1506 799 1506 Q889 1506 972 1462 L939 1376 Q855 1409 807 1409 Z " />
<glyph glyph-name="approxequal" unicode="&#x2248;" horiz-adv-x="1078" d="M715 776 Q672 776 631 790 Q590 804 517 844 Q416 900 366 900 Q286 900 194 789 L130 850 Q198 931 249.5 963.5 Q301 996 363 996 Q444 996 549 936 L564 927 Q627 892 655 881.5 Q683 871 714 871 Q795 871 886 983 L947 927 Q835 776 715 776 Z M715 477 Q672 477 632 490.5 Q592 504 518 545 Q417 601 366 601 Q286 601 194 490 L130 551 Q197 632 249 664.5 Q301 697 363 697 Q443 697 550 637 L565 629 Q627 593 654.5 582.5 Q682 572 714 572 Q795 572 886 684 L947 628 Q835 477 715 477 Z " />
<glyph glyph-name="increment" unicode="&#x2206;" horiz-adv-x="1309" d="M1207 0 L102 0 L584 1475 L715 1475 L1207 0 Z M1052 94 L647 1365 L253 94 L1052 94 Z " />
<glyph glyph-name="guillemotleft" unicode="&#xab;" horiz-adv-x="785" d="M213 450 L404 99 L299 99 L103 450 L294 801 L404 801 L213 450 Z M473 450 L665 99 L560 99 L363 450 L554 801 L665 801 L473 450 Z " />
<glyph glyph-name="guillemotright" unicode="&#xbb;" horiz-adv-x="785" d="M294 450 L103 801 L213 801 L404 450 L208 99 L103 99 L294 450 Z M555 450 L363 801 L474 801 L665 450 L468 99 L363 99 L555 450 Z " />
<glyph glyph-name="ellipsis" unicode="&#x2026;" horiz-adv-x="1300" d="M170 0 L170 170 L326 170 L326 0 L170 0 Z M572 0 L572 170 L728 170 L728 0 L572 0 Z M974 0 L974 170 L1130 170 L1130 0 L974 0 Z " />
<glyph glyph-name="Agrave" unicode="&#xc0;" horiz-adv-x="1249" d="M1224 94 L1224 0 L835 0 L835 94 L995 94 L896 448 L348 448 L244 94 L410 94 L410 0 L31 0 L31 94 L130 94 L561 1475 L698 1475 L1114 94 L1224 94 Z M379 542 L865 542 L628 1361 L623 1361 L379 542 Z M391 1988 L533 1988 L705 1640 L619 1640 L391 1988 Z " />
<glyph glyph-name="Atilde" unicode="&#xc3;" horiz-adv-x="1249" d="M1224 94 L1224 0 L835 0 L835 94 L995 94 L896 448 L348 448 L244 94 L410 94 L410 0 L31 0 L31 94 L130 94 L561 1475 L698 1475 L1114 94 L1224 94 Z M379 542 L865 542 L628 1361 L623 1361 L379 542 Z M343 1705 Q352 1791 396 1837.5 Q440 1884 512 1884 Q562 1884 646 1835 Q716 1794 751 1794 Q823 1794 831 1877 L918 1877 Q917 1784 857 1736 Q813 1700 749 1700 Q713 1700 685 1709.5 Q657 1719 594 1754 Q539 1784 507 1784 Q444 1784 433 1705 L343 1705 Z " />
<glyph glyph-name="Otilde" unicode="&#xd5;" horiz-adv-x="1261" d="M632 -29 Q357 -29 223 194 Q106 389 106 740 Q106 1139 260 1335 Q392 1506 627 1506 Q903 1506 1038 1282 Q1155 1087 1155 736 Q1155 335 1003 141 Q871 -29 632 -29 Z M632 73 Q846 73 951 269 Q1042 439 1042 740 Q1042 1083 921 1254 Q816 1404 631 1404 Q418 1404 312 1210 Q219 1040 219 742 Q219 398 341 225 Q447 73 632 73 Z M344 1736 Q353 1822 397 1868.5 Q441 1915 513 1915 Q563 1915 647 1866 Q717 1825 752 1825 Q824 1825 832 1908 L919 1908 Q918 1815 858 1767 Q814 1731 750 1731 Q714 1731 686 1740.5 Q658 1750 595 1785 Q540 1815 508 1815 Q445 1815 434 1736 L344 1736 Z " />
<glyph glyph-name="OE" unicode="&#x152;" horiz-adv-x="1747" d="M1612 0 L918 0 Q838 -15 723 -15 Q410 -15 258 195 Q120 385 120 737 Q120 1128 297 1326 Q449 1497 709 1497 Q829 1497 951 1475 L1592 1475 L1592 1139 L1497 1139 L1497 1381 L990 1381 L990 811 L1430 811 L1430 717 L990 717 L990 94 L1517 94 L1517 371 L1612 371 L1612 0 Z M236 737 Q236 375 378 215 Q498 79 730 79 Q812 79 879 91 L879 1390 Q808 1404 711 1404 Q466 1404 345 1217 Q236 1048 236 737 Z " />
<glyph glyph-name="oe" unicode="&#x153;" horiz-adv-x="1527" d="M470 -29 Q275 -29 174 120 Q87 249 87 470 Q87 725 201 858 Q301 974 469 974 Q703 974 789 751 Q878 974 1111 974 Q1456 974 1448 448 L848 448 Q848 68 1135 68 Q1258 68 1369 141 L1420 60 Q1294 -29 1130 -29 Q878 -29 789 193 Q702 -29 470 -29 Z M469 67 Q607 67 677 187 Q738 292 738 474 Q738 682 659 787 Q590 878 469 878 Q330 878 260 759 Q199 655 199 473 Q199 265 279 159 Q348 67 469 67 Z M1340 539 Q1332 878 1108 878 Q983 878 915 778 Q856 691 849 539 L1340 539 Z " />
<glyph glyph-name="endash" unicode="&#x2013;" horiz-adv-x="1024" d="M82 494 L82 588 L942 588 L942 494 L82 494 Z " />
<glyph glyph-name="emdash" unicode="&#x2014;" horiz-adv-x="1474" d="M102 494 L102 588 L1372 588 L1372 494 L102 494 Z " />
<glyph glyph-name="quotedblleft" unicode="&#x201c;" horiz-adv-x="703" d="M343 1475 L260 1085 L120 1085 L242 1475 L343 1475 Z M558 1475 L475 1085 L335 1085 L457 1475 L558 1475 Z " />
<glyph glyph-name="quotedblright" unicode="&#x201d;" horiz-adv-x="681" d="M102 1085 L185 1475 L325 1475 L203 1085 L102 1085 Z M317 1085 L400 1475 L540 1475 L418 1085 L317 1085 Z " />
<glyph glyph-name="quoteleft" unicode="&#x2018;" horiz-adv-x="488" d="M343 1475 L260 1085 L120 1085 L242 1475 L343 1475 Z " />
<glyph glyph-name="quoteright" unicode="&#x2019;" horiz-adv-x="460" d="M102 1085 L185 1475 L319 1475 L197 1085 L102 1085 Z " />
<glyph glyph-name="divide" unicode="&#xf7;" horiz-adv-x="1078" d="M466 997 L466 1158 L612 1158 L612 997 L466 997 Z M174 690 L174 784 L904 784 L904 690 L174 690 Z M466 317 L466 478 L612 478 L612 317 L466 317 Z " />
<glyph glyph-name="lozenge" unicode="&#x25ca;" horiz-adv-x="996" d="M32 704 L498 1474 L964 704 L498 -65 L32 704 Z M156 704 L498 114 L840 704 L498 1295 L156 704 Z " />
<glyph glyph-name="ydieresis" unicode="&#xff;" horiz-adv-x="877" d="M887 854 L782 854 L421 -201 Q373 -341 304 -385 Q246 -421 122 -422 L122 -328 Q218 -326 258.5 -297 Q299 -268 326 -183 L386 3 L86 854 L-19 854 L-19 945 L369 945 L369 854 L198 854 L365 337 Q384 276 415 185 Q428 149 434 130 L441 130 Q454 177 493 297 L504 331 L673 854 L497 854 L497 945 L887 945 L887 854 Z M199 1176 L199 1329 L336 1329 L336 1176 L199 1176 Z M533 1176 L533 1329 L670 1329 L670 1176 L533 1176 Z " />
<glyph glyph-name="Ydieresis" unicode="&#x178;" horiz-adv-x="1117" d="M615 643 L615 94 L791 94 L791 0 L327 0 L327 94 L504 94 L504 650 L133 1381 L-14 1381 L-14 1475 L429 1475 L429 1381 L252 1381 L560 749 L872 1381 L706 1381 L706 1475 L1136 1475 L1136 1381 L988 1381 L615 643 Z M332 1706 L332 1859 L469 1859 L469 1706 L332 1706 Z M666 1706 L666 1859 L803 1859 L803 1706 L666 1706 Z " />
<glyph glyph-name="fraction" unicode="&#x2044;" horiz-adv-x="380" d="M-183 0 L437 1500 L548 1500 L-72 0 L-183 0 Z " />
<glyph glyph-name="Euro" unicode="&#x20ac;" horiz-adv-x="1078" d="M1021 115 Q866 -31 633 -31 Q406 -31 288 126 Q185 263 160 526 L37 526 L37 617 L154 617 L154 629 Q152 683 152 713 Q152 738 154 790 L154 795 L37 795 L37 886 L159 886 Q188 1206 320 1366 Q433 1503 610 1503 Q810 1503 891 1345 L892 1475 L983 1475 L983 1054 L890 1054 Q890 1228 808 1321 Q737 1401 620 1401 Q460 1401 369 1253 Q290 1122 270 886 L853 886 L853 795 L264 795 Q263 771 263 721 Q263 687 265 624 L265 617 L780 617 L780 526 L273 526 Q322 72 648 72 Q822 72 959 199 L1021 115 Z " />
<glyph glyph-name="guilsinglleft" unicode="&#x2039;" horiz-adv-x="524" d="M213 450 L404 99 L299 99 L103 450 L294 801 L404 801 L213 450 Z " />
<glyph glyph-name="guilsinglright" unicode="&#x203a;" horiz-adv-x="524" d="M294 450 L103 801 L213 801 L404 450 L208 99 L103 99 L294 450 Z " />
<glyph glyph-name="fi" unicode="&#xfb01;" horiz-adv-x="1115" d="M80 0 L80 91 L222 91 L222 854 L80 854 L80 945 L222 945 L222 1146 Q222 1341 292 1419 Q354 1487 486 1487 Q541 1487 613 1476 L601 1386 Q544 1392 506 1392 Q394 1392 357 1328 Q328 1278 328 1158 L328 945 L552 945 L552 854 L328 854 L328 91 L532 91 L532 0 L80 0 Z M787 1332 L929 1332 L929 1184 L787 1184 L787 1332 Z M681 91 L823 91 L823 854 L681 854 L681 945 L931 945 L931 91 L1073 91 L1073 0 L681 0 L681 91 Z " />
<glyph glyph-name="fl" unicode="&#xfb02;" horiz-adv-x="1092" d="M80 0 L80 91 L222 91 L222 854 L80 854 L80 945 L222 945 L222 1146 Q222 1341 292 1419 Q354 1487 486 1487 Q541 1487 613 1476 L601 1386 Q544 1392 506 1392 Q394 1392 357 1328 Q328 1278 328 1158 L328 945 L552 945 L552 854 L328 854 L328 91 L532 91 L532 0 L80 0 Z M653 91 L795 91 L795 1384 L653 1384 L653 1475 L902 1475 L902 91 L1044 91 L1044 0 L653 0 L653 91 Z " />
<glyph glyph-name="daggerdbl" unicode="&#x2021;" horiz-adv-x="1019" d="M460 938 L169 938 L169 1031 L460 1031 L460 1477 L555 1477 L555 1029 L850 1029 L850 936 L555 936 L555 346 L850 346 L850 252 L555 252 L555 -195 L460 -195 L460 250 L169 250 L169 344 L460 344 L460 938 Z " />
<glyph glyph-name="periodcentered" unicode="&#xb7;" horiz-adv-x="574" d="M216 460 L216 622 L364 622 L364 460 L216 460 Z " />
<glyph glyph-name="quotesinglbase" unicode="&#x201a;" horiz-adv-x="620" d="M195 -227 L278 163 L418 163 L296 -227 L195 -227 Z " />
<glyph glyph-name="quotedblbase" unicode="&#x201e;" horiz-adv-x="835" d="M195 -227 L278 163 L418 163 L296 -227 L195 -227 Z M410 -227 L493 163 L633 163 L511 -227 L410 -227 Z " />
<glyph glyph-name="perthousand" unicode="&#x2030;" horiz-adv-x="2053" d="M61 1174 Q61 1346 142 1433 Q212 1509 333 1509 Q472 1509 544 1406 Q605 1318 605 1168 Q605 993 525 905 Q455 829 333 829 Q193 829 122 931 Q61 1020 61 1174 Z M507 1169 Q507 1301 456 1366 Q412 1423 333 1423 Q159 1423 159 1171 Q159 914 333 914 Q507 914 507 1169 Z M796 314 Q796 486 877 573 Q947 649 1068 649 Q1207 649 1279 546 Q1340 458 1340 308 Q1340 133 1260 45 Q1190 -31 1068 -31 Q928 -31 857 71 Q796 160 796 314 Z M1242 309 Q1242 441 1191 506 Q1147 563 1068 563 Q894 563 894 311 Q894 54 1068 54 Q1242 54 1242 309 Z M1452 314 Q1452 486 1533 573 Q1603 649 1724 649 Q1863 649 1935 546 Q1996 458 1996 308 Q1996 133 1916 45 Q1846 -31 1724 -31 Q1584 -31 1513 71 Q1452 160 1452 314 Z M1898 309 Q1898 441 1847 506 Q1803 563 1724 563 Q1550 563 1550 311 Q1550 54 1724 54 Q1898 54 1898 309 Z M957 1500 L1068 1500 L448 0 L337 0 L957 1500 Z " />
<glyph glyph-name="Acircumflex" unicode="&#xc2;" horiz-adv-x="1249" d="M1224 94 L1224 0 L835 0 L835 94 L995 94 L896 448 L348 448 L244 94 L410 94 L410 0 L31 0 L31 94 L130 94 L561 1475 L698 1475 L1114 94 L1224 94 Z M379 542 L865 542 L628 1361 L623 1361 L379 542 Z M629 1883 L437 1640 L345 1640 L557 1970 L694 1970 L908 1640 L816 1640 L629 1883 Z " />
<glyph glyph-name="Ecircumflex" unicode="&#xca;" horiz-adv-x="1150" d="M1015 371 L1015 0 L111 0 L111 94 L256 94 L256 1381 L111 1381 L111 1475 L991 1475 L991 1139 L896 1139 L896 1381 L367 1381 L367 811 L829 811 L829 717 L367 717 L367 94 L920 94 L920 371 L1015 371 Z M606 1883 L414 1640 L322 1640 L534 1970 L671 1970 L885 1640 L793 1640 L606 1883 Z " />
<glyph glyph-name="Aacute" unicode="&#xc1;" horiz-adv-x="1249" d="M1224 94 L1224 0 L835 0 L835 94 L995 94 L896 448 L348 448 L244 94 L410 94 L410 0 L31 0 L31 94 L130 94 L561 1475 L698 1475 L1114 94 L1224 94 Z M379 542 L865 542 L628 1361 L623 1361 L379 542 Z M542 1640 L714 1988 L857 1988 L629 1640 L542 1640 Z " />
<glyph glyph-name="Edieresis" unicode="&#xcb;" horiz-adv-x="1150" d="M1015 371 L1015 0 L111 0 L111 94 L256 94 L256 1381 L111 1381 L111 1475 L991 1475 L991 1139 L896 1139 L896 1381 L367 1381 L367 811 L829 811 L829 717 L367 717 L367 94 L920 94 L920 371 L1015 371 Z M370 1706 L370 1859 L507 1859 L507 1706 L370 1706 Z M704 1706 L704 1859 L841 1859 L841 1706 L704 1706 Z " />
<glyph glyph-name="Egrave" unicode="&#xc8;" horiz-adv-x="1150" d="M1015 371 L1015 0 L111 0 L111 94 L256 94 L256 1381 L111 1381 L111 1475 L991 1475 L991 1139 L896 1139 L896 1381 L367 1381 L367 811 L829 811 L829 717 L367 717 L367 94 L920 94 L920 371 L1015 371 Z M368 1988 L510 1988 L682 1640 L596 1640 L368 1988 Z " />
<glyph glyph-name="Iacute" unicode="&#xcd;" horiz-adv-x="623" d="M512 94 L512 0 L111 0 L111 94 L256 94 L256 1381 L111 1381 L111 1475 L512 1475 L512 1381 L367 1381 L367 94 L512 94 Z M230 1640 L369 1988 L507 1988 L315 1640 L230 1640 Z " />
<glyph glyph-name="Icircumflex" unicode="&#xce;" horiz-adv-x="623" d="M512 94 L512 0 L111 0 L111 94 L256 94 L256 1381 L111 1381 L111 1475 L512 1475 L512 1381 L367 1381 L367 94 L512 94 Z M307 1883 L140 1640 L46 1640 L238 1970 L369 1970 L563 1640 L469 1640 L307 1883 Z " />
<glyph glyph-name="Idieresis" unicode="&#xcf;" horiz-adv-x="623" d="M512 94 L512 0 L111 0 L111 94 L256 94 L256 1381 L111 1381 L111 1475 L512 1475 L512 1381 L367 1381 L367 94 L512 94 Z M95 1706 L95 1859 L232 1859 L232 1706 L95 1706 Z M379 1706 L379 1859 L516 1859 L516 1706 L379 1706 Z " />
<glyph glyph-name="Igrave" unicode="&#xcc;" horiz-adv-x="623" d="M512 94 L512 0 L111 0 L111 94 L256 94 L256 1381 L111 1381 L111 1475 L512 1475 L512 1381 L367 1381 L367 94 L512 94 Z M77 1988 L219 1988 L391 1640 L305 1640 L77 1988 Z " />
<glyph glyph-name="Oacute" unicode="&#xd3;" horiz-adv-x="1261" d="M632 -29 Q357 -29 223 194 Q106 389 106 740 Q106 1139 260 1335 Q392 1506 627 1506 Q903 1506 1038 1282 Q1155 1087 1155 736 Q1155 335 1003 141 Q871 -29 632 -29 Z M632 73 Q846 73 951 269 Q1042 439 1042 740 Q1042 1083 921 1254 Q816 1404 631 1404 Q418 1404 312 1210 Q219 1040 219 742 Q219 398 341 225 Q447 73 632 73 Z M543 1671 L715 2019 L858 2019 L630 1671 L543 1671 Z " />
<glyph glyph-name="Ocircumflex" unicode="&#xd4;" horiz-adv-x="1261" d="M632 -29 Q357 -29 223 194 Q106 389 106 740 Q106 1139 260 1335 Q392 1506 627 1506 Q903 1506 1038 1282 Q1155 1087 1155 736 Q1155 335 1003 141 Q871 -29 632 -29 Z M632 73 Q846 73 951 269 Q1042 439 1042 740 Q1042 1083 921 1254 Q816 1404 631 1404 Q418 1404 312 1210 Q219 1040 219 742 Q219 398 341 225 Q447 73 632 73 Z M630 1914 L438 1671 L346 1671 L558 2001 L695 2001 L909 1671 L817 1671 L630 1914 Z " />
<glyph glyph-name="Ograve" unicode="&#xd2;" horiz-adv-x="1261" d="M632 -29 Q357 -29 223 194 Q106 389 106 740 Q106 1139 260 1335 Q392 1506 627 1506 Q903 1506 1038 1282 Q1155 1087 1155 736 Q1155 335 1003 141 Q871 -29 632 -29 Z M632 73 Q846 73 951 269 Q1042 439 1042 740 Q1042 1083 921 1254 Q816 1404 631 1404 Q418 1404 312 1210 Q219 1040 219 742 Q219 398 341 225 Q447 73 632 73 Z M392 2019 L534 2019 L706 1671 L620 1671 L392 2019 Z " />
<glyph glyph-name="Uacute" unicode="&#xda;" horiz-adv-x="1311" d="M652 -29 Q383 -29 282 168 Q242 245 228.5 336 Q215 427 215 616 L215 1381 L72 1381 L72 1475 L471 1475 L471 1381 L326 1381 L326 555 Q326 291 406 180 Q484 73 655 73 Q854 73 928 216 Q985 325 985 549 L985 1381 L840 1381 L840 1475 L1239 1475 L1239 1381 L1096 1381 L1096 613 Q1096 358 1059 243 Q1022 126 923 50 Q821 -29 652 -29 Z M577 1640 L749 1988 L892 1988 L664 1640 L577 1640 Z " />
<glyph glyph-name="Ucircumflex" unicode="&#xdb;" horiz-adv-x="1311" d="M652 -29 Q383 -29 282 168 Q242 245 228.5 336 Q215 427 215 616 L215 1381 L72 1381 L72 1475 L471 1475 L471 1381 L326 1381 L326 555 Q326 291 406 180 Q484 73 655 73 Q854 73 928 216 Q985 325 985 549 L985 1381 L840 1381 L840 1475 L1239 1475 L1239 1381 L1096 1381 L1096 613 Q1096 358 1059 243 Q1022 126 923 50 Q821 -29 652 -29 Z M664 1883 L472 1640 L380 1640 L592 1970 L729 1970 L943 1640 L851 1640 L664 1883 Z " />
<glyph glyph-name="Ugrave" unicode="&#xd9;" horiz-adv-x="1311" d="M652 -29 Q383 -29 282 168 Q242 245 228.5 336 Q215 427 215 616 L215 1381 L72 1381 L72 1475 L471 1475 L471 1381 L326 1381 L326 555 Q326 291 406 180 Q484 73 655 73 Q854 73 928 216 Q985 325 985 549 L985 1381 L840 1381 L840 1475 L1239 1475 L1239 1381 L1096 1381 L1096 613 Q1096 358 1059 243 Q1022 126 923 50 Q821 -29 652 -29 Z M426 1988 L568 1988 L740 1640 L654 1640 L426 1988 Z " />
<glyph glyph-name="dotlessi" unicode="&#x131;" horiz-adv-x="511" d="M77 91 L219 91 L219 854 L77 854 L77 945 L327 945 L327 91 L469 91 L469 0 L77 0 L77 91 Z " />
<glyph glyph-name="circumflex" unicode="&#x2c6;" horiz-adv-x="800" d="M402 1353 L210 1110 L118 1110 L330 1440 L467 1440 L681 1110 L589 1110 L402 1353 Z " />
<glyph glyph-name="tilde" unicode="&#x2dc;" horiz-adv-x="800" d="M113 1175 Q122 1261 166 1307.5 Q210 1354 282 1354 Q332 1354 416 1305 Q486 1264 521 1264 Q593 1264 601 1347 L688 1347 Q687 1254 627 1206 Q583 1170 519 1170 Q483 1170 455 1179.5 Q427 1189 364 1224 Q309 1254 277 1254 Q214 1254 203 1175 L113 1175 Z " />
<glyph glyph-name="overscore" unicode="&#xaf;" horiz-adv-x="800" d="M162 1196 L162 1305 L638 1305 L638 1196 L162 1196 Z " />
<glyph glyph-name="breve" unicode="&#x2d8;" horiz-adv-x="800" d="M198 1377 Q207 1288 253.5 1249.5 Q300 1211 400 1211 Q503 1211 549.5 1249 Q596 1287 603 1377 L688 1377 Q688 1233 611 1171 Q542 1117 401 1117 Q242 1117 175 1188 Q118 1249 113 1377 L198 1377 Z " />
<glyph glyph-name="dotaccent" unicode="&#x2d9;" horiz-adv-x="800" d="M329 1332 L471 1332 L471 1184 L329 1184 L329 1332 Z " />
<glyph glyph-name="ring" unicode="&#x2da;" horiz-adv-x="800" d="M399 1474 Q497 1474 549 1412 Q591 1361 591 1281 Q591 1189 536 1137 Q485 1088 400 1088 Q301 1088 250 1150 Q208 1202 208 1284 Q208 1374 264 1426 Q315 1474 399 1474 Z M398 1403 Q289 1403 289 1282 Q289 1159 398 1159 Q510 1159 510 1281 Q510 1403 398 1403 Z " />
<glyph glyph-name="cedilla" unicode="&#xb8;" horiz-adv-x="800" d="M404 -134 Q424 -131 441 -131 Q510 -131 551.5 -172 Q593 -213 593 -282 Q593 -368 535 -417 Q482 -461 394 -461 Q294 -461 207 -419 L207 -330 Q313 -371 392 -371 Q496 -371 496 -278 Q496 -197 413 -197 Q379 -197 331 -210 L323 -117 L368 0 L453 0 L404 -134 Z " />
<glyph glyph-name="hungarumlaut" unicode="&#x2dd;" horiz-adv-x="800" d="M134 1110 L285 1458 L410 1458 L202 1110 L134 1110 Z M368 1110 L540 1458 L666 1458 L438 1110 L368 1110 Z " />
<glyph glyph-name="ogonek" unicode="&#x2db;" horiz-adv-x="800" d="M537 0 Q443 -75 404.5 -130 Q366 -185 366 -245 Q366 -293 388 -314 Q410 -335 460 -335 L533 -335 L533 -424 L471 -424 Q263 -424 263 -261 Q263 -197 302.5 -137 Q342 -77 434 0 L537 0 Z " />
<glyph glyph-name="caron" unicode="&#x2c7;" horiz-adv-x="800" d="M681 1416 L467 1086 L330 1086 L118 1416 L210 1416 L402 1173 L589 1416 L681 1416 Z " />
<glyph glyph-name="nbspace" unicode="&#xa0;" horiz-adv-x="383" d="" />
<glyph glyph-name="currency" unicode="&#xa4;" horiz-adv-x="912" d="M779 705 Q779 564 718 473 L865 307 L805 245 L661 410 Q578 343 453 343 Q332 343 253 407 L106 245 L47 307 L193 474 Q135 564 135 705 Q135 844 196 934 L47 1102 L106 1164 L253 996 Q333 1061 453 1061 Q575 1061 659 994 L805 1164 L865 1102 L716 933 Q779 842 779 705 Z M453 426 Q573 426 633 508 Q686 580 686 705 Q686 842 616 915 Q555 978 453 978 Q338 978 279 898 Q228 827 228 705 Q228 562 294 489 Q352 426 453 426 Z " />
<glyph glyph-name="brokenbar" unicode="&#xa6;" horiz-adv-x="729" d="M322 848 L322 1434 L417 1434 L417 848 L322 848 Z M322 0 L322 586 L417 586 L417 0 L322 0 Z " />
<glyph glyph-name="uni00AD" unicode="&#xad;" horiz-adv-x="717" d="M102 482 L102 588 L615 588 L615 482 L102 482 Z " />
<glyph glyph-name="twosuperior" unicode="&#xb2;" horiz-adv-x="755" d="M635 1057 L635 820 L77 820 Q82 905 134 987 Q186 1069 308 1182 Q419 1284 459.5 1342 Q500 1400 500 1457 Q500 1523 458 1562.5 Q416 1602 346 1602 Q184 1602 181 1421 L83 1421 Q84 1559 163 1630 Q231 1692 348 1692 Q476 1692 544 1623 Q605 1563 605 1462 Q605 1383 560 1314 Q515 1245 395 1137 Q239 996 206 906 L543 906 L543 1057 L635 1057 Z " />
<glyph glyph-name="threesuperior" unicode="&#xb3;" horiz-adv-x="715" d="M521 1056 Q521 1227 312 1227 L234 1227 L234 1309 L298 1309 Q492 1309 492 1462 Q492 1526 450.5 1564.5 Q409 1603 339 1603 Q194 1603 181 1465 L81 1465 Q87 1582 164 1641 Q231 1692 339 1692 Q465 1692 535 1623 Q595 1563 595 1466 Q595 1332 466 1281 Q625 1229 625 1054 Q625 930 547 864 Q474 803 345 803 Q71 803 63 1053 L163 1053 Q169 894 345 894 Q430 894 475.5 936 Q521 978 521 1056 Z " />
<glyph glyph-name="onesuperior" unicode="&#xb9;" horiz-adv-x="716" d="M617 906 L617 820 L150 820 L150 906 L334 906 L334 1570 L170 1496 L134 1576 L350 1676 L436 1676 L436 906 L617 906 Z " />
<glyph glyph-name="onequarter" unicode="&#xbc;" horiz-adv-x="1731" d="M1271 1500 L651 0 L540 0 L1160 1500 L1271 1500 Z M334 705 L334 1369 L170 1295 L134 1375 L350 1475 L436 1475 L436 705 L617 705 L617 619 L150 619 L150 705 L334 705 Z M1687 228 L1548 228 L1548 12 L1454 12 L1454 228 L1084 228 L1084 317 L1331 856 L1438 856 L1190 309 L1454 309 L1454 584 L1548 584 L1548 309 L1687 309 L1687 228 Z " />
<glyph glyph-name="onehalf" unicode="&#xbd;" horiz-adv-x="1801" d="M1271 1500 L651 0 L540 0 L1160 1500 L1271 1500 Z M334 705 L334 1369 L170 1295 L134 1375 L350 1475 L436 1475 L436 705 L617 705 L617 619 L150 619 L150 705 L334 705 Z M1681 237 L1681 0 L1123 0 Q1128 85 1180 167 Q1232 249 1354 362 Q1465 465 1505.5 522.5 Q1546 580 1546 637 Q1546 703 1504 742.5 Q1462 782 1392 782 Q1230 782 1227 601 L1129 601 Q1130 739 1209 810 Q1277 872 1394 872 Q1522 872 1590 803 Q1651 743 1651 642 Q1651 563 1606 494 Q1561 425 1441 317 Q1285 177 1252 86 L1589 86 L1589 237 L1681 237 Z " />
<glyph glyph-name="threequarters" unicode="&#xbe;" horiz-adv-x="1699" d="M1239 1500 L619 0 L508 0 L1128 1500 L1239 1500 Z M625 854 Q625 730 547 664 Q475 603 345 603 Q71 603 63 853 L163 853 Q169 694 345 694 Q430 694 475.5 736 Q521 778 521 856 Q521 1027 312 1027 L234 1027 L234 1109 L298 1109 Q492 1109 492 1262 Q492 1326 450.5 1364.5 Q409 1403 339 1403 Q194 1403 181 1265 L81 1265 Q87 1382 164 1441 Q231 1492 339 1492 Q465 1492 535 1423 Q595 1363 595 1266 Q595 1132 466 1081 Q625 1029 625 854 Z M1655 228 L1516 228 L1516 12 L1422 12 L1422 228 L1052 228 L1052 317 L1299 856 L1406 856 L1158 309 L1422 309 L1422 584 L1516 584 L1516 309 L1655 309 L1655 228 Z " />
<glyph glyph-name="Eth" unicode="&#xd0;" horiz-adv-x="1351" d="M306 720 L122 720 L122 813 L306 813 L306 1381 L171 1381 L171 1475 L586 1475 Q922 1475 1091 1247 Q1231 1057 1231 738 Q1231 369 1054 176 Q892 0 606 0 L171 0 L171 94 L306 94 L306 720 Z M417 720 L417 94 L594 94 Q870 94 1004 288 Q1118 452 1118 738 Q1118 1062 962 1230 Q822 1381 574 1381 L417 1381 L417 813 L709 813 L709 720 L417 720 Z " />
<glyph glyph-name="multiply" unicode="&#xd7;" horiz-adv-x="1078" d="M470 703 L183 998 L253 1066 L539 772 L825 1066 L895 998 L608 703 L895 408 L825 339 L539 633 L253 339 L183 408 L470 703 Z " />
<glyph glyph-name="Yacute" unicode="&#xdd;" horiz-adv-x="1117" d="M615 643 L615 94 L791 94 L791 0 L327 0 L327 94 L504 94 L504 650 L133 1381 L-14 1381 L-14 1475 L429 1475 L429 1381 L252 1381 L560 749 L872 1381 L706 1381 L706 1475 L1136 1475 L1136 1381 L988 1381 L615 643 Z M481 1640 L653 1988 L796 1988 L568 1640 L481 1640 Z " />
<glyph glyph-name="Thorn" unicode="&#xde;" horiz-adv-x="1194" d="M580 1168 Q855 1168 987 1045 Q1101 940 1101 750 Q1101 529 956 421 Q830 327 605 327 L367 327 L367 94 L512 94 L512 0 L111 0 L111 94 L256 94 L256 1381 L111 1381 L111 1475 L512 1475 L512 1381 L367 1381 L367 1168 L580 1168 Z M580 421 Q805 421 901 511 Q985 589 985 744 Q985 1074 600 1074 L367 1074 L367 421 L580 421 Z " />
<glyph glyph-name="eth" unicode="&#xf0;" horiz-adv-x="939" d="M557 1288 Q838 1002 838 511 Q838 283 767 143 Q680 -29 462 -29 Q269 -29 173 119 Q90 247 90 469 Q90 726 201 860 Q296 974 453 974 Q626 974 700 844 Q635 1071 475 1233 L301 1115 L254 1187 L411 1293 Q354 1343 268 1403 L318 1472 Q416 1414 492 1348 L663 1464 L713 1394 L557 1288 Z M464 67 Q599 67 668 187 Q728 292 728 474 Q728 878 469 878 Q331 878 262 759 Q202 655 202 473 Q202 265 279 159 Q347 67 464 67 Z " />
<glyph glyph-name="yacute" unicode="&#xfd;" horiz-adv-x="877" d="M887 854 L782 854 L421 -201 Q373 -341 304 -385 Q246 -421 122 -422 L122 -328 Q218 -326 258.5 -297 Q299 -268 326 -183 L386 3 L86 854 L-19 854 L-19 945 L369 945 L369 854 L198 854 L365 337 Q384 276 415 185 Q428 149 434 130 L441 130 Q454 177 493 297 L504 331 L673 854 L497 854 L497 945 L887 945 L887 854 Z M348 1110 L520 1458 L663 1458 L435 1110 L348 1110 Z " />
<glyph glyph-name="thorn" unicode="&#xfe;" horiz-adv-x="978" d="M522 974 Q709 974 805 820 Q888 688 888 467 Q888 218 780 87 Q685 -29 524 -29 Q334 -29 251 130 L251 -331 L456 -331 L456 -422 L8 -422 L8 -331 L150 -331 L150 1384 L8 1384 L8 1475 L253 1475 L253 803 Q334 974 522 974 Z M514 67 Q648 67 717 186 Q777 291 777 470 Q777 678 698 785 Q629 879 512 879 Q248 879 248 488 Q248 276 326 165 Q395 67 514 67 Z " />
<glyph glyph-name="Amacron" unicode="&#x100;" horiz-adv-x="1249" d="M1224 94 L1224 0 L835 0 L835 94 L995 94 L896 448 L348 448 L244 94 L410 94 L410 0 L31 0 L31 94 L130 94 L561 1475 L698 1475 L1114 94 L1224 94 Z M379 542 L865 542 L628 1361 L623 1361 L379 542 Z M391 1726 L391 1835 L867 1835 L867 1726 L391 1726 Z " />
<glyph glyph-name="amacron" unicode="&#x101;" horiz-adv-x="931" d="M895 91 L895 0 L669 0 L669 138 Q600 -29 384 -29 Q229 -29 152 58 Q85 134 85 267 Q85 548 429 548 L654 548 L654 654 Q654 778 608.5 828 Q563 878 450 878 Q348 878 303.5 838 Q259 798 253 699 L147 699 Q164 974 449 974 Q620 974 693 889 Q755 815 755 668 L755 91 L895 91 Z M623 176 Q654 227 654 347 L654 459 L420 459 Q300 459 246 409 Q197 364 197 271 Q197 66 397 66 Q555 66 623 176 Z M215 1196 L215 1305 L691 1305 L691 1196 L215 1196 Z " />
<glyph glyph-name="Abreve" unicode="&#x102;" horiz-adv-x="1249" d="M1224 94 L1224 0 L835 0 L835 94 L995 94 L896 448 L348 448 L244 94 L410 94 L410 0 L31 0 L31 94 L130 94 L561 1475 L698 1475 L1114 94 L1224 94 Z M379 542 L865 542 L628 1361 L623 1361 L379 542 Z M424 1907 Q433 1818 479.5 1779.5 Q526 1741 626 1741 Q729 1741 775.5 1779 Q822 1817 829 1907 L914 1907 Q914 1763 837 1701 Q768 1647 627 1647 Q468 1647 401 1718 Q344 1779 339 1907 L424 1907 Z " />
<glyph glyph-name="abreve" unicode="&#x103;" horiz-adv-x="931" d="M895 91 L895 0 L669 0 L669 138 Q600 -29 384 -29 Q229 -29 152 58 Q85 134 85 267 Q85 548 429 548 L654 548 L654 654 Q654 778 608.5 828 Q563 878 450 878 Q348 878 303.5 838 Q259 798 253 699 L147 699 Q164 974 449 974 Q620 974 693 889 Q755 815 755 668 L755 91 L895 91 Z M623 176 Q654 227 654 347 L654 459 L420 459 Q300 459 246 409 Q197 364 197 271 Q197 66 397 66 Q555 66 623 176 Z M248 1377 Q257 1288 303.5 1249.5 Q350 1211 450 1211 Q553 1211 599.5 1249 Q646 1287 653 1377 L738 1377 Q738 1233 661 1171 Q592 1117 451 1117 Q292 1117 225 1188 Q168 1249 163 1377 L248 1377 Z " />
<glyph glyph-name="Aogonek" unicode="&#x104;" horiz-adv-x="1249" d="M1121 0 L835 0 L835 94 L995 94 L896 448 L348 448 L244 94 L410 94 L410 0 L31 0 L31 94 L130 94 L561 1475 L698 1475 L1114 94 L1224 94 L1224 0 Q1130 -75 1091.5 -130 Q1053 -185 1053 -245 Q1053 -293 1075 -314 Q1097 -335 1147 -335 L1220 -335 L1220 -424 L1158 -424 Q950 -424 950 -261 Q950 -197 989.5 -137 Q1029 -77 1121 0 Z M379 542 L865 542 L628 1361 L623 1361 L379 542 Z " />
<glyph glyph-name="aogonek" unicode="&#x105;" horiz-adv-x="931" d="M792 0 L669 0 L669 138 Q600 -29 384 -29 Q229 -29 152 58 Q85 134 85 267 Q85 548 429 548 L654 548 L654 654 Q654 778 608.5 828 Q563 878 450 878 Q348 878 303.5 838 Q259 798 253 699 L147 699 Q164 974 449 974 Q620 974 693 889 Q755 815 755 668 L755 91 L895 91 L895 0 Q801 -75 762.5 -130 Q724 -185 724 -245 Q724 -293 746 -314 Q768 -335 818 -335 L891 -335 L891 -424 L829 -424 Q621 -424 621 -261 Q621 -197 660.5 -137 Q700 -77 792 0 Z M623 176 Q654 227 654 347 L654 459 L420 459 Q300 459 246 409 Q197 364 197 271 Q197 66 397 66 Q555 66 623 176 Z " />
<glyph glyph-name="Cacute" unicode="&#x106;" horiz-adv-x="1144" d="M1036 115 Q877 -31 635 -31 Q107 -31 107 713 Q107 1122 260 1327 Q392 1503 619 1503 Q828 1503 912 1344 L913 1475 L1004 1475 L1004 1054 L911 1054 Q911 1228 825 1321 Q751 1401 629 1401 Q421 1401 315 1203 Q220 1028 220 721 Q220 72 650 72 Q831 72 974 199 L1036 115 Z M512 1640 L684 1988 L827 1988 L599 1640 L512 1640 Z " />
<glyph glyph-name="cacute" unicode="&#x107;" horiz-adv-x="876" d="M782 77 Q671 -29 493 -29 Q281 -29 177 116 Q88 241 88 464 Q88 731 206 862 Q304 972 470 972 Q631 972 681 853 L681 945 L770 945 L770 643 L674 643 Q674 721 652 772 Q627 829 585 853.5 Q543 878 469 878 Q338 878 267 766 Q200 660 200 472 Q200 66 500 66 Q618 66 723 154 L782 77 Z M389 1110 L561 1458 L704 1458 L476 1110 L389 1110 Z " />
<glyph glyph-name="Ccircumflex" unicode="&#x108;" horiz-adv-x="1144" d="M1036 115 Q877 -31 635 -31 Q107 -31 107 713 Q107 1122 260 1327 Q392 1503 619 1503 Q828 1503 912 1344 L913 1475 L1004 1475 L1004 1054 L911 1054 Q911 1228 825 1321 Q751 1401 629 1401 Q421 1401 315 1203 Q220 1028 220 721 Q220 72 650 72 Q831 72 974 199 L1036 115 Z M599 1883 L407 1640 L315 1640 L527 1970 L664 1970 L878 1640 L786 1640 L599 1883 Z " />
<glyph glyph-name="ccircumflex" unicode="&#x109;" horiz-adv-x="876" d="M782 77 Q671 -29 493 -29 Q281 -29 177 116 Q88 241 88 464 Q88 731 206 862 Q304 972 470 972 Q631 972 681 853 L681 945 L770 945 L770 643 L674 643 Q674 721 652 772 Q627 829 585 853.5 Q543 878 469 878 Q338 878 267 766 Q200 660 200 472 Q200 66 500 66 Q618 66 723 154 L782 77 Z M476 1353 L284 1110 L192 1110 L404 1440 L541 1440 L755 1110 L663 1110 L476 1353 Z " />
<glyph glyph-name="Cdotaccent" unicode="&#x10a;" horiz-adv-x="1144" d="M1036 115 Q877 -31 635 -31 Q107 -31 107 713 Q107 1122 260 1327 Q392 1503 619 1503 Q828 1503 912 1344 L913 1475 L1004 1475 L1004 1054 L911 1054 Q911 1228 825 1321 Q751 1401 629 1401 Q421 1401 315 1203 Q220 1028 220 721 Q220 72 650 72 Q831 72 974 199 L1036 115 Z M527 1862 L669 1862 L669 1714 L527 1714 L527 1862 Z " />
<glyph glyph-name="cdotaccent" unicode="&#x10b;" horiz-adv-x="876" d="M782 77 Q671 -29 493 -29 Q281 -29 177 116 Q88 241 88 464 Q88 731 206 862 Q304 972 470 972 Q631 972 681 853 L681 945 L770 945 L770 643 L674 643 Q674 721 652 772 Q627 829 585 853.5 Q543 878 469 878 Q338 878 267 766 Q200 660 200 472 Q200 66 500 66 Q618 66 723 154 L782 77 Z M404 1332 L546 1332 L546 1184 L404 1184 L404 1332 Z " />
<glyph glyph-name="Ccaron" unicode="&#x10c;" horiz-adv-x="1144" d="M1036 115 Q877 -31 635 -31 Q107 -31 107 713 Q107 1122 260 1327 Q392 1503 619 1503 Q828 1503 912 1344 L913 1475 L1004 1475 L1004 1054 L911 1054 Q911 1228 825 1321 Q751 1401 629 1401 Q421 1401 315 1203 Q220 1028 220 721 Q220 72 650 72 Q831 72 974 199 L1036 115 Z M880 1946 L666 1616 L529 1616 L317 1946 L409 1946 L601 1703 L788 1946 L880 1946 Z " />
<glyph glyph-name="ccaron" unicode="&#x10d;" horiz-adv-x="876" d="M782 77 Q671 -29 493 -29 Q281 -29 177 116 Q88 241 88 464 Q88 731 206 862 Q304 972 470 972 Q631 972 681 853 L681 945 L770 945 L770 643 L674 643 Q674 721 652 772 Q627 829 585 853.5 Q543 878 469 878 Q338 878 267 766 Q200 660 200 472 Q200 66 500 66 Q618 66 723 154 L782 77 Z M757 1416 L543 1086 L406 1086 L194 1416 L286 1416 L478 1173 L665 1416 L757 1416 Z " />
<glyph glyph-name="Dcaron" unicode="&#x10e;" horiz-adv-x="1291" d="M526 1475 Q862 1475 1031 1247 Q1171 1057 1171 738 Q1171 369 994 176 Q832 0 546 0 L111 0 L111 94 L246 94 L246 1381 L111 1381 L111 1475 L526 1475 Z M534 94 Q810 94 944 288 Q1058 452 1058 738 Q1058 1062 902 1230 Q762 1381 514 1381 L357 1381 L357 94 L534 94 Z M880 1946 L666 1616 L529 1616 L317 1946 L409 1946 L601 1703 L788 1946 L880 1946 Z " />
<glyph glyph-name="dcaron" unicode="&#x10f;" horiz-adv-x="1009" d="M971 91 L971 0 L740 0 L740 174 Q670 -29 456 -29 Q274 -29 176 122 Q90 253 90 468 Q90 718 203 855 Q301 974 460 974 Q648 974 726 802 L726 1384 L540 1384 L540 1475 L829 1475 L829 91 L971 91 Z M465 66 Q603 66 671 185 Q731 289 731 473 Q731 683 654 788 Q586 879 467 879 Q332 879 263 758 Q202 652 202 470 Q202 264 280 158 Q348 66 465 66 Z M947 1115 L1011 1505 L1133 1505 L1024 1115 L947 1115 Z " />
<glyph glyph-name="Dcroat" unicode="&#x110;" horiz-adv-x="1351" d="M306 720 L122 720 L122 813 L306 813 L306 1381 L171 1381 L171 1475 L586 1475 Q922 1475 1091 1247 Q1231 1057 1231 738 Q1231 369 1054 176 Q892 0 606 0 L171 0 L171 94 L306 94 L306 720 Z M417 720 L417 94 L594 94 Q870 94 1004 288 Q1118 452 1118 738 Q1118 1062 962 1230 Q822 1381 574 1381 L417 1381 L417 813 L709 813 L709 720 L417 720 Z " />
<glyph glyph-name="dcroat" unicode="&#x111;" horiz-adv-x="1013" d="M971 91 L971 0 L741 0 L741 174 Q671 -29 457 -29 Q275 -29 176 122 Q90 253 90 468 Q90 718 203 855 Q302 974 461 974 Q649 974 727 802 L727 1136 L359 1136 L359 1223 L727 1223 L727 1384 L540 1384 L540 1475 L829 1475 L829 1223 L944 1223 L944 1136 L829 1136 L829 91 L971 91 Z M466 66 Q603 66 671 185 Q731 289 731 473 Q731 683 654 788 Q586 879 468 879 Q333 879 263 758 Q202 652 202 470 Q202 263 280 158 Q348 66 466 66 Z " />
<glyph glyph-name="Emacron" unicode="&#x112;" horiz-adv-x="1150" d="M1015 371 L1015 0 L111 0 L111 94 L256 94 L256 1381 L111 1381 L111 1475 L991 1475 L991 1139 L896 1139 L896 1381 L367 1381 L367 811 L829 811 L829 717 L367 717 L367 94 L920 94 L920 371 L1015 371 Z M368 1726 L368 1835 L844 1835 L844 1726 L368 1726 Z " />
<glyph glyph-name="emacron" unicode="&#x113;" horiz-adv-x="887" d="M458 974 Q646 974 730 825 Q802 696 799 448 L197 448 Q197 251 282 152 Q354 67 477 67 Q603 67 718 139 L769 59 Q644 -29 478 -29 Q272 -29 174 116 Q88 243 88 473 Q88 731 198 861 Q293 974 458 974 Z M455 879 Q331 879 264 778 Q205 691 198 538 L692 538 Q683 879 455 879 Z M213 1196 L213 1305 L689 1305 L689 1196 L213 1196 Z " />
<glyph glyph-name="Ebreve" unicode="&#x114;" horiz-adv-x="1150" d="M1015 371 L1015 0 L111 0 L111 94 L256 94 L256 1381 L111 1381 L111 1475 L991 1475 L991 1139 L896 1139 L896 1381 L367 1381 L367 811 L829 811 L829 717 L367 717 L367 94 L920 94 L920 371 L1015 371 Z M401 1907 Q410 1818 456.5 1779.5 Q503 1741 603 1741 Q706 1741 752.5 1779 Q799 1817 806 1907 L891 1907 Q891 1763 814 1701 Q745 1647 604 1647 Q445 1647 378 1718 Q321 1779 316 1907 L401 1907 Z " />
<glyph glyph-name="ebreve" unicode="&#x115;" horiz-adv-x="887" d="M458 974 Q646 974 730 825 Q802 696 799 448 L197 448 Q197 251 282 152 Q354 67 477 67 Q603 67 718 139 L769 59 Q644 -29 478 -29 Q272 -29 174 116 Q88 243 88 473 Q88 731 198 861 Q293 974 458 974 Z M455 879 Q331 879 264 778 Q205 691 198 538 L692 538 Q683 879 455 879 Z M246 1377 Q255 1288 301.5 1249.5 Q348 1211 448 1211 Q551 1211 597.5 1249 Q644 1287 651 1377 L736 1377 Q736 1233 659 1171 Q590 1117 449 1117 Q290 1117 223 1188 Q166 1249 161 1377 L246 1377 Z " />
<glyph glyph-name="Edotaccent" unicode="&#x116;" horiz-adv-x="1150" d="M1015 371 L1015 0 L111 0 L111 94 L256 94 L256 1381 L111 1381 L111 1475 L991 1475 L991 1139 L896 1139 L896 1381 L367 1381 L367 811 L829 811 L829 717 L367 717 L367 94 L920 94 L920 371 L1015 371 Z M534 1862 L676 1862 L676 1714 L534 1714 L534 1862 Z " />
<glyph glyph-name="edotaccent" unicode="&#x117;" horiz-adv-x="887" d="M458 974 Q646 974 730 825 Q802 696 799 448 L197 448 Q197 251 282 152 Q354 67 477 67 Q603 67 718 139 L769 59 Q644 -29 478 -29 Q272 -29 174 116 Q88 243 88 473 Q88 731 198 861 Q293 974 458 974 Z M455 879 Q331 879 264 778 Q205 691 198 538 L692 538 Q683 879 455 879 Z M379 1332 L521 1332 L521 1184 L379 1184 L379 1332 Z " />
<glyph glyph-name="Eogonek" unicode="&#x118;" horiz-adv-x="1150" d="M912 0 L111 0 L111 94 L256 94 L256 1381 L111 1381 L111 1475 L991 1475 L991 1139 L896 1139 L896 1381 L367 1381 L367 811 L829 811 L829 717 L367 717 L367 94 L920 94 L920 371 L1015 371 L1015 0 Q921 -75 882.5 -130 Q844 -185 844 -245 Q844 -293 866 -314 Q888 -335 938 -335 L1011 -335 L1011 -424 L949 -424 Q741 -424 741 -261 Q741 -197 780.5 -137 Q820 -77 912 0 Z " />
<glyph glyph-name="eogonek" unicode="&#x119;" horiz-adv-x="887" d="M539 -26 Q508 -29 478 -29 Q272 -29 174 116 Q88 243 88 473 Q88 731 198 861 Q293 974 458 974 Q646 974 730 825 Q802 696 799 448 L197 448 Q197 251 282 152 Q354 67 477 67 Q603 67 718 139 L769 59 Q726 30 685 12 Q593 -60 555 -115 Q517 -170 515 -232 Q515 -280 537 -301 Q559 -322 609 -322 L682 -322 L682 -411 L620 -411 Q412 -411 412 -248 Q414 -143 539 -26 Z M455 879 Q331 879 264 778 Q205 691 198 538 L692 538 Q683 879 455 879 Z " />
<glyph glyph-name="Ecaron" unicode="&#x11a;" horiz-adv-x="1150" d="M1015 371 L1015 0 L111 0 L111 94 L256 94 L256 1381 L111 1381 L111 1475 L991 1475 L991 1139 L896 1139 L896 1381 L367 1381 L367 811 L829 811 L829 717 L367 717 L367 94 L920 94 L920 371 L1015 371 Z M887 1946 L673 1616 L536 1616 L324 1946 L416 1946 L608 1703 L795 1946 L887 1946 Z " />
<glyph glyph-name="ecaron" unicode="&#x11b;" horiz-adv-x="887" d="M458 974 Q646 974 730 825 Q802 696 799 448 L197 448 Q197 251 282 152 Q354 67 477 67 Q603 67 718 139 L769 59 Q644 -29 478 -29 Q272 -29 174 116 Q88 243 88 473 Q88 731 198 861 Q293 974 458 974 Z M455 879 Q331 879 264 778 Q205 691 198 538 L692 538 Q683 879 455 879 Z M732 1416 L518 1086 L381 1086 L169 1416 L261 1416 L453 1173 L640 1416 L732 1416 Z " />
<glyph glyph-name="Gcircumflex" unicode="&#x11c;" horiz-adv-x="1249" d="M982 154 L982 604 L597 604 L597 698 L1087 698 L1087 92 Q957 22 865 -4.5 Q773 -31 662 -31 Q363 -31 227 173 Q106 355 106 709 Q106 1133 262 1333 Q397 1504 641 1504 Q875 1504 954 1351 L957 1475 L1047 1475 L1047 1069 L953 1069 Q953 1402 648 1402 Q423 1402 314 1203 Q219 1028 219 708 Q219 357 344 202 Q452 67 666 67 Q821 67 982 154 Z M633 1883 L441 1640 L349 1640 L561 1970 L698 1970 L912 1640 L820 1640 L633 1883 Z " />
<glyph glyph-name="gcircumflex" unicode="&#x11d;" horiz-adv-x="1007" d="M974 945 L974 854 L832 854 L832 -22 Q832 -271 744 -367 Q664 -454 482 -454 Q305 -454 227 -375 Q158 -306 152 -164 L255 -164 Q261 -272 314 -316.5 Q367 -361 487 -361 Q630 -361 685 -278 Q734 -204 734 -34 L734 146 Q694 64 620 17.5 Q546 -29 455 -29 Q274 -29 178 121 Q94 252 94 473 Q94 725 203 859 Q297 974 454 974 Q667 974 743 778 L743 945 L974 945 Z M469 66 Q604 66 674 186 Q734 291 734 472 Q734 680 655 786 Q585 879 465 879 Q333 879 265 759 Q206 654 206 475 Q206 268 285 160 Q353 66 469 66 Z M489 1353 L297 1110 L205 1110 L417 1440 L554 1440 L768 1110 L676 1110 L489 1353 Z " />
<glyph glyph-name="Gbreve" unicode="&#x11e;" horiz-adv-x="1249" d="M982 154 L982 604 L597 604 L597 698 L1087 698 L1087 92 Q957 22 865 -4.5 Q773 -31 662 -31 Q363 -31 227 173 Q106 355 106 709 Q106 1133 262 1333 Q397 1504 641 1504 Q875 1504 954 1351 L957 1475 L1047 1475 L1047 1069 L953 1069 Q953 1402 648 1402 Q423 1402 314 1203 Q219 1028 219 708 Q219 357 344 202 Q452 67 666 67 Q821 67 982 154 Z M428 1907 Q437 1818 483.5 1779.5 Q530 1741 630 1741 Q733 1741 779.5 1779 Q826 1817 833 1907 L918 1907 Q918 1763 841 1701 Q772 1647 631 1647 Q472 1647 405 1718 Q348 1779 343 1907 L428 1907 Z " />
<glyph glyph-name="gbreve" unicode="&#x11f;" horiz-adv-x="1007" d="M974 945 L974 854 L832 854 L832 -22 Q832 -271 744 -367 Q664 -454 482 -454 Q305 -454 227 -375 Q158 -306 152 -164 L255 -164 Q261 -272 314 -316.5 Q367 -361 487 -361 Q630 -361 685 -278 Q734 -204 734 -34 L734 146 Q694 64 620 17.5 Q546 -29 455 -29 Q274 -29 178 121 Q94 252 94 473 Q94 725 203 859 Q297 974 454 974 Q667 974 743 778 L743 945 L974 945 Z M469 66 Q604 66 674 186 Q734 291 734 472 Q734 680 655 786 Q585 879 465 879 Q333 879 265 759 Q206 654 206 475 Q206 268 285 160 Q353 66 469 66 Z M284 1377 Q293 1288 339.5 1249.5 Q386 1211 486 1211 Q589 1211 635.5 1249 Q682 1287 689 1377 L774 1377 Q774 1233 697 1171 Q628 1117 487 1117 Q328 1117 261 1188 Q204 1249 199 1377 L284 1377 Z " />
<glyph glyph-name="Gdotaccent" unicode="&#x120;" horiz-adv-x="1249" d="M982 154 L982 604 L597 604 L597 698 L1087 698 L1087 92 Q957 22 865 -4.5 Q773 -31 662 -31 Q363 -31 227 173 Q106 355 106 709 Q106 1133 262 1333 Q397 1504 641 1504 Q875 1504 954 1351 L957 1475 L1047 1475 L1047 1069 L953 1069 Q953 1402 648 1402 Q423 1402 314 1203 Q219 1028 219 708 Q219 357 344 202 Q452 67 666 67 Q821 67 982 154 Z M561 1862 L703 1862 L703 1714 L561 1714 L561 1862 Z " />
<glyph glyph-name="gdotaccent" unicode="&#x121;" horiz-adv-x="1007" d="M974 945 L974 854 L832 854 L832 -22 Q832 -271 744 -367 Q664 -454 482 -454 Q305 -454 227 -375 Q158 -306 152 -164 L255 -164 Q261 -272 314 -316.5 Q367 -361 487 -361 Q630 -361 685 -278 Q734 -204 734 -34 L734 146 Q694 64 620 17.5 Q546 -29 455 -29 Q274 -29 178 121 Q94 252 94 473 Q94 725 203 859 Q297 974 454 974 Q667 974 743 778 L743 945 L974 945 Z M469 66 Q604 66 674 186 Q734 291 734 472 Q734 680 655 786 Q585 879 465 879 Q333 879 265 759 Q206 654 206 475 Q206 268 285 160 Q353 66 469 66 Z M417 1332 L559 1332 L559 1184 L417 1184 L417 1332 Z " />
<glyph glyph-name="Gcommaaccent" unicode="&#x122;" horiz-adv-x="1249" d="M982 154 L982 604 L597 604 L597 698 L1087 698 L1087 92 Q957 22 865 -4.5 Q773 -31 662 -31 Q363 -31 227 173 Q106 355 106 709 Q106 1133 262 1333 Q397 1504 641 1504 Q875 1504 954 1351 L957 1475 L1047 1475 L1047 1069 L953 1069 Q953 1402 648 1402 Q423 1402 314 1203 Q219 1028 219 708 Q219 357 344 202 Q452 67 666 67 Q821 67 982 154 Z M601 -124 L743 -124 L512 -472 L427 -472 L601 -124 Z " />
<glyph glyph-name="gcommaaccent" unicode="&#x123;" horiz-adv-x="1007" d="M974 945 L974 854 L832 854 L832 -22 Q832 -271 744 -367 Q664 -454 482 -454 Q305 -454 227 -375 Q158 -306 152 -164 L255 -164 Q261 -272 314 -316.5 Q367 -361 487 -361 Q630 -361 685 -278 Q734 -204 734 -34 L734 146 Q694 64 620 17.5 Q546 -29 455 -29 Q274 -29 178 121 Q94 252 94 473 Q94 725 203 859 Q297 974 454 974 Q667 974 743 778 L743 945 L974 945 Z M469 66 Q604 66 674 186 Q734 291 734 472 Q734 680 655 786 Q585 879 465 879 Q333 879 265 759 Q206 654 206 475 Q206 268 285 160 Q353 66 469 66 Z M683 1457 L509 1109 L367 1109 L598 1457 L683 1457 Z " />
<glyph glyph-name="Hcircumflex" unicode="&#x124;" horiz-adv-x="1370" d="M1114 1381 L1114 94 L1259 94 L1259 0 L855 0 L855 94 L1003 94 L1003 730 L367 730 L367 94 L515 94 L515 0 L111 0 L111 94 L256 94 L256 1381 L111 1381 L111 1475 L515 1475 L515 1381 L367 1381 L367 824 L1003 824 L1003 1381 L855 1381 L855 1475 L1259 1475 L1259 1381 L1114 1381 Z M692 1883 L500 1640 L408 1640 L620 1970 L757 1970 L971 1640 L879 1640 L692 1883 Z " />
<glyph glyph-name="hcircumflex" unicode="&#x125;" horiz-adv-x="1036" d="M1001 91 L1001 0 L619 0 L619 91 L751 91 L751 662 Q751 777 713 829.5 Q675 882 591 882 Q436 882 301 673 L301 91 L433 91 L433 0 L51 0 L51 91 L193 91 L193 1384 L51 1384 L51 1475 L300 1475 L300 790 Q432 974 607 974 Q859 974 859 684 L859 91 L1001 91 Z M238 1883 L46 1640 L-46 1640 L166 1970 L303 1970 L517 1640 L425 1640 L238 1883 Z " />
<glyph glyph-name="Hbar" unicode="&#x126;" horiz-adv-x="1392" d="M267 1058 L128 1058 L128 1140 L267 1140 L267 1381 L122 1381 L122 1475 L526 1475 L526 1381 L378 1381 L378 1140 L1014 1140 L1014 1381 L866 1381 L866 1475 L1270 1475 L1270 1381 L1125 1381 L1125 1140 L1264 1140 L1264 1058 L1125 1058 L1125 94 L1270 94 L1270 0 L866 0 L866 94 L1014 94 L1014 730 L378 730 L378 94 L526 94 L526 0 L122 0 L122 94 L267 94 L267 1058 Z M378 1058 L378 824 L1014 824 L1014 1058 L378 1058 Z " />
<glyph glyph-name="hbar" unicode="&#x127;" horiz-adv-x="1043" d="M1008 91 L1008 0 L626 0 L626 91 L758 91 L758 662 Q758 777 720 829.5 Q682 882 598 882 Q443 882 308 673 L308 91 L440 91 L440 0 L58 0 L58 91 L200 91 L200 1136 L60 1136 L60 1223 L200 1223 L200 1384 L58 1384 L58 1475 L308 1475 L308 1223 L646 1223 L646 1136 L308 1136 L308 791 Q437 974 614 974 Q866 974 866 684 L866 91 L1008 91 Z " />
<glyph glyph-name="Itilde" unicode="&#x128;" horiz-adv-x="623" d="M512 94 L512 0 L111 0 L111 94 L256 94 L256 1381 L111 1381 L111 1475 L512 1475 L512 1381 L367 1381 L367 94 L512 94 Z M50 1705 Q57 1790 96.5 1837 Q136 1884 199 1884 Q232 1884 254 1874.5 Q276 1865 332 1826 Q377 1794 410 1794 Q472 1794 480 1877 L563 1877 Q562 1792 517 1743 Q476 1700 414 1700 Q381 1700 355.5 1710 Q330 1720 275 1754 Q228 1784 198 1784 Q144 1784 136 1705 L50 1705 Z " />
<glyph glyph-name="itilde" unicode="&#x129;" horiz-adv-x="511" d="M77 91 L219 91 L219 854 L77 854 L77 945 L327 945 L327 91 L469 91 L469 0 L77 0 L77 91 Z M-10 1175 Q-3 1260 36.5 1307 Q76 1354 139 1354 Q172 1354 194 1344.5 Q216 1335 272 1296 Q317 1264 350 1264 Q412 1264 420 1347 L503 1347 Q502 1262 457 1213 Q416 1170 354 1170 Q321 1170 295.5 1180 Q270 1190 215 1224 Q168 1254 138 1254 Q84 1254 76 1175 L-10 1175 Z " />
<glyph glyph-name="Imacron" unicode="&#x12a;" horiz-adv-x="623" d="M512 94 L512 0 L111 0 L111 94 L256 94 L256 1381 L111 1381 L111 1475 L512 1475 L512 1381 L367 1381 L367 94 L512 94 Z M124 1726 L124 1835 L504 1835 L504 1726 L124 1726 Z " />
<glyph glyph-name="imacron" unicode="&#x12b;" horiz-adv-x="511" d="M77 91 L219 91 L219 854 L77 854 L77 945 L327 945 L327 91 L469 91 L469 0 L77 0 L77 91 Z M64 1196 L64 1305 L444 1305 L444 1196 L64 1196 Z " />
<glyph glyph-name="Ibreve" unicode="&#x12c;" horiz-adv-x="623" d="M512 94 L512 0 L111 0 L111 94 L256 94 L256 1381 L111 1381 L111 1475 L512 1475 L512 1381 L367 1381 L367 94 L512 94 Z M141 1907 Q148 1818 188 1779.5 Q228 1741 313 1741 Q401 1741 441 1779 Q481 1817 486 1907 L569 1907 Q569 1762 500 1701 Q440 1647 314 1647 Q173 1647 113 1718 Q62 1779 58 1907 L141 1907 Z " />
<glyph glyph-name="ibreve" unicode="&#x12d;" horiz-adv-x="511" d="M77 91 L219 91 L219 854 L77 854 L77 945 L327 945 L327 91 L469 91 L469 0 L77 0 L77 91 Z M81 1377 Q88 1288 128 1249.5 Q168 1211 253 1211 Q341 1211 381 1249 Q421 1287 426 1377 L509 1377 Q509 1232 440 1171 Q380 1117 254 1117 Q113 1117 53 1188 Q2 1249 -2 1377 L81 1377 Z " />
<glyph glyph-name="Iogonek" unicode="&#x12e;" horiz-adv-x="623" d="M409 0 L111 0 L111 94 L256 94 L256 1381 L111 1381 L111 1475 L512 1475 L512 1381 L367 1381 L367 94 L512 94 L512 0 Q418 -75 379.5 -130 Q341 -185 341 -245 Q341 -293 363 -314 Q385 -335 435 -335 L508 -335 L508 -424 L446 -424 Q238 -424 238 -261 Q238 -197 277.5 -137 Q317 -77 409 0 Z " />
<glyph glyph-name="iogonek" unicode="&#x12f;" horiz-adv-x="511" d="M366 0 L77 0 L77 91 L219 91 L219 854 L77 854 L77 945 L327 945 L327 91 L469 91 L469 0 Q375 -75 336.5 -130 Q298 -185 298 -245 Q298 -293 320 -314 Q342 -335 392 -335 L465 -335 L465 -424 L403 -424 Q195 -424 195 -261 Q195 -197 234.5 -137 Q274 -77 366 0 Z M183 1332 L325 1332 L325 1184 L183 1184 L183 1332 Z " />
<glyph glyph-name="Idot" unicode="&#x130;" horiz-adv-x="623" d="M512 94 L512 0 L111 0 L111 94 L256 94 L256 1381 L111 1381 L111 1475 L512 1475 L512 1381 L367 1381 L367 94 L512 94 Z M243 1862 L385 1862 L385 1714 L243 1714 L243 1862 Z " />
<glyph glyph-name="IJ" unicode="&#x132;" horiz-adv-x="1228" d="M512 94 L512 0 L111 0 L111 94 L256 94 L256 1381 L111 1381 L111 1475 L512 1475 L512 1381 L367 1381 L367 94 L512 94 Z M1136 1381 L994 1381 L994 50 Q994 -109 932 -181 Q870 -252 736 -259 L736 -162 Q816 -158 849.5 -111 Q883 -64 883 43 L883 1381 L737 1381 L737 1475 L1136 1475 L1136 1381 Z " />
<glyph glyph-name="ij" unicode="&#x133;" horiz-adv-x="985" d="M183 1332 L325 1332 L325 1184 L183 1184 L183 1332 Z M77 91 L219 91 L219 854 L77 854 L77 945 L327 945 L327 91 L469 91 L469 0 L77 0 L77 91 Z M690 1332 L832 1332 L832 1184 L690 1184 L690 1332 Z M571 -328 Q658 -324 689.5 -287 Q721 -250 721 -150 L721 854 L575 854 L575 945 L827 945 L827 -153 Q827 -293 768 -356 Q707 -422 571 -422 L571 -328 Z " />
<glyph glyph-name="Jcircumflex" unicode="&#x134;" horiz-adv-x="605" d="M513 1381 L371 1381 L371 50 Q371 -109 309 -181 Q247 -252 113 -259 L113 -162 Q193 -158 226.5 -111 Q260 -64 260 43 L260 1381 L114 1381 L114 1475 L513 1475 L513 1381 Z M323 1883 L156 1640 L62 1640 L254 1970 L385 1970 L579 1640 L485 1640 L323 1883 Z " />
<glyph glyph-name="jcircumflex" unicode="&#x135;" horiz-adv-x="474" d="M60 -328 Q147 -324 178.5 -287 Q210 -250 210 -150 L210 854 L64 854 L64 945 L316 945 L316 -153 Q316 -293 257 -356 Q196 -422 60 -422 L60 -328 Z M249 1353 L82 1110 L-12 1110 L180 1440 L311 1440 L505 1110 L411 1110 L249 1353 Z " />
<glyph glyph-name="Kcommaaccent" unicode="&#x136;" horiz-adv-x="1266" d="M1241 94 L1241 0 L819 0 L819 94 L964 94 L369 757 L369 94 L514 94 L514 0 L111 0 L111 94 L258 94 L258 1381 L111 1381 L111 1475 L515 1475 L515 1381 L369 1381 L369 768 L901 1381 L767 1381 L767 1475 L1160 1475 L1160 1381 L1037 1381 L500 766 L1107 94 L1241 94 Z M604 -124 L746 -124 L515 -472 L430 -472 L604 -124 Z " />
<glyph glyph-name="kcommaaccent" unicode="&#x137;" horiz-adv-x="987" d="M999 91 L999 0 L585 0 L585 91 L723 91 L298 529 L298 91 L430 91 L430 0 L51 0 L51 91 L193 91 L193 1384 L51 1384 L51 1475 L298 1475 L298 533 L636 864 L496 864 L496 945 L895 945 L895 854 L756 854 L427 536 L864 91 L999 91 Z M463 -124 L605 -124 L374 -472 L289 -472 L463 -124 Z " />
<glyph glyph-name="kgreenlandic" unicode="&#x138;" horiz-adv-x="1015" d="M1027 91 L1027 0 L613 0 L613 91 L761 91 L326 529 L326 91 L458 91 L458 0 L77 0 L77 91 L219 91 L219 854 L77 854 L77 945 L326 945 L326 533 L662 860 L524 860 L524 945 L923 945 L923 854 L790 854 L456 531 L897 91 L1027 91 Z " />
<glyph glyph-name="Lacute" unicode="&#x139;" horiz-adv-x="1101" d="M1009 389 L1009 0 L111 0 L111 94 L256 94 L256 1381 L111 1381 L111 1475 L515 1475 L515 1381 L367 1381 L367 94 L909 94 L909 389 L1009 389 Z M229 1640 L401 1988 L544 1988 L316 1640 L229 1640 Z " />
<glyph glyph-name="lacute" unicode="&#x13a;" horiz-adv-x="490" d="M51 91 L193 91 L193 1384 L51 1384 L51 1475 L300 1475 L300 91 L442 91 L442 0 L51 0 L51 91 Z M145 1640 L317 1988 L460 1988 L232 1640 L145 1640 Z " />
<glyph glyph-name="Lcommaaccent" unicode="&#x13b;" horiz-adv-x="1101" d="M1009 389 L1009 0 L111 0 L111 94 L256 94 L256 1381 L111 1381 L111 1475 L515 1475 L515 1381 L367 1381 L367 94 L909 94 L909 389 L1009 389 Z M522 -124 L664 -124 L433 -472 L348 -472 L522 -124 Z " />
<glyph glyph-name="lcommaaccent" unicode="&#x13c;" horiz-adv-x="490" d="M51 91 L193 91 L193 1384 L51 1384 L51 1475 L300 1475 L300 91 L442 91 L442 0 L51 0 L51 91 Z M179 -124 L321 -124 L90 -472 L5 -472 L179 -124 Z " />
<glyph glyph-name="Lcaron" unicode="&#x13d;" horiz-adv-x="1101" d="M1009 389 L1009 0 L111 0 L111 94 L256 94 L256 1381 L111 1381 L111 1475 L515 1475 L515 1381 L367 1381 L367 94 L909 94 L909 389 L1009 389 Z M742 1115 L806 1505 L928 1505 L819 1115 L742 1115 Z " />
<glyph glyph-name="lcaron" unicode="&#x13e;" horiz-adv-x="490" d="M51 91 L193 91 L193 1384 L51 1384 L51 1475 L300 1475 L300 91 L442 91 L442 0 L51 0 L51 91 Z M396 1115 L460 1505 L582 1505 L473 1115 L396 1115 Z " />
<glyph glyph-name="Ldot" unicode="&#x13f;" horiz-adv-x="1101" d="M1009 389 L1009 0 L111 0 L111 94 L256 94 L256 1381 L111 1381 L111 1475 L515 1475 L515 1381 L367 1381 L367 94 L909 94 L909 389 L1009 389 Z M793 725 L793 887 L941 887 L941 725 L793 725 Z " />
<glyph glyph-name="ldot" unicode="&#x140;" horiz-adv-x="573" d="M51 91 L193 91 L193 1384 L51 1384 L51 1475 L300 1475 L300 91 L442 91 L442 0 L51 0 L51 91 Z M459 609 L459 771 L607 771 L607 609 L459 609 Z " />
<glyph glyph-name="Lslash" unicode="&#x141;" horiz-adv-x="1168" d="M434 858 L714 1070 L714 959 L434 747 L434 94 L976 94 L976 389 L1076 389 L1076 0 L178 0 L178 94 L323 94 L323 663 L131 517 L131 628 L323 774 L323 1381 L178 1381 L178 1475 L582 1475 L582 1381 L434 1381 L434 858 Z " />
<glyph glyph-name="lslash" unicode="&#x142;" horiz-adv-x="654" d="M390 747 L390 94 L532 94 L532 0 L143 0 L143 94 L285 94 L285 670 L76 517 L76 628 L285 781 L285 1381 L143 1381 L143 1475 L390 1475 L390 858 L599 1011 L599 900 L390 747 Z " />
<glyph glyph-name="Nacute" unicode="&#x143;" horiz-adv-x="1376" d="M430 1160 Q389 1235 352 1326 Q360 1246 360 1161 L360 94 L528 94 L528 0 L111 0 L111 94 L256 94 L256 1381 L111 1381 L111 1475 L378 1475 L973 367 Q1017 286 1053 192 Q1044 281 1044 418 L1044 1381 L878 1381 L878 1475 L1293 1475 L1293 1381 L1148 1381 L1148 -17 L1066 -17 L430 1160 Z M603 1640 L775 1988 L918 1988 L690 1640 L603 1640 Z " />
<glyph glyph-name="nacute" unicode="&#x144;" horiz-adv-x="1062" d="M1027 91 L1027 0 L645 0 L645 91 L777 91 L777 662 Q777 777 739 829.5 Q701 882 617 882 Q462 882 327 673 L327 91 L459 91 L459 0 L77 0 L77 91 L219 91 L219 854 L77 854 L77 945 L315 945 L315 777 L316 775 Q451 974 633 974 Q885 974 885 684 L885 91 L1027 91 Z M452 1110 L624 1458 L767 1458 L539 1110 L452 1110 Z " />
<glyph glyph-name="Ncommaaccent" unicode="&#x145;" horiz-adv-x="1376" d="M430 1160 Q389 1235 352 1326 Q360 1246 360 1161 L360 94 L528 94 L528 0 L111 0 L111 94 L256 94 L256 1381 L111 1381 L111 1475 L378 1475 L973 367 Q1017 286 1053 192 Q1044 281 1044 418 L1044 1381 L878 1381 L878 1475 L1293 1475 L1293 1381 L1148 1381 L1148 -17 L1066 -17 L430 1160 Z M663 -124 L805 -124 L574 -472 L489 -472 L663 -124 Z " />
<glyph glyph-name="ncommaaccent" unicode="&#x146;" horiz-adv-x="1062" d="M1027 91 L1027 0 L645 0 L645 91 L777 91 L777 662 Q777 777 739 829.5 Q701 882 617 882 Q462 882 327 673 L327 91 L459 91 L459 0 L77 0 L77 91 L219 91 L219 854 L77 854 L77 945 L315 945 L315 777 L316 775 Q451 974 633 974 Q885 974 885 684 L885 91 L1027 91 Z M500 -124 L642 -124 L411 -472 L326 -472 L500 -124 Z " />
<glyph glyph-name="Ncaron" unicode="&#x147;" horiz-adv-x="1376" d="M430 1160 Q389 1235 352 1326 Q360 1246 360 1161 L360 94 L528 94 L528 0 L111 0 L111 94 L256 94 L256 1381 L111 1381 L111 1475 L378 1475 L973 367 Q1017 286 1053 192 Q1044 281 1044 418 L1044 1381 L878 1381 L878 1475 L1293 1475 L1293 1381 L1148 1381 L1148 -17 L1066 -17 L430 1160 Z M971 1946 L757 1616 L620 1616 L408 1946 L500 1946 L692 1703 L879 1946 L971 1946 Z " />
<glyph glyph-name="ncaron" unicode="&#x148;" horiz-adv-x="1062" d="M1027 91 L1027 0 L645 0 L645 91 L777 91 L777 662 Q777 777 739 829.5 Q701 882 617 882 Q462 882 327 673 L327 91 L459 91 L459 0 L77 0 L77 91 L219 91 L219 854 L77 854 L77 945 L315 945 L315 777 L316 775 Q451 974 633 974 Q885 974 885 684 L885 91 L1027 91 Z M820 1416 L606 1086 L469 1086 L257 1416 L349 1416 L541 1173 L728 1416 L820 1416 Z " />
<glyph glyph-name="napostrophe" unicode="&#x149;" horiz-adv-x="1270" d="M22 1085 L105 1475 L239 1475 L117 1085 L22 1085 Z M1235 91 L1235 0 L853 0 L853 91 L985 91 L985 662 Q985 777 947 829.5 Q909 882 825 882 Q670 882 535 673 L535 91 L667 91 L667 0 L285 0 L285 91 L427 91 L427 854 L285 854 L285 945 L523 945 L523 777 L524 775 Q659 974 841 974 Q1093 974 1093 684 L1093 91 L1235 91 Z " />
<glyph glyph-name="Eng" unicode="&#x14a;" horiz-adv-x="1376" d="M1293 1475 L1293 1381 L1148 1381 L1148 -153 Q1148 -293 1089 -356 Q1028 -422 892 -422 L892 -328 Q983 -324 1015.5 -287 Q1048 -250 1048 -150 L1048 25 L430 1160 Q389 1235 352 1326 Q360 1246 360 1161 L360 94 L528 94 L528 0 L111 0 L111 94 L256 94 L256 1381 L111 1381 L111 1475 L378 1475 L973 367 Q1017 286 1053 192 Q1044 281 1044 418 L1044 1381 L878 1381 L878 1475 L1293 1475 Z " />
<glyph glyph-name="eng" unicode="&#x14b;" horiz-adv-x="1003" d="M611 974 Q862 974 862 684 L862 -153 Q862 -293 803 -356 Q741 -422 605 -422 L605 -325 Q695 -321 725 -276.5 Q755 -232 755 -103 L755 662 Q755 777 717 829.5 Q679 882 595 882 Q451 882 327 675 L327 91 L459 91 L459 0 L77 0 L77 91 L219 91 L219 854 L77 854 L77 945 L315 945 L315 776 Q442 974 611 974 Z " />
<glyph glyph-name="Omacron" unicode="&#x14c;" horiz-adv-x="1261" d="M632 -29 Q357 -29 223 194 Q106 389 106 740 Q106 1139 260 1335 Q392 1506 627 1506 Q903 1506 1038 1282 Q1155 1087 1155 736 Q1155 335 1003 141 Q871 -29 632 -29 Z M632 73 Q846 73 951 269 Q1042 439 1042 740 Q1042 1083 921 1254 Q816 1404 631 1404 Q418 1404 312 1210 Q219 1040 219 742 Q219 398 341 225 Q447 73 632 73 Z M392 1757 L392 1866 L868 1866 L868 1757 L392 1757 Z " />
<glyph glyph-name="omacron" unicode="&#x14d;" horiz-adv-x="937" d="M469 -29 Q276 -29 175 120 Q88 249 88 470 Q88 725 202 858 Q301 974 468 974 Q660 974 761 823 Q849 692 849 469 Q849 215 736 85 Q637 -29 469 -29 Z M468 67 Q606 67 676 187 Q737 291 737 474 Q737 682 658 787 Q588 878 468 878 Q330 878 261 759 Q200 655 200 473 Q200 264 278 159 Q347 67 468 67 Z M232 1196 L232 1305 L708 1305 L708 1196 L232 1196 Z " />
<glyph glyph-name="Obreve" unicode="&#x14e;" horiz-adv-x="1261" d="M632 -29 Q357 -29 223 194 Q106 389 106 740 Q106 1139 260 1335 Q392 1506 627 1506 Q903 1506 1038 1282 Q1155 1087 1155 736 Q1155 335 1003 141 Q871 -29 632 -29 Z M632 73 Q846 73 951 269 Q1042 439 1042 740 Q1042 1083 921 1254 Q816 1404 631 1404 Q418 1404 312 1210 Q219 1040 219 742 Q219 398 341 225 Q447 73 632 73 Z M425 1938 Q434 1849 480.5 1810.5 Q527 1772 627 1772 Q730 1772 776.5 1810 Q823 1848 830 1938 L915 1938 Q915 1794 838 1732 Q769 1678 628 1678 Q469 1678 402 1749 Q345 1810 340 1938 L425 1938 Z " />
<glyph glyph-name="obreve" unicode="&#x14f;" horiz-adv-x="937" d="M469 -29 Q276 -29 175 120 Q88 249 88 470 Q88 725 202 858 Q301 974 468 974 Q660 974 761 823 Q849 692 849 469 Q849 215 736 85 Q637 -29 469 -29 Z M468 67 Q606 67 676 187 Q737 291 737 474 Q737 682 658 787 Q588 878 468 878 Q330 878 261 759 Q200 655 200 473 Q200 264 278 159 Q347 67 468 67 Z M265 1377 Q274 1288 320.5 1249.5 Q367 1211 467 1211 Q570 1211 616.5 1249 Q663 1287 670 1377 L755 1377 Q755 1233 678 1171 Q609 1117 468 1117 Q309 1117 242 1188 Q185 1249 180 1377 L265 1377 Z " />
<glyph glyph-name="Ohungarumlaut" unicode="&#x150;" horiz-adv-x="1261" d="M632 -29 Q357 -29 223 194 Q106 389 106 740 Q106 1139 260 1335 Q392 1506 627 1506 Q903 1506 1038 1282 Q1155 1087 1155 736 Q1155 335 1003 141 Q871 -29 632 -29 Z M632 73 Q846 73 951 269 Q1042 439 1042 740 Q1042 1083 921 1254 Q816 1404 631 1404 Q418 1404 312 1210 Q219 1040 219 742 Q219 398 341 225 Q447 73 632 73 Z M430 1671 L581 2019 L706 2019 L498 1671 L430 1671 Z M664 1671 L836 2019 L962 2019 L734 1671 L664 1671 Z " />
<glyph glyph-name="ohungarumlaut" unicode="&#x151;" horiz-adv-x="937" d="M469 -29 Q276 -29 175 120 Q88 249 88 470 Q88 725 202 858 Q301 974 468 974 Q660 974 761 823 Q849 692 849 469 Q849 215 736 85 Q637 -29 469 -29 Z M468 67 Q606 67 676 187 Q737 291 737 474 Q737 682 658 787 Q588 878 468 878 Q330 878 261 759 Q200 655 200 473 Q200 264 278 159 Q347 67 468 67 Z M270 1110 L421 1458 L546 1458 L338 1110 L270 1110 Z M504 1110 L676 1458 L802 1458 L574 1110 L504 1110 Z " />
<glyph glyph-name="Racute" unicode="&#x154;" horiz-adv-x="1244" d="M1209 94 L1209 0 L981 0 L830 452 Q784 591 719 632 Q660 669 529 669 L367 669 L367 94 L526 94 L526 0 L111 0 L111 94 L256 94 L256 1381 L111 1381 L111 1475 L510 1475 Q805 1475 925 1365 Q1030 1269 1030 1064 Q1030 905 962 816 Q902 738 784 704 Q834 681 868.5 633.5 Q903 586 933 496 L1067 94 L1209 94 Z M570 763 Q767 763 846 844 Q916 915 916 1066 Q916 1241 811 1315 Q718 1381 529 1381 L367 1381 L367 763 L570 763 Z M510 1640 L682 1988 L825 1988 L597 1640 L510 1640 Z " />
<glyph glyph-name="racute" unicode="&#x155;" horiz-adv-x="710" d="M501 931 Q571 960 682 960 L682 858 Q573 862 502 829 Q393 774 333 627 L333 91 L544 91 L544 0 L83 0 L83 91 L225 91 L225 854 L77 854 L77 945 L321 945 L321 730 Q381 881 501 931 Z M318 1110 L490 1458 L633 1458 L405 1110 L318 1110 Z " />
<glyph glyph-name="Rcommaaccent" unicode="&#x156;" horiz-adv-x="1244" d="M1209 94 L1209 0 L981 0 L830 452 Q784 591 719 632 Q660 669 529 669 L367 669 L367 94 L526 94 L526 0 L111 0 L111 94 L256 94 L256 1381 L111 1381 L111 1475 L510 1475 Q805 1475 925 1365 Q1030 1269 1030 1064 Q1030 905 962 816 Q902 738 784 704 Q834 681 868.5 633.5 Q903 586 933 496 L1067 94 L1209 94 Z M570 763 Q767 763 846 844 Q916 915 916 1066 Q916 1241 811 1315 Q718 1381 529 1381 L367 1381 L367 763 L570 763 Z M608 -124 L750 -124 L519 -472 L434 -472 L608 -124 Z " />
<glyph glyph-name="rcommaaccent" unicode="&#x157;" horiz-adv-x="710" d="M501 931 Q571 960 682 960 L682 858 Q573 862 502 829 Q393 774 333 627 L333 91 L544 91 L544 0 L83 0 L83 91 L225 91 L225 854 L77 854 L77 945 L321 945 L321 730 Q381 881 501 931 Z M238 -124 L380 -124 L149 -472 L64 -472 L238 -124 Z " />
<glyph glyph-name="Rcaron" unicode="&#x158;" horiz-adv-x="1244" d="M1209 94 L1209 0 L981 0 L830 452 Q784 591 719 632 Q660 669 529 669 L367 669 L367 94 L526 94 L526 0 L111 0 L111 94 L256 94 L256 1381 L111 1381 L111 1475 L510 1475 Q805 1475 925 1365 Q1030 1269 1030 1064 Q1030 905 962 816 Q902 738 784 704 Q834 681 868.5 633.5 Q903 586 933 496 L1067 94 L1209 94 Z M570 763 Q767 763 846 844 Q916 915 916 1066 Q916 1241 811 1315 Q718 1381 529 1381 L367 1381 L367 763 L570 763 Z M878 1946 L664 1616 L527 1616 L315 1946 L407 1946 L599 1703 L786 1946 L878 1946 Z " />
<glyph glyph-name="rcaron" unicode="&#x159;" horiz-adv-x="710" d="M501 931 Q571 960 682 960 L682 858 Q573 862 502 829 Q393 774 333 627 L333 91 L544 91 L544 0 L83 0 L83 91 L225 91 L225 854 L77 854 L77 945 L321 945 L321 730 Q381 881 501 931 Z M686 1416 L472 1086 L335 1086 L123 1416 L215 1416 L407 1173 L594 1416 L686 1416 Z " />
<glyph glyph-name="Sacute" unicode="&#x15a;" horiz-adv-x="1109" d="M635 809 Q829 770 913 660 Q989 561 989 391 Q989 175 866 67 Q759 -28 570 -28 Q323 -28 233 141 L233 0 L140 0 L140 425 L235 425 Q235 245 334 152 Q421 71 569 71 Q728 71 807 163 Q877 244 877 386 Q877 531 801 609 Q735 679 600 708 L472 736 Q300 774 222 880 Q153 974 153 1128 Q153 1324 266 1420 Q364 1504 538 1504 Q737 1504 816 1350 L816 1475 L909 1475 L909 1120 L814 1120 Q814 1405 541 1405 Q399 1405 327 1325 Q264 1254 264 1130 Q264 883 510 834 L635 809 Z M466 1640 L638 1988 L781 1988 L553 1640 L466 1640 Z " />
<glyph glyph-name="sacute" unicode="&#x15b;" horiz-adv-x="833" d="M499 520 Q640 497 701 426 Q756 362 756 250 Q756 -29 453 -29 Q267 -29 192 104 L192 0 L108 0 L108 271 L205 271 Q224 164 282.5 114 Q341 64 448 64 Q651 64 651 242 Q651 328 610 370.5 Q569 413 471 428 L387 441 Q114 484 114 709 Q114 844 198 914 Q272 974 397 974 Q561 974 610 849 L610 945 L694 945 L694 698 L600 698 Q600 882 409 882 Q217 882 217 709 Q217 565 418 533 L499 520 Z M331 1110 L503 1458 L646 1458 L418 1110 L331 1110 Z " />
<glyph glyph-name="Scircumflex" unicode="&#x15c;" horiz-adv-x="1109" d="M635 809 Q829 770 913 660 Q989 561 989 391 Q989 175 866 67 Q759 -28 570 -28 Q323 -28 233 141 L233 0 L140 0 L140 425 L235 425 Q235 245 334 152 Q421 71 569 71 Q728 71 807 163 Q877 244 877 386 Q877 531 801 609 Q735 679 600 708 L472 736 Q300 774 222 880 Q153 974 153 1128 Q153 1324 266 1420 Q364 1504 538 1504 Q737 1504 816 1350 L816 1475 L909 1475 L909 1120 L814 1120 Q814 1405 541 1405 Q399 1405 327 1325 Q264 1254 264 1130 Q264 883 510 834 L635 809 Z M553 1883 L361 1640 L269 1640 L481 1970 L618 1970 L832 1640 L740 1640 L553 1883 Z " />
<glyph glyph-name="scircumflex" unicode="&#x15d;" horiz-adv-x="833" d="M499 520 Q640 497 701 426 Q756 362 756 250 Q756 -29 453 -29 Q267 -29 192 104 L192 0 L108 0 L108 271 L205 271 Q224 164 282.5 114 Q341 64 448 64 Q651 64 651 242 Q651 328 610 370.5 Q569 413 471 428 L387 441 Q114 484 114 709 Q114 844 198 914 Q272 974 397 974 Q561 974 610 849 L610 945 L694 945 L694 698 L600 698 Q600 882 409 882 Q217 882 217 709 Q217 565 418 533 L499 520 Z M418 1353 L226 1110 L134 1110 L346 1440 L483 1440 L697 1110 L605 1110 L418 1353 Z " />
<glyph glyph-name="Scedilla" unicode="&#x15e;" horiz-adv-x="1109" d="M532 -27 Q323 -14 233 141 L233 0 L140 0 L140 425 L235 425 Q235 245 334 152 Q421 71 569 71 Q728 71 807 163 Q877 244 877 386 Q877 531 801 609 Q735 679 600 708 L472 736 Q300 774 222 880 Q153 974 153 1128 Q153 1324 266 1420 Q364 1504 538 1504 Q737 1504 816 1350 L816 1475 L909 1475 L909 1120 L814 1120 Q814 1405 541 1405 Q399 1405 327 1325 Q264 1254 264 1130 Q264 883 510 834 L635 809 Q829 770 913 660 Q989 561 989 391 Q982 155 849 53 Q755 -19 617 -26 L578 -134 Q598 -131 615 -131 Q684 -131 725.5 -172 Q767 -213 767 -282 Q767 -368 709 -417 Q656 -461 568 -461 Q468 -461 381 -419 L381 -330 Q487 -371 566 -371 Q670 -371 670 -278 Q670 -197 588 -197 Q554 -197 505 -210 L497 -117 L532 -27 Z " />
<glyph glyph-name="scedilla" unicode="&#x15f;" horiz-adv-x="833" d="M383 -24 Q256 -2 192 104 L192 0 L108 0 L108 271 L205 271 Q224 164 282.5 114 Q341 64 448 64 Q651 64 651 242 Q651 328 610 370.5 Q569 413 471 428 L387 441 Q114 484 114 709 Q114 844 198 914 Q272 974 397 974 Q561 974 610 849 L610 945 L694 945 L694 698 L600 698 Q600 882 409 882 Q217 882 217 709 Q217 565 418 533 L499 520 Q640 497 701 426 Q756 362 756 250 Q750 95 664 30 Q595 -23 467 -29 L428 -134 Q448 -131 465 -131 Q534 -131 575.5 -172 Q617 -213 617 -282 Q617 -368 559 -417 Q506 -461 418 -461 Q318 -461 231 -419 L231 -330 Q337 -371 416 -371 Q520 -371 520 -278 Q520 -197 437 -197 Q403 -197 355 -210 L347 -117 L383 -24 Z " />
<glyph glyph-name="Scaron" unicode="&#x160;" horiz-adv-x="1109" d="M635 809 Q829 770 913 660 Q989 561 989 391 Q989 175 866 67 Q759 -28 570 -28 Q323 -28 233 141 L233 0 L140 0 L140 425 L235 425 Q235 245 334 152 Q421 71 569 71 Q728 71 807 163 Q877 244 877 386 Q877 531 801 609 Q735 679 600 708 L472 736 Q300 774 222 880 Q153 974 153 1128 Q153 1324 266 1420 Q364 1504 538 1504 Q737 1504 816 1350 L816 1475 L909 1475 L909 1120 L814 1120 Q814 1405 541 1405 Q399 1405 327 1325 Q264 1254 264 1130 Q264 883 510 834 L635 809 Z M834 1946 L620 1616 L483 1616 L271 1946 L363 1946 L555 1703 L742 1946 L834 1946 Z " />
<glyph glyph-name="scaron" unicode="&#x161;" horiz-adv-x="833" d="M499 520 Q640 497 701 426 Q756 362 756 250 Q756 -29 453 -29 Q267 -29 192 104 L192 0 L108 0 L108 271 L205 271 Q224 164 282.5 114 Q341 64 448 64 Q651 64 651 242 Q651 328 610 370.5 Q569 413 471 428 L387 441 Q114 484 114 709 Q114 844 198 914 Q272 974 397 974 Q561 974 610 849 L610 945 L694 945 L694 698 L600 698 Q600 882 409 882 Q217 882 217 709 Q217 565 418 533 L499 520 Z M699 1416 L485 1086 L348 1086 L136 1416 L228 1416 L420 1173 L607 1416 L699 1416 Z " />
<glyph glyph-name="Tcommaaccent" unicode="&#x162;" horiz-adv-x="1155" d="M1095 1475 L1095 1103 L999 1103 L999 1381 L633 1381 L633 94 L807 94 L807 0 L348 0 L348 94 L522 94 L522 1381 L156 1381 L156 1103 L60 1103 L60 1475 L1095 1475 Z M538 -124 L680 -124 L449 -472 L364 -472 L538 -124 Z " />
<glyph glyph-name="tcommaaccent" unicode="&#x163;" horiz-adv-x="576" d="M405 -11 Q273 -11 224 51 Q183 104 183 224 L183 854 L56 854 L56 945 L183 945 L183 1313 L289 1313 L289 945 L515 945 L515 854 L289 854 L289 247 Q289 152 317.5 118 Q346 84 424 84 Q460 84 534 88 L534 -2 Q471 -11 405 -11 Z M291 -124 L433 -124 L202 -472 L117 -472 L291 -124 Z " />
<glyph glyph-name="Tcaron" unicode="&#x164;" horiz-adv-x="1155" d="M1095 1475 L1095 1103 L999 1103 L999 1381 L633 1381 L633 94 L807 94 L807 0 L348 0 L348 94 L522 94 L522 1381 L156 1381 L156 1103 L60 1103 L60 1475 L1095 1475 Z M859 1946 L645 1616 L508 1616 L296 1946 L388 1946 L580 1703 L767 1946 L859 1946 Z " />
<glyph glyph-name="tcaron" unicode="&#x165;" horiz-adv-x="576" d="M405 -11 Q273 -11 224 51 Q183 104 183 224 L183 854 L56 854 L56 945 L183 945 L183 1313 L289 1313 L289 945 L515 945 L515 854 L289 854 L289 247 Q289 152 317.5 118 Q346 84 424 84 Q460 84 534 88 L534 -2 Q471 -11 405 -11 Z M458 1115 L522 1505 L644 1505 L535 1115 L458 1115 Z " />
<glyph glyph-name="Tbar" unicode="&#x166;" horiz-adv-x="1155" d="M522 711 L229 711 L229 804 L522 804 L522 1381 L156 1381 L156 1103 L60 1103 L60 1475 L1095 1475 L1095 1103 L999 1103 L999 1381 L633 1381 L633 804 L926 804 L926 711 L633 711 L633 94 L807 94 L807 0 L348 0 L348 94 L522 94 L522 711 Z " />
<glyph glyph-name="tbar" unicode="&#x167;" horiz-adv-x="603" d="M190 514 L78 514 L78 601 L190 601 L190 854 L63 854 L63 945 L190 945 L190 1313 L296 1313 L296 945 L522 945 L522 854 L296 854 L296 601 L539 601 L539 514 L296 514 L296 247 Q296 152 324.5 118 Q353 84 431 84 Q467 84 541 88 L541 -2 Q478 -11 412 -11 Q280 -11 231 51 Q190 104 190 224 L190 514 Z " />
<glyph glyph-name="Utilde" unicode="&#x168;" horiz-adv-x="1311" d="M652 -29 Q383 -29 282 168 Q242 245 228.5 336 Q215 427 215 616 L215 1381 L72 1381 L72 1475 L471 1475 L471 1381 L326 1381 L326 555 Q326 291 406 180 Q484 73 655 73 Q854 73 928 216 Q985 325 985 549 L985 1381 L840 1381 L840 1475 L1239 1475 L1239 1381 L1096 1381 L1096 613 Q1096 358 1059 243 Q1022 126 923 50 Q821 -29 652 -29 Z M378 1705 Q387 1791 431 1837.5 Q475 1884 547 1884 Q597 1884 681 1835 Q751 1794 786 1794 Q858 1794 866 1877 L953 1877 Q952 1784 892 1736 Q848 1700 784 1700 Q748 1700 720 1709.5 Q692 1719 629 1754 Q574 1784 542 1784 Q479 1784 468 1705 L378 1705 Z " />
<glyph glyph-name="utilde" unicode="&#x169;" horiz-adv-x="1020" d="M978 91 L978 0 L743 0 L742 165 Q621 -29 420 -29 Q178 -29 178 263 L178 854 L36 854 L36 945 L286 945 L286 299 Q286 171 322 118.5 Q358 66 446 66 Q612 66 728 272 L728 854 L586 854 L586 945 L836 945 L836 91 L978 91 Z M202 1175 Q211 1261 255 1307.5 Q299 1354 371 1354 Q421 1354 505 1305 Q575 1264 610 1264 Q682 1264 690 1347 L777 1347 Q776 1254 716 1206 Q672 1170 608 1170 Q572 1170 544 1179.5 Q516 1189 453 1224 Q398 1254 366 1254 Q303 1254 292 1175 L202 1175 Z " />
<glyph glyph-name="Umacron" unicode="&#x16a;" horiz-adv-x="1311" d="M652 -29 Q383 -29 282 168 Q242 245 228.5 336 Q215 427 215 616 L215 1381 L72 1381 L72 1475 L471 1475 L471 1381 L326 1381 L326 555 Q326 291 406 180 Q484 73 655 73 Q854 73 928 216 Q985 325 985 549 L985 1381 L840 1381 L840 1475 L1239 1475 L1239 1381 L1096 1381 L1096 613 Q1096 358 1059 243 Q1022 126 923 50 Q821 -29 652 -29 Z M426 1726 L426 1835 L902 1835 L902 1726 L426 1726 Z " />
<glyph glyph-name="umacron" unicode="&#x16b;" horiz-adv-x="1020" d="M978 91 L978 0 L743 0 L742 165 Q621 -29 420 -29 Q178 -29 178 263 L178 854 L36 854 L36 945 L286 945 L286 299 Q286 171 322 118.5 Q358 66 446 66 Q612 66 728 272 L728 854 L586 854 L586 945 L836 945 L836 91 L978 91 Z M250 1196 L250 1305 L726 1305 L726 1196 L250 1196 Z " />
<glyph glyph-name="Ubreve" unicode="&#x16c;" horiz-adv-x="1311" d="M652 -29 Q383 -29 282 168 Q242 245 228.5 336 Q215 427 215 616 L215 1381 L72 1381 L72 1475 L471 1475 L471 1381 L326 1381 L326 555 Q326 291 406 180 Q484 73 655 73 Q854 73 928 216 Q985 325 985 549 L985 1381 L840 1381 L840 1475 L1239 1475 L1239 1381 L1096 1381 L1096 613 Q1096 358 1059 243 Q1022 126 923 50 Q821 -29 652 -29 Z M459 1907 Q468 1818 514.5 1779.5 Q561 1741 661 1741 Q764 1741 810.5 1779 Q857 1817 864 1907 L949 1907 Q949 1763 872 1701 Q803 1647 662 1647 Q503 1647 436 1718 Q379 1779 374 1907 L459 1907 Z " />
<glyph glyph-name="ubreve" unicode="&#x16d;" horiz-adv-x="1020" d="M978 91 L978 0 L743 0 L742 165 Q621 -29 420 -29 Q178 -29 178 263 L178 854 L36 854 L36 945 L286 945 L286 299 Q286 171 322 118.5 Q358 66 446 66 Q612 66 728 272 L728 854 L586 854 L586 945 L836 945 L836 91 L978 91 Z M283 1377 Q292 1288 338.5 1249.5 Q385 1211 485 1211 Q588 1211 634.5 1249 Q681 1287 688 1377 L773 1377 Q773 1233 696 1171 Q627 1117 486 1117 Q327 1117 260 1188 Q203 1249 198 1377 L283 1377 Z " />
<glyph glyph-name="Uring" unicode="&#x16e;" horiz-adv-x="1311" d="M652 -29 Q383 -29 282 168 Q242 245 228.5 336 Q215 427 215 616 L215 1381 L72 1381 L72 1475 L471 1475 L471 1381 L326 1381 L326 555 Q326 291 406 180 Q484 73 655 73 Q854 73 928 216 Q985 325 985 549 L985 1381 L840 1381 L840 1475 L1239 1475 L1239 1381 L1096 1381 L1096 613 Q1096 358 1059 243 Q1022 126 923 50 Q821 -29 652 -29 Z M663 2004 Q761 2004 813 1942 Q855 1891 855 1811 Q855 1719 800 1667 Q749 1618 664 1618 Q565 1618 514 1680 Q472 1732 472 1814 Q472 1904 528 1956 Q579 2004 663 2004 Z M662 1933 Q553 1933 553 1812 Q553 1689 662 1689 Q774 1689 774 1811 Q774 1933 662 1933 Z " />
<glyph glyph-name="uring" unicode="&#x16f;" horiz-adv-x="1020" d="M978 91 L978 0 L743 0 L742 165 Q621 -29 420 -29 Q178 -29 178 263 L178 854 L36 854 L36 945 L286 945 L286 299 Q286 171 322 118.5 Q358 66 446 66 Q612 66 728 272 L728 854 L586 854 L586 945 L836 945 L836 91 L978 91 Z M487 1474 Q585 1474 637 1412 Q679 1361 679 1281 Q679 1189 624 1137 Q573 1088 488 1088 Q389 1088 338 1150 Q296 1202 296 1284 Q296 1374 352 1426 Q403 1474 487 1474 Z M486 1403 Q377 1403 377 1282 Q377 1159 486 1159 Q598 1159 598 1281 Q598 1403 486 1403 Z " />
<glyph glyph-name="Uhungarumlaut" unicode="&#x170;" horiz-adv-x="1311" d="M652 -29 Q383 -29 282 168 Q242 245 228.5 336 Q215 427 215 616 L215 1381 L72 1381 L72 1475 L471 1475 L471 1381 L326 1381 L326 555 Q326 291 406 180 Q484 73 655 73 Q854 73 928 216 Q985 325 985 549 L985 1381 L840 1381 L840 1475 L1239 1475 L1239 1381 L1096 1381 L1096 613 Q1096 358 1059 243 Q1022 126 923 50 Q821 -29 652 -29 Z M464 1640 L615 1988 L740 1988 L532 1640 L464 1640 Z M698 1640 L870 1988 L996 1988 L768 1640 L698 1640 Z " />
<glyph glyph-name="uhungarumlaut" unicode="&#x171;" horiz-adv-x="1020" d="M978 91 L978 0 L743 0 L742 165 Q621 -29 420 -29 Q178 -29 178 263 L178 854 L36 854 L36 945 L286 945 L286 299 Q286 171 322 118.5 Q358 66 446 66 Q612 66 728 272 L728 854 L586 854 L586 945 L836 945 L836 91 L978 91 Z M288 1110 L439 1458 L564 1458 L356 1110 L288 1110 Z M522 1110 L694 1458 L820 1458 L592 1110 L522 1110 Z " />
<glyph glyph-name="Uogonek" unicode="&#x172;" horiz-adv-x="1311" d="M710 -27 Q672 -29 652 -29 Q383 -29 282 168 Q242 245 228.5 336 Q215 427 215 616 L215 1381 L72 1381 L72 1475 L471 1475 L471 1381 L326 1381 L326 555 Q326 291 406 180 Q484 73 655 73 Q854 73 928 216 Q985 325 985 549 L985 1381 L840 1381 L840 1475 L1239 1475 L1239 1381 L1096 1381 L1096 613 Q1096 358 1059 243 Q1022 126 923 50 Q884 22 853 8 Q759 -67 720.5 -122 Q682 -177 682 -237 Q682 -285 704 -306 Q726 -327 776 -327 L849 -327 L849 -416 L787 -416 Q579 -416 579 -253 Q581 -144 710 -27 Z " />
<glyph glyph-name="uogonek" unicode="&#x173;" horiz-adv-x="1020" d="M875 0 L743 0 L742 165 Q621 -29 420 -29 Q178 -29 178 263 L178 854 L36 854 L36 945 L286 945 L286 299 Q286 171 322 118.5 Q358 66 446 66 Q612 66 728 272 L728 854 L586 854 L586 945 L836 945 L836 91 L978 91 L978 0 Q884 -75 845.5 -130 Q807 -185 807 -245 Q807 -293 829 -314 Q851 -335 901 -335 L974 -335 L974 -424 L912 -424 Q704 -424 704 -261 Q704 -197 743.5 -137 Q783 -77 875 0 Z " />
<glyph glyph-name="Wcircumflex" unicode="&#x174;" horiz-adv-x="1627" d="M1605 1381 L1491 1381 L1219 -10 L1117 -10 L864 1060 Q850 1120 832 1242 Q826 1282 822 1305 Q797 1144 777 1061 L515 -10 L413 -10 L153 1381 L30 1381 L30 1475 L427 1475 L427 1381 L266 1381 L442 338 Q460 231 467 178 L474 221 Q487 297 497 338 L777 1490 L869 1490 L1136 338 Q1152 269 1167 183 Q1171 212 1185 276 Q1193 315 1197 338 L1380 1381 L1219 1381 L1219 1475 L1605 1475 L1605 1381 Z M828 1883 L636 1640 L544 1640 L756 1970 L893 1970 L1107 1640 L1015 1640 L828 1883 Z " />
<glyph glyph-name="wcircumflex" unicode="&#x175;" horiz-adv-x="1276" d="M434 0 L308 0 L99 854 L4 854 L4 945 L369 945 L369 854 L205 854 L309 380 Q316 348 335 256 Q355 158 368 105 L373 105 L442 380 L585 943 L692 943 L823 426 Q830 399 844 345 Q883 191 901 106 L906 106 Q926 210 974 426 L1068 854 L933 854 L933 945 L1283 945 L1283 854 L1172 854 L963 0 L838 0 L704 529 Q677 635 642 793 L636 793 Q629 764 601 660 Q577 572 567 531 L434 0 Z M638 1353 L446 1110 L354 1110 L566 1440 L703 1440 L917 1110 L825 1110 L638 1353 Z " />
<glyph glyph-name="Ycircumflex" unicode="&#x176;" horiz-adv-x="1117" d="M615 643 L615 94 L791 94 L791 0 L327 0 L327 94 L504 94 L504 650 L133 1381 L-14 1381 L-14 1475 L429 1475 L429 1381 L252 1381 L560 749 L872 1381 L706 1381 L706 1475 L1136 1475 L1136 1381 L988 1381 L615 643 Z M568 1883 L376 1640 L284 1640 L496 1970 L633 1970 L847 1640 L755 1640 L568 1883 Z " />
<glyph glyph-name="ycircumflex" unicode="&#x177;" horiz-adv-x="877" d="M887 854 L782 854 L421 -201 Q373 -341 304 -385 Q246 -421 122 -422 L122 -328 Q218 -326 258.5 -297 Q299 -268 326 -183 L386 3 L86 854 L-19 854 L-19 945 L369 945 L369 854 L198 854 L365 337 Q384 276 415 185 Q428 149 434 130 L441 130 Q454 177 493 297 L504 331 L673 854 L497 854 L497 945 L887 945 L887 854 Z M435 1353 L243 1110 L151 1110 L363 1440 L500 1440 L714 1110 L622 1110 L435 1353 Z " />
<glyph glyph-name="Zacute" unicode="&#x179;" horiz-adv-x="1076" d="M965 379 L965 0 L105 0 L105 93 L835 1381 L231 1381 L231 1103 L137 1103 L137 1475 L967 1475 L967 1406 L230 94 L871 94 L871 379 L965 379 Z M472 1640 L644 1988 L787 1988 L559 1640 L472 1640 Z " />
<glyph glyph-name="zacute" unicode="&#x17a;" horiz-adv-x="839" d="M755 275 L755 0 L90 0 L90 84 L625 856 L212 856 L212 673 L112 673 L112 945 L750 945 L750 870 L214 91 L655 91 L655 275 L755 275 Z M343 1110 L515 1458 L658 1458 L430 1110 L343 1110 Z " />
<glyph glyph-name="Zdotaccent" unicode="&#x17b;" horiz-adv-x="1076" d="M965 379 L965 0 L105 0 L105 93 L835 1381 L231 1381 L231 1103 L137 1103 L137 1475 L967 1475 L967 1406 L230 94 L871 94 L871 379 L965 379 Z M487 1862 L629 1862 L629 1714 L487 1714 L487 1862 Z " />
<glyph glyph-name="zdotaccent" unicode="&#x17c;" horiz-adv-x="839" d="M755 275 L755 0 L90 0 L90 84 L625 856 L212 856 L212 673 L112 673 L112 945 L750 945 L750 870 L214 91 L655 91 L655 275 L755 275 Z M358 1332 L500 1332 L500 1184 L358 1184 L358 1332 Z " />
<glyph glyph-name="Zcaron" unicode="&#x17d;" horiz-adv-x="1076" d="M965 379 L965 0 L105 0 L105 93 L835 1381 L231 1381 L231 1103 L137 1103 L137 1475 L967 1475 L967 1406 L230 94 L871 94 L871 379 L965 379 Z M840 1946 L626 1616 L489 1616 L277 1946 L369 1946 L561 1703 L748 1946 L840 1946 Z " />
<glyph glyph-name="zcaron" unicode="&#x17e;" horiz-adv-x="839" d="M755 275 L755 0 L90 0 L90 84 L625 856 L212 856 L212 673 L112 673 L112 945 L750 945 L750 870 L214 91 L655 91 L655 275 L755 275 Z M711 1416 L497 1086 L360 1086 L148 1416 L240 1416 L432 1173 L619 1416 L711 1416 Z " />
<glyph glyph-name="uni018F" unicode="&#x18f;" horiz-adv-x="1264" d="M605 1498 Q888 1498 1029 1274 Q1152 1077 1152 726 Q1152 333 997 139 Q861 -31 616 -31 Q358 -31 232 157 Q124 318 124 605 Q124 688 133 781 L1041 781 Q1035 1091 908 1253 Q796 1396 611 1396 Q411 1396 234 1246 L181 1332 Q360 1498 605 1498 Z M621 72 Q831 72 942 253 Q1039 412 1041 685 L241 685 Q237 636 237 587 Q237 329 350 192 Q450 72 621 72 Z " />
<glyph glyph-name="uni01CD" unicode="&#x1cd;" horiz-adv-x="1249" d="M1224 94 L1224 0 L835 0 L835 94 L995 94 L896 448 L348 448 L244 94 L410 94 L410 0 L31 0 L31 94 L130 94 L561 1475 L698 1475 L1114 94 L1224 94 Z M379 542 L865 542 L628 1361 L623 1361 L379 542 Z M910 1946 L696 1616 L559 1616 L347 1946 L439 1946 L631 1703 L818 1946 L910 1946 Z " />
<glyph glyph-name="uni01CE" unicode="&#x1ce;" horiz-adv-x="931" d="M895 91 L895 0 L669 0 L669 138 Q600 -29 384 -29 Q229 -29 152 58 Q85 134 85 267 Q85 548 429 548 L654 548 L654 654 Q654 778 608.5 828 Q563 878 450 878 Q348 878 303.5 838 Q259 798 253 699 L147 699 Q164 974 449 974 Q620 974 693 889 Q755 815 755 668 L755 91 L895 91 Z M623 176 Q654 227 654 347 L654 459 L420 459 Q300 459 246 409 Q197 364 197 271 Q197 66 397 66 Q555 66 623 176 Z M734 1416 L520 1086 L383 1086 L171 1416 L263 1416 L455 1173 L642 1416 L734 1416 Z " />
<glyph glyph-name="uni01D3" unicode="&#x1d3;" horiz-adv-x="1311" d="M652 -29 Q383 -29 282 168 Q242 245 228.5 336 Q215 427 215 616 L215 1381 L72 1381 L72 1475 L471 1475 L471 1381 L326 1381 L326 555 Q326 291 406 180 Q484 73 655 73 Q854 73 928 216 Q985 325 985 549 L985 1381 L840 1381 L840 1475 L1239 1475 L1239 1381 L1096 1381 L1096 613 Q1096 358 1059 243 Q1022 126 923 50 Q821 -29 652 -29 Z M945 1946 L731 1616 L594 1616 L382 1946 L474 1946 L666 1703 L853 1946 L945 1946 Z " />
<glyph glyph-name="uni01D4" unicode="&#x1d4;" horiz-adv-x="1020" d="M978 91 L978 0 L743 0 L742 165 Q621 -29 420 -29 Q178 -29 178 263 L178 854 L36 854 L36 945 L286 945 L286 299 Q286 171 322 118.5 Q358 66 446 66 Q612 66 728 272 L728 854 L586 854 L586 945 L836 945 L836 91 L978 91 Z M769 1416 L555 1086 L418 1086 L206 1416 L298 1416 L490 1173 L677 1416 L769 1416 Z " />
<glyph glyph-name="uni01DD" unicode="&#x1dd;" horiz-adv-x="889" d="M413 974 Q617 974 716 829 Q801 704 801 480 Q801 -29 430 -29 Q90 -29 90 450 Q90 484 92 519 L693 519 Q687 705 607 797 Q536 878 412 878 Q286 878 180 800 L129 880 Q249 974 413 974 Z M432 66 Q566 66 634 172 Q693 265 693 426 L693 429 L199 429 Q196 241 263 149 Q322 66 432 66 Z " />
<glyph glyph-name="Gcaron" unicode="&#x1e6;" horiz-adv-x="1249" d="M982 154 L982 604 L597 604 L597 698 L1087 698 L1087 92 Q957 22 865 -4.5 Q773 -31 662 -31 Q363 -31 227 173 Q106 355 106 709 Q106 1133 262 1333 Q397 1504 641 1504 Q875 1504 954 1351 L957 1475 L1047 1475 L1047 1069 L953 1069 Q953 1402 648 1402 Q423 1402 314 1203 Q219 1028 219 708 Q219 357 344 202 Q452 67 666 67 Q821 67 982 154 Z M914 1946 L700 1616 L563 1616 L351 1946 L443 1946 L635 1703 L822 1946 L914 1946 Z " />
<glyph glyph-name="gcaron" unicode="&#x1e7;" horiz-adv-x="1007" d="M974 945 L974 854 L832 854 L832 -22 Q832 -271 744 -367 Q664 -454 482 -454 Q305 -454 227 -375 Q158 -306 152 -164 L255 -164 Q261 -272 314 -316.5 Q367 -361 487 -361 Q630 -361 685 -278 Q734 -204 734 -34 L734 146 Q694 64 620 17.5 Q546 -29 455 -29 Q274 -29 178 121 Q94 252 94 473 Q94 725 203 859 Q297 974 454 974 Q667 974 743 778 L743 945 L974 945 Z M469 66 Q604 66 674 186 Q734 291 734 472 Q734 680 655 786 Q585 879 465 879 Q333 879 265 759 Q206 654 206 475 Q206 268 285 160 Q353 66 469 66 Z M770 1416 L556 1086 L419 1086 L207 1416 L299 1416 L491 1173 L678 1416 L770 1416 Z " />
<glyph glyph-name="uni01F4" unicode="&#x1f4;" horiz-adv-x="1249" d="M982 154 L982 604 L597 604 L597 698 L1087 698 L1087 92 Q957 22 865 -4.5 Q773 -31 662 -31 Q363 -31 227 173 Q106 355 106 709 Q106 1133 262 1333 Q397 1504 641 1504 Q875 1504 954 1351 L957 1475 L1047 1475 L1047 1069 L953 1069 Q953 1402 648 1402 Q423 1402 314 1203 Q219 1028 219 708 Q219 357 344 202 Q452 67 666 67 Q821 67 982 154 Z M546 1640 L718 1988 L861 1988 L633 1640 L546 1640 Z " />
<glyph glyph-name="uni01F5" unicode="&#x1f5;" horiz-adv-x="1007" d="M974 945 L974 854 L832 854 L832 -22 Q832 -271 744 -367 Q664 -454 482 -454 Q305 -454 227 -375 Q158 -306 152 -164 L255 -164 Q261 -272 314 -316.5 Q367 -361 487 -361 Q630 -361 685 -278 Q734 -204 734 -34 L734 146 Q694 64 620 17.5 Q546 -29 455 -29 Q274 -29 178 121 Q94 252 94 473 Q94 725 203 859 Q297 974 454 974 Q667 974 743 778 L743 945 L974 945 Z M469 66 Q604 66 674 186 Q734 291 734 472 Q734 680 655 786 Q585 879 465 879 Q333 879 265 759 Q206 654 206 475 Q206 268 285 160 Q353 66 469 66 Z M402 1110 L574 1458 L717 1458 L489 1110 L402 1110 Z " />
<glyph glyph-name="Scommaaccent" unicode="&#x218;" horiz-adv-x="1109" d="M635 809 Q829 770 913 660 Q989 561 989 391 Q989 175 866 67 Q759 -28 570 -28 Q323 -28 233 141 L233 0 L140 0 L140 425 L235 425 Q235 245 334 152 Q421 71 569 71 Q728 71 807 163 Q877 244 877 386 Q877 531 801 609 Q735 679 600 708 L472 736 Q300 774 222 880 Q153 974 153 1128 Q153 1324 266 1420 Q364 1504 538 1504 Q737 1504 816 1350 L816 1475 L909 1475 L909 1120 L814 1120 Q814 1405 541 1405 Q399 1405 327 1325 Q264 1254 264 1130 Q264 883 510 834 L635 809 Z M539 -124 L681 -124 L450 -472 L365 -472 L539 -124 Z " />
<glyph glyph-name="scommaaccent" unicode="&#x219;" horiz-adv-x="833" d="M499 520 Q640 497 701 426 Q756 362 756 250 Q756 -29 453 -29 Q267 -29 192 104 L192 0 L108 0 L108 271 L205 271 Q224 164 282.5 114 Q341 64 448 64 Q651 64 651 242 Q651 328 610 370.5 Q569 413 471 428 L387 441 Q114 484 114 709 Q114 844 198 914 Q272 974 397 974 Q561 974 610 849 L610 945 L694 945 L694 698 L600 698 Q600 882 409 882 Q217 882 217 709 Q217 565 418 533 L499 520 Z M389 -124 L531 -124 L300 -472 L215 -472 L389 -124 Z " />
<glyph glyph-name="uni021A" unicode="&#x21a;" horiz-adv-x="1155" d="M1095 1475 L1095 1103 L999 1103 L999 1381 L633 1381 L633 94 L807 94 L807 0 L348 0 L348 94 L522 94 L522 1381 L156 1381 L156 1103 L60 1103 L60 1475 L1095 1475 Z M538 -124 L680 -124 L449 -472 L364 -472 L538 -124 Z " />
<glyph glyph-name="uni021B" unicode="&#x21b;" horiz-adv-x="576" d="M405 -11 Q273 -11 224 51 Q183 104 183 224 L183 854 L56 854 L56 945 L183 945 L183 1313 L289 1313 L289 945 L515 945 L515 854 L289 854 L289 247 Q289 152 317.5 118 Q346 84 424 84 Q460 84 534 88 L534 -2 Q471 -11 405 -11 Z M291 -124 L433 -124 L202 -472 L117 -472 L291 -124 Z " />
<glyph glyph-name="uni0226" unicode="&#x226;" horiz-adv-x="1249" d="M1224 94 L1224 0 L835 0 L835 94 L995 94 L896 448 L348 448 L244 94 L410 94 L410 0 L31 0 L31 94 L130 94 L561 1475 L698 1475 L1114 94 L1224 94 Z M379 542 L865 542 L628 1361 L623 1361 L379 542 Z M557 1862 L699 1862 L699 1714 L557 1714 L557 1862 Z " />
<glyph glyph-name="uni0227" unicode="&#x227;" horiz-adv-x="931" d="M895 91 L895 0 L669 0 L669 138 Q600 -29 384 -29 Q229 -29 152 58 Q85 134 85 267 Q85 548 429 548 L654 548 L654 654 Q654 778 608.5 828 Q563 878 450 878 Q348 878 303.5 838 Q259 798 253 699 L147 699 Q164 974 449 974 Q620 974 693 889 Q755 815 755 668 L755 91 L895 91 Z M623 176 Q654 227 654 347 L654 459 L420 459 Q300 459 246 409 Q197 364 197 271 Q197 66 397 66 Q555 66 623 176 Z M381 1332 L523 1332 L523 1184 L381 1184 L381 1332 Z " />
<glyph glyph-name="uni0237" unicode="&#x237;" horiz-adv-x="474" d="M60 -328 Q147 -324 178.5 -287 Q210 -250 210 -150 L210 854 L64 854 L64 945 L316 945 L316 -153 Q316 -293 257 -356 Q196 -422 60 -422 L60 -328 Z " />
<glyph glyph-name="uni0259" unicode="&#x259;" horiz-adv-x="889" d="M413 974 Q617 974 716 829 Q801 704 801 480 Q801 -29 430 -29 Q90 -29 90 450 Q90 484 92 519 L693 519 Q687 705 607 797 Q536 878 412 878 Q286 878 180 800 L129 880 Q249 974 413 974 Z M432 66 Q566 66 634 172 Q693 265 693 426 L693 429 L199 429 Q196 241 263 149 Q322 66 432 66 Z " />
<glyph glyph-name="uni02C9" unicode="&#x2c9;" horiz-adv-x="800" d="M162 1196 L162 1305 L638 1305 L638 1196 L162 1196 Z " />
<glyph glyph-name="uni0312" unicode="&#x312;" horiz-adv-x="600" d="M474 1457 L300 1109 L158 1109 L389 1457 L474 1457 Z " />
<glyph glyph-name="uni0313" unicode="&#x313;" horiz-adv-x="600" d="M159 1105 L223 1495 L345 1495 L236 1105 L159 1105 Z " />
<glyph glyph-name="uni031B" unicode="&#x31b;" horiz-adv-x="600" d="M159 1105 L223 1495 L345 1495 L236 1105 L159 1105 Z " />
<glyph glyph-name="commaaccent" unicode="&#x326;" horiz-adv-x="800" d="M416 -124 L558 -124 L327 -472 L242 -472 L416 -124 Z " />
<glyph glyph-name="uni037E" unicode="&#x37e;" horiz-adv-x="600" d="M185 630 L185 800 L341 800 L341 630 L185 630 Z M93 -258 L199 162 L346 162 L203 -258 L93 -258 Z " />
<glyph glyph-name="uni0387" unicode="&#x387;" horiz-adv-x="574" d="M216 460 L216 622 L364 622 L364 460 L216 460 Z " />
<glyph glyph-name="uni0400" unicode="&#x400;" horiz-adv-x="1150" d="M1015 371 L1015 0 L111 0 L111 94 L256 94 L256 1381 L111 1381 L111 1475 L991 1475 L991 1139 L896 1139 L896 1381 L367 1381 L367 811 L829 811 L829 717 L367 717 L367 94 L920 94 L920 371 L1015 371 Z M368 1988 L510 1988 L682 1640 L596 1640 L368 1988 Z " />
<glyph glyph-name="afii10023" unicode="&#x401;" horiz-adv-x="1150" d="M1015 371 L1015 0 L111 0 L111 94 L256 94 L256 1381 L111 1381 L111 1475 L991 1475 L991 1139 L896 1139 L896 1381 L367 1381 L367 811 L829 811 L829 717 L367 717 L367 94 L920 94 L920 371 L1015 371 Z M370 1706 L370 1859 L507 1859 L507 1706 L370 1706 Z M704 1706 L704 1859 L841 1859 L841 1706 L704 1706 Z " />
<glyph glyph-name="afii10051" unicode="&#x402;" horiz-adv-x="1453" d="M937 892 Q1144 892 1223 771 Q1286 674 1286 467 L1286 -81 Q1286 -240 1225 -312 Q1164 -383 1031 -390 L1031 -293 Q1111 -289 1144.5 -242 Q1178 -195 1178 -88 L1178 472 Q1178 650 1129 713 Q1071 789 914 789 Q746 789 591 626 L591 94 L743 94 L743 0 L306 0 L306 94 L480 94 L480 1381 L153 1381 L153 1103 L58 1103 L58 1475 L1053 1475 L1053 1103 L958 1103 L958 1381 L591 1381 L591 745 Q683 826 761 859 Q839 892 937 892 Z " />
<glyph glyph-name="afii10052" unicode="&#x403;" horiz-adv-x="1062" d="M989 1475 L989 1119 L894 1119 L894 1381 L367 1381 L367 94 L583 94 L583 0 L111 0 L111 94 L256 94 L256 1381 L111 1381 L111 1475 L989 1475 Z M500 1640 L672 1988 L815 1988 L587 1640 L500 1640 Z " />
<glyph glyph-name="afii10053" unicode="&#x404;" horiz-adv-x="1148" d="M1038 115 Q879 -31 637 -31 Q107 -31 107 713 Q107 1121 261 1327 Q393 1503 621 1503 Q826 1503 912 1348 L913 1475 L1006 1475 L1006 1054 L913 1054 Q913 1228 827 1321 Q753 1401 631 1401 Q435 1401 327 1225 Q232 1069 221 795 L867 795 L867 701 L219 701 Q226 72 652 72 Q833 72 976 199 L1038 115 Z " />
<glyph glyph-name="afii10054" unicode="&#x405;" horiz-adv-x="1109" d="M635 809 Q829 770 913 660 Q989 561 989 391 Q989 175 866 67 Q759 -28 570 -28 Q323 -28 233 141 L233 0 L140 0 L140 425 L235 425 Q235 245 334 152 Q421 71 569 71 Q728 71 807 163 Q877 244 877 386 Q877 531 801 609 Q735 679 600 708 L472 736 Q300 774 222 880 Q153 974 153 1128 Q153 1324 266 1420 Q364 1504 538 1504 Q737 1504 816 1350 L816 1475 L909 1475 L909 1120 L814 1120 Q814 1405 541 1405 Q399 1405 327 1325 Q264 1254 264 1130 Q264 883 510 834 L635 809 Z " />
<glyph glyph-name="afii10055" unicode="&#x406;" horiz-adv-x="623" d="M512 94 L512 0 L111 0 L111 94 L256 94 L256 1381 L111 1381 L111 1475 L512 1475 L512 1381 L367 1381 L367 94 L512 94 Z " />
<glyph glyph-name="afii10056" unicode="&#x407;" horiz-adv-x="623" d="M512 94 L512 0 L111 0 L111 94 L256 94 L256 1381 L111 1381 L111 1475 L512 1475 L512 1381 L367 1381 L367 94 L512 94 Z M95 1706 L95 1859 L232 1859 L232 1706 L95 1706 Z M379 1706 L379 1859 L516 1859 L516 1706 L379 1706 Z " />
<glyph glyph-name="afii10057" unicode="&#x408;" horiz-adv-x="605" d="M513 1381 L371 1381 L371 50 Q371 -109 309 -181 Q247 -252 113 -259 L113 -162 Q193 -158 226.5 -111 Q260 -64 260 43 L260 1381 L114 1381 L114 1475 L513 1475 L513 1381 Z " />
<glyph glyph-name="afii10058" unicode="&#x409;" horiz-adv-x="1916" d="M960 1381 L483 1381 L483 1284 Q483 947 458 657.5 Q433 368 392 240 Q352 114 286 57 Q220 0 113 0 L54 0 L54 101 L95 101 Q190 101 240 178 Q309 286 339 561 Q372 870 372 1267 L372 1381 L207 1381 L207 1475 L1217 1475 L1217 1381 L1071 1381 L1071 860 L1301 860 Q1576 860 1702 747 Q1821 641 1821 427 Q1821 188 1666 84 Q1539 0 1301 0 L813 0 L813 94 L960 94 L960 1381 Z M1071 94 L1314 94 Q1530 94 1625 187 Q1708 268 1708 427 Q1708 617 1591 699 Q1495 766 1316 766 L1071 766 L1071 94 Z " />
<glyph glyph-name="afii10059" unicode="&#x40a;" horiz-adv-x="1960" d="M1356 824 Q1631 824 1756 708 Q1865 606 1865 409 Q1865 186 1723 87 Q1599 0 1356 0 L856 0 L856 94 L1003 94 L1003 730 L367 730 L367 94 L515 94 L515 0 L111 0 L111 94 L256 94 L256 1381 L111 1381 L111 1475 L515 1475 L515 1381 L367 1381 L367 824 L1003 824 L1003 1381 L856 1381 L856 1475 L1260 1475 L1260 1381 L1114 1381 L1114 824 L1356 824 Z M1369 94 Q1579 94 1671 180 Q1752 256 1752 407 Q1752 730 1371 730 L1114 730 L1114 94 L1369 94 Z " />
<glyph glyph-name="afii10060" unicode="&#x40b;" horiz-adv-x="1539" d="M1452 94 L1452 0 L1039 0 L1039 94 L1187 94 L1187 472 Q1187 653 1144 713 Q1091 789 938 789 Q755 789 591 625 L591 94 L743 94 L743 0 L306 0 L306 94 L480 94 L480 1381 L153 1381 L153 1103 L58 1103 L58 1475 L1053 1475 L1053 1103 L958 1103 L958 1381 L591 1381 L591 744 Q686 824 771.5 858 Q857 892 961 892 Q1164 892 1237 771 Q1295 676 1295 467 L1295 94 L1452 94 Z " />
<glyph glyph-name="afii10061" unicode="&#x40c;" horiz-adv-x="1282" d="M1233 94 L1233 0 L999 0 L746 552 Q695 664 655 697 Q610 735 524 735 L369 735 L369 94 L517 94 L517 0 L111 0 L111 94 L258 94 L258 1381 L111 1381 L111 1475 L517 1475 L517 1381 L369 1381 L369 829 L576 829 L942 1381 L774 1381 L774 1475 L1177 1475 L1177 1381 L1062 1381 L682 807 Q728 784 763.5 737 Q799 690 848 586 L1080 94 L1233 94 Z M550 1640 L722 1988 L865 1988 L637 1640 L550 1640 Z " />
<glyph glyph-name="uni040D" unicode="&#x40d;" horiz-adv-x="1407" d="M255 94 L255 1381 L111 1381 L111 1475 L506 1475 L506 1381 L359 1381 L359 359 L356 113 Q401 229 465 359 L1013 1475 L1296 1475 L1296 1381 L1152 1381 L1152 94 L1296 94 L1296 0 L901 0 L901 94 L1048 94 L1048 1108 L1052 1369 Q1004 1242 938 1108 L395 0 L111 0 L111 94 L255 94 Z M469 1988 L611 1988 L783 1640 L697 1640 L469 1988 Z " />
<glyph glyph-name="afii10062" unicode="&#x40e;" horiz-adv-x="1159" d="M1172 1381 L1061 1381 L471 0 L236 0 L236 94 L400 94 L543 431 L145 1381 L34 1381 L34 1475 L435 1475 L435 1381 L267 1381 L601 548 L942 1381 L770 1381 L770 1475 L1172 1475 L1172 1381 Z M392 1938 Q401 1849 447.5 1810.5 Q494 1772 594 1772 Q697 1772 743.5 1810 Q790 1848 797 1938 L882 1938 Q882 1794 805 1732 Q736 1678 595 1678 Q436 1678 369 1749 Q312 1810 307 1938 L392 1938 Z " />
<glyph glyph-name="afii10145" unicode="&#x40f;" horiz-adv-x="1326" d="M1070 1381 L1070 94 L1215 94 L1215 0 L727 0 L702 -360 L624 -360 L599 0 L111 0 L111 94 L256 94 L256 1381 L111 1381 L111 1475 L511 1475 L511 1381 L367 1381 L367 94 L959 94 L959 1381 L815 1381 L815 1475 L1215 1475 L1215 1381 L1070 1381 Z " />
<glyph glyph-name="afii10017" unicode="&#x410;" horiz-adv-x="1249" d="M1224 94 L1224 0 L835 0 L835 94 L995 94 L896 448 L348 448 L244 94 L410 94 L410 0 L31 0 L31 94 L130 94 L561 1475 L698 1475 L1114 94 L1224 94 Z M379 542 L865 542 L628 1361 L623 1361 L379 542 Z " />
<glyph glyph-name="afii10018" unicode="&#x411;" horiz-adv-x="1207" d="M621 848 Q858 848 978 723 Q1085 611 1085 413 Q1085 0 625 0 L111 0 L111 94 L255 94 L255 1381 L111 1381 L111 1475 L992 1475 L992 1119 L897 1119 L897 1381 L366 1381 L366 848 L621 848 Z M624 94 Q972 94 972 410 Q972 601 869 683 Q781 754 610 754 L366 754 L366 94 L624 94 Z " />
<glyph glyph-name="afii10019" unicode="&#x412;" horiz-adv-x="1186" d="M804 786 Q1072 700 1072 406 Q1072 204 947 98 Q830 0 618 0 L111 0 L111 94 L246 94 L246 1381 L111 1381 L111 1475 L534 1475 Q993 1475 993 1102 Q993 864 804 786 Z M356 1381 L356 829 L592 829 Q752 829 821 901 Q882 964 882 1090 Q882 1249 792 1319 Q712 1381 556 1381 L356 1381 Z M599 94 Q959 94 959 407 Q959 735 600 735 L356 735 L356 94 L599 94 Z " />
<glyph glyph-name="afii10020" unicode="&#x413;" horiz-adv-x="1062" d="M989 1475 L989 1119 L894 1119 L894 1381 L367 1381 L367 94 L583 94 L583 0 L111 0 L111 94 L256 94 L256 1381 L111 1381 L111 1475 L989 1475 Z " />
<glyph glyph-name="afii10021" unicode="&#x414;" horiz-adv-x="1352" d="M1136 0 L186 0 L161 -360 L72 -360 L72 94 L226 94 Q293 224 336 513 Q378 800 378 1264 L378 1381 L231 1381 L231 1475 L1230 1475 L1230 1381 L1083 1381 L1083 94 L1251 94 L1251 -360 L1163 -360 L1136 0 Z M972 94 L972 1381 L489 1381 L489 1227 Q489 802 441 481 Q405 252 345 94 L972 94 Z " />
<glyph glyph-name="afii10022" unicode="&#x415;" horiz-adv-x="1150" d="M1015 371 L1015 0 L111 0 L111 94 L256 94 L256 1381 L111 1381 L111 1475 L991 1475 L991 1139 L896 1139 L896 1381 L367 1381 L367 811 L829 811 L829 717 L367 717 L367 94 L920 94 L920 371 L1015 371 Z " />
<glyph glyph-name="afii10024" unicode="&#x416;" horiz-adv-x="1878" d="M1829 94 L1829 0 L1594 0 L1361 552 Q1315 661 1270 697 Q1223 735 1139 735 L994 735 L994 94 L1142 94 L1142 0 L737 0 L737 94 L884 94 L884 735 L739 735 Q654 735 608.5 697.5 Q563 660 517 552 L284 0 L49 0 L49 94 L201 94 L414 586 Q493 770 578 812 L220 1381 L105 1381 L105 1475 L508 1475 L508 1381 L339 1381 L687 829 L884 829 L884 1381 L737 1381 L737 1475 L1142 1475 L1142 1381 L994 1381 L994 829 L1191 829 L1539 1381 L1370 1381 L1370 1475 L1773 1475 L1773 1381 L1658 1381 L1300 812 Q1385 770 1464 586 L1677 94 L1829 94 Z " />
<glyph glyph-name="afii10025" unicode="&#x417;" horiz-adv-x="1101" d="M747 785 Q992 700 992 419 Q992 195 840 75 Q708 -28 491 -28 Q242 -28 91 121 L151 197 Q286 73 497 73 Q687 73 789 176 Q878 266 878 417 Q878 725 502 725 L321 725 L321 819 L482 819 Q685 819 766 904 Q833 973 833 1117 Q833 1252 749 1330 Q673 1400 551 1400 Q272 1400 243 1083 L150 1083 L150 1475 L240 1475 L240 1316 Q322 1502 557 1502 Q747 1502 853 1387 Q945 1288 945 1132 Q945 865 747 785 Z " />
<glyph glyph-name="afii10026" unicode="&#x418;" horiz-adv-x="1407" d="M255 94 L255 1381 L111 1381 L111 1475 L506 1475 L506 1381 L359 1381 L359 359 L356 113 Q401 229 465 359 L1013 1475 L1296 1475 L1296 1381 L1152 1381 L1152 94 L1296 94 L1296 0 L901 0 L901 94 L1048 94 L1048 1108 L1052 1369 Q1004 1242 938 1108 L395 0 L111 0 L111 94 L255 94 Z " />
<glyph glyph-name="afii10027" unicode="&#x419;" horiz-adv-x="1407" d="M255 94 L255 1381 L111 1381 L111 1475 L506 1475 L506 1381 L359 1381 L359 359 L356 113 Q401 229 465 359 L1013 1475 L1296 1475 L1296 1381 L1152 1381 L1152 94 L1296 94 L1296 0 L901 0 L901 94 L1048 94 L1048 1108 L1052 1369 Q1004 1242 938 1108 L395 0 L111 0 L111 94 L255 94 Z M500 1938 Q509 1849 555.5 1810.5 Q602 1772 702 1772 Q805 1772 851.5 1810 Q898 1848 905 1938 L990 1938 Q990 1794 913 1732 Q844 1678 703 1678 Q544 1678 477 1749 Q420 1810 415 1938 L500 1938 Z " />
<glyph glyph-name="afii10028" unicode="&#x41a;" horiz-adv-x="1282" d="M1233 94 L1233 0 L999 0 L746 552 Q695 664 655 697 Q610 735 524 735 L369 735 L369 94 L517 94 L517 0 L111 0 L111 94 L258 94 L258 1381 L111 1381 L111 1475 L517 1475 L517 1381 L369 1381 L369 829 L576 829 L942 1381 L774 1381 L774 1475 L1177 1475 L1177 1381 L1062 1381 L682 807 Q728 784 763.5 737 Q799 690 848 586 L1080 94 L1233 94 Z " />
<glyph glyph-name="afii10029" unicode="&#x41b;" horiz-adv-x="1296" d="M207 1381 L207 1475 L1185 1475 L1185 1381 L1040 1381 L1040 94 L1185 94 L1185 0 L783 0 L783 94 L929 94 L929 1381 L483 1381 L483 1284 Q483 947 458 657.5 Q433 368 392 240 Q352 114 286 57 Q220 0 113 0 L54 0 L54 101 L95 101 Q190 101 240 178 Q309 286 339 561 Q372 870 372 1267 L372 1381 L207 1381 Z " />
<glyph glyph-name="afii10030" unicode="&#x41c;" horiz-adv-x="1664" d="M1580 94 L1580 0 L1202 0 L1202 94 L1327 94 L1283 1123 L1280 1329 Q1272 1303 1254 1234 Q1233 1153 1223 1123 L857 0 L808 0 L432 1123 Q420 1158 392 1258 Q379 1304 374 1322 L372 1123 L337 94 L462 94 L462 0 L84 0 L84 94 L226 94 L282 1381 L141 1381 L141 1475 L422 1475 L778 406 Q800 338 833 220 Q838 236 847 272 Q873 365 886 406 L1232 1475 L1523 1475 L1523 1381 L1373 1381 L1438 94 L1580 94 Z " />
<glyph glyph-name="afii10031" unicode="&#x41d;" horiz-adv-x="1370" d="M1114 1381 L1114 94 L1259 94 L1259 0 L855 0 L855 94 L1003 94 L1003 730 L367 730 L367 94 L515 94 L515 0 L111 0 L111 94 L256 94 L256 1381 L111 1381 L111 1475 L515 1475 L515 1381 L367 1381 L367 824 L1003 824 L1003 1381 L855 1381 L855 1475 L1259 1475 L1259 1381 L1114 1381 Z " />
<glyph glyph-name="afii10032" unicode="&#x41e;" horiz-adv-x="1261" d="M632 -29 Q357 -29 223 194 Q106 389 106 740 Q106 1139 260 1335 Q392 1506 627 1506 Q903 1506 1038 1282 Q1155 1087 1155 736 Q1155 335 1003 141 Q871 -29 632 -29 Z M632 73 Q846 73 951 269 Q1042 439 1042 740 Q1042 1083 921 1254 Q816 1404 631 1404 Q418 1404 312 1210 Q219 1040 219 742 Q219 398 341 225 Q447 73 632 73 Z " />
<glyph glyph-name="afii10033" unicode="&#x41f;" horiz-adv-x="1332" d="M1076 1381 L1076 94 L1221 94 L1221 0 L820 0 L820 94 L965 94 L965 1381 L367 1381 L367 94 L512 94 L512 0 L111 0 L111 94 L256 94 L256 1381 L111 1381 L111 1475 L1221 1475 L1221 1381 L1076 1381 Z " />
<glyph glyph-name="afii10034" unicode="&#x420;" horiz-adv-x="1141" d="M525 1475 Q800 1475 932 1346 Q1046 1235 1046 1036 Q1046 806 901 694 Q775 596 550 596 L357 596 L357 94 L530 94 L530 0 L111 0 L111 94 L246 94 L246 1381 L111 1381 L111 1475 L525 1475 Z M555 690 Q933 690 933 1030 Q933 1381 545 1381 L357 1381 L357 690 L555 690 Z " />
<glyph glyph-name="afii10035" unicode="&#x421;" horiz-adv-x="1144" d="M1036 115 Q877 -31 635 -31 Q107 -31 107 713 Q107 1122 260 1327 Q392 1503 619 1503 Q828 1503 912 1344 L913 1475 L1004 1475 L1004 1054 L911 1054 Q911 1228 825 1321 Q751 1401 629 1401 Q421 1401 315 1203 Q220 1028 220 721 Q220 72 650 72 Q831 72 974 199 L1036 115 Z " />
<glyph glyph-name="afii10036" unicode="&#x422;" horiz-adv-x="1155" d="M1095 1475 L1095 1103 L999 1103 L999 1381 L633 1381 L633 94 L807 94 L807 0 L348 0 L348 94 L522 94 L522 1381 L156 1381 L156 1103 L60 1103 L60 1475 L1095 1475 Z " />
<glyph glyph-name="afii10037" unicode="&#x423;" horiz-adv-x="1159" d="M1172 1381 L1061 1381 L471 0 L236 0 L236 94 L400 94 L543 431 L145 1381 L34 1381 L34 1475 L435 1475 L435 1381 L267 1381 L601 548 L942 1381 L770 1381 L770 1475 L1172 1475 L1172 1381 Z " />
<glyph glyph-name="afii10038" unicode="&#x424;" horiz-adv-x="1539" d="M1444 735 Q1444 444 1262 288 Q1103 150 823 134 L823 11 L970 11 L970 -82 L568 -82 L568 11 L716 11 L716 134 Q396 150 234 328 Q95 482 95 734 Q95 1027 284 1188 Q445 1324 716 1340 L716 1463 L568 1463 L568 1556 L970 1556 L970 1463 L823 1463 L823 1340 Q1142 1323 1304 1144 Q1444 989 1444 735 Z M1329 737 Q1329 1218 823 1242 L823 232 Q1329 262 1329 737 Z M210 737 Q210 494 353 365 Q481 251 716 234 L716 1241 Q457 1230 326 1084 Q210 956 210 737 Z " />
<glyph glyph-name="afii10039" unicode="&#x425;" horiz-adv-x="1214" d="M1183 94 L1183 0 L757 0 L757 94 L914 94 L613 671 L315 94 L476 94 L476 0 L40 0 L40 94 L196 94 L556 765 L226 1381 L87 1381 L87 1475 L497 1475 L497 1381 L346 1381 L618 856 L888 1381 L735 1381 L735 1475 L1131 1475 L1131 1381 L1005 1381 L675 766 L1033 94 L1183 94 Z " />
<glyph glyph-name="afii10040" unicode="&#x426;" horiz-adv-x="1321" d="M1119 0 L111 0 L111 94 L256 94 L256 1381 L111 1381 L111 1475 L511 1475 L511 1381 L367 1381 L367 94 L959 94 L959 1381 L815 1381 L815 1475 L1215 1475 L1215 1381 L1070 1381 L1070 94 L1233 94 L1233 -360 L1145 -360 L1119 0 Z " />
<glyph glyph-name="afii10041" unicode="&#x427;" horiz-adv-x="1253" d="M886 94 L886 667 Q792 606 712.5 582 Q633 558 528 558 Q328 558 252 670 Q185 769 185 995 L185 1381 L40 1381 L40 1475 L442 1475 L442 1381 L296 1381 L296 990 Q296 788 359 718 Q415 656 551 656 Q641 656 714 681.5 Q787 707 886 772 L886 1381 L740 1381 L740 1475 L1142 1475 L1142 1381 L997 1381 L997 94 L1142 94 L1142 0 L687 0 L687 94 L886 94 Z " />
<glyph glyph-name="afii10042" unicode="&#x428;" horiz-adv-x="1865" d="M1609 1381 L1609 94 L1754 94 L1754 0 L111 0 L111 94 L256 94 L256 1381 L111 1381 L111 1475 L512 1475 L512 1381 L367 1381 L367 94 L872 94 L872 1381 L727 1381 L727 1475 L1128 1475 L1128 1381 L983 1381 L983 94 L1498 94 L1498 1381 L1353 1381 L1353 1475 L1754 1475 L1754 1381 L1609 1381 Z " />
<glyph glyph-name="afii10043" unicode="&#x429;" horiz-adv-x="1862" d="M1688 0 L111 0 L111 94 L256 94 L256 1381 L111 1381 L111 1475 L512 1475 L512 1381 L367 1381 L367 94 L872 94 L872 1381 L727 1381 L727 1475 L1128 1475 L1128 1381 L983 1381 L983 94 L1498 94 L1498 1381 L1353 1381 L1353 1475 L1754 1475 L1754 1381 L1609 1381 L1609 94 L1802 94 L1802 -360 L1714 -360 L1688 0 Z " />
<glyph glyph-name="afii10044" unicode="&#x42a;" horiz-adv-x="1553" d="M597 1381 L150 1381 L150 1181 L54 1181 L54 1475 L854 1475 L854 1381 L708 1381 L708 860 L938 860 Q1213 860 1339 747 Q1458 641 1458 427 Q1458 188 1303 84 Q1176 0 938 0 L450 0 L450 94 L597 94 L597 1381 Z M708 94 L951 94 Q1167 94 1262 187 Q1345 268 1345 427 Q1345 617 1228 699 Q1132 766 953 766 L708 766 L708 94 Z " />
<glyph glyph-name="afii10045" unicode="&#x42b;" horiz-adv-x="1739" d="M258 94 L258 1381 L111 1381 L111 1475 L515 1475 L515 1381 L369 1381 L369 860 L599 860 Q874 860 1000 747 Q1119 641 1119 427 Q1119 188 964 84 Q837 0 599 0 L111 0 L111 94 L258 94 Z M369 94 L612 94 Q828 94 923 187 Q1006 268 1006 427 Q1006 617 889 699 Q793 766 614 766 L369 766 L369 94 Z M1628 94 L1628 0 L1227 0 L1227 94 L1372 94 L1372 1381 L1227 1381 L1227 1475 L1628 1475 L1628 1381 L1483 1381 L1483 94 L1628 94 Z " />
<glyph glyph-name="afii10046" unicode="&#x42c;" horiz-adv-x="1214" d="M258 94 L258 1381 L111 1381 L111 1475 L515 1475 L515 1381 L369 1381 L369 860 L599 860 Q874 860 1000 747 Q1119 641 1119 427 Q1119 188 964 84 Q837 0 599 0 L111 0 L111 94 L258 94 Z M369 94 L612 94 Q828 94 923 187 Q1006 268 1006 427 Q1006 617 889 699 Q793 766 614 766 L369 766 L369 94 Z " />
<glyph glyph-name="afii10047" unicode="&#x42d;" horiz-adv-x="1170" d="M546 1503 Q809 1503 933 1268 Q1036 1072 1036 728 Q1036 -31 517 -31 Q282 -31 125 97 L187 181 Q330 72 509 72 Q729 72 835 266 Q920 424 924 701 L276 701 L276 795 L923 795 Q911 1100 804 1256 Q705 1401 533 1401 Q382 1401 301 1296 Q230 1205 230 1055 L137 1055 L137 1475 L230 1475 L232 1332 Q315 1503 546 1503 Z " />
<glyph glyph-name="afii10048" unicode="&#x42e;" horiz-adv-x="1775" d="M1141 1506 Q1417 1506 1552 1282 Q1669 1087 1669 736 Q1669 335 1517 141 Q1385 -29 1146 -29 Q876 -29 743 188 Q626 377 622 718 L366 718 L366 94 L511 94 L511 0 L111 0 L111 94 L256 94 L256 1381 L111 1381 L111 1475 L511 1475 L511 1381 L366 1381 L366 812 L623 812 Q637 1174 788 1351 Q919 1506 1141 1506 Z M1146 73 Q1360 73 1465 269 Q1556 439 1556 740 Q1556 1083 1435 1254 Q1330 1404 1145 1404 Q932 1404 826 1210 Q733 1040 733 742 Q733 398 855 225 Q961 73 1146 73 Z " />
<glyph glyph-name="afii10049" unicode="&#x42f;" horiz-adv-x="1264" d="M1008 1381 L1008 94 L1153 94 L1153 0 L738 0 L738 94 L897 94 L897 669 L697 669 Q567 669 507 617 Q454 570 417 452 L275 0 L47 0 L47 94 L188 94 L314 496 Q361 648 451 700 Q204 768 204 1064 Q204 1290 346 1389 Q470 1475 716 1475 L1153 1475 L1153 1381 L1008 1381 Z M897 763 L897 1381 L697 1381 Q318 1381 318 1056 Q318 891 417 823 Q504 763 686 763 L897 763 Z " />
<glyph glyph-name="afii10065" unicode="&#x430;" horiz-adv-x="931" d="M895 91 L895 0 L669 0 L669 138 Q600 -29 384 -29 Q229 -29 152 58 Q85 134 85 267 Q85 548 429 548 L654 548 L654 654 Q654 778 608.5 828 Q563 878 450 878 Q348 878 303.5 838 Q259 798 253 699 L147 699 Q164 974 449 974 Q620 974 693 889 Q755 815 755 668 L755 91 L895 91 Z M623 176 Q654 227 654 347 L654 459 L420 459 Q300 459 246 409 Q197 364 197 271 Q197 66 397 66 Q555 66 623 176 Z " />
<glyph glyph-name="afii10066" unicode="&#x431;" horiz-adv-x="931" d="M500 963 Q844 963 844 462 Q844 221 737 91 Q639 -29 468 -29 Q261 -29 171 147 Q95 296 95 583 Q95 885 177 1075 Q246 1233 363 1293 Q423 1324 565 1351 Q632 1364 656.5 1389.5 Q681 1415 684 1476 L782 1476 Q780 1406 767.5 1369.5 Q755 1333 724 1307 Q675 1268 577 1251 Q427 1225 362 1167 Q303 1114 258 1006.5 Q213 899 200 779 Q286 963 500 963 Z M471 67 Q602 67 674 192 Q734 297 734 462 Q734 671 658 776 Q592 867 480 867 Q351 867 280 756 Q215 654 215 482 Q215 67 471 67 Z " />
<glyph glyph-name="afii10067" unicode="&#x432;" horiz-adv-x="964" d="M695 500 Q866 458 866 264 Q866 115 771 53 Q692 0 533 0 L77 0 L77 91 L219 91 L219 854 L77 854 L77 945 L517 945 Q686 945 760 880 Q828 822 828 703 Q828 550 695 500 Z M323 530 L532 530 Q642 530 686 578 Q721 617 721 695 Q721 780 670 817 Q619 854 503 854 L323 854 L323 530 Z M534 91 Q655 91 705 130 Q755 169 755 264 Q755 359 703 401.5 Q651 444 534 444 L323 444 L323 91 L534 91 Z " />
<glyph glyph-name="afii10068" unicode="&#x433;" horiz-adv-x="808" d="M77 91 L219 91 L219 854 L77 854 L77 945 L768 945 L768 648 L668 648 L668 854 L327 854 L327 91 L520 91 L520 0 L77 0 L77 91 Z " />
<glyph glyph-name="afii10069" unicode="&#x434;" horiz-adv-x="1008" d="M829 0 L152 0 L124 -265 L43 -265 L43 91 L146 91 Q217 165 253 378 Q281 546 281 760 L281 854 L145 854 L145 945 L933 945 L933 854 L791 854 L791 91 L938 91 L938 -265 L857 -265 L829 0 Z M685 91 L685 854 L383 854 L383 792 Q383 534 352 346 Q323 169 271 91 L685 91 Z " />
<glyph glyph-name="afii10070" unicode="&#x435;" horiz-adv-x="887" d="M458 974 Q646 974 730 825 Q802 696 799 448 L197 448 Q197 251 282 152 Q354 67 477 67 Q603 67 718 139 L769 59 Q644 -29 478 -29 Q272 -29 174 116 Q88 243 88 473 Q88 731 198 861 Q293 974 458 974 Z M455 879 Q331 879 264 778 Q205 691 198 538 L692 538 Q683 879 455 879 Z " />
<glyph glyph-name="afii10072" unicode="&#x436;" horiz-adv-x="1401" d="M1384 91 L1384 0 L1189 0 L981 364 L976 373 Q954 411 936 423.5 Q918 436 884 436 L749 436 L749 91 L883 91 L883 0 L518 0 L518 91 L652 91 L652 436 L517 436 Q482 436 464.5 423 Q447 410 420 364 L212 0 L17 0 L17 91 L142 91 L332 413 Q368 474 390 493 L153 854 L46 854 L46 945 L393 945 L393 857 L262 857 L480 522 L652 522 L652 854 L533 854 L533 945 L868 945 L868 854 L749 854 L749 522 L921 522 L1139 857 L1008 857 L1008 945 L1355 945 L1355 854 L1248 854 L1011 493 Q1033 474 1069 413 L1259 91 L1384 91 Z " />
<glyph glyph-name="afii10073" unicode="&#x437;" horiz-adv-x="834" d="M577 506 Q747 462 747 269 Q747 115 643 38 Q552 -29 390 -29 Q208 -29 65 77 L119 160 Q238 66 387 66 Q514 66 579 126 Q636 179 636 274 Q636 367 575.5 408 Q515 449 379 449 L275 449 L275 539 L373 539 Q606 539 606 707 Q606 788 553.5 834 Q501 880 407 880 Q299 880 250 825 Q210 780 200 686 L112 686 L112 945 L202 945 L202 854 Q243 972 406 972 Q563 972 645 897 Q715 832 715 723 Q715 563 577 506 Z " />
<glyph glyph-name="afii10074" unicode="&#x438;" horiz-adv-x="1099" d="M880 854 L880 91 L1022 91 L1022 0 L643 0 L643 91 L780 91 L780 818 L362 0 L77 0 L77 91 L219 91 L219 854 L77 854 L77 945 L456 945 L456 854 L319 854 L319 100 L749 945 L1022 945 L1022 854 L880 854 Z " />
<glyph glyph-name="afii10075" unicode="&#x439;" horiz-adv-x="1099" d="M880 854 L880 91 L1022 91 L1022 0 L643 0 L643 91 L780 91 L780 818 L362 0 L77 0 L77 91 L219 91 L219 854 L77 854 L77 945 L456 945 L456 854 L319 854 L319 100 L749 945 L1022 945 L1022 854 L880 854 Z M351 1408 Q360 1319 406.5 1280.5 Q453 1242 553 1242 Q656 1242 702.5 1280 Q749 1318 756 1408 L841 1408 Q841 1264 764 1202 Q695 1148 554 1148 Q395 1148 328 1219 Q271 1280 266 1408 L351 1408 Z " />
<glyph glyph-name="afii10076" unicode="&#x43a;" horiz-adv-x="996" d="M977 91 L977 0 L782 0 L572 368 Q545 414 527.5 427 Q510 440 475 440 L322 440 L322 91 L478 91 L478 0 L77 0 L77 91 L219 91 L219 854 L77 854 L77 945 L463 945 L463 854 L322 854 L322 526 L513 526 L732 857 L604 857 L604 945 L948 945 L948 854 L841 854 L602 497 Q624 478 660 417 L852 91 L977 91 Z " />
<glyph glyph-name="afii10077" unicode="&#x43b;" horiz-adv-x="993" d="M126 854 L126 945 L916 945 L916 854 L774 854 L774 91 L916 91 L916 0 L524 0 L524 91 L666 91 L666 854 L381 854 L381 756 Q381 363 309 184 Q269 83 207 39.5 Q145 -4 39 -6 L39 90 Q156 90 209 217 Q274 373 274 756 L274 854 L126 854 Z " />
<glyph glyph-name="afii10078" unicode="&#x43c;" horiz-adv-x="1268" d="M1204 91 L1204 0 L883 0 L883 91 L989 91 L976 831 L670 0 L607 0 L298 818 L285 91 L385 91 L385 0 L68 0 L68 91 L188 91 L207 855 L103 855 L103 946 L348 946 L639 169 L920 945 L1173 945 L1173 854 L1068 854 L1086 91 L1204 91 Z " />
<glyph glyph-name="afii10079" unicode="&#x43d;" horiz-adv-x="1097" d="M880 854 L880 91 L1020 91 L1020 0 L643 0 L643 91 L773 91 L773 444 L324 444 L324 91 L454 91 L454 0 L77 0 L77 91 L217 91 L217 854 L77 854 L77 945 L454 945 L454 854 L324 854 L324 530 L773 530 L773 854 L643 854 L643 945 L1020 945 L1020 854 L880 854 Z " />
<glyph glyph-name="afii10080" unicode="&#x43e;" horiz-adv-x="937" d="M469 -29 Q276 -29 175 120 Q88 249 88 470 Q88 725 202 858 Q301 974 468 974 Q660 974 761 823 Q849 692 849 469 Q849 215 736 85 Q637 -29 469 -29 Z M468 67 Q606 67 676 187 Q737 291 737 474 Q737 682 658 787 Q588 878 468 878 Q330 878 261 759 Q200 655 200 473 Q200 264 278 159 Q347 67 468 67 Z " />
<glyph glyph-name="afii10081" unicode="&#x43f;" horiz-adv-x="1061" d="M842 854 L842 91 L984 91 L984 0 L609 0 L609 91 L734 91 L734 854 L327 854 L327 91 L452 91 L452 0 L77 0 L77 91 L219 91 L219 854 L77 854 L77 945 L984 945 L984 854 L842 854 Z " />
<glyph glyph-name="afii10082" unicode="&#x440;" horiz-adv-x="1025" d="M569 974 Q752 974 849 823 Q935 690 935 467 Q935 215 826 84 Q731 -29 571 -29 Q378 -29 298 132 L298 -331 L502 -331 L502 -422 L54 -422 L54 -331 L196 -331 L196 854 L54 854 L54 945 L284 945 L284 776 Q320 877 400 928 Q471 974 569 974 Z M560 67 Q694 67 763 186 Q823 291 823 470 Q823 677 744 785 Q675 878 558 878 Q423 878 355 759 Q297 657 294 473 Q297 262 373 158 Q440 67 560 67 Z " />
<glyph glyph-name="afii10083" unicode="&#x441;" horiz-adv-x="876" d="M782 77 Q671 -29 493 -29 Q281 -29 177 116 Q88 241 88 464 Q88 731 206 862 Q304 972 470 972 Q631 972 681 853 L681 945 L770 945 L770 643 L674 643 Q674 721 652 772 Q627 829 585 853.5 Q543 878 469 878 Q338 878 267 766 Q200 660 200 472 Q200 66 500 66 Q618 66 723 154 L782 77 Z " />
<glyph glyph-name="afii10084" unicode="&#x442;" horiz-adv-x="902" d="M226 91 L398 91 L398 856 L155 856 L155 669 L57 669 L57 945 L845 945 L845 669 L747 669 L747 856 L506 856 L506 91 L678 91 L678 0 L226 0 L226 91 Z " />
<glyph glyph-name="afii10085" unicode="&#x443;" horiz-adv-x="877" d="M887 854 L782 854 L421 -201 Q373 -341 304 -385 Q246 -421 122 -422 L122 -328 Q218 -326 258.5 -297 Q299 -268 326 -183 L386 3 L86 854 L-19 854 L-19 945 L369 945 L369 854 L198 854 L365 337 Q384 276 415 185 Q428 149 434 130 L441 130 Q454 177 493 297 L504 331 L673 854 L497 854 L497 945 L887 945 L887 854 Z " />
<glyph glyph-name="afii10086" unicode="&#x444;" horiz-adv-x="1374" d="M963 974 Q1127 974 1211 829 Q1286 698 1286 466 Q1286 -29 969 -29 Q807 -29 736 125 L736 -331 L928 -331 L928 -422 L445 -422 L445 -331 L637 -331 L637 125 Q561 -29 401 -29 Q242 -29 160 118 Q88 247 88 470 Q88 730 185 861 Q269 974 412 974 Q570 974 637 823 L637 1384 L494 1384 L494 1475 L736 1475 L736 823 Q816 974 963 974 Z M416 65 Q525 65 585 176 Q637 272 637 427 L637 532 Q637 707 573 799 Q517 880 422 880 Q307 880 249 761 Q198 657 198 473 Q198 264 263 158 Q319 65 416 65 Z M958 65 Q1070 65 1126 184 Q1176 288 1176 470 Q1176 682 1110 788 Q1053 880 954 880 Q846 880 787 773 Q736 680 736 532 L736 427 Q736 249 804 151 Q863 65 958 65 Z " />
<glyph glyph-name="afii10087" unicode="&#x445;" horiz-adv-x="991" d="M947 91 L947 0 L562 0 L562 91 L706 91 L491 418 L288 91 L435 91 L435 0 L44 0 L44 91 L169 91 L432 488 L182 854 L58 854 L58 945 L425 945 L425 854 L294 854 L492 561 L682 854 L559 854 L559 945 L938 945 L938 854 L789 854 L549 493 L822 91 L947 91 Z " />
<glyph glyph-name="afii10088" unicode="&#x446;" horiz-adv-x="1056" d="M219 91 L219 854 L77 854 L77 945 L452 945 L452 854 L327 854 L327 91 L728 91 L728 854 L603 854 L603 945 L978 945 L978 854 L836 854 L836 91 L979 91 L979 -265 L899 -265 L868 0 L77 0 L77 91 L219 91 Z " />
<glyph glyph-name="afii10089" unicode="&#x447;" horiz-adv-x="991" d="M665 91 L665 425 Q560 321 399 321 Q250 321 194 402 Q138 483 138 701 L138 854 L-8 854 L-8 945 L378 945 L378 854 L246 854 L246 663 Q246 522 288 467 Q328 415 421 415 Q568 415 665 539 L665 854 L533 854 L533 945 L914 945 L914 854 L772 854 L772 91 L914 91 L914 0 L501 0 L501 91 L665 91 Z " />
<glyph glyph-name="afii10090" unicode="&#x448;" horiz-adv-x="1492" d="M1415 91 L1415 0 L77 0 L77 91 L219 91 L219 854 L77 854 L77 945 L450 945 L450 854 L327 854 L327 91 L692 91 L692 854 L569 854 L569 945 L923 945 L923 854 L800 854 L800 91 L1161 91 L1165 854 L1042 854 L1042 945 L1415 945 L1415 854 L1273 854 L1273 91 L1415 91 Z " />
<glyph glyph-name="afii10091" unicode="&#x449;" horiz-adv-x="1493" d="M1307 0 L77 0 L77 91 L219 91 L219 854 L77 854 L77 945 L450 945 L450 854 L327 854 L327 91 L692 91 L692 854 L569 854 L569 945 L923 945 L923 854 L800 854 L800 91 L1161 91 L1165 854 L1042 854 L1042 945 L1415 945 L1415 854 L1273 854 L1273 91 L1415 91 L1418 91 L1418 -265 L1338 -265 L1307 0 Z " />
<glyph glyph-name="afii10092" unicode="&#x44a;" horiz-adv-x="1115" d="M390 854 L111 854 L111 651 L11 651 L11 945 L662 945 L662 854 L497 854 L497 573 L755 573 Q916 573 999 489 Q1071 415 1071 288 Q1071 143 980 67 Q900 0 765 0 L248 0 L248 91 L390 91 L390 854 Z M497 91 L740 91 Q961 91 961 290 Q961 390 908 436 Q855 482 740 482 L497 482 L497 91 Z " />
<glyph glyph-name="afii10093" unicode="&#x44b;" horiz-adv-x="1364" d="M77 91 L219 91 L219 854 L77 854 L77 945 L491 945 L491 854 L326 854 L326 573 L537 573 Q698 573 781 489 Q853 415 853 288 Q853 143 762 67 Q682 0 547 0 L77 0 L77 91 Z M522 91 Q743 91 743 290 Q743 390 690 436 Q637 482 522 482 L326 482 L326 91 L522 91 Z M899 91 L1037 91 L1037 854 L899 854 L899 945 L1287 945 L1287 854 L1145 854 L1145 91 L1287 91 L1287 0 L899 0 L899 91 Z " />
<glyph glyph-name="afii10094" unicode="&#x44c;" horiz-adv-x="944" d="M219 91 L219 854 L77 854 L77 945 L491 945 L491 854 L326 854 L326 573 L584 573 Q745 573 828 489 Q900 415 900 288 Q900 143 809 67 Q729 0 594 0 L77 0 L77 91 L219 91 Z M326 91 L569 91 Q790 91 790 290 Q790 390 737 436 Q684 482 569 482 L326 482 L326 91 Z " />
<glyph glyph-name="afii10095" unicode="&#x44d;" horiz-adv-x="848" d="M388 971 Q572 971 670 826 Q760 694 760 462 Q760 208 642 81 Q541 -29 363 -29 Q172 -29 69 84 L130 164 Q221 68 364 68 Q504 68 577 171 Q643 263 648 429 L181 429 L181 518 L646 518 Q634 709 549 803 Q481 878 376 878 Q304 878 262.5 853.5 Q221 829 195 772 Q173 728 173 660 L77 660 L77 945 L166 945 L166 853 Q218 971 388 971 Z " />
<glyph glyph-name="afii10096" unicode="&#x44e;" horiz-adv-x="1353" d="M884 974 Q1077 974 1177 823 Q1265 692 1265 469 Q1265 215 1152 85 Q1054 -29 885 -29 Q699 -29 600 111 Q513 233 507 444 L323 444 L323 91 L455 91 L455 0 L77 0 L77 91 L219 91 L219 854 L77 854 L77 945 L323 945 L323 530 L509 530 Q521 756 632 872 Q729 974 884 974 Z M884 67 Q1022 67 1092 187 Q1153 291 1153 474 Q1153 682 1074 787 Q1005 878 884 878 Q747 878 677 759 Q616 655 616 473 Q616 264 695 159 Q764 67 884 67 Z " />
<glyph glyph-name="afii10097" unicode="&#x44f;" horiz-adv-x="998" d="M779 854 L779 91 L921 91 L921 0 L536 0 L536 91 L672 91 L672 405 L484 405 Q438 405 407 376.5 Q376 348 350 281 L241 0 L51 0 L51 91 L161 91 L243 300 Q283 404 339 435 Q236 453 183 523 Q137 585 137 676 Q137 945 447 945 L921 945 L921 854 L779 854 Z M672 854 L450 854 Q344 854 296 810.5 Q248 767 248 672 Q248 569 313 526 Q366 491 470 491 L672 491 L672 854 Z " />
<glyph glyph-name="uni0450" unicode="&#x450;" horiz-adv-x="887" d="M458 974 Q646 974 730 825 Q802 696 799 448 L197 448 Q197 251 282 152 Q354 67 477 67 Q603 67 718 139 L769 59 Q644 -29 478 -29 Q272 -29 174 116 Q88 243 88 473 Q88 731 198 861 Q293 974 458 974 Z M455 879 Q331 879 264 778 Q205 691 198 538 L692 538 Q683 879 455 879 Z M213 1458 L355 1458 L527 1110 L441 1110 L213 1458 Z " />
<glyph glyph-name="afii10071" unicode="&#x451;" horiz-adv-x="887" d="M458 974 Q646 974 730 825 Q802 696 799 448 L197 448 Q197 251 282 152 Q354 67 477 67 Q603 67 718 139 L769 59 Q644 -29 478 -29 Q272 -29 174 116 Q88 243 88 473 Q88 731 198 861 Q293 974 458 974 Z M455 879 Q331 879 264 778 Q205 691 198 538 L692 538 Q683 879 455 879 Z M215 1176 L215 1329 L352 1329 L352 1176 L215 1176 Z M549 1176 L549 1329 L686 1329 L686 1176 L549 1176 Z " />
<glyph glyph-name="afii10099" unicode="&#x452;" horiz-adv-x="985" d="M593 974 Q844 974 844 684 L844 -153 Q844 -293 785 -356 Q723 -422 587 -422 L587 -325 Q677 -321 707 -276.5 Q737 -232 737 -103 L737 662 Q737 777 699 829.5 Q661 882 577 882 Q431 882 308 673 L308 91 L440 91 L440 0 L58 0 L58 91 L200 91 L200 1136 L60 1136 L60 1223 L200 1223 L200 1384 L58 1384 L58 1475 L308 1475 L308 1223 L646 1223 L646 1136 L308 1136 L308 793 Q431 974 593 974 Z " />
<glyph glyph-name="afii10100" unicode="&#x453;" horiz-adv-x="808" d="M77 91 L219 91 L219 854 L77 854 L77 945 L768 945 L768 648 L668 648 L668 854 L327 854 L327 91 L520 91 L520 0 L77 0 L77 91 Z M365 1110 L537 1458 L680 1458 L452 1110 L365 1110 Z " />
<glyph glyph-name="afii10101" unicode="&#x454;" horiz-adv-x="855" d="M778 77 Q667 -29 494 -29 Q281 -29 177 114 Q88 236 88 447 Q88 732 206 864 Q302 971 469 971 Q632 971 682 853 L682 945 L771 945 L771 659 L675 659 Q675 728 654 773 Q627 831 585 855 Q543 879 470 879 Q349 879 277 780 Q210 685 201 516 L669 516 L669 430 L201 430 Q214 66 496 66 Q611 66 719 154 L778 77 Z " />
<glyph glyph-name="afii10102" unicode="&#x455;" horiz-adv-x="833" d="M499 520 Q640 497 701 426 Q756 362 756 250 Q756 -29 453 -29 Q267 -29 192 104 L192 0 L108 0 L108 271 L205 271 Q224 164 282.5 114 Q341 64 448 64 Q651 64 651 242 Q651 328 610 370.5 Q569 413 471 428 L387 441 Q114 484 114 709 Q114 844 198 914 Q272 974 397 974 Q561 974 610 849 L610 945 L694 945 L694 698 L600 698 Q600 882 409 882 Q217 882 217 709 Q217 565 418 533 L499 520 Z " />
<glyph glyph-name="afii10103" unicode="&#x456;" horiz-adv-x="511" d="M183 1332 L325 1332 L325 1184 L183 1184 L183 1332 Z M77 91 L219 91 L219 854 L77 854 L77 945 L327 945 L327 91 L469 91 L469 0 L77 0 L77 91 Z " />
<glyph glyph-name="afii10104" unicode="&#x457;" horiz-adv-x="511" d="M77 91 L219 91 L219 854 L77 854 L77 945 L327 945 L327 91 L469 91 L469 0 L77 0 L77 91 Z M35 1176 L35 1329 L172 1329 L172 1176 L35 1176 Z M319 1176 L319 1329 L456 1329 L456 1176 L319 1176 Z " />
<glyph glyph-name="afii10105" unicode="&#x458;" horiz-adv-x="474" d="M179 1332 L321 1332 L321 1184 L179 1184 L179 1332 Z M60 -328 Q147 -324 178.5 -287 Q210 -250 210 -150 L210 854 L64 854 L64 945 L316 945 L316 -153 Q316 -293 257 -356 Q196 -422 60 -422 L60 -328 Z " />
<glyph glyph-name="afii10106" unicode="&#x459;" horiz-adv-x="1386" d="M661 854 L381 854 L381 756 Q381 363 309 184 Q269 83 207 39.5 Q145 -4 39 -6 L39 90 Q156 90 209 217 Q274 373 274 756 L274 854 L126 854 L126 945 L933 945 L933 854 L768 854 L768 573 L1026 573 Q1187 573 1270 489 Q1342 415 1342 288 Q1342 143 1251 67 Q1171 0 1036 0 L519 0 L519 91 L661 91 L661 854 Z M768 91 L1011 91 Q1232 91 1232 290 Q1232 390 1179 436 Q1126 482 1011 482 L768 482 L768 91 Z " />
<glyph glyph-name="afii10107" unicode="&#x45a;" horiz-adv-x="1489" d="M1129 550 Q1290 550 1373 469 Q1445 399 1445 279 Q1445 138 1354 65 Q1274 0 1139 0 L624 0 L624 91 L766 91 L766 457 L323 457 L323 91 L457 91 L457 0 L77 0 L77 91 L219 91 L219 854 L77 854 L77 945 L457 945 L457 854 L323 854 L323 543 L766 543 L766 854 L624 854 L624 945 L1038 945 L1038 854 L873 854 L873 550 L1129 550 Z M1114 91 Q1335 91 1335 281 Q1335 373 1281.5 416 Q1228 459 1114 459 L873 459 L873 91 L1114 91 Z " />
<glyph glyph-name="afii10108" unicode="&#x45b;" horiz-adv-x="1043" d="M1008 91 L1008 0 L626 0 L626 91 L758 91 L758 662 Q758 777 720 829.5 Q682 882 598 882 Q443 882 308 673 L308 91 L440 91 L440 0 L58 0 L58 91 L200 91 L200 1136 L60 1136 L60 1223 L200 1223 L200 1384 L58 1384 L58 1475 L308 1475 L308 1223 L646 1223 L646 1136 L308 1136 L308 791 Q437 974 614 974 Q866 974 866 684 L866 91 L1008 91 Z " />
<glyph glyph-name="afii10109" unicode="&#x45c;" horiz-adv-x="996" d="M977 91 L977 0 L782 0 L572 368 Q545 414 527.5 427 Q510 440 475 440 L322 440 L322 91 L478 91 L478 0 L77 0 L77 91 L219 91 L219 854 L77 854 L77 945 L463 945 L463 854 L322 854 L322 526 L513 526 L732 857 L604 857 L604 945 L948 945 L948 854 L841 854 L602 497 Q624 478 660 417 L852 91 L977 91 Z M446 1110 L618 1458 L761 1458 L533 1110 L446 1110 Z " />
<glyph glyph-name="uni045D" unicode="&#x45d;" horiz-adv-x="1099" d="M880 854 L880 91 L1022 91 L1022 0 L643 0 L643 91 L780 91 L780 818 L362 0 L77 0 L77 91 L219 91 L219 854 L77 854 L77 945 L456 945 L456 854 L319 854 L319 100 L749 945 L1022 945 L1022 854 L880 854 Z M320 1458 L462 1458 L634 1110 L548 1110 L320 1458 Z " />
<glyph glyph-name="afii10110" unicode="&#x45e;" horiz-adv-x="877" d="M887 854 L782 854 L421 -201 Q373 -341 304 -385 Q246 -421 122 -422 L122 -328 Q218 -326 258.5 -297 Q299 -268 326 -183 L386 3 L86 854 L-19 854 L-19 945 L369 945 L369 854 L198 854 L365 337 Q384 276 415 185 Q428 149 434 130 L441 130 Q454 177 493 297 L504 331 L673 854 L497 854 L497 945 L887 945 L887 854 Z M228 1408 Q237 1319 283.5 1280.5 Q330 1242 430 1242 Q533 1242 579.5 1280 Q626 1318 633 1408 L718 1408 Q718 1264 641 1202 Q572 1148 431 1148 Q272 1148 205 1219 Q148 1280 143 1408 L228 1408 Z " />
<glyph glyph-name="afii10193" unicode="&#x45f;" horiz-adv-x="1055" d="M836 854 L836 91 L978 91 L978 0 L587 0 L565 -265 L490 -265 L468 0 L77 0 L77 91 L219 91 L219 854 L77 854 L77 945 L452 945 L452 854 L327 854 L327 91 L728 91 L728 854 L603 854 L603 945 L978 945 L978 854 L836 854 Z " />
<glyph glyph-name="uni0462" unicode="&#x462;" horiz-adv-x="1363" d="M250 94 L397 94 L397 1195 L157 1195 L157 981 L62 981 L62 1287 L397 1287 L397 1456 L249 1456 L249 1550 L656 1550 L656 1456 L508 1456 L508 1287 L909 1287 L909 1001 L814 1001 L814 1195 L508 1195 L508 795 L787 795 Q1263 795 1263 398 Q1263 0 787 0 L250 0 L250 94 Z M762 94 Q1148 94 1148 397 Q1148 701 762 701 L508 701 L508 94 L762 94 Z " />
<glyph glyph-name="uni0463" unicode="&#x463;" horiz-adv-x="1036" d="M676 573 Q837 573 920 489 Q992 415 992 288 Q992 143 901 67 Q821 0 686 0 L172 0 L172 91 L314 91 L314 858 L121 858 L121 717 L25 717 L25 945 L314 945 L314 1384 L172 1384 L172 1475 L417 1475 L417 945 L792 945 L792 717 L696 717 L696 858 L417 858 L417 573 L676 573 Z M661 91 Q882 91 882 290 Q882 390 829 436 Q776 482 661 482 L418 482 L418 91 L661 91 Z " />
<glyph glyph-name="afii10050" unicode="&#x490;" horiz-adv-x="1046" d="M973 1833 L973 1381 L367 1381 L367 94 L583 94 L583 0 L111 0 L111 94 L256 94 L256 1381 L111 1381 L111 1475 L864 1475 L890 1833 L973 1833 Z " />
<glyph glyph-name="afii10098" unicode="&#x491;" horiz-adv-x="809" d="M768 854 L768 648 L668 648 L668 854 L327 854 L327 91 L520 91 L520 0 L77 0 L77 91 L219 91 L219 854 L77 854 L77 945 L658 945 L689 1210 L769 1210 L769 854 L768 854 Z " />
<glyph glyph-name="uni0492" unicode="&#x492;" horiz-adv-x="1113" d="M307 730 L94 730 L94 823 L307 823 L307 1381 L162 1381 L162 1475 L1040 1475 L1040 1119 L945 1119 L945 1381 L418 1381 L418 823 L782 823 L782 730 L418 730 L418 94 L634 94 L634 0 L162 0 L162 94 L307 94 L307 730 Z " />
<glyph glyph-name="uni0493" unicode="&#x493;" horiz-adv-x="834" d="M245 432 L88 432 L88 517 L245 517 L245 854 L103 854 L103 945 L794 945 L794 648 L694 648 L694 854 L353 854 L353 517 L604 517 L604 432 L353 432 L353 91 L546 91 L546 0 L103 0 L103 91 L245 91 L245 432 Z " />
<glyph glyph-name="uni0496" unicode="&#x496;" horiz-adv-x="1903" d="M1677 94 L1677 94 L1843 94 L1843 -360 L1755 -360 L1729 0 L1594 0 L1361 552 Q1315 661 1270 697 Q1223 735 1139 735 L994 735 L994 94 L1142 94 L1142 0 L737 0 L737 94 L884 94 L884 735 L739 735 Q654 735 608.5 697.5 Q563 660 517 552 L284 0 L49 0 L49 94 L201 94 L414 586 Q493 770 578 812 L220 1381 L105 1381 L105 1475 L508 1475 L508 1381 L339 1381 L687 829 L884 829 L884 1381 L737 1381 L737 1475 L1142 1475 L1142 1381 L994 1381 L994 829 L1191 829 L1539 1381 L1370 1381 L1370 1475 L1773 1475 L1773 1381 L1658 1381 L1300 812 Q1385 770 1464 586 L1677 94 Z " />
<glyph glyph-name="uni0497" unicode="&#x497;" horiz-adv-x="1483" d="M1259 91 L1408 91 L1408 -265 L1328 -265 L1297 0 L1189 0 L981 364 L976 373 Q954 411 936 423.5 Q918 436 884 436 L749 436 L749 91 L883 91 L883 0 L518 0 L518 91 L652 91 L652 436 L517 436 Q482 436 464.5 423 Q447 410 420 364 L212 0 L17 0 L17 91 L142 91 L332 413 Q368 474 390 493 L153 854 L46 854 L46 945 L393 945 L393 857 L262 857 L480 522 L652 522 L652 854 L533 854 L533 945 L868 945 L868 854 L749 854 L749 522 L921 522 L1139 857 L1008 857 L1008 945 L1355 945 L1355 854 L1248 854 L1011 493 Q1033 474 1069 413 L1259 91 Z " />
<glyph glyph-name="uni0498" unicode="&#x498;" horiz-adv-x="1101" d="M510 -27 Q504 -28 491 -28 Q242 -28 91 121 L151 197 Q286 73 497 73 Q687 73 789 176 Q878 266 878 417 Q878 725 502 725 L321 725 L321 819 L482 819 Q685 819 766 904 Q833 973 833 1117 Q833 1252 749 1330 Q673 1400 551 1400 Q272 1400 243 1083 L150 1083 L150 1475 L240 1475 L240 1316 Q322 1502 557 1502 Q747 1502 853 1387 Q945 1288 945 1132 Q945 865 747 785 Q992 700 992 419 Q988 334 975 285 Q940 150 835 71 Q739 -1 598 -21 L557 -134 Q577 -131 594 -131 Q663 -131 704.5 -172 Q746 -213 746 -282 Q746 -368 687 -417 Q635 -461 547 -461 Q447 -461 360 -419 L360 -330 Q466 -371 545 -371 Q649 -371 649 -278 Q649 -197 566 -197 Q533 -197 484 -210 L476 -117 L510 -27 Z " />
<glyph glyph-name="uni0499" unicode="&#x499;" horiz-adv-x="834" d="M379 -29 Q211 -29 65 77 L119 160 Q238 66 387 66 Q514 66 579 126 Q636 179 636 274 Q636 367 575.5 408 Q515 449 379 449 L275 449 L275 539 L373 539 Q606 539 606 707 Q606 788 553.5 834 Q501 880 407 880 Q299 880 250 825 Q210 780 200 686 L112 686 L112 945 L202 945 L202 854 Q243 972 406 972 Q563 972 645 897 Q715 832 715 723 Q715 563 577 506 Q747 462 747 269 Q742 112 647 41 Q580 -11 466 -25 L426 -134 Q446 -131 463 -131 Q532 -131 573.5 -172 Q615 -213 615 -282 Q615 -368 557 -417 Q504 -461 416 -461 Q316 -461 229 -419 L229 -330 Q335 -371 414 -371 Q518 -371 518 -278 Q518 -197 435 -197 Q401 -197 353 -210 L345 -117 L379 -29 Z " />
<glyph glyph-name="uni049A" unicode="&#x49a;" horiz-adv-x="1298" d="M1080 94 L1080 94 L1238 94 L1238 -360 L1150 -360 L1124 0 L999 0 L746 552 Q695 664 655 697 Q610 735 524 735 L369 735 L369 94 L517 94 L517 0 L111 0 L111 94 L258 94 L258 1381 L111 1381 L111 1475 L517 1475 L517 1381 L369 1381 L369 829 L576 829 L942 1381 L774 1381 L774 1475 L1177 1475 L1177 1381 L1062 1381 L682 807 Q728 784 763.5 737 Q799 690 848 586 L1080 94 Z " />
<glyph glyph-name="uni049B" unicode="&#x49b;" horiz-adv-x="1087" d="M852 91 L1012 91 L1012 -265 L932 -265 L901 0 L782 0 L572 368 Q545 414 527.5 427 Q510 440 475 440 L322 440 L322 91 L478 91 L478 0 L77 0 L77 91 L219 91 L219 854 L77 854 L77 945 L463 945 L463 854 L322 854 L322 526 L513 526 L732 857 L604 857 L604 945 L948 945 L948 854 L841 854 L602 497 Q624 478 660 417 L852 91 Z " />
<glyph glyph-name="uni049C" unicode="&#x49c;" horiz-adv-x="1310" d="M1261 94 L1261 0 L1024 0 L771 552 Q724 654 687 689 Q645 729 575 734 L575 462 L492 462 L492 735 L369 735 L369 94 L517 94 L517 0 L111 0 L111 94 L258 94 L258 1381 L111 1381 L111 1475 L517 1475 L517 1381 L369 1381 L369 829 L492 829 L492 1102 L575 1102 L575 829 L604 829 L970 1381 L802 1381 L802 1475 L1205 1475 L1205 1381 L1090 1381 L713 811 Q757 789 790.5 742.5 Q824 696 876 586 L1108 94 L1261 94 Z " />
<glyph glyph-name="uni049D" unicode="&#x49d;" horiz-adv-x="1023" d="M1004 91 L1004 0 L809 0 L601 364 L596 373 Q574 411 556 423.5 Q538 436 504 436 L493 436 L493 241 L419 241 L419 436 L322 436 L322 91 L478 91 L478 0 L77 0 L77 91 L219 91 L219 854 L77 854 L77 945 L463 945 L463 854 L322 854 L322 522 L419 522 L419 716 L493 716 L493 522 L541 522 L759 857 L628 857 L628 945 L975 945 L975 854 L868 854 L631 493 Q653 474 689 413 L879 91 L1004 91 Z " />
<glyph glyph-name="uni04A2" unicode="&#x4a2;" horiz-adv-x="1321" d="M1147 0 L855 0 L855 94 L1003 94 L1003 730 L367 730 L367 94 L515 94 L515 0 L111 0 L111 94 L256 94 L256 1381 L111 1381 L111 1475 L515 1475 L515 1381 L367 1381 L367 824 L1003 824 L1003 1381 L855 1381 L855 1475 L1259 1475 L1259 1381 L1114 1381 L1114 94 L1261 94 L1261 -360 L1173 -360 L1147 0 Z " />
<glyph glyph-name="uni04A3" unicode="&#x4a3;" horiz-adv-x="1109" d="M923 0 L643 0 L643 91 L773 91 L773 444 L324 444 L324 91 L454 91 L454 0 L77 0 L77 91 L217 91 L217 854 L77 854 L77 945 L454 945 L454 854 L324 854 L324 530 L773 530 L773 854 L643 854 L643 945 L1020 945 L1020 854 L880 854 L880 91 L1020 91 L1034 91 L1034 -265 L954 -265 L923 0 Z " />
<glyph glyph-name="uni04AA" unicode="&#x4aa;" horiz-adv-x="1144" d="M565 -27 Q361 -7 248 141 Q176 237 143.5 367.5 Q111 498 107 713 Q107 1122 260 1327 Q392 1503 619 1503 Q828 1503 912 1344 L913 1475 L1004 1475 L1004 1054 L911 1054 Q911 1228 825 1321 Q751 1401 629 1401 Q421 1401 315 1203 Q220 1028 220 721 Q220 72 650 72 Q831 72 974 199 L1036 115 Q879 -25 650 -31 L612 -134 Q632 -131 649 -131 Q718 -131 759.5 -172 Q801 -213 801 -282 Q801 -368 743 -417 Q690 -461 602 -461 Q502 -461 415 -419 L415 -330 Q521 -371 600 -371 Q704 -371 704 -278 Q704 -197 621 -197 Q587 -197 539 -210 L531 -117 L565 -27 Z " />
<glyph glyph-name="uni04AB" unicode="&#x4ab;" horiz-adv-x="876" d="M431 -26 Q274 -10 184 106 Q96 223 88 464 Q88 731 206 862 Q304 972 470 972 Q631 972 681 853 L681 945 L770 945 L770 643 L674 643 Q674 721 652 772 Q627 829 585 853.5 Q543 878 469 878 Q338 878 267 766 Q200 660 200 472 Q200 66 500 66 Q618 66 723 154 L782 77 Q677 -21 516 -29 L477 -134 Q495 -131 514 -131 Q583 -131 624.5 -172 Q666 -213 666 -282 Q666 -368 607 -417 Q555 -461 467 -461 Q367 -461 280 -419 L280 -330 Q386 -371 465 -371 Q569 -371 569 -278 Q569 -197 487 -197 Q453 -197 404 -210 L396 -117 L431 -26 Z " />
<glyph glyph-name="uni04AE" unicode="&#x4ae;" horiz-adv-x="1117" d="M615 643 L615 94 L791 94 L791 0 L327 0 L327 94 L504 94 L504 650 L133 1381 L-14 1381 L-14 1475 L429 1475 L429 1381 L252 1381 L560 749 L872 1381 L706 1381 L706 1475 L1136 1475 L1136 1381 L988 1381 L615 643 Z " />
<glyph glyph-name="uni04AF" unicode="&#x4af;" horiz-adv-x="875" d="M487 -5 L487 -331 L639 -331 L639 -422 L234 -422 L234 -331 L385 -331 L385 -9 L85 854 L-21 854 L-21 945 L338 945 L338 854 L191 854 L360 340 L382 275 Q416 172 432 110 L437 110 Q458 201 502 332 L676 854 L519 854 L519 945 L889 945 L889 854 L781 854 L487 -5 Z " />
<glyph glyph-name="uni04B0" unicode="&#x4b0;" horiz-adv-x="1117" d="M988 1381 L631 674 L831 674 L831 583 L613 583 L613 94 L791 94 L791 0 L327 0 L327 94 L506 94 L506 583 L276 583 L276 674 L492 674 L133 1381 L-14 1381 L-14 1475 L429 1475 L429 1381 L252 1381 L560 749 L872 1381 L706 1381 L706 1475 L1136 1475 L1136 1381 L988 1381 Z " />
<glyph glyph-name="uni04B1" unicode="&#x4b1;" horiz-adv-x="875" d="M382 0 L165 0 L165 86 L352 86 L85 854 L-21 854 L-21 945 L338 945 L338 854 L191 854 L360 340 L382 275 Q416 172 432 110 L437 110 Q458 201 502 332 L676 854 L519 854 L519 945 L889 945 L889 854 L781 854 L518 86 L719 86 L719 0 L489 0 L487 -5 L487 -331 L639 -331 L639 -422 L234 -422 L234 -331 L385 -331 L385 -9 L382 0 Z " />
<glyph glyph-name="uni04B2" unicode="&#x4b2;" horiz-adv-x="1251" d="M1033 94 L1033 94 L1191 94 L1191 -360 L1103 -360 L1077 0 L757 0 L757 94 L914 94 L613 671 L315 94 L476 94 L476 0 L40 0 L40 94 L196 94 L556 765 L226 1381 L87 1381 L87 1475 L497 1475 L497 1381 L346 1381 L618 856 L888 1381 L735 1381 L735 1475 L1131 1475 L1131 1381 L1005 1381 L675 766 L1033 94 Z " />
<glyph glyph-name="uni04B3" unicode="&#x4b3;" horiz-adv-x="1038" d="M822 91 L963 91 L963 -265 L883 -265 L852 0 L562 0 L562 91 L706 91 L491 418 L288 91 L435 91 L435 0 L44 0 L44 91 L169 91 L432 488 L182 854 L58 854 L58 945 L425 945 L425 854 L294 854 L492 561 L682 854 L559 854 L559 945 L938 945 L938 854 L789 854 L549 493 L822 91 Z " />
<glyph glyph-name="uni04B6" unicode="&#x4b6;" horiz-adv-x="1236" d="M1062 0 L687 0 L687 94 L886 94 L886 667 Q792 606 712.5 582 Q633 558 528 558 Q328 558 252 670 Q185 769 185 995 L185 1381 L40 1381 L40 1475 L442 1475 L442 1381 L296 1381 L296 990 Q296 788 359 718 Q415 656 551 656 Q641 656 714 681.5 Q787 707 886 772 L886 1381 L740 1381 L740 1475 L1142 1475 L1142 1381 L997 1381 L997 94 L1176 94 L1176 -360 L1088 -360 L1062 0 Z " />
<glyph glyph-name="uni04B7" unicode="&#x4b7;" horiz-adv-x="1003" d="M817 0 L501 0 L501 91 L665 91 L665 425 Q560 321 399 321 Q250 321 194 402 Q138 483 138 701 L138 854 L-8 854 L-8 945 L378 945 L378 854 L246 854 L246 663 Q246 522 288 467 Q328 415 421 415 Q568 415 665 539 L665 854 L533 854 L533 945 L914 945 L914 854 L772 854 L772 91 L914 91 L928 91 L928 -265 L848 -265 L817 0 Z " />
<glyph glyph-name="uni04B8" unicode="&#x4b8;" horiz-adv-x="1253" d="M539 656 L539 967 L630 967 L630 661 Q743 678 886 772 L886 1381 L740 1381 L740 1475 L1142 1475 L1142 1381 L997 1381 L997 94 L1142 94 L1142 0 L687 0 L687 94 L886 94 L886 667 Q750 581 630 564 L630 327 L539 327 L539 558 L528 558 Q328 558 252 670 Q185 769 185 995 L185 1381 L40 1381 L40 1475 L442 1475 L442 1381 L296 1381 L296 990 Q297 871 312 810.5 Q327 750 365 712 Q415 662 539 656 Z " />
<glyph glyph-name="uni04B9" unicode="&#x4b9;" horiz-adv-x="1009" d="M790 854 L790 91 L932 91 L932 0 L519 0 L519 91 L683 91 L683 425 Q605 355 502 336 L502 202 L419 202 L419 328 L417 328 Q257 328 197.5 408 Q138 488 138 701 L138 854 L-8 854 L-8 945 L378 945 L378 854 L246 854 L246 663 Q246 528 288 472 Q328 420 419 415 L419 686 L502 686 L502 421 Q607 442 683 539 L683 854 L551 854 L551 945 L932 945 L932 854 L790 854 Z " />
<glyph glyph-name="uni04BA" unicode="&#x4ba;" horiz-adv-x="1265" d="M111 94 L256 94 L256 1381 L111 1381 L111 1475 L514 1475 L514 1381 L367 1381 L367 847 Q460 917 537 945.5 Q614 974 711 974 Q917 974 997 869 Q1068 776 1068 567 L1068 94 L1213 94 L1213 0 L804 0 L804 94 L960 94 L960 554 Q960 741 894 810 Q835 871 699 871 Q603 871 531.5 840 Q460 809 367 726 L367 94 L539 94 L539 0 L111 0 L111 94 Z " />
<glyph glyph-name="uni04BB" unicode="&#x4bb;" horiz-adv-x="1036" d="M1001 91 L1001 0 L619 0 L619 91 L751 91 L751 662 Q751 777 713 829.5 Q675 882 591 882 Q436 882 301 673 L301 91 L433 91 L433 0 L51 0 L51 91 L193 91 L193 1384 L51 1384 L51 1475 L300 1475 L300 790 Q432 974 607 974 Q859 974 859 684 L859 91 L1001 91 Z " />
<glyph glyph-name="uni04C0" unicode="&#x4c0;" horiz-adv-x="623" d="M512 94 L512 0 L111 0 L111 94 L256 94 L256 1381 L111 1381 L111 1475 L512 1475 L512 1381 L367 1381 L367 94 L512 94 Z " />
<glyph glyph-name="uni04C1" unicode="&#x4c1;" horiz-adv-x="1878" d="M1829 94 L1829 0 L1594 0 L1361 552 Q1315 661 1270 697 Q1223 735 1139 735 L994 735 L994 94 L1142 94 L1142 0 L737 0 L737 94 L884 94 L884 735 L739 735 Q654 735 608.5 697.5 Q563 660 517 552 L284 0 L49 0 L49 94 L201 94 L414 586 Q493 770 578 812 L220 1381 L105 1381 L105 1475 L508 1475 L508 1381 L339 1381 L687 829 L884 829 L884 1381 L737 1381 L737 1475 L1142 1475 L1142 1381 L994 1381 L994 829 L1191 829 L1539 1381 L1370 1381 L1370 1475 L1773 1475 L1773 1381 L1658 1381 L1300 812 Q1385 770 1464 586 L1677 94 L1829 94 Z M733 1938 Q742 1849 788.5 1810.5 Q835 1772 935 1772 Q1038 1772 1084.5 1810 Q1131 1848 1138 1938 L1223 1938 Q1223 1794 1146 1732 Q1077 1678 936 1678 Q777 1678 710 1749 Q653 1810 648 1938 L733 1938 Z " />
<glyph glyph-name="uni04C2" unicode="&#x4c2;" horiz-adv-x="1401" d="M1384 91 L1384 0 L1189 0 L981 364 L976 373 Q954 411 936 423.5 Q918 436 884 436 L749 436 L749 91 L883 91 L883 0 L518 0 L518 91 L652 91 L652 436 L517 436 Q482 436 464.5 423 Q447 410 420 364 L212 0 L17 0 L17 91 L142 91 L332 413 Q368 474 390 493 L153 854 L46 854 L46 945 L393 945 L393 857 L262 857 L480 522 L652 522 L652 854 L533 854 L533 945 L868 945 L868 854 L749 854 L749 522 L921 522 L1139 857 L1008 857 L1008 945 L1355 945 L1355 854 L1248 854 L1011 493 Q1033 474 1069 413 L1259 91 L1384 91 Z M494 1408 Q503 1319 549.5 1280.5 Q596 1242 696 1242 Q799 1242 845.5 1280 Q892 1318 899 1408 L984 1408 Q984 1264 907 1202 Q838 1148 697 1148 Q538 1148 471 1219 Q414 1280 409 1408 L494 1408 Z " />
<glyph glyph-name="uni04CF" unicode="&#x4cf;" horiz-adv-x="623" d="M512 94 L512 0 L111 0 L111 94 L256 94 L256 1381 L111 1381 L111 1475 L512 1475 L512 1381 L367 1381 L367 94 L512 94 Z " />
<glyph glyph-name="uni04D4" unicode="&#x4d4;" horiz-adv-x="1817" d="M1682 371 L1682 0 L786 0 L786 94 L951 94 L951 488 L451 488 L256 94 L454 94 L454 0 L24 0 L24 94 L135 94 L784 1381 L568 1381 L568 1475 L1662 1475 L1662 1139 L1567 1139 L1567 1381 L1060 1381 L1060 811 L1500 811 L1500 717 L1060 717 L1060 94 L1587 94 L1587 371 L1682 371 Z M951 582 L951 1381 L894 1381 L498 582 L951 582 Z " />
<glyph glyph-name="uni04D5" unicode="&#x4d5;" horiz-adv-x="1402" d="M369 -29 Q214 -29 138 59 Q73 134 73 267 Q73 414 171 486 Q253 547 393 547 L645 547 L645 617 Q645 780 595 831 Q549 878 425 878 Q332 878 289.5 836.5 Q247 795 241 699 L135 699 Q137 838 221 909 Q299 974 439 974 Q548 974 611.5 935 Q675 896 711 808 Q786 974 996 974 Q1346 974 1331 448 L743 448 Q743 68 1027 68 Q1143 68 1249 142 L1300 61 Q1172 -29 1022 -29 Q897 -29 809 28 Q732 77 700 159 Q637 -29 369 -29 Z M1223 539 Q1223 878 993 878 Q869 878 803 775 Q745 686 744 539 L1223 539 Z M372 66 Q543 66 611 171 Q645 223 645 347 L645 459 L405 459 Q287 459 235 411 Q186 366 186 271 Q186 66 372 66 Z " />
<glyph glyph-name="uni04D8" unicode="&#x4d8;" horiz-adv-x="1264" d="M605 1498 Q888 1498 1029 1274 Q1152 1077 1152 726 Q1152 333 997 139 Q861 -31 616 -31 Q358 -31 232 157 Q124 318 124 605 Q124 688 133 781 L1041 781 Q1035 1091 908 1253 Q796 1396 611 1396 Q411 1396 234 1246 L181 1332 Q360 1498 605 1498 Z M621 72 Q831 72 942 253 Q1039 412 1041 685 L241 685 Q237 636 237 587 Q237 329 350 192 Q450 72 621 72 Z " />
<glyph glyph-name="afii10846" unicode="&#x4d9;" horiz-adv-x="889" d="M413 974 Q617 974 716 829 Q801 704 801 480 Q801 -29 430 -29 Q90 -29 90 450 Q90 484 92 519 L693 519 Q687 705 607 797 Q536 878 412 878 Q286 878 180 800 L129 880 Q249 974 413 974 Z M432 66 Q566 66 634 172 Q693 265 693 426 L693 429 L199 429 Q196 241 263 149 Q322 66 432 66 Z " />
<glyph glyph-name="uni04E2" unicode="&#x4e2;" horiz-adv-x="1407" d="M255 94 L255 1381 L111 1381 L111 1475 L506 1475 L506 1381 L359 1381 L359 359 L356 113 Q401 229 465 359 L1013 1475 L1296 1475 L1296 1381 L1152 1381 L1152 94 L1296 94 L1296 0 L901 0 L901 94 L1048 94 L1048 1108 L1052 1369 Q1004 1242 938 1108 L395 0 L111 0 L111 94 L255 94 Z M469 1726 L469 1835 L945 1835 L945 1726 L469 1726 Z " />
<glyph glyph-name="uni04E3" unicode="&#x4e3;" horiz-adv-x="1099" d="M880 854 L880 91 L1022 91 L1022 0 L643 0 L643 91 L780 91 L780 818 L362 0 L77 0 L77 91 L219 91 L219 854 L77 854 L77 945 L456 945 L456 854 L319 854 L319 100 L749 945 L1022 945 L1022 854 L880 854 Z M320 1196 L320 1305 L796 1305 L796 1196 L320 1196 Z " />
<glyph glyph-name="uni04E8" unicode="&#x4e8;" horiz-adv-x="1261" d="M632 -29 Q357 -29 223 194 Q106 389 106 740 Q106 1139 260 1335 Q392 1506 627 1506 Q903 1506 1038 1282 Q1155 1087 1155 736 Q1155 335 1003 141 Q871 -29 632 -29 Z M220 789 L1041 789 Q1032 1192 844 1336 Q763 1399 631 1404 Q545 1401 490 1378 Q368 1327 301 1189 Q225 1034 220 789 Z M1041 695 L220 695 Q229 288 419 141 Q501 78 632 73 Q717 76 774 100 Q891 147 960 285 Q1030 429 1041 695 Z " />
<glyph glyph-name="uni04E9" unicode="&#x4e9;" horiz-adv-x="937" d="M468 974 Q661 974 761 823 Q849 692 849 469 Q849 215 736 85 Q638 -29 469 -29 Q275 -29 175 120 Q88 249 88 470 Q88 725 202 858 Q301 974 468 974 Z M468 878 Q338 878 268 771 Q207 677 201 513 L736 513 Q729 701 651 796 Q583 878 468 878 Z M468 67 Q598 67 668 173 Q729 267 736 430 L201 430 Q209 243 287 149 Q355 67 468 67 Z " />
<glyph glyph-name="uni04EE" unicode="&#x4ee;" horiz-adv-x="1159" d="M1172 1381 L1061 1381 L471 0 L236 0 L236 94 L400 94 L543 431 L145 1381 L34 1381 L34 1475 L435 1475 L435 1381 L267 1381 L601 548 L942 1381 L770 1381 L770 1475 L1172 1475 L1172 1381 Z M361 1726 L361 1835 L837 1835 L837 1726 L361 1726 Z " />
<glyph glyph-name="uni04EF" unicode="&#x4ef;" horiz-adv-x="877" d="M887 854 L782 854 L421 -201 Q373 -341 304 -385 Q246 -421 122 -422 L122 -328 Q218 -326 258.5 -297 Q299 -268 326 -183 L386 3 L86 854 L-19 854 L-19 945 L369 945 L369 854 L198 854 L365 337 Q384 276 415 185 Q428 149 434 130 L441 130 Q454 177 493 297 L504 331 L673 854 L497 854 L497 945 L887 945 L887 854 Z M197 1196 L197 1305 L673 1305 L673 1196 L197 1196 Z " />
<glyph glyph-name="uni1E1E" unicode="&#x1e1e;" horiz-adv-x="1070" d="M996 1475 L996 1139 L901 1139 L901 1381 L367 1381 L367 810 L796 810 L796 716 L367 716 L367 94 L590 94 L590 0 L111 0 L111 94 L256 94 L256 1381 L111 1381 L111 1475 L996 1475 Z M507 1862 L649 1862 L649 1714 L507 1714 L507 1862 Z " />
<glyph glyph-name="Wdieresis" unicode="&#x1e84;" horiz-adv-x="1627" d="M1605 1381 L1491 1381 L1219 -10 L1117 -10 L864 1060 Q850 1120 832 1242 Q826 1282 822 1305 Q797 1144 777 1061 L515 -10 L413 -10 L153 1381 L30 1381 L30 1475 L427 1475 L427 1381 L266 1381 L442 338 Q460 231 467 178 L474 221 Q487 297 497 338 L777 1490 L869 1490 L1136 338 Q1152 269 1167 183 Q1171 212 1185 276 Q1193 315 1197 338 L1380 1381 L1219 1381 L1219 1475 L1605 1475 L1605 1381 Z M592 1706 L592 1859 L729 1859 L729 1706 L592 1706 Z M926 1706 L926 1859 L1063 1859 L1063 1706 L926 1706 Z " />
<glyph glyph-name="wdieresis" unicode="&#x1e85;" horiz-adv-x="1276" d="M434 0 L308 0 L99 854 L4 854 L4 945 L369 945 L369 854 L205 854 L309 380 Q316 348 335 256 Q355 158 368 105 L373 105 L442 380 L585 943 L692 943 L823 426 Q830 399 844 345 Q883 191 901 106 L906 106 Q926 210 974 426 L1068 854 L933 854 L933 945 L1283 945 L1283 854 L1172 854 L963 0 L838 0 L704 529 Q677 635 642 793 L636 793 Q629 764 601 660 Q577 572 567 531 L434 0 Z M402 1176 L402 1329 L539 1329 L539 1176 L402 1176 Z M736 1176 L736 1329 L873 1329 L873 1176 L736 1176 Z " />
<glyph glyph-name="uni2007" unicode="&#x2007;" horiz-adv-x="1078" d="" />
<glyph glyph-name="uni2011" unicode="&#x2011;" horiz-adv-x="717" d="M102 482 L102 588 L615 588 L615 482 L102 482 Z " />
<glyph glyph-name="figuredash" unicode="&#x2012;" horiz-adv-x="1024" d="M82 494 L82 588 L942 588 L942 494 L82 494 Z " />
<glyph glyph-name="afii00208" unicode="&#x2015;" horiz-adv-x="1474" d="M102 494 L102 588 L1372 588 L1372 494 L102 494 Z " />
<glyph glyph-name="zerosuperior" unicode="&#x2070;" horiz-adv-x="716" d="M358 1692 Q655 1692 655 1245 Q655 803 358 803 Q61 803 61 1247 Q61 1692 358 1692 Z M358 1599 Q166 1599 166 1246 Q166 896 358 896 Q550 896 550 1244 Q550 1599 358 1599 Z " />
<glyph glyph-name="foursuperior" unicode="&#x2074;" horiz-adv-x="725" d="M681 1048 L542 1048 L542 832 L448 832 L448 1048 L78 1048 L78 1137 L325 1676 L432 1676 L184 1129 L448 1129 L448 1404 L542 1404 L542 1129 L681 1129 L681 1048 Z " />
<glyph glyph-name="fivesuperior" unicode="&#x2075;" horiz-adv-x="755" d="M367 803 Q101 803 93 1048 L193 1048 Q197 975 243 934.5 Q289 894 368 894 Q459 894 505 947 Q546 993 546 1073 Q546 1167 491 1218 Q444 1262 366 1262 Q270 1262 199 1200 L127 1241 L150 1676 L597 1676 L597 1479 L505 1479 L505 1590 L240 1590 L223 1303 Q287 1353 384 1353 Q515 1353 588 1269 Q651 1196 651 1077 Q651 936 568 865 Q495 803 367 803 Z " />
<glyph glyph-name="sixsuperior" unicode="&#x2076;" horiz-adv-x="715" d="M379 1359 Q512 1359 583 1277 Q644 1205 644 1085 Q644 942 562 868 Q491 803 368 803 Q208 803 140 915 Q81 1013 81 1217 Q81 1474 159 1593 Q224 1692 369 1692 Q497 1692 564 1625 Q621 1567 622 1471 L524 1471 Q513 1603 369 1603 Q279 1603 237 1532 Q190 1453 184 1267 Q241 1359 379 1359 Z M366 894 Q452 894 499 950 Q540 1000 540 1082 Q540 1175 487 1226 Q441 1269 366 1269 Q279 1269 233 1213 Q192 1164 192 1082 Q192 992 244 940 Q291 894 366 894 Z " />
<glyph glyph-name="sevensuperior" unicode="&#x2077;" horiz-adv-x="716" d="M340 820 L233 820 L529 1589 L165 1589 L165 1456 L73 1456 L73 1676 L632 1676 L632 1587 L340 820 Z " />
</font>
</svg>
