<?xml version="1.0" encoding="UTF-8"?>
<svg xmlns="http://www.w3.org/2000/svg" xmlns:xlink="http://www.w3.org/1999/xlink" version="1.2" >
<font id="A1 Serif Condensed">
<font-face  font-family="A1 Serif Condensed" units-per-em="2048" ascent="1536" descent="-512" font-style="normal" font-weight="400" font-stretch="normal" cap-height="1475" x-height="969" underline-position="-351" underline-thickness="142" />
<missing-glyph  horiz-adv-x="379" d="M38 0 L38 1475 L341 1475 L341 0 L38 0 Z M303 38 L303 1437 L76 1437 L76 38 L303 38 Z " />
<glyph glyph-name="space" unicode="&#x20;" horiz-adv-x="379" d="" />
<glyph glyph-name="exclam" unicode="&#x21;" horiz-adv-x="631" d="M235 388 L212 1475 L416 1475 L392 388 L235 388 Z M214 0 L214 215 L418 215 L418 0 L214 0 Z " />
<glyph glyph-name="quotedbl" unicode="&#x22;" horiz-adv-x="663" d="M125 908 L125 1475 L259 1475 L259 908 L125 908 Z M404 908 L404 1475 L538 1475 L538 908 L404 908 Z " />
<glyph glyph-name="numbersign" unicode="&#x23;" horiz-adv-x="1283" d="M932 861 L894 589 L1100 589 L1081 454 L875 454 L811 0 L665 0 L729 454 L477 454 L413 0 L267 0 L331 454 L124 454 L143 589 L350 589 L388 861 L180 861 L199 996 L407 996 L472 1462 L619 1462 L553 996 L805 996 L871 1462 L1017 1462 L951 996 L1156 996 L1137 861 L932 861 Z M786 861 L534 861 L496 589 L748 589 L786 861 Z " />
<glyph glyph-name="dollar" unicode="&#x24;" horiz-adv-x="1078" d="M1018 400 Q1018 185 905 75 Q806 -21 628 -28 L628 -167 L515 -167 L515 -23 Q348 -1 274 121 L272 0 L143 0 L143 428 L287 428 Q290 158 514 121 L513 697 L481 705 Q303 746 223 855 Q152 953 152 1112 Q152 1305 258 1407 Q350 1495 511 1503 L511 1640 L624 1640 L624 1497 Q741 1477 805 1373 L805 1475 L937 1475 L937 1107 L802 1107 Q802 1321 625 1355 L626 833 L656 826 Q859 781 943 671 Q1018 572 1018 400 Z M315 1118 Q315 911 513 858 L512 1358 Q315 1333 315 1118 Z M627 118 Q853 143 853 389 Q853 614 626 671 L627 118 Z " />
<glyph glyph-name="percent" unicode="&#x25;" horiz-adv-x="1441" d="M58 1158 Q58 1336 142 1427 Q216 1505 343 1505 Q489 1505 564 1401 Q628 1310 628 1155 Q628 976 544 886 Q471 807 343 807 Q197 807 122 911 Q58 1001 58 1158 Z M487 1156 Q487 1386 343 1386 Q199 1386 199 1156 Q199 926 343 926 Q487 926 487 1156 Z M819 323 Q819 501 903 592 Q977 670 1104 670 Q1250 670 1325 566 Q1389 475 1389 320 Q1389 141 1305 51 Q1232 -28 1104 -28 Q957 -28 884 75 Q819 166 819 323 Z M1248 320 Q1248 550 1104 550 Q961 550 961 321 Q961 91 1104 91 Q1248 91 1248 320 Z M965 1487 L1115 1487 L488 0 L338 0 L965 1487 Z " />
<glyph glyph-name="ampersand" unicode="&#x26;" horiz-adv-x="1202" d="M971 0 L866 147 Q726 -29 489 -29 Q287 -29 177 92 Q82 197 82 364 Q82 507 145 619.5 Q208 732 360 861 Q280 976 247 1055.5 Q214 1135 214 1214 Q214 1361 307 1438 Q388 1505 524 1505 Q677 1505 757 1420 Q825 1346 825 1225 Q825 1122 773.5 1043.5 Q722 965 568 835 L847 439 Q896 575 926 781 L1081 781 Q1040 473 953 288 L1154 3 L971 0 Z M522 1359 Q380 1359 380 1209 Q380 1111 481 960 Q587 1048 623.5 1099 Q660 1150 660 1210 Q660 1281 624 1320 Q588 1359 522 1359 Z M503 133 Q672 133 771 281 L450 734 Q349 643 306.5 563.5 Q264 484 264 387 Q264 257 334 191 Q396 133 503 133 Z " />
<glyph glyph-name="quotesingle" unicode="&#x27;" horiz-adv-x="383" d="M125 908 L125 1475 L259 1475 L259 908 L125 908 Z " />
<glyph glyph-name="parenleft" unicode="&#x28;" horiz-adv-x="817" d="M510 -432 Q364 -198 301 39 Q242 261 242 526 Q242 829 319 1076 Q382 1277 510 1484 L668 1484 Q538 1237 481 1020 Q421 790 421 528 Q421 270 479 44 Q537 -182 668 -432 L510 -432 Z " />
<glyph glyph-name="parenright" unicode="&#x29;" horiz-adv-x="817" d="M149 -432 Q277 -187 334 30 Q397 265 397 528 Q397 787 339 1010 Q281 1233 149 1484 L307 1484 Q454 1247 516 1014 Q575 794 575 526 Q575 224 498 -23 Q435 -227 307 -432 L149 -432 Z " />
<glyph glyph-name="asterisk" unicode="&#x2a;" horiz-adv-x="1041" d="M129 1164 L180 1312 L449 1211 L444 1507 L596 1507 L590 1211 L859 1310 L912 1163 L633 1080 L821 833 L692 740 L520 999 L347 741 L217 832 L407 1080 L129 1164 Z " />
<glyph glyph-name="plus" unicode="&#x2b;" horiz-adv-x="1078" d="M165 663 L165 809 L466 809 L466 1135 L615 1135 L615 809 L913 809 L913 663 L615 663 L615 338 L466 338 L466 663 L165 663 Z " />
<glyph glyph-name="comma" unicode="&#x2c;" horiz-adv-x="530" d="M77 -273 L191 221 L395 221 L244 -273 L77 -273 Z " />
<glyph glyph-name="hyphen" unicode="&#x2d;" horiz-adv-x="717" d="M94 472 L94 629 L622 629 L622 472 L94 472 Z " />
<glyph glyph-name="period" unicode="&#x2e;" horiz-adv-x="512" d="M152 0 L152 225 L360 225 L360 0 L152 0 Z " />
<glyph glyph-name="slash" unicode="&#x2f;" horiz-adv-x="784" d="M86 -188 L578 1491 L719 1491 L227 -188 L86 -188 Z " />
<glyph glyph-name="zero" unicode="0" horiz-adv-x="1078" d="M539 1504 Q996 1504 996 732 Q996 327 873 140 Q760 -29 540 -29 Q288 -29 176 196 Q82 384 82 737 Q82 1504 539 1504 Z M539 1345 Q262 1345 262 734 Q262 403 341 255 Q409 129 539 129 Q688 129 756 294 Q817 441 817 731 Q817 1059 734 1214 Q664 1345 539 1345 Z " />
<glyph glyph-name="one" unicode="1" horiz-adv-x="1078" d="M943 147 L943 0 L201 0 L201 147 L485 147 L485 1290 L241 1168 L179 1304 L514 1475 L659 1475 L659 147 L943 147 Z " />
<glyph glyph-name="two" unicode="2" horiz-adv-x="1078" d="M963 408 L963 0 L106 0 Q112 149 190 289.5 Q268 430 453 625 Q616 795 677 897 Q738 999 738 1099 Q738 1222 670 1291 Q612 1350 518 1350 Q285 1350 282 1037 L114 1037 Q116 1274 236 1397 Q342 1504 521 1504 Q718 1504 824 1385 Q917 1280 917 1106 Q917 961 839 832 Q771 720 603 548 Q476 416 414 327 Q352 238 324 147 L806 147 L806 408 L963 408 Z " />
<glyph glyph-name="three" unicode="3" horiz-adv-x="1078" d="M771 407 Q771 702 465 702 L349 702 L349 842 L447 842 Q597 842 669 922 Q729 989 729 1107 Q729 1225 663 1292 Q604 1351 511 1351 Q302 1351 285 1113 L116 1113 Q125 1314 242 1416 Q343 1504 511 1504 Q705 1504 811 1384 Q904 1281 904 1114 Q904 882 707 796 Q950 707 950 404 Q950 190 830 77 Q718 -29 518 -29 Q98 -29 87 401 L257 401 Q266 125 519 125 Q649 125 714 209 Q771 282 771 407 Z " />
<glyph glyph-name="four" unicode="4" horiz-adv-x="1078" d="M795 392 L795 147 L982 147 L982 0 L433 0 L433 147 L637 147 L637 392 L82 392 L82 544 L453 1475 L634 1475 L261 536 L637 536 L637 1008 L795 1008 L795 536 L1006 536 L1006 392 L795 392 Z " />
<glyph glyph-name="five" unicode="5" horiz-adv-x="1078" d="M524 -29 Q311 -29 203 94 Q109 201 103 392 L273 392 Q279 257 354 187 Q419 126 525 126 Q656 126 723 218 Q781 298 781 437 Q781 600 703 687 Q635 763 522 763 Q386 763 281 655 L156 726 L191 1475 L876 1475 L876 1138 L718 1138 L718 1328 L346 1328 L320 842 Q414 918 553 918 Q753 918 864 774 Q961 648 961 443 Q961 200 833 78 Q721 -29 524 -29 Z " />
<glyph glyph-name="six" unicode="6" horiz-adv-x="1078" d="M575 930 Q778 930 885 787 Q978 663 978 456 Q978 211 853 83 Q743 -29 555 -29 Q308 -29 205 164 Q114 333 114 685 Q114 1130 230 1333 Q328 1504 556 1504 Q755 1504 856 1388 Q942 1289 944 1122 L777 1122 Q764 1351 557 1351 Q487 1351 442.5 1322.5 Q398 1294 366 1229 Q297 1091 290 780 Q380 930 575 930 Z M552 126 Q676 126 743 224 Q801 310 801 452 Q801 614 725 700 Q660 775 551 775 Q426 775 361 679 Q303 594 303 452 Q303 295 377 206 Q444 126 552 126 Z " />
<glyph glyph-name="seven" unicode="7" horiz-adv-x="1078" d="M518 0 L335 0 L784 1327 L263 1327 L263 1097 L103 1097 L103 1475 L959 1475 L959 1324 L518 0 Z " />
<glyph glyph-name="eight" unicode="8" horiz-adv-x="1078" d="M99 401 Q99 666 314 778 Q144 887 144 1109 Q144 1304 263 1411 Q368 1504 540 1504 Q737 1504 843 1384 Q935 1280 935 1110 Q935 891 770 780 Q979 668 979 403 Q979 186 847 71 Q732 -29 540 -29 Q319 -29 201 101 Q99 214 99 401 Z M761 1102 Q761 1230 696 1294 Q640 1351 540 1351 Q426 1351 368 1278 Q318 1214 318 1103 Q318 975 385 908 Q443 850 542 850 Q653 850 711 925 Q761 990 761 1102 Z M800 412 Q800 554 721 632 Q651 701 539 701 Q411 701 340 613 Q278 537 278 414 Q278 273 358 194 Q428 125 540 125 Q668 125 739 212 Q800 288 800 412 Z " />
<glyph glyph-name="nine" unicode="9" horiz-adv-x="1078" d="M856 1346 Q962 1186 962 760 Q962 322 865 146 Q769 -29 534 -29 Q338 -29 238 86 Q153 184 151 353 L319 353 Q333 124 531 124 Q667 124 725 248 Q787 384 786 721 Q712 573 498 573 Q301 573 197 709 Q105 828 105 1029 Q105 1268 232 1394 Q344 1504 534 1504 Q752 1504 856 1346 Z M530 725 Q653 725 716 816 Q772 894 772 1028 Q772 1185 697 1273 Q631 1349 526 1349 Q406 1349 340 1253 Q283 1169 283 1034 Q283 878 357 796 Q422 725 530 725 Z " />
<glyph glyph-name="colon" unicode="&#x3a;" horiz-adv-x="579" d="M156 0 L156 225 L364 225 L364 0 L156 0 Z M156 636 L156 861 L364 861 L364 636 L156 636 Z " />
<glyph glyph-name="semicolon" unicode="&#x3b;" horiz-adv-x="613" d="M176 636 L176 861 L384 861 L384 636 L176 636 Z M78 -273 L192 221 L396 221 L245 -273 L78 -273 Z " />
<glyph glyph-name="less" unicode="&#x3c;" horiz-adv-x="1078" d="M827 1087 L346 739 L827 389 L827 199 L159 684 L159 793 L827 1276 L827 1087 Z " />
<glyph glyph-name="equal" unicode="&#x3d;" horiz-adv-x="1078" d="M172 979 L906 979 L906 827 L172 827 L172 979 Z M172 644 L906 644 L906 492 L172 492 L172 644 Z " />
<glyph glyph-name="greater" unicode="&#x3e;" horiz-adv-x="1078" d="M876 791 L876 682 L208 199 L208 387 L689 736 L208 1086 L208 1276 L876 791 Z " />
<glyph glyph-name="question" unicode="&#x3f;" horiz-adv-x="939" d="M444 1508 Q639 1508 743 1377 Q835 1263 835 1073 Q835 887 735 772 Q652 677 515 648 L515 388 L350 388 L350 771 Q653 772 653 1070 Q653 1213 588 1289 Q532 1354 438 1354 Q325 1354 269 1261 Q224 1184 223 1053 L49 1053 Q46 1273 153 1393 Q255 1508 444 1508 Z M331 215 L536 215 L536 0 L331 0 L331 215 Z " />
<glyph glyph-name="at" unicode="&#x40;" horiz-adv-x="1821" d="M950 -84 Q1232 -84 1474 49 L1533 -82 Q1289 -234 945 -234 Q541 -234 341 12 Q163 230 163 622 Q163 1075 382 1308 Q575 1514 914 1514 Q1292 1514 1478 1285 Q1641 1082 1641 716 Q1641 433 1553 319 Q1476 220 1312 220 Q1124 220 1087 384 Q1061 306 1001 264 Q941 222 857 222 Q702 222 626 342 Q560 445 560 626 Q560 822 648 932 Q726 1029 855 1029 Q998 1029 1060 908 L1060 1017 L1209 1017 L1209 493 Q1209 356 1322 356 Q1418 356 1454 447 Q1486 528 1486 714 Q1486 1370 913 1370 Q606 1370 451 1140 Q320 945 320 611 Q320 247 510 68 Q670 -84 950 -84 Z M888 361 Q967 361 1010 431 Q1053 501 1053 628 Q1053 762 1005 831 Q963 891 891 891 Q810 891 765 807 Q726 735 726 627 Q726 491 772 422 Q814 361 888 361 Z " />
<glyph glyph-name="A" unicode="A" horiz-adv-x="1264" d="M1239 145 L1239 0 L805 0 L805 145 L952 145 L872 440 L385 440 L301 145 L457 145 L457 0 L26 0 L26 145 L122 145 L531 1475 L735 1475 L1136 145 L1239 145 Z M426 583 L832 583 L634 1286 L626 1286 L426 583 Z " />
<glyph glyph-name="B" unicode="B" horiz-adv-x="1196" d="M833 786 Q1095 710 1095 417 Q1095 207 958 98 Q835 0 615 0 L101 0 L101 145 L231 145 L231 1330 L101 1330 L101 1475 L554 1475 Q1022 1475 1022 1098 Q1022 863 833 786 Z M406 1330 L406 852 L589 852 Q841 852 841 1083 Q841 1330 565 1330 L406 1330 Z M596 145 Q768 145 844 224 Q908 291 908 421 Q908 708 598 708 L406 708 L406 145 L596 145 Z " />
<glyph glyph-name="C" unicode="C" horiz-adv-x="1161" d="M1066 125 Q900 -31 648 -31 Q102 -31 102 714 Q102 1121 257 1326 Q390 1502 619 1502 Q807 1502 891 1374 L892 1475 L1033 1475 L1033 1040 L887 1040 Q887 1195 817 1274 Q755 1345 646 1345 Q462 1345 369 1160 Q288 1000 288 724 Q288 133 667 133 Q837 133 971 255 L1066 125 Z " />
<glyph glyph-name="D" unicode="D" horiz-adv-x="1311" d="M535 1475 Q879 1475 1049 1254 Q1194 1065 1194 738 Q1194 364 1013 172 Q851 0 564 0 L101 0 L101 145 L231 145 L231 1330 L101 1330 L101 1475 L535 1475 Z M544 145 Q791 145 908 318 Q1009 466 1009 736 Q1009 1043 873 1195 Q752 1330 533 1330 L409 1330 L409 145 L544 145 Z " />
<glyph glyph-name="E" unicode="E" horiz-adv-x="1151" d="M1038 400 L1038 0 L101 0 L101 145 L236 145 L236 1330 L101 1330 L101 1475 L1011 1475 L1011 1116 L851 1116 L851 1330 L414 1330 L414 834 L827 834 L827 689 L414 689 L414 145 L880 145 L880 400 L1038 400 Z " />
<glyph glyph-name="F" unicode="F" horiz-adv-x="1085" d="M1019 1475 L1019 1116 L859 1116 L859 1330 L415 1330 L415 824 L816 824 L816 679 L415 679 L415 145 L626 145 L626 0 L101 0 L101 145 L236 145 L236 1330 L101 1330 L101 1475 L1019 1475 Z " />
<glyph glyph-name="G" unicode="G" horiz-adv-x="1265" d="M949 192 L949 577 L615 577 L615 722 L1115 722 L1115 89 Q997 24 896.5 -3.5 Q796 -31 680 -31 Q370 -31 228 174 Q101 358 101 712 Q101 1129 259 1330 Q396 1504 643 1504 Q844 1504 936 1381 L937 1475 L1079 1475 L1079 1057 L933 1057 Q933 1209 854 1282 Q786 1345 666 1345 Q286 1345 286 711 Q286 386 397 247 Q492 127 685 127 Q822 127 949 192 Z " />
<glyph glyph-name="H" unicode="H" horiz-adv-x="1373" d="M1137 1330 L1137 145 L1272 145 L1272 0 L821 0 L821 145 L959 145 L959 700 L414 700 L414 145 L552 145 L552 0 L101 0 L101 145 L236 145 L236 1330 L101 1330 L101 1475 L552 1475 L552 1330 L414 1330 L414 846 L959 846 L959 1330 L821 1330 L821 1475 L1272 1475 L1272 1330 L1137 1330 Z " />
<glyph glyph-name="I" unicode="I" horiz-adv-x="651" d="M551 145 L551 0 L101 0 L101 145 L236 145 L236 1330 L101 1330 L101 1475 L551 1475 L551 1330 L415 1330 L415 145 L551 145 Z " />
<glyph glyph-name="J" unicode="J" horiz-adv-x="637" d="M554 1330 L420 1330 L420 81 Q420 -132 344 -215 Q270 -297 90 -301 L90 -142 Q173 -138 206.5 -93.5 Q240 -49 240 56 L240 1330 L100 1330 L100 1475 L554 1475 L554 1330 Z " />
<glyph glyph-name="K" unicode="K" horiz-adv-x="1287" d="M1262 145 L1262 0 L786 0 L786 145 L916 145 L414 744 L414 145 L545 145 L545 0 L101 0 L101 145 L238 145 L238 1330 L101 1330 L101 1475 L542 1475 L542 1330 L414 1330 L414 774 L869 1331 L746 1331 L746 1475 L1183 1475 L1183 1330 L1064 1330 L608 771 L1133 145 L1262 145 Z " />
<glyph glyph-name="L" unicode="L" horiz-adv-x="1110" d="M1032 422 L1032 0 L101 0 L101 145 L236 145 L236 1330 L101 1330 L101 1475 L556 1475 L556 1330 L416 1330 L416 145 L869 145 L869 422 L1032 422 Z " />
<glyph glyph-name="M" unicode="M" horiz-adv-x="1691" d="M1608 147 L1608 0 L1187 0 L1187 147 L1312 147 L1277 1025 L1273 1294 L1203 1025 L906 0 L788 0 L482 1025 Q435 1191 412 1290 L408 1025 L380 147 L504 147 L504 0 L83 0 L83 147 L216 147 L265 1328 L131 1328 L131 1475 L516 1475 L798 500 Q824 405 846 300 Q869 420 890 500 L1167 1475 L1559 1475 L1559 1328 L1420 1328 L1476 147 L1608 147 Z " />
<glyph glyph-name="N" unicode="N" horiz-adv-x="1383" d="M475 1050 Q426 1147 390 1245 Q399 1141 399 1007 L399 145 L558 145 L558 0 L101 0 L101 145 L236 145 L236 1331 L101 1331 L101 1475 L437 1475 L928 513 Q981 407 1018 302 Q1007 415 1007 589 L1007 1330 L856 1330 L856 1475 L1305 1475 L1305 1330 L1169 1330 L1169 -13 L1024 -13 L475 1050 Z " />
<glyph glyph-name="O" unicode="O" horiz-adv-x="1283" d="M641 -30 Q358 -30 221 192 Q101 386 101 737 Q101 1138 259 1335 Q396 1506 640 1506 Q923 1506 1061 1282 Q1182 1087 1182 737 Q1182 336 1025 141 Q888 -30 641 -30 Z M642 133 Q827 133 917 308 Q995 461 995 735 Q995 1050 892 1206 Q801 1343 642 1343 Q459 1343 368 1165 Q289 1010 289 736 Q289 423 392 268 Q482 133 642 133 Z " />
<glyph glyph-name="P" unicode="P" horiz-adv-x="1151" d="M409 573 L409 145 L587 145 L587 0 L101 0 L101 145 L231 145 L231 1330 L101 1330 L101 1475 L549 1475 Q1069 1475 1069 1022 Q1069 786 924 673 Q796 573 564 573 L409 573 Z M409 1330 L409 716 L570 716 Q741 716 816 799 Q883 873 883 1017 Q883 1330 568 1330 L409 1330 Z " />
<glyph glyph-name="Q" unicode="Q" horiz-adv-x="1291" d="M707 -27 Q752 -40 838 -92 Q858 -103 870 -110 Q941 -150 995 -150 Q1064 -150 1139 -108 L1193 -244 Q1099 -309 1000 -309 Q948 -309 904 -293 Q860 -277 789 -231 Q689 -167 626 -167 Q572 -167 523.5 -189.5 Q475 -212 400 -273 L335 -141 Q453 -47 549 -24 Q360 6 250 150 Q175 249 140.5 383.5 Q106 518 101 737 Q101 1138 259 1335 Q396 1506 640 1506 Q923 1506 1061 1282 Q1182 1087 1182 737 Q1177 534 1148 410 Q1113 256 1032 150 Q913 -6 707 -27 Z M642 133 Q827 133 917 308 Q995 461 995 735 Q995 1050 892 1206 Q801 1343 642 1343 Q459 1343 368 1165 Q289 1010 289 736 Q289 423 392 268 Q482 133 642 133 Z " />
<glyph glyph-name="R" unicode="R" horiz-adv-x="1254" d="M1219 145 L1219 0 L944 0 L824 385 Q776 546 716 592 Q661 634 534 634 L412 634 L412 145 L570 145 L570 0 L101 0 L101 145 L236 145 L236 1330 L101 1330 L101 1475 L545 1475 Q828 1475 949 1363 Q1058 1263 1058 1055 Q1058 900 995 813 Q939 736 825 699 Q930 652 986 469 L1086 145 L1219 145 Z M573 779 Q744 779 812 851 Q872 914 872 1052 Q872 1210 783 1275 Q706 1331 550 1331 L412 1331 L412 779 L573 779 Z " />
<glyph glyph-name="S" unicode="S" horiz-adv-x="1107" d="M645 832 Q852 785 936 674 Q1011 576 1011 403 Q1011 177 889 67 Q783 -29 592 -29 Q361 -29 270 115 L267 0 L127 0 L127 429 L286 429 Q288 273 370 197 Q441 130 568 130 Q703 130 770 206 Q828 271 828 389 Q828 510 766 577 Q711 637 603 662 L466 695 Q288 738 208 848 Q136 946 136 1106 Q136 1311 252 1414 Q352 1504 528 1504 Q702 1504 785 1379 L785 1475 L929 1475 L929 1103 L782 1103 Q782 1230 714 1292 Q654 1347 548 1347 Q428 1347 367 1279 Q314 1219 314 1114 Q314 905 527 859 L645 832 Z " />
<glyph glyph-name="T" unicode="T" horiz-adv-x="1185" d="M1127 1475 L1127 1076 L971 1076 L971 1334 L682 1334 L682 145 L854 145 L854 0 L331 0 L331 145 L503 145 L503 1334 L214 1334 L214 1076 L58 1076 L58 1475 L1127 1475 Z " />
<glyph glyph-name="U" unicode="U" horiz-adv-x="1320" d="M655 -30 Q379 -30 271 161 Q230 235 214 334.5 Q198 434 198 621 L198 1328 L63 1328 L63 1475 L514 1475 L514 1328 L378 1328 L378 565 Q378 318 447 221 Q512 130 659 130 Q829 130 892 252 Q942 350 942 562 L942 1328 L806 1328 L806 1475 L1256 1475 L1256 1328 L1122 1328 L1122 620 Q1122 366 1083 245 Q1045 125 950 54 Q837 -30 655 -30 Z " />
<glyph glyph-name="V" unicode="V" horiz-adv-x="1206" d="M519 0 L113 1330 L-5 1330 L-5 1475 L477 1475 L477 1330 L302 1330 L553 432 Q579 339 602 237 Q624 339 650 432 L906 1330 L737 1330 L737 1475 L1206 1475 L1206 1330 L1091 1330 L688 0 L519 0 Z " />
<glyph glyph-name="W" unicode="W" horiz-adv-x="1652" d="M1637 1330 L1526 1330 L1266 -6 L1110 -6 L880 945 Q865 1007 834 1181 L830 1201 Q801 1032 779 946 L544 -6 L388 -6 L135 1330 L18 1330 L18 1475 L459 1475 L459 1330 L315 1330 L444 502 Q450 461 469 339 L475 298 Q490 366 503 429 Q511 469 519 502 L757 1486 L904 1486 L1135 502 Q1144 465 1155 414 Q1165 366 1180 302 Q1183 320 1193 377 Q1207 455 1214 502 L1346 1330 L1203 1330 L1203 1475 L1637 1475 L1637 1330 Z " />
<glyph glyph-name="X" unicode="X" horiz-adv-x="1214" d="M1185 145 L1185 0 L719 0 L719 145 L868 145 L610 623 L360 145 L509 145 L509 0 L34 0 L34 145 L174 145 L521 757 L200 1330 L75 1330 L75 1475 L530 1475 L530 1330 L389 1330 L622 890 L853 1330 L711 1330 L711 1475 L1143 1475 L1143 1330 L1028 1330 L711 761 L1056 145 L1185 145 Z " />
<glyph glyph-name="Y" unicode="Y" horiz-adv-x="1152" d="M665 633 L665 145 L832 145 L832 0 L320 0 L320 145 L487 145 L487 641 L120 1330 L-11 1330 L-11 1475 L475 1475 L475 1330 L315 1330 L583 786 L852 1330 L697 1330 L697 1475 L1164 1475 L1164 1330 L1035 1330 L665 633 Z " />
<glyph glyph-name="Z" unicode="Z" horiz-adv-x="1088" d="M988 406 L988 0 L92 0 L92 143 L781 1330 L279 1330 L279 1085 L124 1085 L124 1475 L988 1475 L988 1355 L291 145 L832 145 L832 406 L988 406 Z " />
<glyph glyph-name="bracketleft" unicode="&#x5b;" horiz-adv-x="851" d="M292 -422 L292 1475 L653 1475 L653 1338 L470 1338 L470 -280 L653 -280 L653 -422 L292 -422 Z " />
<glyph glyph-name="backslash" unicode="&#x5c;" horiz-adv-x="802" d="M63 1491 L204 1491 L697 -188 L556 -188 L63 1491 Z " />
<glyph glyph-name="bracketright" unicode="&#x5d;" horiz-adv-x="851" d="M198 -280 L381 -280 L381 1338 L198 1338 L198 1475 L559 1475 L559 -422 L198 -422 L198 -280 Z " />
<glyph glyph-name="asciicircum" unicode="&#x5e;" horiz-adv-x="980" d="M467 1330 L226 904 L49 904 L386 1475 L549 1475 L885 904 L708 904 L467 1330 Z " />
<glyph glyph-name="underscore" unicode="&#x5f;" horiz-adv-x="828" d="M0 -422 L0 -271 L828 -271 L828 -422 L0 -422 Z " />
<glyph glyph-name="grave" unicode="&#x60;" horiz-adv-x="713" d="M163 1479 L362 1479 L538 1122 L406 1122 L163 1479 Z " />
<glyph glyph-name="a" unicode="a" horiz-adv-x="976" d="M938 143 L938 0 L685 0 L684 142 Q654 62 577 17 Q500 -28 395 -28 Q229 -28 148 62 Q77 140 77 279 Q77 574 430 574 L648 574 L648 662 Q648 768 609 811.5 Q570 855 475 855 Q390 855 354 821 Q318 787 314 704 L142 704 Q148 866 239 936 Q318 997 470 997 Q670 997 745 910 Q811 833 811 656 L811 143 L938 143 Z M622 206 Q648 249 648 339 L648 445 L451 445 Q349 445 302.5 406.5 Q256 368 256 284 Q256 114 428 114 Q566 114 622 206 Z " />
<glyph glyph-name="b" unicode="b" horiz-adv-x="1026" d="M571 997 Q756 997 855 846 Q943 711 943 481 Q943 218 831 85 Q735 -29 575 -29 Q477 -29 405.5 15 Q334 59 301 140 L296 0 L148 0 L148 1332 L17 1332 L17 1475 L314 1475 L314 851 Q400 997 571 997 Z M540 121 Q763 121 763 482 Q763 671 697 765 Q640 847 539 847 Q314 847 314 486 Q314 121 540 121 Z " />
<glyph glyph-name="c" unicode="c" horiz-adv-x="903" d="M819 78 Q704 -29 506 -29 Q282 -29 174 121 Q81 248 81 476 Q81 742 201 880 Q303 995 470 995 Q612 995 666 892 L666 968 L805 968 L805 633 L659 633 Q659 715 642 757 Q606 848 497 848 Q381 848 319 744 Q262 649 262 483 Q262 123 528 123 Q639 123 738 202 L819 78 Z " />
<glyph glyph-name="d" unicode="d" horiz-adv-x="1049" d="M1005 143 L1005 0 L734 0 L733 173 Q675 -29 454 -29 Q268 -29 170 121 Q82 254 82 481 Q82 740 196 878 Q295 997 459 997 Q636 997 711 847 L711 1332 L538 1332 L538 1475 L876 1475 L876 143 L1005 143 Z M486 122 Q603 122 660 227 Q711 320 711 486 Q711 676 644 768 Q587 847 485 847 Q371 847 313 741 Q263 648 263 483 Q263 295 328 203 Q385 122 486 122 Z " />
<glyph glyph-name="e" unicode="e" horiz-adv-x="929" d="M481 997 Q688 997 777 835 Q854 697 850 431 L254 431 Q259 271 333 191 Q398 121 509 121 Q632 121 744 195 L820 68 Q684 -29 504 -29 Q81 -29 81 481 Q81 747 199 881 Q302 997 481 997 Z M478 854 Q372 854 314 768 Q263 693 255 562 L682 562 Q674 854 478 854 Z " />
<glyph glyph-name="f" unicode="f" horiz-adv-x="641" d="M75 0 L75 143 L205 143 L205 825 L75 825 L75 964 L205 968 L205 1123 Q205 1327 283 1412 Q354 1490 506 1490 Q573 1490 649 1477 L633 1337 Q567 1342 539 1342 Q443 1342 406.5 1297 Q370 1252 370 1134 L370 968 L590 968 L590 825 L372 825 L372 143 L569 143 L569 0 L75 0 Z " />
<glyph glyph-name="g" unicode="g" horiz-adv-x="1045" d="M1008 968 L1008 825 L881 825 L881 -10 Q881 -262 787 -361 Q700 -452 502 -452 Q303 -452 219 -366 Q145 -292 142 -140 L302 -140 Q306 -232 352 -270 Q398 -308 505 -308 Q631 -308 679 -235 Q722 -169 722 -19 L722 135 Q687 60 618.5 19 Q550 -22 461 -22 Q271 -22 172 132 Q87 264 87 486 Q87 743 199 879 Q297 997 458 997 Q659 997 744 809 L744 968 L1008 968 Z M493 126 Q715 126 715 487 Q715 674 650 766 Q593 847 490 847 Q376 847 318 743 Q268 651 268 488 Q268 301 334 208 Q392 126 493 126 Z " />
<glyph glyph-name="h" unicode="h" horiz-adv-x="1076" d="M1040 143 L1040 0 L625 0 L625 143 L738 143 L738 652 Q738 756 705.5 802 Q673 848 600 848 Q466 848 358 671 L358 143 L471 143 L471 0 L56 0 L56 143 L184 143 L184 1332 L50 1332 L50 1475 L352 1475 L352 824 Q477 997 650 997 Q911 997 911 681 L911 143 L1040 143 Z " />
<glyph glyph-name="i" unicode="i" horiz-adv-x="550" d="M179 1368 L375 1368 L375 1164 L179 1164 L179 1368 Z M76 143 L205 143 L205 825 L76 825 L76 968 L379 968 L379 143 L507 143 L507 0 L76 0 L76 143 Z " />
<glyph glyph-name="j" unicode="j" horiz-adv-x="504" d="M165 1370 L366 1370 L366 1163 L165 1163 L165 1370 Z M55 -271 Q132 -268 162 -232 Q192 -196 192 -107 L192 825 L61 825 L61 968 L364 968 L364 -74 Q364 -272 294 -347 Q224 -422 55 -422 L55 -271 Z " />
<glyph glyph-name="k" unicode="k" horiz-adv-x="1035" d="M1029 143 L1029 0 L588 0 L588 137 L705 137 L347 537 L347 137 L458 137 L458 0 L50 0 L50 143 L179 143 L179 1332 L50 1332 L50 1475 L347 1475 L347 546 L651 846 L516 846 L516 968 L935 968 L935 825 L816 825 L534 549 L905 143 L1029 143 Z " />
<glyph glyph-name="l" unicode="l" horiz-adv-x="534" d="M56 145 L184 145 L184 1330 L50 1330 L50 1475 L355 1475 L355 145 L483 145 L483 0 L56 0 L56 145 Z " />
<glyph glyph-name="m" unicode="m" horiz-adv-x="1632" d="M1596 143 L1596 0 L1181 0 L1181 143 L1294 143 L1294 648 Q1294 754 1261.5 800.5 Q1229 847 1155 847 Q1030 847 923 681 L923 671 L923 143 L1041 143 L1041 0 L636 0 L636 143 L749 143 L749 642 Q749 752 717 799.5 Q685 847 611 847 Q482 847 378 683 L378 143 L491 143 L491 0 L76 0 L76 143 L205 143 L205 825 L76 825 L76 968 L358 968 L358 808 Q477 997 667 997 Q858 997 906 813 Q1033 997 1212 997 Q1345 997 1411 902 Q1467 821 1467 678 L1467 143 L1596 143 Z " />
<glyph glyph-name="n" unicode="n" horiz-adv-x="1097" d="M1060 143 L1060 0 L645 0 L645 143 L759 143 L759 652 Q759 756 726.5 802 Q694 848 620 848 Q485 848 378 671 L378 143 L492 143 L492 0 L76 0 L76 143 L205 143 L205 825 L76 825 L76 968 L357 968 L357 801 Q486 997 671 997 Q932 997 932 681 L932 143 L1060 143 Z " />
<glyph glyph-name="o" unicode="o" horiz-adv-x="979" d="M490 -29 Q279 -29 172 125 Q81 257 81 482 Q81 742 202 878 Q307 997 488 997 Q698 997 805 842 Q898 708 898 480 Q898 222 776 88 Q669 -29 490 -29 Z M489 121 Q607 121 666 227 Q717 320 717 484 Q717 671 650 765 Q591 848 488 848 Q371 848 313 740 Q262 647 262 483 Q262 295 328 202 Q386 121 489 121 Z " />
<glyph glyph-name="p" unicode="p" horiz-adv-x="1061" d="M605 997 Q791 997 891 843 Q979 708 979 481 Q979 221 866 87 Q769 -29 608 -29 Q434 -29 350 104 L350 -281 L546 -281 L546 -422 L55 -422 L55 -281 L185 -281 L185 825 L55 825 L55 968 L320 968 L320 802 Q403 997 605 997 Z M577 123 Q692 123 748 228 Q798 320 798 483 Q798 671 732 765 Q675 846 575 846 Q353 846 350 486 Q353 123 577 123 Z " />
<glyph glyph-name="q" unicode="q" horiz-adv-x="1050" d="M876 824 L876 -281 L1005 -281 L1005 -422 L513 -422 L513 -281 L710 -281 L710 124 Q641 -29 452 -29 Q268 -29 169 123 Q82 258 82 485 Q82 745 197 880 Q297 997 465 997 Q655 997 740 803 L740 968 L1005 968 L1005 824 L876 824 Z M486 122 Q603 122 661 227 Q711 320 711 486 Q711 675 644 767 Q587 846 485 846 Q371 846 314 741 Q263 648 263 483 Q263 296 328 203 Q385 122 486 122 Z " />
<glyph glyph-name="r" unicode="r" horiz-adv-x="755" d="M547 964 Q604 986 716 986 L716 815 Q615 818 555 795 Q440 753 385 615 L385 143 L584 143 L584 0 L80 0 L80 143 L212 143 L212 825 L76 825 L76 968 L358 968 L358 737 Q413 912 547 964 Z " />
<glyph glyph-name="s" unicode="s" horiz-adv-x="873" d="M539 557 Q685 531 747 456 Q804 389 804 271 Q804 117 712 40 Q633 -27 495 -27 Q301 -27 237 106 L237 -2 L103 -2 L103 293 L254 293 Q264 201 314.5 158.5 Q365 116 464 116 Q634 116 634 259 Q634 328 598 362 Q562 396 472 412 L373 431 Q224 457 160 533 Q105 599 105 715 Q105 858 195 933 Q271 998 397 998 Q560 998 613 882 L613 970 L743 970 L743 698 L600 698 Q600 773 556.5 813.5 Q513 854 432 854 Q274 854 274 716 Q274 604 424 579 L539 557 Z " />
<glyph glyph-name="t" unicode="t" horiz-adv-x="632" d="M428 -12 Q280 -12 223 61 Q174 124 174 261 L174 825 L53 825 L53 968 L177 968 L177 1318 L340 1318 L340 968 L563 968 L563 825 L345 825 L345 274 Q345 196 373 166.5 Q401 137 475 137 Q519 137 577 140 L577 -3 Q510 -12 428 -12 Z " />
<glyph glyph-name="u" unicode="u" horiz-adv-x="1056" d="M1013 143 L1013 0 L741 0 L739 160 Q619 -29 423 -29 Q165 -29 165 282 L165 825 L37 825 L37 968 L338 968 L338 323 Q338 211 368.5 166.5 Q399 122 475 122 Q613 122 711 281 L711 825 L583 825 L583 968 L885 968 L885 143 L1013 143 Z " />
<glyph glyph-name="v" unicode="v" horiz-adv-x="939" d="M939 825 L829 825 L551 -3 L367 -3 L97 825 L-9 825 L-9 968 L394 968 L394 827 L271 827 L387 430 L414 334 Q444 225 460 170 L467 170 Q477 205 500 283 Q525 371 541 426 L660 827 L529 827 L529 968 L939 968 L939 825 Z " />
<glyph glyph-name="w" unicode="w" horiz-adv-x="1339" d="M483 0 L310 0 L102 825 L6 825 L6 968 L415 968 L415 825 L268 825 L348 450 Q354 421 369 351 Q389 254 400 197 L405 197 Q430 323 461 437 L601 968 L749 968 L880 462 L893 413 Q927 286 943 197 L948 197 Q973 337 1007 474 L1090 825 L956 825 L956 968 L1347 968 L1347 825 L1241 825 L1029 0 L860 0 L730 508 Q720 549 697 656 Q684 717 677 746 L672 746 Q661 701 630 573 L614 510 L483 0 Z " />
<glyph glyph-name="x" unicode="x" horiz-adv-x="999" d="M967 144 L967 0 L558 0 L558 133 L678 133 L500 403 L329 133 L452 133 L452 0 L41 0 L40 144 L157 144 L401 495 L171 825 L54 825 L54 968 L451 968 L451 840 L341 840 L506 592 L667 840 L559 840 L559 968 L954 968 L954 825 L826 825 L605 499 L850 144 L967 144 Z " />
<glyph glyph-name="y" unicode="y" horiz-adv-x="920" d="M929 825 L833 825 L493 -139 Q428 -322 349 -374 Q279 -421 122 -422 L122 -271 Q220 -268 260 -241 Q302 -213 329 -136 L378 5 L84 825 L-13 825 L-13 968 L401 968 L401 827 L259 827 L401 369 Q417 314 444 235 Q454 207 458 193 L464 193 Q470 214 487 267 Q506 324 518 363 L662 827 L517 827 L517 968 L929 968 L929 825 Z " />
<glyph glyph-name="z" unicode="z" horiz-adv-x="880" d="M806 320 L806 0 L83 0 L83 133 L601 830 L257 830 L257 671 L111 671 L111 968 L795 968 L795 836 L280 140 L660 140 L660 320 L806 320 Z " />
<glyph glyph-name="braceleft" unicode="&#x7b;" horiz-adv-x="806" d="M475 877 Q475 712 438.5 643 Q402 574 296 539 Q411 498 445 419 Q475 350 475 190 L475 -28 Q475 -175 506 -220 Q545 -277 664 -277 L714 -277 L714 -421 L644 -421 Q431 -421 362 -333 Q301 -255 301 -52 L301 173 Q301 352 249 411 Q203 463 82 469 L82 607 Q220 613 263 682 Q301 743 301 905 L301 1106 Q301 1336 382 1410 Q454 1475 644 1475 L714 1475 L714 1331 L663 1331 Q542 1331 506 1275 Q475 1226 475 1085 L475 877 Z " />
<glyph glyph-name="bar" unicode="&#x7c;" horiz-adv-x="1022" d="M425 -480 L425 1566 L597 1566 L597 -480 L425 -480 Z " />
<glyph glyph-name="braceright" unicode="&#x7d;" horiz-adv-x="806" d="M505 905 Q505 723 557 664 Q602 612 724 607 L724 469 Q587 463 544 393 Q505 331 505 173 L505 -52 Q505 -282 423 -356 Q351 -421 162 -421 L92 -421 L92 -277 L143 -277 Q275 -277 310 -203 Q331 -158 331 -28 L331 190 Q331 362 366.5 431.5 Q402 501 510 539 Q397 577 361 656 Q331 724 331 877 L331 1085 Q331 1244 289 1290 Q251 1331 143 1331 L92 1331 L92 1475 L162 1475 Q376 1475 444 1388 Q505 1310 505 1106 L505 905 Z " />
<glyph glyph-name="asciitilde" unicode="&#x7e;" horiz-adv-x="1073" d="M101 710 Q175 804 237.5 845 Q300 886 371 886 Q416 886 455 871 Q494 856 557 814 Q649 755 695 755 Q780 755 872 874 L971 761 Q838 584 703 584 Q627 584 512 655 Q419 713 375 713 Q301 713 200 596 L101 710 Z " />
<glyph glyph-name="Adieresis" unicode="&#xc4;" horiz-adv-x="1264" d="M1239 145 L1239 0 L805 0 L805 145 L952 145 L872 440 L385 440 L301 145 L457 145 L457 0 L26 0 L26 145 L122 145 L531 1475 L735 1475 L1136 145 L1239 145 Z M426 583 L832 583 L634 1286 L626 1286 L426 583 Z M367 1679 L367 1873 L544 1873 L544 1679 L367 1679 Z M715 1679 L715 1873 L892 1873 L892 1679 L715 1679 Z " />
<glyph glyph-name="Aring" unicode="&#xc5;" horiz-adv-x="1264" d="M1239 145 L1239 0 L805 0 L805 145 L952 145 L872 440 L385 440 L301 145 L457 145 L457 0 L26 0 L26 145 L122 145 L531 1475 L735 1475 L1136 145 L1239 145 Z M426 583 L832 583 L634 1286 L626 1286 L426 583 Z M629 2023 Q736 2023 793 1956 Q839 1901 839 1815 Q839 1716 779 1660 Q723 1608 630 1608 Q523 1608 466 1675 Q420 1731 420 1818 Q420 1914 482 1971 Q538 2023 629 2023 Z M629 1930 Q526 1930 526 1816 Q526 1701 629 1701 Q733 1701 733 1815 Q733 1930 629 1930 Z " />
<glyph glyph-name="Ccedilla" unicode="&#xc7;" horiz-adv-x="1161" d="M568 -27 Q359 -4 244 148 Q172 243 140 371 Q108 499 102 714 Q102 1121 257 1326 Q390 1502 619 1502 Q807 1502 891 1374 L892 1475 L1033 1475 L1033 1040 L887 1040 Q887 1195 817 1274 Q755 1345 646 1345 Q462 1345 369 1160 Q288 1000 288 724 Q288 133 667 133 Q837 133 971 255 L1066 125 Q908 -19 676 -31 L638 -122 Q654 -120 671 -120 Q748 -120 791 -162 Q834 -204 834 -280 Q834 -381 765 -433 Q707 -477 611 -477 Q504 -477 412 -431 L412 -313 Q519 -356 597 -356 Q697 -356 697 -274 Q697 -203 622 -203 Q588 -203 540 -217 L528 -121 L568 -27 Z " />
<glyph glyph-name="Eacute" unicode="&#xc9;" horiz-adv-x="1151" d="M1038 400 L1038 0 L101 0 L101 145 L236 145 L236 1330 L101 1330 L101 1475 L1011 1475 L1011 1116 L851 1116 L851 1330 L414 1330 L414 834 L827 834 L827 689 L414 689 L414 145 L880 145 L880 400 L1038 400 Z M495 1629 L670 1986 L871 1986 L627 1629 L495 1629 Z " />
<glyph glyph-name="Ntilde" unicode="&#xd1;" horiz-adv-x="1383" d="M475 1050 Q426 1147 390 1245 Q399 1141 399 1007 L399 145 L558 145 L558 0 L101 0 L101 145 L236 145 L236 1331 L101 1331 L101 1475 L437 1475 L928 513 Q981 407 1018 302 Q1007 415 1007 589 L1007 1330 L856 1330 L856 1475 L1305 1475 L1305 1330 L1169 1330 L1169 -13 L1024 -13 L475 1050 Z M392 1678 Q409 1885 581 1885 Q615 1885 640.5 1875.5 Q666 1866 732 1831 Q785 1801 818 1801 Q882 1801 888 1881 L1009 1881 Q1006 1770 945 1716 Q896 1672 816 1672 Q757 1672 663 1723 Q612 1750 582 1750 Q523 1750 516 1678 L392 1678 Z " />
<glyph glyph-name="Odieresis" unicode="&#xd6;" horiz-adv-x="1283" d="M641 -30 Q358 -30 221 192 Q101 386 101 737 Q101 1138 259 1335 Q396 1506 640 1506 Q923 1506 1061 1282 Q1182 1087 1182 737 Q1182 336 1025 141 Q888 -30 641 -30 Z M642 133 Q827 133 917 308 Q995 461 995 735 Q995 1050 892 1206 Q801 1343 642 1343 Q459 1343 368 1165 Q289 1010 289 736 Q289 423 392 268 Q482 133 642 133 Z M379 1697 L379 1891 L556 1891 L556 1697 L379 1697 Z M727 1697 L727 1891 L904 1891 L904 1697 L727 1697 Z " />
<glyph glyph-name="Udieresis" unicode="&#xdc;" horiz-adv-x="1320" d="M655 -30 Q379 -30 271 161 Q230 235 214 334.5 Q198 434 198 621 L198 1328 L63 1328 L63 1475 L514 1475 L514 1328 L378 1328 L378 565 Q378 318 447 221 Q512 130 659 130 Q829 130 892 252 Q942 350 942 562 L942 1328 L806 1328 L806 1475 L1256 1475 L1256 1328 L1122 1328 L1122 620 Q1122 366 1083 245 Q1045 125 950 54 Q837 -30 655 -30 Z M401 1679 L401 1873 L578 1873 L578 1679 L401 1679 Z M749 1679 L749 1873 L926 1873 L926 1679 L749 1679 Z " />
<glyph glyph-name="aacute" unicode="&#xe1;" horiz-adv-x="976" d="M938 143 L938 0 L685 0 L684 142 Q654 62 577 17 Q500 -28 395 -28 Q229 -28 148 62 Q77 140 77 279 Q77 574 430 574 L648 574 L648 662 Q648 768 609 811.5 Q570 855 475 855 Q390 855 354 821 Q318 787 314 704 L142 704 Q148 866 239 936 Q318 997 470 997 Q670 997 745 910 Q811 833 811 656 L811 143 L938 143 Z M622 206 Q648 249 648 339 L648 445 L451 445 Q349 445 302.5 406.5 Q256 368 256 284 Q256 114 428 114 Q566 114 622 206 Z M370 1122 L545 1479 L746 1479 L502 1122 L370 1122 Z " />
<glyph glyph-name="agrave" unicode="&#xe0;" horiz-adv-x="976" d="M938 143 L938 0 L685 0 L684 142 Q654 62 577 17 Q500 -28 395 -28 Q229 -28 148 62 Q77 140 77 279 Q77 574 430 574 L648 574 L648 662 Q648 768 609 811.5 Q570 855 475 855 Q390 855 354 821 Q318 787 314 704 L142 704 Q148 866 239 936 Q318 997 470 997 Q670 997 745 910 Q811 833 811 656 L811 143 L938 143 Z M622 206 Q648 249 648 339 L648 445 L451 445 Q349 445 302.5 406.5 Q256 368 256 284 Q256 114 428 114 Q566 114 622 206 Z M201 1479 L400 1479 L576 1122 L444 1122 L201 1479 Z " />
<glyph glyph-name="acircumflex" unicode="&#xe2;" horiz-adv-x="976" d="M938 143 L938 0 L685 0 L684 142 Q654 62 577 17 Q500 -28 395 -28 Q229 -28 148 62 Q77 140 77 279 Q77 574 430 574 L648 574 L648 662 Q648 768 609 811.5 Q570 855 475 855 Q390 855 354 821 Q318 787 314 704 L142 704 Q148 866 239 936 Q318 997 470 997 Q670 997 745 910 Q811 833 811 656 L811 143 L938 143 Z M622 206 Q648 249 648 339 L648 445 L451 445 Q349 445 302.5 406.5 Q256 368 256 284 Q256 114 428 114 Q566 114 622 206 Z M475 1345 L304 1122 L173 1122 L383 1460 L564 1460 L774 1122 L644 1122 L475 1345 Z " />
<glyph glyph-name="adieresis" unicode="&#xe4;" horiz-adv-x="976" d="M938 143 L938 0 L685 0 L684 142 Q654 62 577 17 Q500 -28 395 -28 Q229 -28 148 62 Q77 140 77 279 Q77 574 430 574 L648 574 L648 662 Q648 768 609 811.5 Q570 855 475 855 Q390 855 354 821 Q318 787 314 704 L142 704 Q148 866 239 936 Q318 997 470 997 Q670 997 745 910 Q811 833 811 656 L811 143 L938 143 Z M622 206 Q648 249 648 339 L648 445 L451 445 Q349 445 302.5 406.5 Q256 368 256 284 Q256 114 428 114 Q566 114 622 206 Z M213 1172 L213 1366 L390 1366 L390 1172 L213 1172 Z M561 1172 L561 1366 L738 1366 L738 1172 L561 1172 Z " />
<glyph glyph-name="atilde" unicode="&#xe3;" horiz-adv-x="976" d="M938 143 L938 0 L685 0 L684 142 Q654 62 577 17 Q500 -28 395 -28 Q229 -28 148 62 Q77 140 77 279 Q77 574 430 574 L648 574 L648 662 Q648 768 609 811.5 Q570 855 475 855 Q390 855 354 821 Q318 787 314 704 L142 704 Q148 866 239 936 Q318 997 470 997 Q670 997 745 910 Q811 833 811 656 L811 143 L938 143 Z M622 206 Q648 249 648 339 L648 445 L451 445 Q349 445 302.5 406.5 Q256 368 256 284 Q256 114 428 114 Q566 114 622 206 Z M169 1171 Q186 1378 358 1378 Q392 1378 417.5 1368.5 Q443 1359 509 1324 Q562 1294 595 1294 Q659 1294 665 1374 L786 1374 Q783 1264 722 1209 Q673 1165 593 1165 Q534 1165 440 1216 Q389 1243 359 1243 Q300 1243 293 1171 L169 1171 Z " />
<glyph glyph-name="aring" unicode="&#xe5;" horiz-adv-x="976" d="M938 143 L938 0 L685 0 L684 142 Q654 62 577 17 Q500 -28 395 -28 Q229 -28 148 62 Q77 140 77 279 Q77 574 430 574 L648 574 L648 662 Q648 768 609 811.5 Q570 855 475 855 Q390 855 354 821 Q318 787 314 704 L142 704 Q148 866 239 936 Q318 997 470 997 Q670 997 745 910 Q811 833 811 656 L811 143 L938 143 Z M622 206 Q648 249 648 339 L648 445 L451 445 Q349 445 302.5 406.5 Q256 368 256 284 Q256 114 428 114 Q566 114 622 206 Z M475 1516 Q582 1516 639 1449 Q685 1394 685 1308 Q685 1210 625 1153 Q569 1101 476 1101 Q369 1101 312 1168 Q266 1224 266 1311 Q266 1407 328 1464 Q384 1516 475 1516 Z M475 1423 Q372 1423 372 1309 Q372 1194 475 1194 Q579 1194 579 1308 Q579 1423 475 1423 Z " />
<glyph glyph-name="ccedilla" unicode="&#xe7;" horiz-adv-x="903" d="M437 -25 Q296 -8 210 78 Q89 199 81 476 Q81 742 201 880 Q303 995 470 995 Q612 995 666 892 L666 968 L805 968 L805 633 L659 633 Q659 715 642 757 Q606 848 497 848 Q381 848 319 744 Q262 649 262 483 Q262 123 528 123 Q639 123 738 202 L819 78 Q713 -16 546 -28 L507 -122 Q523 -120 540 -120 Q617 -120 660 -162 Q703 -204 703 -280 Q703 -381 635 -433 Q576 -477 480 -477 Q373 -477 281 -431 L281 -313 Q388 -356 466 -356 Q566 -356 566 -274 Q566 -203 491 -203 Q457 -203 409 -217 L397 -121 L437 -25 Z " />
<glyph glyph-name="eacute" unicode="&#xe9;" horiz-adv-x="929" d="M481 997 Q688 997 777 835 Q854 697 850 431 L254 431 Q259 271 333 191 Q398 121 509 121 Q632 121 744 195 L820 68 Q684 -29 504 -29 Q81 -29 81 481 Q81 747 199 881 Q302 997 481 997 Z M478 854 Q372 854 314 768 Q263 693 255 562 L682 562 Q674 854 478 854 Z M367 1122 L542 1479 L743 1479 L499 1122 L367 1122 Z " />
<glyph glyph-name="egrave" unicode="&#xe8;" horiz-adv-x="929" d="M481 997 Q688 997 777 835 Q854 697 850 431 L254 431 Q259 271 333 191 Q398 121 509 121 Q632 121 744 195 L820 68 Q684 -29 504 -29 Q81 -29 81 481 Q81 747 199 881 Q302 997 481 997 Z M478 854 Q372 854 314 768 Q263 693 255 562 L682 562 Q674 854 478 854 Z M198 1479 L397 1479 L573 1122 L441 1122 L198 1479 Z " />
<glyph glyph-name="ecircumflex" unicode="&#xea;" horiz-adv-x="929" d="M481 997 Q688 997 777 835 Q854 697 850 431 L254 431 Q259 271 333 191 Q398 121 509 121 Q632 121 744 195 L820 68 Q684 -29 504 -29 Q81 -29 81 481 Q81 747 199 881 Q302 997 481 997 Z M478 854 Q372 854 314 768 Q263 693 255 562 L682 562 Q674 854 478 854 Z M472 1345 L301 1122 L170 1122 L380 1460 L561 1460 L771 1122 L641 1122 L472 1345 Z " />
<glyph glyph-name="edieresis" unicode="&#xeb;" horiz-adv-x="929" d="M481 997 Q688 997 777 835 Q854 697 850 431 L254 431 Q259 271 333 191 Q398 121 509 121 Q632 121 744 195 L820 68 Q684 -29 504 -29 Q81 -29 81 481 Q81 747 199 881 Q302 997 481 997 Z M478 854 Q372 854 314 768 Q263 693 255 562 L682 562 Q674 854 478 854 Z M210 1172 L210 1366 L387 1366 L387 1172 L210 1172 Z M558 1172 L558 1366 L735 1366 L735 1172 L558 1172 Z " />
<glyph glyph-name="iacute" unicode="&#xed;" horiz-adv-x="548" d="M76 143 L205 143 L205 825 L76 825 L76 968 L379 968 L379 143 L507 143 L507 0 L76 0 L76 143 Z M167 1123 L311 1480 L504 1480 L298 1123 L167 1123 Z " />
<glyph glyph-name="igrave" unicode="&#xec;" horiz-adv-x="548" d="M76 143 L205 143 L205 825 L76 825 L76 968 L379 968 L379 143 L507 143 L507 0 L76 0 L76 143 Z M-3 1480 L196 1480 L372 1123 L240 1123 L-3 1480 Z " />
<glyph glyph-name="icircumflex" unicode="&#xee;" horiz-adv-x="548" d="M76 143 L205 143 L205 825 L76 825 L76 968 L379 968 L379 143 L507 143 L507 0 L76 0 L76 143 Z M264 1346 L110 1123 L-19 1123 L176 1461 L349 1461 L544 1123 L415 1123 L264 1346 Z " />
<glyph glyph-name="idieresis" unicode="&#xef;" horiz-adv-x="548" d="M76 143 L205 143 L205 825 L76 825 L76 968 L379 968 L379 143 L507 143 L507 0 L76 0 L76 143 Z M21 1173 L21 1367 L198 1367 L198 1173 L21 1173 Z M335 1173 L335 1367 L512 1367 L512 1173 L335 1173 Z " />
<glyph glyph-name="ntilde" unicode="&#xf1;" horiz-adv-x="1097" d="M1060 143 L1060 0 L645 0 L645 143 L759 143 L759 652 Q759 756 726.5 802 Q694 848 620 848 Q485 848 378 671 L378 143 L492 143 L492 0 L76 0 L76 143 L205 143 L205 825 L76 825 L76 968 L357 968 L357 801 Q486 997 671 997 Q932 997 932 681 L932 143 L1060 143 Z M247 1171 Q264 1378 436 1378 Q470 1378 495.5 1368.5 Q521 1359 587 1324 Q640 1294 673 1294 Q737 1294 743 1374 L864 1374 Q861 1264 800 1209 Q751 1165 671 1165 Q612 1165 518 1216 Q467 1243 437 1243 Q378 1243 371 1171 L247 1171 Z " />
<glyph glyph-name="oacute" unicode="&#xf3;" horiz-adv-x="979" d="M490 -29 Q279 -29 172 125 Q81 257 81 482 Q81 742 202 878 Q307 997 488 997 Q698 997 805 842 Q898 708 898 480 Q898 222 776 88 Q669 -29 490 -29 Z M489 121 Q607 121 666 227 Q717 320 717 484 Q717 671 650 765 Q591 848 488 848 Q371 848 313 740 Q262 647 262 483 Q262 295 328 202 Q386 121 489 121 Z M385 1122 L560 1479 L761 1479 L517 1122 L385 1122 Z " />
<glyph glyph-name="ograve" unicode="&#xf2;" horiz-adv-x="979" d="M490 -29 Q279 -29 172 125 Q81 257 81 482 Q81 742 202 878 Q307 997 488 997 Q698 997 805 842 Q898 708 898 480 Q898 222 776 88 Q669 -29 490 -29 Z M489 121 Q607 121 666 227 Q717 320 717 484 Q717 671 650 765 Q591 848 488 848 Q371 848 313 740 Q262 647 262 483 Q262 295 328 202 Q386 121 489 121 Z M216 1479 L415 1479 L591 1122 L459 1122 L216 1479 Z " />
<glyph glyph-name="ocircumflex" unicode="&#xf4;" horiz-adv-x="979" d="M490 -29 Q279 -29 172 125 Q81 257 81 482 Q81 742 202 878 Q307 997 488 997 Q698 997 805 842 Q898 708 898 480 Q898 222 776 88 Q669 -29 490 -29 Z M489 121 Q607 121 666 227 Q717 320 717 484 Q717 671 650 765 Q591 848 488 848 Q371 848 313 740 Q262 647 262 483 Q262 295 328 202 Q386 121 489 121 Z M490 1345 L319 1122 L188 1122 L398 1460 L579 1460 L789 1122 L659 1122 L490 1345 Z " />
<glyph glyph-name="odieresis" unicode="&#xf6;" horiz-adv-x="979" d="M490 -29 Q279 -29 172 125 Q81 257 81 482 Q81 742 202 878 Q307 997 488 997 Q698 997 805 842 Q898 708 898 480 Q898 222 776 88 Q669 -29 490 -29 Z M489 121 Q607 121 666 227 Q717 320 717 484 Q717 671 650 765 Q591 848 488 848 Q371 848 313 740 Q262 647 262 483 Q262 295 328 202 Q386 121 489 121 Z M228 1172 L228 1366 L405 1366 L405 1172 L228 1172 Z M576 1172 L576 1366 L753 1366 L753 1172 L576 1172 Z " />
<glyph glyph-name="otilde" unicode="&#xf5;" horiz-adv-x="979" d="M490 -29 Q279 -29 172 125 Q81 257 81 482 Q81 742 202 878 Q307 997 488 997 Q698 997 805 842 Q898 708 898 480 Q898 222 776 88 Q669 -29 490 -29 Z M489 121 Q607 121 666 227 Q717 320 717 484 Q717 671 650 765 Q591 848 488 848 Q371 848 313 740 Q262 647 262 483 Q262 295 328 202 Q386 121 489 121 Z M184 1171 Q201 1378 373 1378 Q407 1378 432.5 1368.5 Q458 1359 524 1324 Q577 1294 610 1294 Q674 1294 680 1374 L801 1374 Q798 1264 737 1209 Q688 1165 608 1165 Q549 1165 455 1216 Q404 1243 374 1243 Q315 1243 308 1171 L184 1171 Z " />
<glyph glyph-name="uacute" unicode="&#xfa;" horiz-adv-x="1056" d="M1013 143 L1013 0 L741 0 L739 160 Q619 -29 423 -29 Q165 -29 165 282 L165 825 L37 825 L37 968 L338 968 L338 323 Q338 211 368.5 166.5 Q399 122 475 122 Q613 122 711 281 L711 825 L583 825 L583 968 L885 968 L885 143 L1013 143 Z M400 1122 L575 1479 L776 1479 L532 1122 L400 1122 Z " />
<glyph glyph-name="ugrave" unicode="&#xf9;" horiz-adv-x="1056" d="M1013 143 L1013 0 L741 0 L739 160 Q619 -29 423 -29 Q165 -29 165 282 L165 825 L37 825 L37 968 L338 968 L338 323 Q338 211 368.5 166.5 Q399 122 475 122 Q613 122 711 281 L711 825 L583 825 L583 968 L885 968 L885 143 L1013 143 Z M231 1479 L430 1479 L606 1122 L474 1122 L231 1479 Z " />
<glyph glyph-name="ucircumflex" unicode="&#xfb;" horiz-adv-x="1056" d="M1013 143 L1013 0 L741 0 L739 160 Q619 -29 423 -29 Q165 -29 165 282 L165 825 L37 825 L37 968 L338 968 L338 323 Q338 211 368.5 166.5 Q399 122 475 122 Q613 122 711 281 L711 825 L583 825 L583 968 L885 968 L885 143 L1013 143 Z M505 1345 L334 1122 L203 1122 L413 1460 L594 1460 L804 1122 L674 1122 L505 1345 Z " />
<glyph glyph-name="udieresis" unicode="&#xfc;" horiz-adv-x="1056" d="M1013 143 L1013 0 L741 0 L739 160 Q619 -29 423 -29 Q165 -29 165 282 L165 825 L37 825 L37 968 L338 968 L338 323 Q338 211 368.5 166.5 Q399 122 475 122 Q613 122 711 281 L711 825 L583 825 L583 968 L885 968 L885 143 L1013 143 Z M243 1172 L243 1366 L420 1366 L420 1172 L243 1172 Z M591 1172 L591 1366 L768 1366 L768 1172 L591 1172 Z " />
<glyph glyph-name="dagger" unicode="&#x2020;" horiz-adv-x="1013" d="M428 906 L148 906 L148 1048 L428 1048 L428 1475 L583 1475 L583 1048 L860 1048 L860 906 L583 906 L583 -199 L428 -199 L428 906 Z " />
<glyph glyph-name="degree" unicode="&#xb0;" horiz-adv-x="722" d="M361 1536 Q504 1536 592 1440 Q668 1356 668 1234 Q668 1093 571 1007 Q486 932 362 932 Q218 932 130 1030 Q53 1115 53 1238 Q53 1377 151 1462 Q237 1536 361 1536 Z M361 1425 Q276 1425 224 1365 Q179 1313 179 1236 Q179 1146 237 1091 Q288 1043 362 1043 Q446 1043 498 1104 Q543 1157 543 1234 Q543 1323 485 1378 Q435 1425 361 1425 Z " />
<glyph glyph-name="cent" unicode="&#xa2;" horiz-adv-x="1078" d="M924 353 Q814 253 630 246 L630 0 L504 0 L504 253 Q324 283 236 426 Q160 550 160 749 Q160 992 266 1128 Q354 1242 504 1263 L504 1541 L630 1541 L630 1262 Q733 1243 775 1162 L775 1241 L910 1241 L910 909 L772 909 Q772 992 753 1035 Q721 1115 630 1128 L630 390 Q745 394 844 471 L924 353 Z M330 757 Q330 474 504 408 L504 1117 Q330 1053 330 757 Z " />
<glyph glyph-name="sterling" unicode="&#xa3;" horiz-adv-x="1075" d="M1016 396 Q1012 -24 658 -24 Q496 -24 338 100 Q229 -8 67 -13 L67 150 Q187 175 239.5 252 Q292 329 292 480 Q292 554 270 667 L60 667 L60 804 L243 804 Q200 979 200 1085 Q200 1297 320 1410 Q419 1504 573 1504 Q730 1504 819 1385 L819 1475 L961 1475 L961 1044 L808 1044 L808 1071 Q808 1210 748 1282 Q692 1349 587 1349 Q482 1349 422 1275 Q367 1206 367 1092 Q367 993 415 804 L693 804 L693 667 L442 667 Q465 539 465 451 Q465 335 413 225 Q536 132 649 132 Q765 132 821 217 Q866 286 861 396 L1016 396 Z " />
<glyph glyph-name="section" unicode="&#xa7;" horiz-adv-x="1158" d="M232 -208 L232 129 L374 129 L374 -66 L499 -66 Q688 -66 688 46 Q688 129 567 238 L311 470 Q204 565 164.5 628.5 Q125 692 125 769 Q125 876 201 942 Q268 999 379 1014 Q289 1135 289 1240 Q289 1374 412 1429 Q515 1475 723 1475 L887 1475 L887 1139 L751 1139 L751 1334 L651 1334 Q456 1334 456 1228 Q456 1186 488 1139 Q520 1092 605 1009 L828 799 Q1008 628 1008 480 Q1008 385 950.5 320.5 Q893 256 785 231 Q865 124 865 30 Q865 -208 487 -208 L232 -208 Z M582 802 Q476 904 405 904 Q352 904 315.5 869 Q279 834 279 783 Q279 746 299.5 714 Q320 682 381 623 L552 460 Q660 357 734 357 Q783 357 815 390.5 Q847 424 847 476 Q847 549 744 649 L582 802 Z " />
<glyph glyph-name="bullet" unicode="&#x2022;" horiz-adv-x="1147" d="M295 472 L295 1046 L852 1046 L852 472 L295 472 Z " />
<glyph glyph-name="paragraph" unicode="&#xb6;" horiz-adv-x="1290" d="M469 -271 L469 657 Q268 676 166 784 Q68 887 68 1065 Q68 1282 214 1388 Q336 1476 551 1476 L1115 1476 L1115 1326 L980 1326 L980 -271 L1156 -271 L1156 -422 L302 -422 L302 -271 L469 -271 Z M619 -271 L831 -271 L831 1326 L619 1326 L619 -271 Z " />
<glyph glyph-name="germandbls" unicode="&#xdf;" horiz-adv-x="1121" d="M775 868 Q914 821 982 697 Q1042 589 1042 432 Q1042 191 917 86 Q807 -6 589 -6 L589 140 Q742 140 806 222 Q862 294 862 445 Q862 775 568 775 L535 775 L535 918 L568 918 Q667 918 720 985 Q767 1044 767 1140 Q767 1251 709 1309 Q659 1358 576 1358 Q377 1358 377 1103 L377 145 L470 145 L470 0 L79 0 L79 145 L207 145 L207 824 L79 824 L79 968 L207 968 L207 1101 Q207 1314 313 1416 Q405 1504 570 1504 Q751 1504 848 1400 Q931 1311 931 1163 Q931 949 775 868 Z " />
<glyph glyph-name="registered" unicode="&#xae;" horiz-adv-x="1152" d="M415 1026 L415 1387 L366 1387 L366 1475 L573 1475 Q682 1475 732 1438.5 Q782 1402 782 1321 Q782 1229 710 1187 Q729 1166 742 1123 L775 1026 L827 1026 L827 938 L694 938 L650 1081 Q637 1127 618.5 1141 Q600 1155 553 1155 L515 1155 L515 1026 L575 1026 L575 938 L366 938 L366 1026 L415 1026 Z M515 1239 L565 1239 Q626 1239 652.5 1257 Q679 1275 679 1315 Q679 1354 654 1370.5 Q629 1387 570 1387 L515 1387 L515 1239 Z M573 1768 Q823 1768 958 1596 Q1075 1447 1075 1200 Q1075 920 926 770 Q795 639 578 639 Q327 639 193 811 Q77 960 77 1205 Q77 1487 228 1638 Q358 1768 573 1768 Z M573 1671 Q375 1671 272 1534 Q183 1415 183 1208 Q183 970 301 845 Q403 736 578 736 Q776 736 879 876 Q969 998 969 1204 Q969 1440 852 1563 Q749 1671 573 1671 Z " />
<glyph glyph-name="copyright" unicode="&#xa9;" horiz-adv-x="1152" d="M604 994 Q665 994 726 1039 L774 961 Q707 899 590 899 Q340 899 340 1192 Q340 1346 410 1426 Q470 1493 567 1493 Q649 1493 680 1435 L680 1478 L767 1478 L767 1280 L676 1280 Q676 1328 667 1351 Q645 1401 586 1401 Q522 1401 486.5 1347 Q451 1293 451 1197 Q451 994 604 994 Z M573 1768 Q823 1768 958 1596 Q1075 1447 1075 1200 Q1075 920 926 770 Q795 639 578 639 Q327 639 193 811 Q77 960 77 1205 Q77 1487 228 1638 Q358 1768 573 1768 Z M578 736 Q776 736 879 876 Q969 998 969 1204 Q969 1440 852 1563 Q749 1671 573 1671 Q375 1671 272 1534 Q183 1415 183 1208 Q183 970 301 845 Q403 736 578 736 Z " />
<glyph glyph-name="trademark" unicode="&#x2122;" horiz-adv-x="1557" d="M57 1475 L646 1475 L646 1262 L533 1262 L533 1376 L414 1376 L414 870 L508 870 L508 767 L195 767 L195 870 L289 870 L289 1376 L170 1376 L170 1262 L57 1262 L57 1475 Z M1510 870 L1510 767 L1279 767 L1279 870 L1345 870 L1336 1368 L1158 767 L1065 767 L883 1357 L875 870 L941 870 L941 767 L712 767 L712 870 L766 870 L781 1372 L714 1372 L714 1475 L965 1475 L1113 975 L1251 1475 L1495 1475 L1495 1372 L1437 1372 L1455 870 L1510 870 Z " />
<glyph glyph-name="acute" unicode="&#xb4;" horiz-adv-x="800" d="M212 1122 L387 1479 L588 1479 L344 1122 L212 1122 Z " />
<glyph glyph-name="dieresis" unicode="&#xa8;" horiz-adv-x="800" d="M138 1172 L138 1366 L315 1366 L315 1172 L138 1172 Z M486 1172 L486 1366 L663 1366 L663 1172 L486 1172 Z " />
<glyph glyph-name="notequal" unicode="&#x2260;" horiz-adv-x="1078" d="M274 316 L354 492 L164 492 L164 644 L423 644 L507 827 L164 827 L164 979 L576 979 L685 1217 L807 1155 L726 979 L914 979 L914 827 L657 827 L573 644 L914 644 L914 492 L503 492 L398 263 L274 316 Z " />
<glyph glyph-name="AE" unicode="&#xc6;" horiz-adv-x="1800" d="M1687 400 L1687 0 L762 0 L762 145 L918 145 L918 482 L467 482 L310 143 L489 143 L489 0 L14 0 L14 145 L124 145 L686 1330 L483 1330 L483 1475 L1673 1475 L1673 1118 L1513 1118 L1513 1330 L1090 1330 L1090 834 L1484 834 L1484 689 L1090 689 L1090 145 L1528 145 L1528 400 L1687 400 Z M918 623 L918 1330 L860 1330 L533 623 L918 623 Z " />
<glyph glyph-name="Oslash" unicode="&#xd8;" horiz-adv-x="1283" d="M404 21 L361 -76 L213 -76 L292 102 Q195 198 151 345 Q107 492 101 737 Q101 1138 259 1335 Q396 1506 640 1506 Q787 1501 886 1450 L933 1557 L1081 1557 L997 1366 Q1090 1271 1133 1123.5 Q1176 976 1182 737 Q1182 336 1025 141 Q888 -30 641 -30 Q497 -25 404 21 Z M475 182 Q540 136 642 133 Q827 133 917 308 Q995 461 995 735 Q992 893 973 992.5 Q954 1092 912 1173 L475 182 Z M815 1289 Q747 1340 642 1343 Q459 1343 368 1165 Q289 1010 289 736 Q292 575 312 475 Q332 375 376 294 L815 1289 Z " />
<glyph glyph-name="infinity" unicode="&#x221e;" horiz-adv-x="1389" d="M694 625 Q572 412 401 412 Q264 412 188 513 Q125 597 125 727 Q125 879 208 966 Q282 1043 402 1043 Q573 1043 694 831 Q753 942 823 992 Q893 1043 987 1043 Q1125 1043 1201 943 Q1265 859 1265 727 Q1265 578 1182 490 Q1107 412 988 412 Q819 412 694 625 Z M629 728 L618 747 Q515 921 414 921 Q345 921 302 867 Q259 813 259 728 Q259 635 308 581 Q351 534 414 534 Q462 534 503.5 570 Q545 606 616 708 L629 728 Z M760 728 L773 708 Q875 534 975 534 Q1044 534 1087 588 Q1130 642 1130 728 Q1130 821 1081 875 Q1039 921 975 921 Q882 921 772 747 L760 728 Z " />
<glyph glyph-name="plusminus" unicode="&#xb1;" horiz-adv-x="1078" d="M183 708 L183 860 L477 860 L477 1170 L631 1170 L631 860 L925 860 L925 708 L631 708 L631 402 L477 402 L477 708 L183 708 Z M183 0 L183 152 L925 152 L925 0 L183 0 Z " />
<glyph glyph-name="lessequal" unicode="&#x2264;" horiz-adv-x="1078" d="M853 351 L185 736 L185 844 L853 1219 L853 1034 L387 790 L853 535 L853 351 Z M904 152 L904 0 L162 0 L162 152 L904 152 Z " />
<glyph glyph-name="greaterequal" unicode="&#x2265;" horiz-adv-x="1078" d="M907 736 L240 351 L240 535 L706 790 L240 1034 L240 1219 L907 844 L907 736 Z M931 152 L931 0 L188 0 L188 152 L931 152 Z " />
<glyph glyph-name="yen" unicode="&#xa5;" horiz-adv-x="1078" d="M963 1330 L659 713 L927 713 L927 599 L620 599 L620 484 L927 484 L927 370 L620 370 L620 145 L789 145 L789 0 L286 0 L286 145 L455 145 L455 370 L149 370 L149 484 L455 484 L455 599 L149 599 L149 713 L420 713 L115 1330 L-8 1330 L-8 1475 L467 1475 L467 1330 L303 1330 L541 786 L784 1330 L626 1330 L626 1475 L1087 1475 L1087 1330 L963 1330 Z " />
<glyph glyph-name="mu" unicode="&#xb5;" horiz-adv-x="1077" d="M1035 147 L1035 0 L761 0 L759 155 Q706 67 633 19 Q560 -29 479 -29 Q404 -29 355 7 L355 -278 L550 -278 L550 -422 L60 -422 L60 -278 L190 -278 L190 822 L58 822 L56 968 L360 968 L360 326 Q360 216 390.5 172 Q421 128 497 128 Q634 128 732 285 L732 822 L597 822 L597 968 L907 968 L907 147 L1035 147 Z " />
<glyph glyph-name="partialdiff" unicode="&#x2202;" horiz-adv-x="983" d="M334 1492 Q637 1328 772 1068 Q888 844 888 535 Q888 280 813 149 Q712 -29 482 -29 Q274 -29 169 123 Q79 252 79 472 Q79 728 194 862 Q295 979 470 979 Q625 979 687 866 Q640 1039 515 1175 Q417 1280 258 1376 L334 1492 Z M482 123 Q602 123 660 231 Q710 323 710 481 Q710 664 646 754 Q589 835 486 835 Q367 835 309 729 Q259 638 259 476 Q259 298 324 206 Q382 123 482 123 Z " />
<glyph glyph-name="summation" unicode="&#x2211;" horiz-adv-x="1194" d="M68 -216 L569 643 L108 1438 L108 1572 L1102 1572 L1102 1183 L942 1183 L942 1427 L315 1427 L772 643 L270 -211 L962 -211 L962 50 L1122 50 L1122 -356 L68 -356 L68 -216 Z " />
<glyph glyph-name="product" unicode="&#x220f;" horiz-adv-x="1438" d="M104 -209 L249 -209 L249 1425 L104 1425 L104 1572 L1333 1572 L1333 1425 L1189 1425 L1189 -209 L1333 -209 L1333 -356 L869 -356 L869 -209 L1009 -209 L1009 1425 L429 1425 L429 -209 L573 -209 L573 -356 L104 -356 L104 -209 Z " />
<glyph glyph-name="integral" unicode="&#x222b;" horiz-adv-x="778" d="M81 -196 Q124 -213 165 -213 Q246 -213 274 -163 Q302 -113 302 31 L302 1158 Q302 1400 367 1490 Q430 1578 588 1578 Q649 1578 725 1559 L693 1413 Q649 1432 607 1432 Q527 1432 499.5 1388.5 Q472 1345 472 1219 L472 65 Q472 -76 458.5 -152.5 Q445 -229 411 -273 Q347 -359 167 -359 Q103 -359 50 -342 L81 -196 Z " />
<glyph glyph-name="ordfeminine" unicode="&#xaa;" horiz-adv-x="694" d="M271 843 Q70 843 70 1037 Q70 1146 139 1192 Q197 1231 315 1233 Q332 1233 386 1231 Q417 1230 441 1229 L441 1274 Q441 1382 313 1382 Q243 1382 155 1346 L114 1463 Q216 1506 322 1506 Q468 1506 526 1439 Q576 1381 576 1253 L576 976 L651 976 L651 859 L459 859 L459 934 Q392 843 271 843 Z M304 950 Q368 950 404.5 985 Q441 1020 441 1082 L441 1135 Q377 1140 314 1140 Q211 1140 211 1043 Q211 950 304 950 Z " />
<glyph glyph-name="ordmasculine" unicode="&#xba;" horiz-adv-x="699" d="M351 841 Q207 841 128 940 Q58 1029 58 1176 Q58 1338 148 1428 Q226 1506 350 1506 Q493 1506 572 1405 Q641 1316 641 1172 Q641 1007 551 918 Q474 841 351 841 Z M349 960 Q418 960 458.5 1019 Q499 1078 499 1177 Q499 1280 455 1337 Q416 1387 352 1387 Q282 1387 241 1330 Q200 1273 200 1175 Q200 1068 246 1010 Q285 960 349 960 Z " />
<glyph glyph-name="Omega" unicode="&#x2126;" horiz-adv-x="1309" d="M1266 318 L1266 0 L741 0 L741 225 Q875 285 949 449 Q1019 602 1019 813 Q1019 1078 910 1219 Q815 1343 656 1343 Q474 1343 375 1182 Q290 1043 290 814 Q290 574 382 408 Q455 276 568 225 L568 0 L43 0 L43 318 L172 318 L172 141 L421 141 Q264 238 183 428 Q108 601 108 828 Q108 1167 276 1349 Q421 1506 656 1506 Q925 1506 1072 1303 Q1201 1125 1201 829 Q1201 568 1104 381 Q1024 225 886 141 L1137 141 L1137 318 L1266 318 Z " />
<glyph glyph-name="ae" unicode="&#xe6;" horiz-adv-x="1469" d="M384 -29 Q222 -29 141 62 Q70 140 70 279 Q70 570 408 570 L643 570 L643 639 Q643 765 604.5 810 Q566 855 458 855 Q378 855 341.5 819.5 Q305 784 301 702 L130 702 Q133 997 465 997 Q579 996 644 961.5 Q709 927 745 848 Q827 997 1028 997 Q1235 997 1325 838 Q1404 700 1400 435 L807 435 Q810 123 1068 123 Q1190 123 1296 197 L1372 69 Q1239 -29 1062 -29 Q930 -29 841 24 Q762 71 727 152 Q660 -29 384 -29 Z M1230 563 Q1225 849 1026 849 Q918 849 860 762 Q809 687 807 563 L1230 563 Z M412 113 Q558 113 615 202 Q643 246 643 338 L643 447 L442 447 Q341 447 295 408 Q249 369 249 284 Q249 113 412 113 Z " />
<glyph glyph-name="oslash" unicode="&#xf8;" horiz-adv-x="979" d="M784 871 Q898 736 898 480 Q898 222 776 88 Q670 -29 490 -29 Q384 -29 302 12 L261 -62 L140 -62 L215 74 Q81 206 81 482 Q81 742 202 878 Q308 997 488 997 Q610 997 698 944 L745 1028 L872 1028 L784 871 Z M256 483 Q256 324 303 232 L622 806 Q568 854 488 854 Q369 854 309 745 Q256 649 256 483 Z M489 114 Q610 114 670 222 Q723 317 723 484 Q723 617 690 702 L377 145 Q427 114 489 114 Z " />
<glyph glyph-name="questiondown" unicode="&#xbf;" horiz-adv-x="1006" d="M627 1158 L423 1158 L423 1373 L627 1373 L627 1158 Z M909 213 Q912 -12 811 -129 Q711 -243 518 -243 Q323 -243 218 -120 Q124 -11 124 172 Q124 355 223 476 Q305 576 443 619 L443 973 L609 973 L609 506 Q306 458 306 173 Q306 40 373 -28 Q429 -87 522 -87 Q735 -87 735 213 L909 213 Z " />
<glyph glyph-name="exclamdown" unicode="&#xa1;" horiz-adv-x="627" d="M416 1158 L212 1158 L212 1373 L416 1373 L416 1158 Z M414 -231 L210 -231 L233 973 L390 973 L414 -231 Z " />
<glyph glyph-name="logicalnot" unicode="&#xac;" horiz-adv-x="1078" d="M125 698 L125 846 L876 846 L876 318 L722 318 L722 698 L125 698 Z " />
<glyph glyph-name="radical" unicode="&#x221a;" horiz-adv-x="1303" d="M497 0 L267 609 L110 609 L110 750 L402 750 L583 235 L1027 1768 L1565 1768 L1565 1625 L1161 1625 L676 0 L497 0 Z " />
<glyph glyph-name="florin" unicode="&#x192;" horiz-adv-x="1078" d="M810 1359 Q744 1359 715 1304 Q692 1261 680 1159 L647 871 L853 871 L853 729 L630 729 L554 74 Q530 -140 471 -228 Q403 -331 264 -331 Q184 -331 78 -290 L107 -148 Q182 -178 228 -178 Q298 -178 335.5 -112 Q373 -46 390 107 L461 729 L279 729 L279 871 L477 871 L511 1166 Q532 1356 596 1432 Q658 1506 784 1506 Q876 1506 977 1459 L942 1328 Q860 1359 810 1359 Z " />
<glyph glyph-name="approxequal" unicode="&#x2248;" horiz-adv-x="1078" d="M710 758 Q662 758 621.5 772.5 Q581 787 507 831 Q417 885 371 885 Q328 885 291.5 860.5 Q255 836 203 772 L113 872 Q189 964 246 1001 Q303 1038 370 1038 Q447 1038 546 973 Q609 933 639 921 Q669 909 707 909 Q782 909 876 1024 L964 927 Q834 758 710 758 Z M710 417 Q664 417 625.5 430.5 Q587 444 511 488 Q417 544 371 544 Q328 544 291.5 519.5 Q255 495 203 432 L113 531 Q189 624 246 661 Q303 698 369 698 Q446 698 552 632 Q616 592 645 580.5 Q674 569 707 569 Q780 569 876 679 L964 587 Q833 417 710 417 Z " />
<glyph glyph-name="increment" unicode="&#x2206;" horiz-adv-x="1301" d="M1237 0 L64 0 L552 1475 L744 1475 L1237 0 Z M993 150 L646 1296 L305 150 L993 150 Z " />
<glyph glyph-name="guillemotleft" unicode="&#xab;" horiz-adv-x="883" d="M267 463 L468 107 L306 107 L103 463 L304 818 L468 818 L267 463 Z M560 463 L762 107 L600 107 L396 463 L597 818 L762 818 L560 463 Z " />
<glyph glyph-name="guillemotright" unicode="&#xbb;" horiz-adv-x="888" d="M310 463 L108 818 L273 818 L474 463 L270 107 L108 107 L310 463 Z M604 463 L401 818 L567 818 L767 463 L563 107 L401 107 L604 463 Z " />
<glyph glyph-name="ellipsis" unicode="&#x2026;" horiz-adv-x="1401" d="M152 0 L152 225 L360 225 L360 0 L152 0 Z M596 0 L596 225 L805 225 L805 0 L596 0 Z M1041 0 L1041 225 L1250 225 L1250 0 L1041 0 Z " />
<glyph glyph-name="Agrave" unicode="&#xc0;" horiz-adv-x="1264" d="M1239 145 L1239 0 L805 0 L805 145 L952 145 L872 440 L385 440 L301 145 L457 145 L457 0 L26 0 L26 145 L122 145 L531 1475 L735 1475 L1136 145 L1239 145 Z M426 583 L832 583 L634 1286 L626 1286 L426 583 Z M355 1986 L554 1986 L730 1629 L598 1629 L355 1986 Z " />
<glyph glyph-name="Atilde" unicode="&#xc3;" horiz-adv-x="1264" d="M1239 145 L1239 0 L805 0 L805 145 L952 145 L872 440 L385 440 L301 145 L457 145 L457 0 L26 0 L26 145 L122 145 L531 1475 L735 1475 L1136 145 L1239 145 Z M426 583 L832 583 L634 1286 L626 1286 L426 583 Z M323 1678 Q340 1885 512 1885 Q546 1885 571.5 1875.5 Q597 1866 663 1831 Q716 1801 749 1801 Q813 1801 819 1881 L940 1881 Q937 1770 876 1716 Q827 1672 747 1672 Q688 1672 594 1723 Q543 1750 513 1750 Q454 1750 447 1678 L323 1678 Z " />
<glyph glyph-name="Otilde" unicode="&#xd5;" horiz-adv-x="1283" d="M641 -30 Q358 -30 221 192 Q101 386 101 737 Q101 1138 259 1335 Q396 1506 640 1506 Q923 1506 1061 1282 Q1182 1087 1182 737 Q1182 336 1025 141 Q888 -30 641 -30 Z M642 133 Q827 133 917 308 Q995 461 995 735 Q995 1050 892 1206 Q801 1343 642 1343 Q459 1343 368 1165 Q289 1010 289 736 Q289 423 392 268 Q482 133 642 133 Z M335 1696 Q352 1903 524 1903 Q558 1903 583.5 1893.5 Q609 1884 675 1849 Q728 1819 761 1819 Q825 1819 831 1899 L952 1899 Q949 1788 888 1734 Q839 1690 759 1690 Q700 1690 606 1741 Q555 1768 525 1768 Q466 1768 459 1696 L335 1696 Z " />
<glyph glyph-name="OE" unicode="&#x152;" horiz-adv-x="1751" d="M1638 0 L931 0 Q841 -15 726 -15 Q104 -15 104 733 Q104 1127 287 1326 Q444 1497 710 1497 Q834 1497 951 1475 L1624 1475 L1624 1116 L1464 1116 L1464 1328 L1041 1328 L1041 834 L1435 834 L1435 687 L1041 687 L1041 147 L1479 147 L1479 400 L1638 400 L1638 0 Z M291 737 Q291 405 416 261 Q522 139 729 139 Q795 139 865 151 L865 1329 Q796 1344 714 1344 Q494 1344 387 1173 Q291 1021 291 737 Z " />
<glyph glyph-name="oe" unicode="&#x153;" horiz-adv-x="1568" d="M493 -29 Q283 -29 174 126 Q80 259 80 482 Q80 742 202 878 Q309 997 492 997 Q711 997 804 806 Q899 997 1121 997 Q1498 997 1494 433 L897 433 Q906 124 1158 124 Q1280 124 1389 197 L1465 69 Q1329 -29 1143 -29 Q903 -29 808 160 Q713 -29 493 -29 Z M1324 563 Q1320 713 1261 788 Q1209 853 1120 853 Q1012 853 953 766 Q902 691 896 563 L1324 563 Z M492 123 Q613 123 674 229 Q726 321 726 484 Q726 670 658 764 Q598 846 492 846 Q372 846 313 739 Q261 646 261 483 Q261 297 328 205 Q387 123 492 123 Z " />
<glyph glyph-name="endash" unicode="&#x2013;" horiz-adv-x="1024" d="M82 479 L82 629 L942 629 L942 479 L82 479 Z " />
<glyph glyph-name="emdash" unicode="&#x2014;" horiz-adv-x="1458" d="M94 479 L94 629 L1364 629 L1364 479 L94 479 Z " />
<glyph glyph-name="quotedblleft" unicode="&#x201c;" horiz-adv-x="831" d="M413 1475 L309 1030 L106 1030 L250 1475 L413 1475 Z M690 1475 L587 1030 L384 1030 L528 1475 L690 1475 Z " />
<glyph glyph-name="quotedblright" unicode="&#x201d;" horiz-adv-x="801" d="M410 1030 L213 1030 L316 1475 L554 1475 L410 1030 Z " />
<glyph glyph-name="quoteleft" unicode="&#x2018;" horiz-adv-x="553" d="M413 1475 L309 1030 L106 1030 L250 1475 L413 1475 Z " />
<glyph glyph-name="quoteright" unicode="&#x2019;" horiz-adv-x="520" d="M92 1030 L195 1475 L395 1475 L251 1030 L92 1030 Z " />
<glyph glyph-name="divide" unicode="&#xf7;" horiz-adv-x="1078" d="M443 994 L443 1202 L635 1202 L635 994 L443 994 Z M159 660 L159 812 L919 812 L919 660 L159 660 Z M443 274 L443 483 L635 483 L635 274 L443 274 Z " />
<glyph glyph-name="lozenge" unicode="&#x25ca;" horiz-adv-x="1005" d="M10 704 L502 1464 L995 704 L502 -56 L10 704 Z M212 704 L502 213 L793 704 L502 1196 L212 704 Z " />
<glyph glyph-name="ydieresis" unicode="&#xff;" horiz-adv-x="920" d="M929 825 L833 825 L493 -139 Q428 -322 349 -374 Q279 -421 122 -422 L122 -271 Q220 -268 260 -241 Q302 -213 329 -136 L378 5 L84 825 L-13 825 L-13 968 L401 968 L401 827 L259 827 L401 369 Q417 314 444 235 Q454 207 458 193 L464 193 Q470 214 487 267 Q506 324 518 363 L662 827 L517 827 L517 968 L929 968 L929 825 Z M195 1172 L195 1366 L372 1366 L372 1172 L195 1172 Z M543 1172 L543 1366 L720 1366 L720 1172 L543 1172 Z " />
<glyph glyph-name="Ydieresis" unicode="&#x178;" horiz-adv-x="1152" d="M665 633 L665 145 L832 145 L832 0 L320 0 L320 145 L487 145 L487 641 L120 1330 L-11 1330 L-11 1475 L475 1475 L475 1330 L315 1330 L583 786 L852 1330 L697 1330 L697 1475 L1164 1475 L1164 1330 L1035 1330 L665 633 Z M323 1679 L323 1873 L500 1873 L500 1679 L323 1679 Z M671 1679 L671 1873 L848 1873 L848 1679 L671 1679 Z " />
<glyph glyph-name="fraction" unicode="&#x2044;" horiz-adv-x="397" d="M-198 0 L430 1487 L579 1487 L-48 0 L-198 0 Z " />
<glyph glyph-name="Euro" unicode="&#x20ac;" horiz-adv-x="1078" d="M1041 124 Q880 -31 642 -31 Q410 -31 287 122 Q179 257 151 518 L36 518 L36 637 L143 637 Q142 662 142 714 Q142 763 143 786 L36 786 L36 904 L151 904 Q183 1215 318 1369 Q434 1502 614 1502 Q791 1502 871 1374 L872 1475 L1009 1475 L1009 1061 L866 1061 Q866 1207 800 1282 Q742 1349 640 1349 Q500 1349 419 1220 Q348 1107 328 904 L862 904 L862 786 L320 786 Q319 766 319 724 Q319 693 321 637 L783 637 L783 518 L331 518 Q379 129 659 129 Q819 129 947 249 L1041 124 Z " />
<glyph glyph-name="guilsinglleft" unicode="&#x2039;" horiz-adv-x="590" d="M267 463 L468 107 L306 107 L103 463 L304 818 L468 818 L267 463 Z " />
<glyph glyph-name="guilsinglright" unicode="&#x203a;" horiz-adv-x="594" d="M310 463 L108 820 L273 820 L474 463 L270 107 L108 107 L310 463 Z " />
<glyph glyph-name="fi" unicode="&#xfb01;" horiz-adv-x="1194" d="M75 0 L75 143 L205 143 L205 825 L75 825 L75 964 L205 968 L205 1123 Q205 1327 283 1412 Q354 1490 506 1490 Q573 1490 649 1477 L633 1337 Q567 1342 539 1342 Q443 1342 406.5 1297 Q370 1252 370 1134 L370 968 L590 968 L590 825 L372 825 L372 143 L569 143 L569 0 L75 0 Z M823 1368 L1019 1368 L1019 1164 L823 1164 L823 1368 Z M720 143 L849 143 L849 825 L720 825 L720 968 L1023 968 L1023 143 L1151 143 L1151 0 L720 0 L720 143 Z " />
<glyph glyph-name="fl" unicode="&#xfb02;" horiz-adv-x="1187" d="M75 0 L75 143 L205 143 L205 825 L75 825 L75 964 L205 968 L205 1123 Q205 1327 283 1412 Q354 1490 506 1490 Q573 1490 649 1477 L633 1337 Q567 1342 539 1342 Q443 1342 406.5 1297 Q370 1252 370 1134 L370 968 L590 968 L590 825 L372 825 L372 143 L569 143 L569 0 L75 0 Z M709 145 L837 145 L837 1330 L703 1330 L703 1475 L1008 1475 L1008 145 L1136 145 L1136 0 L709 0 L709 145 Z " />
<glyph glyph-name="daggerdbl" unicode="&#x2021;" horiz-adv-x="1044" d="M444 924 L163 924 L163 1066 L444 1066 L444 1490 L598 1490 L598 1065 L881 1065 L881 923 L598 923 L598 384 L881 384 L881 238 L598 238 L598 -183 L444 -183 L444 238 L163 238 L163 384 L444 384 L444 924 Z " />
<glyph glyph-name="periodcentered" unicode="&#xb7;" horiz-adv-x="574" d="M186 443 L186 664 L391 664 L391 443 L186 443 Z " />
<glyph glyph-name="quotesinglbase" unicode="&#x201a;" horiz-adv-x="646" d="M165 -225 L268 220 L472 220 L327 -225 L165 -225 Z " />
<glyph glyph-name="quotedblbase" unicode="&#x201e;" horiz-adv-x="923" d="M483 -225 L286 -225 L390 220 L628 220 L483 -225 Z " />
<glyph glyph-name="perthousand" unicode="&#x2030;" horiz-adv-x="2109" d="M58 1158 Q58 1336 142 1427 Q216 1505 343 1505 Q489 1505 564 1401 Q628 1310 628 1155 Q628 976 544 886 Q471 807 343 807 Q197 807 122 911 Q58 1001 58 1158 Z M487 1156 Q487 1386 343 1386 Q199 1386 199 1156 Q199 926 343 926 Q487 926 487 1156 Z M819 323 Q819 501 903 592 Q977 670 1104 670 Q1250 670 1325 566 Q1389 475 1389 320 Q1389 140 1305 50 Q1232 -28 1104 -28 Q957 -28 884 75 Q819 166 819 323 Z M1248 320 Q1248 550 1104 550 Q961 550 961 321 Q961 91 1104 91 Q1248 91 1248 320 Z M1487 323 Q1487 502 1571 592 Q1644 670 1771 670 Q1918 670 1992 566 Q2056 475 2056 320 Q2056 139 1973 50 Q1900 -28 1771 -28 Q1625 -28 1551 75 Q1487 166 1487 323 Z M1915 320 Q1915 550 1771 550 Q1628 550 1628 321 Q1628 91 1771 91 Q1915 91 1915 320 Z M965 1487 L1115 1487 L488 0 L338 0 L965 1487 Z " />
<glyph glyph-name="Acircumflex" unicode="&#xc2;" horiz-adv-x="1264" d="M1239 145 L1239 0 L805 0 L805 145 L952 145 L872 440 L385 440 L301 145 L457 145 L457 0 L26 0 L26 145 L122 145 L531 1475 L735 1475 L1136 145 L1239 145 Z M426 583 L832 583 L634 1286 L626 1286 L426 583 Z M629 1852 L458 1629 L327 1629 L537 1967 L718 1967 L928 1629 L798 1629 L629 1852 Z " />
<glyph glyph-name="Ecircumflex" unicode="&#xca;" horiz-adv-x="1151" d="M1038 400 L1038 0 L101 0 L101 145 L236 145 L236 1330 L101 1330 L101 1475 L1011 1475 L1011 1116 L851 1116 L851 1330 L414 1330 L414 834 L827 834 L827 689 L414 689 L414 145 L880 145 L880 400 L1038 400 Z M600 1852 L429 1629 L298 1629 L508 1967 L689 1967 L899 1629 L769 1629 L600 1852 Z " />
<glyph glyph-name="Aacute" unicode="&#xc1;" horiz-adv-x="1264" d="M1239 145 L1239 0 L805 0 L805 145 L952 145 L872 440 L385 440 L301 145 L457 145 L457 0 L26 0 L26 145 L122 145 L531 1475 L735 1475 L1136 145 L1239 145 Z M426 583 L832 583 L634 1286 L626 1286 L426 583 Z M524 1629 L699 1986 L900 1986 L656 1629 L524 1629 Z " />
<glyph glyph-name="Edieresis" unicode="&#xcb;" horiz-adv-x="1151" d="M1038 400 L1038 0 L101 0 L101 145 L236 145 L236 1330 L101 1330 L101 1475 L1011 1475 L1011 1116 L851 1116 L851 1330 L414 1330 L414 834 L827 834 L827 689 L414 689 L414 145 L880 145 L880 400 L1038 400 Z M338 1679 L338 1873 L515 1873 L515 1679 L338 1679 Z M686 1679 L686 1873 L863 1873 L863 1679 L686 1679 Z " />
<glyph glyph-name="Egrave" unicode="&#xc8;" horiz-adv-x="1151" d="M1038 400 L1038 0 L101 0 L101 145 L236 145 L236 1330 L101 1330 L101 1475 L1011 1475 L1011 1116 L851 1116 L851 1330 L414 1330 L414 834 L827 834 L827 689 L414 689 L414 145 L880 145 L880 400 L1038 400 Z M326 1986 L525 1986 L701 1629 L569 1629 L326 1986 Z " />
<glyph glyph-name="Iacute" unicode="&#xcd;" horiz-adv-x="651" d="M551 145 L551 0 L101 0 L101 145 L236 145 L236 1330 L101 1330 L101 1475 L551 1475 L551 1330 L415 1330 L415 145 L551 145 Z M223 1629 L367 1986 L560 1986 L354 1629 L223 1629 Z " />
<glyph glyph-name="Icircumflex" unicode="&#xce;" horiz-adv-x="651" d="M551 145 L551 0 L101 0 L101 145 L236 145 L236 1330 L101 1330 L101 1475 L551 1475 L551 1330 L415 1330 L415 145 L551 145 Z M320 1852 L166 1629 L37 1629 L232 1967 L405 1967 L600 1629 L471 1629 L320 1852 Z " />
<glyph glyph-name="Idieresis" unicode="&#xcf;" horiz-adv-x="651" d="M551 145 L551 0 L101 0 L101 145 L236 145 L236 1330 L101 1330 L101 1475 L551 1475 L551 1330 L415 1330 L415 145 L551 145 Z M77 1679 L77 1873 L254 1873 L254 1679 L77 1679 Z M391 1679 L391 1873 L568 1873 L568 1679 L391 1679 Z " />
<glyph glyph-name="Igrave" unicode="&#xcc;" horiz-adv-x="651" d="M551 145 L551 0 L101 0 L101 145 L236 145 L236 1330 L101 1330 L101 1475 L551 1475 L551 1330 L415 1330 L415 145 L551 145 Z M53 1986 L252 1986 L428 1629 L296 1629 L53 1986 Z " />
<glyph glyph-name="Oacute" unicode="&#xd3;" horiz-adv-x="1283" d="M641 -30 Q358 -30 221 192 Q101 386 101 737 Q101 1138 259 1335 Q396 1506 640 1506 Q923 1506 1061 1282 Q1182 1087 1182 737 Q1182 336 1025 141 Q888 -30 641 -30 Z M642 133 Q827 133 917 308 Q995 461 995 735 Q995 1050 892 1206 Q801 1343 642 1343 Q459 1343 368 1165 Q289 1010 289 736 Q289 423 392 268 Q482 133 642 133 Z M536 1647 L711 2004 L912 2004 L668 1647 L536 1647 Z " />
<glyph glyph-name="Ocircumflex" unicode="&#xd4;" horiz-adv-x="1283" d="M641 -30 Q358 -30 221 192 Q101 386 101 737 Q101 1138 259 1335 Q396 1506 640 1506 Q923 1506 1061 1282 Q1182 1087 1182 737 Q1182 336 1025 141 Q888 -30 641 -30 Z M642 133 Q827 133 917 308 Q995 461 995 735 Q995 1050 892 1206 Q801 1343 642 1343 Q459 1343 368 1165 Q289 1010 289 736 Q289 423 392 268 Q482 133 642 133 Z M641 1870 L470 1647 L339 1647 L549 1985 L730 1985 L940 1647 L810 1647 L641 1870 Z " />
<glyph glyph-name="Ograve" unicode="&#xd2;" horiz-adv-x="1283" d="M641 -30 Q358 -30 221 192 Q101 386 101 737 Q101 1138 259 1335 Q396 1506 640 1506 Q923 1506 1061 1282 Q1182 1087 1182 737 Q1182 336 1025 141 Q888 -30 641 -30 Z M642 133 Q827 133 917 308 Q995 461 995 735 Q995 1050 892 1206 Q801 1343 642 1343 Q459 1343 368 1165 Q289 1010 289 736 Q289 423 392 268 Q482 133 642 133 Z M367 2004 L566 2004 L742 1647 L610 1647 L367 2004 Z " />
<glyph glyph-name="Uacute" unicode="&#xda;" horiz-adv-x="1320" d="M655 -30 Q379 -30 271 161 Q230 235 214 334.5 Q198 434 198 621 L198 1328 L63 1328 L63 1475 L514 1475 L514 1328 L378 1328 L378 565 Q378 318 447 221 Q512 130 659 130 Q829 130 892 252 Q942 350 942 562 L942 1328 L806 1328 L806 1475 L1256 1475 L1256 1328 L1122 1328 L1122 620 Q1122 366 1083 245 Q1045 125 950 54 Q837 -30 655 -30 Z M558 1629 L733 1986 L934 1986 L690 1629 L558 1629 Z " />
<glyph glyph-name="Ucircumflex" unicode="&#xdb;" horiz-adv-x="1320" d="M655 -30 Q379 -30 271 161 Q230 235 214 334.5 Q198 434 198 621 L198 1328 L63 1328 L63 1475 L514 1475 L514 1328 L378 1328 L378 565 Q378 318 447 221 Q512 130 659 130 Q829 130 892 252 Q942 350 942 562 L942 1328 L806 1328 L806 1475 L1256 1475 L1256 1328 L1122 1328 L1122 620 Q1122 366 1083 245 Q1045 125 950 54 Q837 -30 655 -30 Z M663 1852 L492 1629 L361 1629 L571 1967 L752 1967 L962 1629 L832 1629 L663 1852 Z " />
<glyph glyph-name="Ugrave" unicode="&#xd9;" horiz-adv-x="1320" d="M655 -30 Q379 -30 271 161 Q230 235 214 334.5 Q198 434 198 621 L198 1328 L63 1328 L63 1475 L514 1475 L514 1328 L378 1328 L378 565 Q378 318 447 221 Q512 130 659 130 Q829 130 892 252 Q942 350 942 562 L942 1328 L806 1328 L806 1475 L1256 1475 L1256 1328 L1122 1328 L1122 620 Q1122 366 1083 245 Q1045 125 950 54 Q837 -30 655 -30 Z M389 1986 L588 1986 L764 1629 L632 1629 L389 1986 Z " />
<glyph glyph-name="dotlessi" unicode="&#x131;" horiz-adv-x="548" d="M76 143 L205 143 L205 825 L76 825 L76 968 L379 968 L379 143 L507 143 L507 0 L76 0 L76 143 Z " />
<glyph glyph-name="circumflex" unicode="&#x2c6;" horiz-adv-x="800" d="M401 1345 L230 1122 L99 1122 L309 1460 L490 1460 L700 1122 L570 1122 L401 1345 Z " />
<glyph glyph-name="tilde" unicode="&#x2dc;" horiz-adv-x="800" d="M92 1171 Q109 1378 281 1378 Q315 1378 340.5 1368.5 Q366 1359 432 1324 Q485 1294 518 1294 Q582 1294 588 1374 L709 1374 Q706 1264 645 1209 Q596 1165 516 1165 Q457 1165 363 1216 Q312 1243 282 1243 Q223 1243 216 1171 L92 1171 Z " />
<glyph glyph-name="overscore" unicode="&#xaf;" horiz-adv-x="800" d="M145 1197 L145 1343 L655 1343 L655 1197 L145 1197 Z " />
<glyph glyph-name="breve" unicode="&#x2d8;" horiz-adv-x="800" d="M210 1414 Q218 1331 262 1295 Q306 1259 400 1259 Q496 1259 540.5 1295 Q585 1331 592 1414 L717 1414 Q714 1122 401 1122 Q227 1122 151 1209 Q88 1279 84 1414 L210 1414 Z " />
<glyph glyph-name="dotaccent" unicode="&#x2d9;" horiz-adv-x="800" d="M300 1370 L500 1370 L500 1163 L300 1163 L300 1370 Z " />
<glyph glyph-name="ring" unicode="&#x2da;" horiz-adv-x="800" d="M399 1516 Q506 1516 563 1449 Q609 1394 609 1308 Q609 1210 549 1153 Q493 1101 400 1101 Q293 1101 236 1168 Q190 1224 190 1311 Q190 1407 252 1464 Q308 1516 399 1516 Z M399 1423 Q296 1423 296 1309 Q296 1194 399 1194 Q503 1194 503 1308 Q503 1423 399 1423 Z " />
<glyph glyph-name="cedilla" unicode="&#xb8;" horiz-adv-x="800" d="M415 -122 Q432 -120 448 -120 Q525 -120 568 -162 Q611 -204 611 -280 Q611 -381 543 -433 Q485 -477 388 -477 Q281 -477 189 -431 L189 -313 Q296 -356 374 -356 Q474 -356 474 -274 Q474 -203 399 -203 Q365 -203 317 -217 L305 -121 L356 0 L466 0 L415 -122 Z " />
<glyph glyph-name="hungarumlaut" unicode="&#x2dd;" horiz-adv-x="800" d="M96 1122 L243 1471 L414 1471 L196 1122 L96 1122 Z M358 1122 L530 1471 L705 1471 L461 1122 L358 1122 Z " />
<glyph glyph-name="ogonek" unicode="&#x2db;" horiz-adv-x="800" d="M557 0 Q463 -76 425.5 -128 Q388 -180 388 -235 Q388 -317 472 -317 L556 -317 L556 -439 L473 -439 Q242 -439 242 -266 Q242 -199 282.5 -140.5 Q323 -82 426 0 L557 0 Z " />
<glyph glyph-name="caron" unicode="&#x2c7;" horiz-adv-x="800" d="M700 1447 L490 1109 L309 1109 L99 1447 L230 1447 L401 1224 L570 1447 L700 1447 Z " />
<glyph glyph-name="nbspace" unicode="&#xa0;" horiz-adv-x="379" d="" />
<glyph glyph-name="currency" unicode="&#xa4;" horiz-adv-x="986" d="M837 705 Q837 561 774 466 L930 289 L840 201 L684 377 Q603 326 490 326 Q383 326 303 374 L149 201 L53 290 L208 469 Q149 564 149 705 Q149 837 202 927 L45 1105 L134 1195 L287 1022 Q371 1081 489 1081 Q612 1081 698 1020 L849 1195 L941 1104 L784 925 Q837 833 837 705 Z M490 455 Q595 455 650 530 Q698 595 698 705 Q698 827 635 892 Q580 949 490 949 Q388 949 335 876 Q288 813 288 705 Q288 578 348 512 Q401 455 490 455 Z " />
<glyph glyph-name="brokenbar" unicode="&#xa6;" horiz-adv-x="770" d="M309 846 L309 1448 L467 1448 L467 846 L309 846 Z M309 0 L309 603 L467 603 L467 0 L309 0 Z " />
<glyph glyph-name="uni00AD" unicode="&#xad;" horiz-adv-x="717" d="M94 472 L94 629 L622 629 L622 472 L94 472 Z " />
<glyph glyph-name="twosuperior" unicode="&#xb2;" horiz-adv-x="753" d="M652 1077 L652 820 L64 820 Q67 913 117.5 998 Q168 1083 293 1203 Q404 1310 438.5 1358 Q473 1406 473 1455 Q473 1511 439 1543 Q405 1575 345 1575 Q212 1575 209 1413 L72 1413 Q74 1560 153 1633 Q224 1699 351 1699 Q484 1699 554 1630 Q616 1569 616 1464 Q616 1388 576 1323.5 Q536 1259 423 1152 Q333 1067 298 1025.5 Q263 984 244 939 L529 939 L529 1077 L652 1077 Z " />
<glyph glyph-name="threesuperior" unicode="&#xb3;" horiz-adv-x="728" d="M496 1063 Q496 1210 308 1210 L234 1210 L234 1323 L301 1323 Q470 1323 470 1456 Q470 1512 436 1544 Q402 1576 344 1576 Q223 1576 216 1458 L76 1458 Q81 1582 159 1645 Q227 1699 344 1699 Q478 1699 550 1629 Q613 1568 613 1469 Q613 1330 481 1281 Q641 1225 641 1057 Q641 930 558 863 Q482 803 348 803 Q61 803 57 1069 L195 1069 Q200 926 348 926 Q496 926 496 1063 Z " />
<glyph glyph-name="onesuperior" unicode="&#xb9;" horiz-adv-x="728" d="M637 939 L637 820 L156 820 L156 939 L325 939 L325 1532 L168 1459 L117 1569 L352 1682 L469 1682 L469 939 L637 939 Z " />
<glyph glyph-name="onequarter" unicode="&#xbc;" horiz-adv-x="1770" d="M1310 1487 L683 0 L533 0 L1160 1487 L1310 1487 Z M325 732 L325 1325 L168 1252 L117 1362 L352 1475 L469 1475 L469 732 L637 732 L637 612 L156 612 L156 732 L325 732 Z M1722 210 L1592 210 L1592 9 L1461 9 L1461 210 L1098 210 L1098 335 L1359 862 L1507 862 L1247 322 L1461 322 L1461 556 L1592 556 L1592 322 L1722 322 L1722 210 Z " />
<glyph glyph-name="onehalf" unicode="&#xbd;" horiz-adv-x="1837" d="M1310 1487 L683 0 L533 0 L1160 1487 L1310 1487 Z M325 732 L325 1325 L168 1252 L117 1362 L352 1475 L469 1475 L469 732 L637 732 L637 612 L156 612 L156 732 L325 732 Z M1736 257 L1736 0 L1149 0 Q1151 93 1201.5 177.5 Q1252 262 1377 383 Q1488 489 1522.5 537.5 Q1557 586 1557 635 Q1557 691 1523 723 Q1489 755 1429 755 Q1295 755 1294 593 L1156 593 Q1158 740 1238 813 Q1309 879 1435 879 Q1569 879 1639 810 Q1701 749 1701 644 Q1701 568 1661 503.5 Q1621 439 1508 332 Q1421 251 1384.5 208 Q1348 165 1329 119 L1613 119 L1613 257 L1736 257 Z " />
<glyph glyph-name="threequarters" unicode="&#xbe;" horiz-adv-x="1743" d="M641 857 Q641 730 558 663 Q482 603 348 603 Q61 603 57 869 L195 869 Q200 726 348 726 Q496 726 496 863 Q496 1010 308 1010 L234 1010 L234 1123 L301 1123 Q470 1123 470 1256 Q470 1312 436 1344 Q402 1376 344 1376 Q223 1376 216 1258 L76 1258 Q81 1382 159 1445 Q227 1499 344 1499 Q478 1499 550 1429 Q613 1368 613 1269 Q613 1130 481 1081 Q641 1025 641 857 Z M1695 210 L1565 210 L1565 9 L1434 9 L1434 210 L1071 210 L1071 335 L1332 862 L1480 862 L1220 322 L1434 322 L1434 556 L1565 556 L1565 322 L1695 322 L1695 210 Z M1283 1487 L656 0 L506 0 L1133 1487 L1283 1487 Z " />
<glyph glyph-name="Eth" unicode="&#xd0;" horiz-adv-x="1364" d="M284 834 L284 1330 L154 1330 L154 1475 L588 1475 Q932 1475 1102 1254 Q1247 1065 1247 738 Q1247 364 1066 172 Q904 0 617 0 L154 0 L154 145 L284 145 L284 690 L118 690 L118 834 L284 834 Z M462 690 L462 145 L597 145 Q844 145 961 318 Q1062 466 1062 736 Q1062 1043 926 1195 Q805 1330 586 1330 L462 1330 L462 834 L731 834 L731 690 L462 690 Z " />
<glyph glyph-name="multiply" unicode="&#xd7;" horiz-adv-x="1078" d="M435 711 L173 983 L278 1086 L539 815 L800 1086 L905 983 L643 711 L905 439 L800 334 L539 606 L278 334 L173 439 L435 711 Z " />
<glyph glyph-name="Yacute" unicode="&#xdd;" horiz-adv-x="1152" d="M665 633 L665 145 L832 145 L832 0 L320 0 L320 145 L487 145 L487 641 L120 1330 L-11 1330 L-11 1475 L475 1475 L475 1330 L315 1330 L583 786 L852 1330 L697 1330 L697 1475 L1164 1475 L1164 1330 L1035 1330 L665 633 Z M480 1629 L655 1986 L856 1986 L612 1629 L480 1629 Z " />
<glyph glyph-name="Thorn" unicode="&#xde;" horiz-adv-x="1202" d="M623 1165 Q1124 1165 1124 753 Q1124 532 982 426 Q859 334 637 334 L412 334 L412 142 L551 142 L551 0 L101 0 L101 147 L236 147 L236 1329 L101 1329 L101 1475 L551 1475 L551 1333 L412 1333 L412 1165 L623 1165 Z M614 478 Q796 478 874 553 Q942 618 942 747 Q942 1020 626 1020 L412 1020 L412 478 L614 478 Z " />
<glyph glyph-name="eth" unicode="&#xf0;" horiz-adv-x="983" d="M610 1290 Q888 1008 888 535 Q888 280 813 149 Q712 -29 482 -29 Q273 -29 168 123 Q79 252 79 472 Q79 728 194 862 Q295 979 470 979 Q625 979 687 865 Q636 1057 490 1203 L325 1085 L262 1170 L409 1275 Q338 1332 258 1380 L334 1492 Q447 1430 531 1362 L685 1472 L747 1388 L610 1290 Z M482 123 Q602 123 660 231 Q710 323 710 481 Q710 664 646 754 Q589 835 486 835 Q367 835 309 729 Q259 638 259 476 Q259 298 324 206 Q382 123 482 123 Z " />
<glyph glyph-name="yacute" unicode="&#xfd;" horiz-adv-x="920" d="M929 825 L833 825 L493 -139 Q428 -322 349 -374 Q279 -421 122 -422 L122 -271 Q220 -268 260 -241 Q302 -213 329 -136 L378 5 L84 825 L-13 825 L-13 968 L401 968 L401 827 L259 827 L401 369 Q417 314 444 235 Q454 207 458 193 L464 193 Q470 214 487 267 Q506 324 518 363 L662 827 L517 827 L517 968 L929 968 L929 825 Z M352 1122 L527 1479 L728 1479 L484 1122 L352 1122 Z " />
<glyph glyph-name="thorn" unicode="&#xfe;" horiz-adv-x="1022" d="M566 997 Q752 997 852 842 Q939 706 939 480 Q939 224 827 89 Q730 -29 568 -29 Q396 -29 310 103 L310 -281 L507 -281 L507 -422 L16 -422 L16 -281 L146 -281 L146 1332 L14 1332 L14 1475 L311 1475 L311 857 Q398 997 566 997 Z M538 123 Q653 123 709 228 Q759 320 759 483 Q759 671 693 765 Q636 846 536 846 Q311 846 311 494 Q311 304 377 208 Q436 123 538 123 Z " />
<glyph glyph-name="Amacron" unicode="&#x100;" horiz-adv-x="1264" d="M1239 145 L1239 0 L805 0 L805 145 L952 145 L872 440 L385 440 L301 145 L457 145 L457 0 L26 0 L26 145 L122 145 L531 1475 L735 1475 L1136 145 L1239 145 Z M426 583 L832 583 L634 1286 L626 1286 L426 583 Z M375 1704 L375 1850 L885 1850 L885 1704 L375 1704 Z " />
<glyph glyph-name="amacron" unicode="&#x101;" horiz-adv-x="976" d="M938 143 L938 0 L685 0 L684 142 Q654 62 577 17 Q500 -28 395 -28 Q229 -28 148 62 Q77 140 77 279 Q77 574 430 574 L648 574 L648 662 Q648 768 609 811.5 Q570 855 475 855 Q390 855 354 821 Q318 787 314 704 L142 704 Q148 866 239 936 Q318 997 470 997 Q670 997 745 910 Q811 833 811 656 L811 143 L938 143 Z M622 206 Q648 249 648 339 L648 445 L451 445 Q349 445 302.5 406.5 Q256 368 256 284 Q256 114 428 114 Q566 114 622 206 Z M221 1197 L221 1343 L731 1343 L731 1197 L221 1197 Z " />
<glyph glyph-name="Abreve" unicode="&#x102;" horiz-adv-x="1264" d="M1239 145 L1239 0 L805 0 L805 145 L952 145 L872 440 L385 440 L301 145 L457 145 L457 0 L26 0 L26 145 L122 145 L531 1475 L735 1475 L1136 145 L1239 145 Z M426 583 L832 583 L634 1286 L626 1286 L426 583 Z M438 1921 Q446 1838 490 1802 Q534 1766 628 1766 Q724 1766 768.5 1802 Q813 1838 820 1921 L945 1921 Q942 1629 629 1629 Q455 1629 379 1716 Q316 1786 312 1921 L438 1921 Z " />
<glyph glyph-name="abreve" unicode="&#x103;" horiz-adv-x="976" d="M938 143 L938 0 L685 0 L684 142 Q654 62 577 17 Q500 -28 395 -28 Q229 -28 148 62 Q77 140 77 279 Q77 574 430 574 L648 574 L648 662 Q648 768 609 811.5 Q570 855 475 855 Q390 855 354 821 Q318 787 314 704 L142 704 Q148 866 239 936 Q318 997 470 997 Q670 997 745 910 Q811 833 811 656 L811 143 L938 143 Z M622 206 Q648 249 648 339 L648 445 L451 445 Q349 445 302.5 406.5 Q256 368 256 284 Q256 114 428 114 Q566 114 622 206 Z M284 1414 Q292 1331 336 1295 Q380 1259 474 1259 Q570 1259 614.5 1295 Q659 1331 666 1414 L791 1414 Q788 1122 475 1122 Q301 1122 225 1209 Q162 1279 158 1414 L284 1414 Z " />
<glyph glyph-name="Aogonek" unicode="&#x104;" horiz-adv-x="1264" d="M1108 0 L805 0 L805 145 L952 145 L872 440 L385 440 L301 145 L457 145 L457 0 L26 0 L26 145 L122 145 L531 1475 L735 1475 L1136 145 L1239 145 L1239 0 Q1145 -76 1107.5 -128 Q1070 -180 1070 -235 Q1070 -317 1154 -317 L1238 -317 L1238 -439 L1155 -439 Q924 -439 924 -266 Q924 -199 964.5 -140.5 Q1005 -82 1108 0 Z M426 583 L832 583 L634 1286 L626 1286 L426 583 Z " />
<glyph glyph-name="aogonek" unicode="&#x105;" horiz-adv-x="976" d="M808 0 L685 0 L684 142 Q654 62 577 17 Q500 -28 395 -28 Q229 -28 148 62 Q77 140 77 279 Q77 574 430 574 L648 574 L648 662 Q648 768 609 811.5 Q570 855 475 855 Q390 855 354 821 Q318 787 314 704 L142 704 Q148 866 239 936 Q318 997 470 997 Q670 997 745 910 Q811 833 811 656 L811 143 L938 143 L938 0 L939 0 Q845 -76 807.5 -128 Q770 -180 770 -235 Q770 -317 854 -317 L938 -317 L938 -439 L855 -439 Q624 -439 624 -266 Q624 -199 664.5 -140.5 Q705 -82 808 0 Z M622 206 Q648 249 648 339 L648 445 L451 445 Q349 445 302.5 406.5 Q256 368 256 284 Q256 114 428 114 Q566 114 622 206 Z " />
<glyph glyph-name="Cacute" unicode="&#x106;" horiz-adv-x="1161" d="M1066 125 Q900 -31 648 -31 Q102 -31 102 714 Q102 1121 257 1326 Q390 1502 619 1502 Q807 1502 891 1374 L892 1475 L1033 1475 L1033 1040 L887 1040 Q887 1195 817 1274 Q755 1345 646 1345 Q462 1345 369 1160 Q288 1000 288 724 Q288 133 667 133 Q837 133 971 255 L1066 125 Z M509 1629 L684 1986 L885 1986 L641 1629 L509 1629 Z " />
<glyph glyph-name="cacute" unicode="&#x107;" horiz-adv-x="903" d="M819 78 Q704 -29 506 -29 Q282 -29 174 121 Q81 248 81 476 Q81 742 201 880 Q303 995 470 995 Q612 995 666 892 L666 968 L805 968 L805 633 L659 633 Q659 715 642 757 Q606 848 497 848 Q381 848 319 744 Q262 649 262 483 Q262 123 528 123 Q639 123 738 202 L819 78 Z M378 1122 L553 1479 L754 1479 L510 1122 L378 1122 Z " />
<glyph glyph-name="Ccircumflex" unicode="&#x108;" horiz-adv-x="1161" d="M1066 125 Q900 -31 648 -31 Q102 -31 102 714 Q102 1121 257 1326 Q390 1502 619 1502 Q807 1502 891 1374 L892 1475 L1033 1475 L1033 1040 L887 1040 Q887 1195 817 1274 Q755 1345 646 1345 Q462 1345 369 1160 Q288 1000 288 724 Q288 133 667 133 Q837 133 971 255 L1066 125 Z M614 1852 L443 1629 L312 1629 L522 1967 L703 1967 L913 1629 L783 1629 L614 1852 Z " />
<glyph glyph-name="ccircumflex" unicode="&#x109;" horiz-adv-x="903" d="M819 78 Q704 -29 506 -29 Q282 -29 174 121 Q81 248 81 476 Q81 742 201 880 Q303 995 470 995 Q612 995 666 892 L666 968 L805 968 L805 633 L659 633 Q659 715 642 757 Q606 848 497 848 Q381 848 319 744 Q262 649 262 483 Q262 123 528 123 Q639 123 738 202 L819 78 Z M483 1345 L312 1122 L181 1122 L391 1460 L572 1460 L782 1122 L652 1122 L483 1345 Z " />
<glyph glyph-name="Cdotaccent" unicode="&#x10a;" horiz-adv-x="1161" d="M1066 125 Q900 -31 648 -31 Q102 -31 102 714 Q102 1121 257 1326 Q390 1502 619 1502 Q807 1502 891 1374 L892 1475 L1033 1475 L1033 1040 L887 1040 Q887 1195 817 1274 Q755 1345 646 1345 Q462 1345 369 1160 Q288 1000 288 724 Q288 133 667 133 Q837 133 971 255 L1066 125 Z M513 1877 L713 1877 L713 1670 L513 1670 L513 1877 Z " />
<glyph glyph-name="cdotaccent" unicode="&#x10b;" horiz-adv-x="903" d="M819 78 Q704 -29 506 -29 Q282 -29 174 121 Q81 248 81 476 Q81 742 201 880 Q303 995 470 995 Q612 995 666 892 L666 968 L805 968 L805 633 L659 633 Q659 715 642 757 Q606 848 497 848 Q381 848 319 744 Q262 649 262 483 Q262 123 528 123 Q639 123 738 202 L819 78 Z M382 1370 L582 1370 L582 1163 L382 1163 L382 1370 Z " />
<glyph glyph-name="Ccaron" unicode="&#x10c;" horiz-adv-x="1161" d="M1066 125 Q900 -31 648 -31 Q102 -31 102 714 Q102 1121 257 1326 Q390 1502 619 1502 Q807 1502 891 1374 L892 1475 L1033 1475 L1033 1040 L887 1040 Q887 1195 817 1274 Q755 1345 646 1345 Q462 1345 369 1160 Q288 1000 288 724 Q288 133 667 133 Q837 133 971 255 L1066 125 Z M915 1954 L705 1616 L524 1616 L314 1954 L445 1954 L616 1731 L785 1954 L915 1954 Z " />
<glyph glyph-name="ccaron" unicode="&#x10d;" horiz-adv-x="903" d="M819 78 Q704 -29 506 -29 Q282 -29 174 121 Q81 248 81 476 Q81 742 201 880 Q303 995 470 995 Q612 995 666 892 L666 968 L805 968 L805 633 L659 633 Q659 715 642 757 Q606 848 497 848 Q381 848 319 744 Q262 649 262 483 Q262 123 528 123 Q639 123 738 202 L819 78 Z M784 1447 L574 1109 L393 1109 L183 1447 L314 1447 L485 1224 L654 1447 L784 1447 Z " />
<glyph glyph-name="Dcaron" unicode="&#x10e;" horiz-adv-x="1311" d="M535 1475 Q879 1475 1049 1254 Q1194 1065 1194 738 Q1194 364 1013 172 Q851 0 564 0 L101 0 L101 145 L231 145 L231 1330 L101 1330 L101 1475 L535 1475 Z M544 145 Q791 145 908 318 Q1009 466 1009 736 Q1009 1043 873 1195 Q752 1330 533 1330 L409 1330 L409 145 L544 145 Z M899 1954 L689 1616 L508 1616 L298 1954 L429 1954 L600 1731 L769 1954 L899 1954 Z " />
<glyph glyph-name="dcaron" unicode="&#x10f;" horiz-adv-x="1049" d="M1005 143 L1005 0 L734 0 L733 173 Q675 -29 454 -29 Q268 -29 170 121 Q82 254 82 481 Q82 740 196 878 Q295 997 459 997 Q636 997 711 847 L711 1332 L538 1332 L538 1475 L876 1475 L876 143 L1005 143 Z M486 122 Q603 122 660 227 Q711 320 711 486 Q711 676 644 768 Q587 847 485 847 Q371 847 313 741 Q263 648 263 483 Q263 295 328 203 Q385 122 486 122 Z M975 1111 L1029 1509 L1206 1509 L1090 1111 L975 1111 Z " />
<glyph glyph-name="Dcroat" unicode="&#x110;" horiz-adv-x="1364" d="M284 834 L284 1330 L154 1330 L154 1475 L588 1475 Q932 1475 1102 1254 Q1247 1065 1247 738 Q1247 364 1066 172 Q904 0 617 0 L154 0 L154 145 L284 145 L284 690 L118 690 L118 834 L284 834 Z M462 690 L462 145 L597 145 Q844 145 961 318 Q1062 466 1062 736 Q1062 1043 926 1195 Q805 1330 586 1330 L462 1330 L462 834 L731 834 L731 690 L462 690 Z " />
<glyph glyph-name="dcroat" unicode="&#x111;" horiz-adv-x="1061" d="M1011 143 L1011 0 L740 0 L739 157 Q675 -29 460 -29 Q276 -29 173 124 Q82 259 82 481 Q82 737 200 877 Q302 997 465 997 Q640 997 718 857 L718 1114 L378 1114 L378 1217 L718 1217 L718 1349 L544 1349 L544 1475 L882 1475 L882 1217 L986 1217 L986 1114 L882 1114 L882 143 L1011 143 Z M489 122 Q716 122 716 486 Q716 675 649 767 Q592 846 490 846 Q374 846 315 741 Q263 648 263 483 Q263 295 329 203 Q387 122 489 122 Z " />
<glyph glyph-name="Emacron" unicode="&#x112;" horiz-adv-x="1151" d="M1038 400 L1038 0 L101 0 L101 145 L236 145 L236 1330 L101 1330 L101 1475 L1011 1475 L1011 1116 L851 1116 L851 1330 L414 1330 L414 834 L827 834 L827 689 L414 689 L414 145 L880 145 L880 400 L1038 400 Z M346 1704 L346 1850 L856 1850 L856 1704 L346 1704 Z " />
<glyph glyph-name="emacron" unicode="&#x113;" horiz-adv-x="929" d="M481 997 Q688 997 777 835 Q854 697 850 431 L254 431 Q259 271 333 191 Q398 121 509 121 Q632 121 744 195 L820 68 Q684 -29 504 -29 Q81 -29 81 481 Q81 747 199 881 Q302 997 481 997 Z M478 854 Q372 854 314 768 Q263 693 255 562 L682 562 Q674 854 478 854 Z M218 1197 L218 1343 L728 1343 L728 1197 L218 1197 Z " />
<glyph glyph-name="Ebreve" unicode="&#x114;" horiz-adv-x="1151" d="M1038 400 L1038 0 L101 0 L101 145 L236 145 L236 1330 L101 1330 L101 1475 L1011 1475 L1011 1116 L851 1116 L851 1330 L414 1330 L414 834 L827 834 L827 689 L414 689 L414 145 L880 145 L880 400 L1038 400 Z M409 1921 Q417 1838 461 1802 Q505 1766 599 1766 Q695 1766 739.5 1802 Q784 1838 791 1921 L916 1921 Q913 1629 600 1629 Q426 1629 350 1716 Q287 1786 283 1921 L409 1921 Z " />
<glyph glyph-name="ebreve" unicode="&#x115;" horiz-adv-x="929" d="M481 997 Q688 997 777 835 Q854 697 850 431 L254 431 Q259 271 333 191 Q398 121 509 121 Q632 121 744 195 L820 68 Q684 -29 504 -29 Q81 -29 81 481 Q81 747 199 881 Q302 997 481 997 Z M478 854 Q372 854 314 768 Q263 693 255 562 L682 562 Q674 854 478 854 Z M281 1414 Q289 1331 333 1295 Q377 1259 471 1259 Q567 1259 611.5 1295 Q656 1331 663 1414 L788 1414 Q785 1122 472 1122 Q298 1122 222 1209 Q159 1279 155 1414 L281 1414 Z " />
<glyph glyph-name="Edotaccent" unicode="&#x116;" horiz-adv-x="1151" d="M1038 400 L1038 0 L101 0 L101 145 L236 145 L236 1330 L101 1330 L101 1475 L1011 1475 L1011 1116 L851 1116 L851 1330 L414 1330 L414 834 L827 834 L827 689 L414 689 L414 145 L880 145 L880 400 L1038 400 Z M499 1877 L699 1877 L699 1670 L499 1670 L499 1877 Z " />
<glyph glyph-name="edotaccent" unicode="&#x117;" horiz-adv-x="929" d="M481 997 Q688 997 777 835 Q854 697 850 431 L254 431 Q259 271 333 191 Q398 121 509 121 Q632 121 744 195 L820 68 Q684 -29 504 -29 Q81 -29 81 481 Q81 747 199 881 Q302 997 481 997 Z M478 854 Q372 854 314 768 Q263 693 255 562 L682 562 Q674 854 478 854 Z M371 1370 L571 1370 L571 1163 L371 1163 L371 1370 Z " />
<glyph glyph-name="Eogonek" unicode="&#x118;" horiz-adv-x="1151" d="M907 0 L101 0 L101 145 L236 145 L236 1330 L101 1330 L101 1475 L1011 1475 L1011 1116 L851 1116 L851 1330 L414 1330 L414 834 L827 834 L827 689 L414 689 L414 145 L880 145 L880 400 L1038 400 L1038 0 Q944 -76 906.5 -128 Q869 -180 869 -235 Q869 -317 953 -317 L1037 -317 L1037 -439 L954 -439 Q723 -439 723 -266 Q723 -199 763.5 -140.5 Q804 -82 907 0 Z " />
<glyph glyph-name="eogonek" unicode="&#x119;" horiz-adv-x="929" d="M539 -28 Q528 -29 504 -29 Q81 -29 81 481 Q81 747 199 881 Q302 997 481 997 Q688 997 777 835 Q854 697 850 431 L254 431 Q259 271 333 191 Q398 121 509 121 Q632 121 744 195 L820 68 Q773 36 720 13 L705 1 Q620 -69 586.5 -117.5 Q553 -166 551 -222 Q551 -304 635 -304 L719 -304 L719 -426 L636 -426 Q405 -426 405 -253 Q407 -143 539 -28 Z M478 854 Q372 854 314 768 Q263 693 255 562 L682 562 Q674 854 478 854 Z " />
<glyph glyph-name="Ecaron" unicode="&#x11a;" horiz-adv-x="1151" d="M1038 400 L1038 0 L101 0 L101 145 L236 145 L236 1330 L101 1330 L101 1475 L1011 1475 L1011 1116 L851 1116 L851 1330 L414 1330 L414 834 L827 834 L827 689 L414 689 L414 145 L880 145 L880 400 L1038 400 Z M901 1954 L691 1616 L510 1616 L300 1954 L431 1954 L602 1731 L771 1954 L901 1954 Z " />
<glyph glyph-name="ecaron" unicode="&#x11b;" horiz-adv-x="929" d="M481 997 Q688 997 777 835 Q854 697 850 431 L254 431 Q259 271 333 191 Q398 121 509 121 Q632 121 744 195 L820 68 Q684 -29 504 -29 Q81 -29 81 481 Q81 747 199 881 Q302 997 481 997 Z M478 854 Q372 854 314 768 Q263 693 255 562 L682 562 Q674 854 478 854 Z M773 1447 L563 1109 L382 1109 L172 1447 L303 1447 L474 1224 L643 1447 L773 1447 Z " />
<glyph glyph-name="Gcircumflex" unicode="&#x11c;" horiz-adv-x="1265" d="M949 192 L949 577 L615 577 L615 722 L1115 722 L1115 89 Q997 24 896.5 -3.5 Q796 -31 680 -31 Q370 -31 228 174 Q101 358 101 712 Q101 1129 259 1330 Q396 1504 643 1504 Q844 1504 936 1381 L937 1475 L1079 1475 L1079 1057 L933 1057 Q933 1209 854 1282 Q786 1345 666 1345 Q286 1345 286 711 Q286 386 397 247 Q492 127 685 127 Q822 127 949 192 Z M645 1852 L474 1629 L343 1629 L553 1967 L734 1967 L944 1629 L814 1629 L645 1852 Z " />
<glyph glyph-name="gcircumflex" unicode="&#x11d;" horiz-adv-x="1045" d="M1008 968 L1008 825 L881 825 L881 -10 Q881 -262 787 -361 Q700 -452 502 -452 Q303 -452 219 -366 Q145 -292 142 -140 L302 -140 Q306 -232 352 -270 Q398 -308 505 -308 Q631 -308 679 -235 Q722 -169 722 -19 L722 135 Q687 60 618.5 19 Q550 -22 461 -22 Q271 -22 172 132 Q87 264 87 486 Q87 743 199 879 Q297 997 458 997 Q659 997 744 809 L744 968 L1008 968 Z M493 126 Q715 126 715 487 Q715 674 650 766 Q593 847 490 847 Q376 847 318 743 Q268 651 268 488 Q268 301 334 208 Q392 126 493 126 Z M501 1345 L330 1122 L199 1122 L409 1460 L590 1460 L800 1122 L670 1122 L501 1345 Z " />
<glyph glyph-name="Gbreve" unicode="&#x11e;" horiz-adv-x="1265" d="M949 192 L949 577 L615 577 L615 722 L1115 722 L1115 89 Q997 24 896.5 -3.5 Q796 -31 680 -31 Q370 -31 228 174 Q101 358 101 712 Q101 1129 259 1330 Q396 1504 643 1504 Q844 1504 936 1381 L937 1475 L1079 1475 L1079 1057 L933 1057 Q933 1209 854 1282 Q786 1345 666 1345 Q286 1345 286 711 Q286 386 397 247 Q492 127 685 127 Q822 127 949 192 Z M454 1921 Q462 1838 506 1802 Q550 1766 644 1766 Q740 1766 784.5 1802 Q829 1838 836 1921 L961 1921 Q958 1629 645 1629 Q471 1629 395 1716 Q332 1786 328 1921 L454 1921 Z " />
<glyph glyph-name="gbreve" unicode="&#x11f;" horiz-adv-x="1045" d="M1008 968 L1008 825 L881 825 L881 -10 Q881 -262 787 -361 Q700 -452 502 -452 Q303 -452 219 -366 Q145 -292 142 -140 L302 -140 Q306 -232 352 -270 Q398 -308 505 -308 Q631 -308 679 -235 Q722 -169 722 -19 L722 135 Q687 60 618.5 19 Q550 -22 461 -22 Q271 -22 172 132 Q87 264 87 486 Q87 743 199 879 Q297 997 458 997 Q659 997 744 809 L744 968 L1008 968 Z M493 126 Q715 126 715 487 Q715 674 650 766 Q593 847 490 847 Q376 847 318 743 Q268 651 268 488 Q268 301 334 208 Q392 126 493 126 Z M310 1414 Q318 1331 362 1295 Q406 1259 500 1259 Q596 1259 640.5 1295 Q685 1331 692 1414 L817 1414 Q814 1122 501 1122 Q327 1122 251 1209 Q188 1279 184 1414 L310 1414 Z " />
<glyph glyph-name="Gdotaccent" unicode="&#x120;" horiz-adv-x="1265" d="M949 192 L949 577 L615 577 L615 722 L1115 722 L1115 89 Q997 24 896.5 -3.5 Q796 -31 680 -31 Q370 -31 228 174 Q101 358 101 712 Q101 1129 259 1330 Q396 1504 643 1504 Q844 1504 936 1381 L937 1475 L1079 1475 L1079 1057 L933 1057 Q933 1209 854 1282 Q786 1345 666 1345 Q286 1345 286 711 Q286 386 397 247 Q492 127 685 127 Q822 127 949 192 Z M544 1877 L744 1877 L744 1670 L544 1670 L544 1877 Z " />
<glyph glyph-name="gdotaccent" unicode="&#x121;" horiz-adv-x="1045" d="M1008 968 L1008 825 L881 825 L881 -10 Q881 -262 787 -361 Q700 -452 502 -452 Q303 -452 219 -366 Q145 -292 142 -140 L302 -140 Q306 -232 352 -270 Q398 -308 505 -308 Q631 -308 679 -235 Q722 -169 722 -19 L722 135 Q687 60 618.5 19 Q550 -22 461 -22 Q271 -22 172 132 Q87 264 87 486 Q87 743 199 879 Q297 997 458 997 Q659 997 744 809 L744 968 L1008 968 Z M493 126 Q715 126 715 487 Q715 674 650 766 Q593 847 490 847 Q376 847 318 743 Q268 651 268 488 Q268 301 334 208 Q392 126 493 126 Z M400 1370 L600 1370 L600 1163 L400 1163 L400 1370 Z " />
<glyph glyph-name="Gcommaaccent" unicode="&#x122;" horiz-adv-x="1265" d="M949 192 L949 577 L615 577 L615 722 L1115 722 L1115 89 Q997 24 896.5 -3.5 Q796 -31 680 -31 Q370 -31 228 174 Q101 358 101 712 Q101 1129 259 1330 Q396 1504 643 1504 Q844 1504 936 1381 L937 1475 L1079 1475 L1079 1057 L933 1057 Q933 1209 854 1282 Q786 1345 666 1345 Q286 1345 286 711 Q286 386 397 247 Q492 127 685 127 Q822 127 949 192 Z M576 -131 L772 -131 L535 -480 L412 -480 L576 -131 Z " />
<glyph glyph-name="gcommaaccent" unicode="&#x123;" horiz-adv-x="1045" d="M1008 968 L1008 825 L881 825 L881 -10 Q881 -262 787 -361 Q700 -452 502 -452 Q303 -452 219 -366 Q145 -292 142 -140 L302 -140 Q306 -232 352 -270 Q398 -308 505 -308 Q631 -308 679 -235 Q722 -169 722 -19 L722 135 Q687 60 618.5 19 Q550 -22 461 -22 Q271 -22 172 132 Q87 264 87 486 Q87 743 199 879 Q297 997 458 997 Q659 997 744 809 L744 968 L1008 968 Z M493 126 Q715 126 715 487 Q715 674 650 766 Q593 847 490 847 Q376 847 318 743 Q268 651 268 488 Q268 301 334 208 Q392 126 493 126 Z M723 1470 L558 1121 L362 1121 L600 1470 L723 1470 Z " />
<glyph glyph-name="Hcircumflex" unicode="&#x124;" horiz-adv-x="1373" d="M1137 1330 L1137 145 L1272 145 L1272 0 L821 0 L821 145 L959 145 L959 700 L414 700 L414 145 L552 145 L552 0 L101 0 L101 145 L236 145 L236 1330 L101 1330 L101 1475 L552 1475 L552 1330 L414 1330 L414 846 L959 846 L959 1330 L821 1330 L821 1475 L1272 1475 L1272 1330 L1137 1330 Z M689 1852 L518 1629 L387 1629 L597 1967 L778 1967 L988 1629 L858 1629 L689 1852 Z " />
<glyph glyph-name="hcircumflex" unicode="&#x125;" horiz-adv-x="1076" d="M1040 143 L1040 0 L625 0 L625 143 L738 143 L738 652 Q738 756 705.5 802 Q673 848 600 848 Q466 848 358 671 L358 143 L471 143 L471 0 L56 0 L56 143 L184 143 L184 1332 L50 1332 L50 1475 L352 1475 L352 824 Q477 997 650 997 Q911 997 911 681 L911 143 L1040 143 Z M256 1852 L85 1629 L-46 1629 L164 1967 L345 1967 L555 1629 L425 1629 L256 1852 Z " />
<glyph glyph-name="Hbar" unicode="&#x126;" horiz-adv-x="1399" d="M249 1037 L115 1037 L115 1136 L249 1136 L249 1330 L114 1330 L114 1475 L565 1475 L565 1330 L427 1330 L427 1136 L972 1136 L972 1330 L834 1330 L834 1475 L1285 1475 L1285 1330 L1150 1330 L1150 1136 L1284 1136 L1284 1037 L1150 1037 L1150 145 L1285 145 L1285 0 L834 0 L834 145 L972 145 L972 700 L427 700 L427 145 L565 145 L565 0 L114 0 L114 145 L249 145 L249 1037 Z M427 1037 L427 846 L972 846 L972 1037 L427 1037 Z " />
<glyph glyph-name="hbar" unicode="&#x127;" horiz-adv-x="1084" d="M1048 143 L1048 0 L633 0 L633 143 L746 143 L746 652 Q746 756 713.5 802 Q681 848 608 848 Q475 848 365 670 L365 143 L477 143 L477 0 L63 0 L63 143 L192 143 L192 1114 L58 1114 L58 1217 L192 1217 L192 1349 L58 1349 L58 1475 L362 1475 L362 1217 L666 1217 L666 1114 L362 1114 L362 827 Q485 997 658 997 Q920 997 920 681 L920 143 L1048 143 Z " />
<glyph glyph-name="Itilde" unicode="&#x128;" horiz-adv-x="651" d="M551 145 L551 0 L101 0 L101 145 L236 145 L236 1330 L101 1330 L101 1475 L551 1475 L551 1330 L415 1330 L415 145 L551 145 Z M50 1678 Q57 1788 108 1841 Q150 1885 216 1885 Q251 1885 276.5 1875 Q302 1865 353 1831 Q397 1801 426 1801 Q482 1801 485 1881 L603 1881 Q600 1774 548 1719 Q504 1672 431 1672 Q371 1672 293 1723 Q250 1750 225 1750 Q174 1750 170 1678 L50 1678 Z " />
<glyph glyph-name="itilde" unicode="&#x129;" horiz-adv-x="548" d="M76 143 L205 143 L205 825 L76 825 L76 968 L379 968 L379 143 L507 143 L507 0 L76 0 L76 143 Z M-6 1172 Q1 1282 52 1335 Q94 1379 160 1379 Q195 1379 220.5 1369 Q246 1359 297 1325 Q341 1295 370 1295 Q426 1295 429 1375 L547 1375 Q544 1268 492 1213 Q448 1166 375 1166 Q315 1166 237 1217 Q194 1244 169 1244 Q118 1244 114 1172 L-6 1172 Z " />
<glyph glyph-name="Imacron" unicode="&#x12a;" horiz-adv-x="651" d="M551 145 L551 0 L101 0 L101 145 L236 145 L236 1330 L101 1330 L101 1475 L551 1475 L551 1330 L415 1330 L415 145 L551 145 Z M109 1704 L109 1850 L543 1850 L543 1704 L109 1704 Z " />
<glyph glyph-name="imacron" unicode="&#x12b;" horiz-adv-x="548" d="M76 143 L205 143 L205 825 L76 825 L76 968 L379 968 L379 143 L507 143 L507 0 L76 0 L76 143 Z M53 1198 L53 1344 L487 1344 L487 1198 L53 1198 Z " />
<glyph glyph-name="Ibreve" unicode="&#x12c;" horiz-adv-x="651" d="M551 145 L551 0 L101 0 L101 145 L236 145 L236 1330 L101 1330 L101 1475 L551 1475 L551 1330 L415 1330 L415 145 L551 145 Z M168 1923 Q174 1841 211.5 1804.5 Q249 1768 327 1768 Q407 1768 445 1804.5 Q483 1841 487 1923 L612 1923 Q609 1631 328 1631 Q173 1631 104 1718 Q48 1788 44 1923 L168 1923 Z " />
<glyph glyph-name="ibreve" unicode="&#x12d;" horiz-adv-x="548" d="M76 143 L205 143 L205 825 L76 825 L76 968 L379 968 L379 143 L507 143 L507 0 L76 0 L76 143 Z M112 1417 Q118 1335 155.5 1298.5 Q193 1262 271 1262 Q351 1262 389 1298.5 Q427 1335 431 1417 L556 1417 Q553 1125 272 1125 Q117 1125 48 1212 Q-8 1282 -12 1417 L112 1417 Z " />
<glyph glyph-name="Iogonek" unicode="&#x12e;" horiz-adv-x="651" d="M420 0 L101 0 L101 145 L236 145 L236 1330 L101 1330 L101 1475 L551 1475 L551 1330 L415 1330 L415 145 L551 145 L551 0 Q457 -76 419.5 -128 Q382 -180 382 -235 Q382 -317 466 -317 L550 -317 L550 -439 L467 -439 Q236 -439 236 -266 Q236 -199 276.5 -140.5 Q317 -82 420 0 Z " />
<glyph glyph-name="iogonek" unicode="&#x12f;" horiz-adv-x="550" d="M376 0 L76 0 L76 143 L205 143 L205 825 L76 825 L76 968 L379 968 L379 143 L507 143 L507 0 Q413 -76 375.5 -128 Q338 -180 338 -235 Q338 -317 422 -317 L506 -317 L506 -439 L423 -439 Q192 -439 192 -266 Q192 -199 232.5 -140.5 Q273 -82 376 0 Z M179 1368 L375 1368 L375 1164 L179 1164 L179 1368 Z " />
<glyph glyph-name="Idot" unicode="&#x130;" horiz-adv-x="651" d="M551 145 L551 0 L101 0 L101 145 L236 145 L236 1330 L101 1330 L101 1475 L551 1475 L551 1330 L415 1330 L415 145 L551 145 Z M226 1877 L426 1877 L426 1670 L226 1670 L226 1877 Z " />
<glyph glyph-name="IJ" unicode="&#x132;" horiz-adv-x="1288" d="M551 145 L551 0 L101 0 L101 145 L236 145 L236 1330 L101 1330 L101 1475 L551 1475 L551 1330 L415 1330 L415 145 L551 145 Z M1205 1330 L1071 1330 L1071 81 Q1071 -132 995 -215 Q921 -297 741 -301 L741 -142 Q824 -138 857.5 -93.5 Q891 -49 891 56 L891 1330 L751 1330 L751 1475 L1205 1475 L1205 1330 Z " />
<glyph glyph-name="ij" unicode="&#x133;" horiz-adv-x="1054" d="M179 1368 L375 1368 L375 1164 L179 1164 L179 1368 Z M76 143 L205 143 L205 825 L76 825 L76 968 L379 968 L379 143 L507 143 L507 0 L76 0 L76 143 Z M715 1370 L916 1370 L916 1163 L715 1163 L715 1370 Z M605 -271 Q682 -268 712 -232 Q742 -196 742 -107 L742 825 L611 825 L611 968 L914 968 L914 -74 Q914 -272 844 -347 Q774 -422 605 -422 L605 -271 Z " />
<glyph glyph-name="Jcircumflex" unicode="&#x134;" horiz-adv-x="637" d="M554 1330 L420 1330 L420 81 Q420 -132 344 -215 Q270 -297 90 -301 L90 -142 Q173 -138 206.5 -93.5 Q240 -49 240 56 L240 1330 L100 1330 L100 1475 L554 1475 L554 1330 Z M332 1852 L178 1629 L49 1629 L244 1967 L417 1967 L612 1629 L483 1629 L332 1852 Z " />
<glyph glyph-name="jcircumflex" unicode="&#x135;" horiz-adv-x="504" d="M55 -271 Q132 -268 162 -232 Q192 -196 192 -107 L192 825 L61 825 L61 968 L364 968 L364 -74 Q364 -272 294 -347 Q224 -422 55 -422 L55 -271 Z M265 1345 L111 1122 L-18 1122 L177 1460 L350 1460 L545 1122 L416 1122 L265 1345 Z " />
<glyph glyph-name="Kcommaaccent" unicode="&#x136;" horiz-adv-x="1287" d="M1262 145 L1262 0 L786 0 L786 145 L916 145 L414 744 L414 145 L545 145 L545 0 L101 0 L101 145 L238 145 L238 1330 L101 1330 L101 1475 L542 1475 L542 1330 L414 1330 L414 774 L869 1331 L746 1331 L746 1475 L1183 1475 L1183 1330 L1064 1330 L608 771 L1133 145 L1262 145 Z M572 -131 L768 -131 L531 -480 L408 -480 L572 -131 Z " />
<glyph glyph-name="kcommaaccent" unicode="&#x137;" horiz-adv-x="1035" d="M1029 143 L1029 0 L588 0 L588 137 L705 137 L347 537 L347 137 L458 137 L458 0 L50 0 L50 143 L179 143 L179 1332 L50 1332 L50 1475 L347 1475 L347 546 L651 846 L516 846 L516 968 L935 968 L935 825 L816 825 L534 549 L905 143 L1029 143 Z M449 -131 L645 -131 L408 -480 L285 -480 L449 -131 Z " />
<glyph glyph-name="kgreenlandic" unicode="&#x138;" horiz-adv-x="1071" d="M1065 145 L1065 0 L624 0 L624 140 L739 140 L376 537 L376 140 L486 140 L486 0 L76 0 L76 145 L205 145 L205 824 L76 824 L76 968 L376 968 L376 546 L677 840 L555 840 L555 968 L975 968 L975 825 L857 825 L568 545 L946 145 L1065 145 Z " />
<glyph glyph-name="Lacute" unicode="&#x139;" horiz-adv-x="1110" d="M1032 422 L1032 0 L101 0 L101 145 L236 145 L236 1330 L101 1330 L101 1475 L556 1475 L556 1330 L416 1330 L416 145 L869 145 L869 422 L1032 422 Z M225 1629 L400 1986 L601 1986 L357 1629 L225 1629 Z " />
<glyph glyph-name="lacute" unicode="&#x13a;" horiz-adv-x="534" d="M56 145 L184 145 L184 1330 L50 1330 L50 1475 L355 1475 L355 145 L483 145 L483 0 L56 0 L56 145 Z M152 1629 L327 1986 L528 1986 L284 1629 L152 1629 Z " />
<glyph glyph-name="Lcommaaccent" unicode="&#x13b;" horiz-adv-x="1110" d="M1032 422 L1032 0 L101 0 L101 145 L236 145 L236 1330 L101 1330 L101 1475 L556 1475 L556 1330 L416 1330 L416 145 L869 145 L869 422 L1032 422 Z M494 -131 L690 -131 L453 -480 L330 -480 L494 -131 Z " />
<glyph glyph-name="lcommaaccent" unicode="&#x13c;" horiz-adv-x="534" d="M56 145 L184 145 L184 1330 L50 1330 L50 1475 L355 1475 L355 145 L483 145 L483 0 L56 0 L56 145 Z M172 -131 L368 -131 L131 -480 L8 -480 L172 -131 Z " />
<glyph glyph-name="Lcaron" unicode="&#x13d;" horiz-adv-x="1110" d="M1032 422 L1032 0 L101 0 L101 145 L236 145 L236 1330 L101 1330 L101 1475 L556 1475 L556 1330 L416 1330 L416 145 L869 145 L869 422 L1032 422 Z M760 1114 L814 1512 L991 1512 L875 1114 L760 1114 Z " />
<glyph glyph-name="lcaron" unicode="&#x13e;" horiz-adv-x="534" d="M56 145 L184 145 L184 1330 L50 1330 L50 1475 L355 1475 L355 145 L483 145 L483 0 L56 0 L56 145 Z M442 1111 L496 1509 L673 1509 L557 1111 L442 1111 Z " />
<glyph glyph-name="Ldot" unicode="&#x13f;" horiz-adv-x="1145" d="M1032 422 L1032 0 L101 0 L101 145 L236 145 L236 1330 L101 1330 L101 1475 L556 1475 L556 1330 L416 1330 L416 145 L869 145 L869 422 L1032 422 Z M799 705 L799 926 L1004 926 L1004 705 L799 705 Z " />
<glyph glyph-name="ldot" unicode="&#x140;" horiz-adv-x="650" d="M56 145 L184 145 L184 1330 L50 1330 L50 1475 L355 1475 L355 145 L483 145 L483 0 L56 0 L56 145 Z M489 584 L489 805 L694 805 L694 584 L489 584 Z " />
<glyph glyph-name="Lslash" unicode="&#x141;" horiz-adv-x="1171" d="M477 898 L740 1076 L740 922 L477 744 L477 145 L930 145 L930 422 L1093 422 L1093 0 L162 0 L162 145 L297 145 L297 622 L122 503 L122 657 L297 776 L297 1330 L162 1330 L162 1475 L617 1475 L617 1330 L477 1330 L477 898 Z " />
<glyph glyph-name="lslash" unicode="&#x142;" horiz-adv-x="666" d="M429 743 L429 147 L559 147 L559 0 L131 0 L131 147 L262 147 L262 631 L71 503 L71 657 L262 785 L262 1328 L126 1328 L126 1475 L429 1475 L429 897 L619 1025 L619 871 L429 743 Z " />
<glyph glyph-name="Nacute" unicode="&#x143;" horiz-adv-x="1383" d="M475 1050 Q426 1147 390 1245 Q399 1141 399 1007 L399 145 L558 145 L558 0 L101 0 L101 145 L236 145 L236 1331 L101 1331 L101 1475 L437 1475 L928 513 Q981 407 1018 302 Q1007 415 1007 589 L1007 1330 L856 1330 L856 1475 L1305 1475 L1305 1330 L1169 1330 L1169 -13 L1024 -13 L475 1050 Z M593 1629 L768 1986 L969 1986 L725 1629 L593 1629 Z " />
<glyph glyph-name="nacute" unicode="&#x144;" horiz-adv-x="1097" d="M1060 143 L1060 0 L645 0 L645 143 L759 143 L759 652 Q759 756 726.5 802 Q694 848 620 848 Q485 848 378 671 L378 143 L492 143 L492 0 L76 0 L76 143 L205 143 L205 825 L76 825 L76 968 L357 968 L357 801 Q486 997 671 997 Q932 997 932 681 L932 143 L1060 143 Z M448 1122 L623 1479 L824 1479 L580 1122 L448 1122 Z " />
<glyph glyph-name="Ncommaaccent" unicode="&#x145;" horiz-adv-x="1383" d="M475 1050 Q426 1147 390 1245 Q399 1141 399 1007 L399 145 L558 145 L558 0 L101 0 L101 145 L236 145 L236 1331 L101 1331 L101 1475 L437 1475 L928 513 Q981 407 1018 302 Q1007 415 1007 589 L1007 1330 L856 1330 L856 1475 L1305 1475 L1305 1330 L1169 1330 L1169 -13 L1024 -13 L475 1050 Z M631 -131 L827 -131 L590 -480 L467 -480 L631 -131 Z " />
<glyph glyph-name="ncommaaccent" unicode="&#x146;" horiz-adv-x="1097" d="M1060 143 L1060 0 L645 0 L645 143 L759 143 L759 652 Q759 756 726.5 802 Q694 848 620 848 Q485 848 378 671 L378 143 L492 143 L492 0 L76 0 L76 143 L205 143 L205 825 L76 825 L76 968 L357 968 L357 801 Q486 997 671 997 Q932 997 932 681 L932 143 L1060 143 Z M481 -131 L677 -131 L440 -480 L317 -480 L481 -131 Z " />
<glyph glyph-name="Ncaron" unicode="&#x147;" horiz-adv-x="1383" d="M475 1050 Q426 1147 390 1245 Q399 1141 399 1007 L399 145 L558 145 L558 0 L101 0 L101 145 L236 145 L236 1331 L101 1331 L101 1475 L437 1475 L928 513 Q981 407 1018 302 Q1007 415 1007 589 L1007 1330 L856 1330 L856 1475 L1305 1475 L1305 1330 L1169 1330 L1169 -13 L1024 -13 L475 1050 Z M999 1954 L789 1616 L608 1616 L398 1954 L529 1954 L700 1731 L869 1954 L999 1954 Z " />
<glyph glyph-name="ncaron" unicode="&#x148;" horiz-adv-x="1097" d="M1060 143 L1060 0 L645 0 L645 143 L759 143 L759 652 Q759 756 726.5 802 Q694 848 620 848 Q485 848 378 671 L378 143 L492 143 L492 0 L76 0 L76 143 L205 143 L205 825 L76 825 L76 968 L357 968 L357 801 Q486 997 671 997 Q932 997 932 681 L932 143 L1060 143 Z M854 1447 L644 1109 L463 1109 L253 1447 L384 1447 L555 1224 L724 1447 L854 1447 Z " />
<glyph glyph-name="napostrophe" unicode="&#x149;" horiz-adv-x="1377" d="M21 1030 L124 1475 L324 1475 L180 1030 L21 1030 Z M1340 143 L1340 0 L925 0 L925 143 L1039 143 L1039 652 Q1039 756 1006.5 802 Q974 848 900 848 Q765 848 658 671 L658 143 L772 143 L772 0 L356 0 L356 143 L485 143 L485 825 L356 825 L356 968 L637 968 L637 801 Q766 997 951 997 Q1212 997 1212 681 L1212 143 L1340 143 Z " />
<glyph glyph-name="Eng" unicode="&#x14a;" horiz-adv-x="1383" d="M1305 1475 L1305 1330 L1169 1330 L1169 -13 L1168 -13 L1168 -74 Q1168 -273 1097 -347 Q1025 -422 849 -422 L849 -271 Q936 -268 969 -232.5 Q1002 -197 1002 -107 L1002 42 L475 1050 Q426 1147 390 1245 Q399 1141 399 1007 L399 145 L558 145 L558 0 L101 0 L101 145 L236 145 L236 1331 L101 1331 L101 1475 L437 1475 L928 513 Q981 407 1018 302 Q1007 415 1007 589 L1007 1330 L856 1330 L856 1475 L1305 1475 Z " />
<glyph glyph-name="eng" unicode="&#x14b;" horiz-adv-x="1038" d="M658 997 Q919 997 919 681 L919 -87 Q919 -276 847 -349 Q774 -422 599 -422 L599 -263 Q685 -259 715 -218 Q745 -177 745 -65 L745 649 Q745 753 713 798.5 Q681 844 608 844 Q480 844 379 668 L379 145 L492 145 L492 0 L76 0 L76 145 L205 145 L205 824 L76 824 L76 968 L357 968 L357 803 Q482 997 658 997 Z " />
<glyph glyph-name="Omacron" unicode="&#x14c;" horiz-adv-x="1283" d="M641 -30 Q358 -30 221 192 Q101 386 101 737 Q101 1138 259 1335 Q396 1506 640 1506 Q923 1506 1061 1282 Q1182 1087 1182 737 Q1182 336 1025 141 Q888 -30 641 -30 Z M642 133 Q827 133 917 308 Q995 461 995 735 Q995 1050 892 1206 Q801 1343 642 1343 Q459 1343 368 1165 Q289 1010 289 736 Q289 423 392 268 Q482 133 642 133 Z M387 1722 L387 1868 L897 1868 L897 1722 L387 1722 Z " />
<glyph glyph-name="omacron" unicode="&#x14d;" horiz-adv-x="979" d="M490 -29 Q279 -29 172 125 Q81 257 81 482 Q81 742 202 878 Q307 997 488 997 Q698 997 805 842 Q898 708 898 480 Q898 222 776 88 Q669 -29 490 -29 Z M489 121 Q607 121 666 227 Q717 320 717 484 Q717 671 650 765 Q591 848 488 848 Q371 848 313 740 Q262 647 262 483 Q262 295 328 202 Q386 121 489 121 Z M236 1197 L236 1343 L746 1343 L746 1197 L236 1197 Z " />
<glyph glyph-name="Obreve" unicode="&#x14e;" horiz-adv-x="1283" d="M641 -30 Q358 -30 221 192 Q101 386 101 737 Q101 1138 259 1335 Q396 1506 640 1506 Q923 1506 1061 1282 Q1182 1087 1182 737 Q1182 336 1025 141 Q888 -30 641 -30 Z M642 133 Q827 133 917 308 Q995 461 995 735 Q995 1050 892 1206 Q801 1343 642 1343 Q459 1343 368 1165 Q289 1010 289 736 Q289 423 392 268 Q482 133 642 133 Z M450 1939 Q458 1856 502 1820 Q546 1784 640 1784 Q736 1784 780.5 1820 Q825 1856 832 1939 L957 1939 Q954 1647 641 1647 Q467 1647 391 1734 Q328 1804 324 1939 L450 1939 Z " />
<glyph glyph-name="obreve" unicode="&#x14f;" horiz-adv-x="979" d="M490 -29 Q279 -29 172 125 Q81 257 81 482 Q81 742 202 878 Q307 997 488 997 Q698 997 805 842 Q898 708 898 480 Q898 222 776 88 Q669 -29 490 -29 Z M489 121 Q607 121 666 227 Q717 320 717 484 Q717 671 650 765 Q591 848 488 848 Q371 848 313 740 Q262 647 262 483 Q262 295 328 202 Q386 121 489 121 Z M299 1414 Q307 1331 351 1295 Q395 1259 489 1259 Q585 1259 629.5 1295 Q674 1331 681 1414 L806 1414 Q803 1122 490 1122 Q316 1122 240 1209 Q177 1279 173 1414 L299 1414 Z " />
<glyph glyph-name="Ohungarumlaut" unicode="&#x150;" horiz-adv-x="1283" d="M641 -30 Q358 -30 221 192 Q101 386 101 737 Q101 1138 259 1335 Q396 1506 640 1506 Q923 1506 1061 1282 Q1182 1087 1182 737 Q1182 336 1025 141 Q888 -30 641 -30 Z M642 133 Q827 133 917 308 Q995 461 995 735 Q995 1050 892 1206 Q801 1343 642 1343 Q459 1343 368 1165 Q289 1010 289 736 Q289 423 392 268 Q482 133 642 133 Z M416 1647 L563 1996 L734 1996 L516 1647 L416 1647 Z M678 1647 L850 1996 L1025 1996 L781 1647 L678 1647 Z " />
<glyph glyph-name="ohungarumlaut" unicode="&#x151;" horiz-adv-x="979" d="M490 -29 Q279 -29 172 125 Q81 257 81 482 Q81 742 202 878 Q307 997 488 997 Q698 997 805 842 Q898 708 898 480 Q898 222 776 88 Q669 -29 490 -29 Z M489 121 Q607 121 666 227 Q717 320 717 484 Q717 671 650 765 Q591 848 488 848 Q371 848 313 740 Q262 647 262 483 Q262 295 328 202 Q386 121 489 121 Z M265 1122 L412 1471 L583 1471 L365 1122 L265 1122 Z M527 1122 L699 1471 L874 1471 L630 1122 L527 1122 Z " />
<glyph glyph-name="Racute" unicode="&#x154;" horiz-adv-x="1254" d="M1219 145 L1219 0 L944 0 L824 385 Q776 546 716 592 Q661 634 534 634 L412 634 L412 145 L570 145 L570 0 L101 0 L101 145 L236 145 L236 1330 L101 1330 L101 1475 L545 1475 Q828 1475 949 1363 Q1058 1263 1058 1055 Q1058 900 995 813 Q939 736 825 699 Q930 652 986 469 L1086 145 L1219 145 Z M573 779 Q744 779 812 851 Q872 914 872 1052 Q872 1210 783 1275 Q706 1331 550 1331 L412 1331 L412 779 L573 779 Z M496 1629 L671 1986 L872 1986 L628 1629 L496 1629 Z " />
<glyph glyph-name="racute" unicode="&#x155;" horiz-adv-x="755" d="M547 964 Q604 986 716 986 L716 815 Q615 818 555 795 Q440 753 385 615 L385 143 L584 143 L584 0 L80 0 L80 143 L212 143 L212 825 L76 825 L76 968 L358 968 L358 737 Q413 912 547 964 Z M314 1122 L489 1479 L690 1479 L446 1122 L314 1122 Z " />
<glyph glyph-name="Rcommaaccent" unicode="&#x156;" horiz-adv-x="1254" d="M1219 145 L1219 0 L944 0 L824 385 Q776 546 716 592 Q661 634 534 634 L412 634 L412 145 L570 145 L570 0 L101 0 L101 145 L236 145 L236 1330 L101 1330 L101 1475 L545 1475 Q828 1475 949 1363 Q1058 1263 1058 1055 Q1058 900 995 813 Q939 736 825 699 Q930 652 986 469 L1086 145 L1219 145 Z M573 779 Q744 779 812 851 Q872 914 872 1052 Q872 1210 783 1275 Q706 1331 550 1331 L412 1331 L412 779 L573 779 Z M583 -131 L779 -131 L542 -480 L419 -480 L583 -131 Z " />
<glyph glyph-name="rcommaaccent" unicode="&#x157;" horiz-adv-x="755" d="M547 964 Q604 986 716 986 L716 815 Q615 818 555 795 Q440 753 385 615 L385 143 L584 143 L584 0 L80 0 L80 143 L212 143 L212 825 L76 825 L76 968 L358 968 L358 737 Q413 912 547 964 Z M223 -131 L419 -131 L182 -480 L59 -480 L223 -131 Z " />
<glyph glyph-name="Rcaron" unicode="&#x158;" horiz-adv-x="1254" d="M1219 145 L1219 0 L944 0 L824 385 Q776 546 716 592 Q661 634 534 634 L412 634 L412 145 L570 145 L570 0 L101 0 L101 145 L236 145 L236 1330 L101 1330 L101 1475 L545 1475 Q828 1475 949 1363 Q1058 1263 1058 1055 Q1058 900 995 813 Q939 736 825 699 Q930 652 986 469 L1086 145 L1219 145 Z M573 779 Q744 779 812 851 Q872 914 872 1052 Q872 1210 783 1275 Q706 1331 550 1331 L412 1331 L412 779 L573 779 Z M902 1954 L692 1616 L511 1616 L301 1954 L432 1954 L603 1731 L772 1954 L902 1954 Z " />
<glyph glyph-name="rcaron" unicode="&#x159;" horiz-adv-x="755" d="M547 964 Q604 986 716 986 L716 815 Q615 818 555 795 Q440 753 385 615 L385 143 L584 143 L584 0 L80 0 L80 143 L212 143 L212 825 L76 825 L76 968 L358 968 L358 737 Q413 912 547 964 Z M720 1447 L510 1109 L329 1109 L119 1447 L250 1447 L421 1224 L590 1447 L720 1447 Z " />
<glyph glyph-name="Sacute" unicode="&#x15a;" horiz-adv-x="1107" d="M645 832 Q852 785 936 674 Q1011 576 1011 403 Q1011 177 889 67 Q783 -29 592 -29 Q361 -29 270 115 L267 0 L127 0 L127 429 L286 429 Q288 273 370 197 Q441 130 568 130 Q703 130 770 206 Q828 271 828 389 Q828 510 766 577 Q711 637 603 662 L466 695 Q288 738 208 848 Q136 946 136 1106 Q136 1311 252 1414 Q352 1504 528 1504 Q702 1504 785 1379 L785 1475 L929 1475 L929 1103 L782 1103 Q782 1230 714 1292 Q654 1347 548 1347 Q428 1347 367 1279 Q314 1219 314 1114 Q314 905 527 859 L645 832 Z M452 1629 L627 1986 L828 1986 L584 1629 L452 1629 Z " />
<glyph glyph-name="sacute" unicode="&#x15b;" horiz-adv-x="873" d="M539 557 Q685 531 747 456 Q804 389 804 271 Q804 117 712 40 Q633 -27 495 -27 Q301 -27 237 106 L237 -2 L103 -2 L103 293 L254 293 Q264 201 314.5 158.5 Q365 116 464 116 Q634 116 634 259 Q634 328 598 362 Q562 396 472 412 L373 431 Q224 457 160 533 Q105 599 105 715 Q105 858 195 933 Q271 998 397 998 Q560 998 613 882 L613 970 L743 970 L743 698 L600 698 Q600 773 556.5 813.5 Q513 854 432 854 Q274 854 274 716 Q274 604 424 579 L539 557 Z M334 1122 L509 1479 L710 1479 L466 1122 L334 1122 Z " />
<glyph glyph-name="Scircumflex" unicode="&#x15c;" horiz-adv-x="1107" d="M645 832 Q852 785 936 674 Q1011 576 1011 403 Q1011 177 889 67 Q783 -29 592 -29 Q361 -29 270 115 L267 0 L127 0 L127 429 L286 429 Q288 273 370 197 Q441 130 568 130 Q703 130 770 206 Q828 271 828 389 Q828 510 766 577 Q711 637 603 662 L466 695 Q288 738 208 848 Q136 946 136 1106 Q136 1311 252 1414 Q352 1504 528 1504 Q702 1504 785 1379 L785 1475 L929 1475 L929 1103 L782 1103 Q782 1230 714 1292 Q654 1347 548 1347 Q428 1347 367 1279 Q314 1219 314 1114 Q314 905 527 859 L645 832 Z M557 1852 L386 1629 L255 1629 L465 1967 L646 1967 L856 1629 L726 1629 L557 1852 Z " />
<glyph glyph-name="scircumflex" unicode="&#x15d;" horiz-adv-x="873" d="M539 557 Q685 531 747 456 Q804 389 804 271 Q804 117 712 40 Q633 -27 495 -27 Q301 -27 237 106 L237 -2 L103 -2 L103 293 L254 293 Q264 201 314.5 158.5 Q365 116 464 116 Q634 116 634 259 Q634 328 598 362 Q562 396 472 412 L373 431 Q224 457 160 533 Q105 599 105 715 Q105 858 195 933 Q271 998 397 998 Q560 998 613 882 L613 970 L743 970 L743 698 L600 698 Q600 773 556.5 813.5 Q513 854 432 854 Q274 854 274 716 Q274 604 424 579 L539 557 Z M439 1345 L268 1122 L137 1122 L347 1460 L528 1460 L738 1122 L608 1122 L439 1345 Z " />
<glyph glyph-name="Scedilla" unicode="&#x15e;" horiz-adv-x="1107" d="M521 -25 Q354 -6 270 115 L267 0 L127 0 L127 429 L286 429 Q288 273 370 197 Q441 130 568 130 Q703 130 770 206 Q828 271 828 389 Q828 510 766 577 Q711 637 603 662 L466 695 Q288 738 208 848 Q136 946 136 1106 Q136 1311 252 1414 Q352 1504 528 1504 Q702 1504 785 1379 L785 1475 L929 1475 L929 1103 L782 1103 Q782 1230 714 1292 Q654 1347 548 1347 Q428 1347 367 1279 Q314 1219 314 1114 Q314 905 527 859 L645 832 Q852 785 936 674 Q1011 576 1011 403 Q1003 152 870 51 Q779 -18 631 -27 L591 -122 Q608 -120 624 -120 Q701 -120 744 -162 Q787 -204 787 -280 Q787 -381 719 -433 Q660 -477 564 -477 Q457 -477 365 -431 L365 -313 Q472 -356 550 -356 Q650 -356 650 -274 Q650 -203 575 -203 Q541 -203 493 -217 L481 -121 L521 -25 Z " />
<glyph glyph-name="scedilla" unicode="&#x15f;" horiz-adv-x="873" d="M391 -15 Q287 12 237 106 L237 -2 L103 -2 L103 293 L254 293 Q264 201 314.5 158.5 Q365 116 464 116 Q634 116 634 259 Q634 328 598 362 Q562 396 472 412 L373 431 Q224 457 160 533 Q105 599 105 715 Q105 858 195 933 Q271 998 397 998 Q560 998 613 882 L613 970 L743 970 L743 698 L600 698 Q600 773 556.5 813.5 Q513 854 432 854 Q274 854 274 716 Q274 604 424 579 L539 557 Q685 531 748 456 Q804 389 804 271 Q798 105 704 33 Q632 -22 496 -27 L456 -122 Q473 -120 489 -120 Q566 -120 609 -162 Q652 -204 652 -280 Q652 -381 584 -433 Q525 -477 429 -477 Q322 -477 230 -431 L230 -313 Q337 -356 415 -356 Q515 -356 515 -274 Q515 -203 440 -203 Q406 -203 358 -217 L346 -121 L391 -15 Z " />
<glyph glyph-name="Scaron" unicode="&#x160;" horiz-adv-x="1107" d="M645 832 Q852 785 936 674 Q1011 576 1011 403 Q1011 177 889 67 Q783 -29 592 -29 Q361 -29 270 115 L267 0 L127 0 L127 429 L286 429 Q288 273 370 197 Q441 130 568 130 Q703 130 770 206 Q828 271 828 389 Q828 510 766 577 Q711 637 603 662 L466 695 Q288 738 208 848 Q136 946 136 1106 Q136 1311 252 1414 Q352 1504 528 1504 Q702 1504 785 1379 L785 1475 L929 1475 L929 1103 L782 1103 Q782 1230 714 1292 Q654 1347 548 1347 Q428 1347 367 1279 Q314 1219 314 1114 Q314 905 527 859 L645 832 Z M858 1954 L648 1616 L467 1616 L257 1954 L388 1954 L559 1731 L728 1954 L858 1954 Z " />
<glyph glyph-name="scaron" unicode="&#x161;" horiz-adv-x="873" d="M539 557 Q685 531 747 456 Q804 389 804 271 Q804 117 712 40 Q633 -27 495 -27 Q301 -27 237 106 L237 -2 L103 -2 L103 293 L254 293 Q264 201 314.5 158.5 Q365 116 464 116 Q634 116 634 259 Q634 328 598 362 Q562 396 472 412 L373 431 Q224 457 160 533 Q105 599 105 715 Q105 858 195 933 Q271 998 397 998 Q560 998 613 882 L613 970 L743 970 L743 698 L600 698 Q600 773 556.5 813.5 Q513 854 432 854 Q274 854 274 716 Q274 604 424 579 L539 557 Z M740 1447 L530 1109 L349 1109 L139 1447 L270 1447 L441 1224 L610 1447 L740 1447 Z " />
<glyph glyph-name="Tcommaaccent" unicode="&#x162;" horiz-adv-x="1185" d="M1127 1475 L1127 1076 L971 1076 L971 1334 L682 1334 L682 145 L854 145 L854 0 L331 0 L331 145 L503 145 L503 1334 L214 1334 L214 1076 L58 1076 L58 1475 L1127 1475 Z M522 -131 L718 -131 L481 -480 L358 -480 L522 -131 Z " />
<glyph glyph-name="tcommaaccent" unicode="&#x163;" horiz-adv-x="632" d="M428 -12 Q280 -12 223 61 Q174 124 174 261 L174 825 L53 825 L53 968 L177 968 L177 1318 L340 1318 L340 968 L563 968 L563 825 L345 825 L345 274 Q345 196 373 166.5 Q401 137 475 137 Q519 137 577 140 L577 -3 Q510 -12 428 -12 Z M270 -131 L466 -131 L229 -480 L106 -480 L270 -131 Z " />
<glyph glyph-name="Tcaron" unicode="&#x164;" horiz-adv-x="1185" d="M1127 1475 L1127 1076 L971 1076 L971 1334 L682 1334 L682 145 L854 145 L854 0 L331 0 L331 145 L503 145 L503 1334 L214 1334 L214 1076 L58 1076 L58 1475 L1127 1475 Z M893 1954 L683 1616 L502 1616 L292 1954 L423 1954 L594 1731 L763 1954 L893 1954 Z " />
<glyph glyph-name="tcaron" unicode="&#x165;" horiz-adv-x="632" d="M428 -12 Q280 -12 223 61 Q174 124 174 261 L174 825 L53 825 L53 968 L177 968 L177 1318 L340 1318 L340 968 L563 968 L563 825 L345 825 L345 274 Q345 196 373 166.5 Q401 137 475 137 Q519 137 577 140 L577 -3 Q510 -12 428 -12 Z M483 1124 L537 1522 L714 1522 L598 1124 L483 1124 Z " />
<glyph glyph-name="Tbar" unicode="&#x166;" horiz-adv-x="1184" d="M503 680 L230 680 L230 817 L503 817 L503 1334 L214 1334 L214 1076 L58 1076 L58 1475 L1127 1475 L1127 1076 L971 1076 L971 1334 L682 1334 L682 817 L953 817 L953 680 L682 680 L682 145 L854 145 L854 0 L331 0 L331 145 L503 145 L503 680 Z " />
<glyph glyph-name="tbar" unicode="&#x167;" horiz-adv-x="667" d="M185 504 L71 504 L71 617 L185 617 L185 825 L64 825 L64 968 L188 968 L188 1318 L351 1318 L351 968 L574 968 L574 825 L356 825 L356 617 L580 617 L580 504 L356 504 L356 274 Q356 196 384 166.5 Q412 137 486 137 Q530 137 588 140 L588 -3 Q521 -12 439 -12 Q291 -12 234 61 Q185 124 185 261 L185 504 Z " />
<glyph glyph-name="Utilde" unicode="&#x168;" horiz-adv-x="1320" d="M655 -30 Q379 -30 271 161 Q230 235 214 334.5 Q198 434 198 621 L198 1328 L63 1328 L63 1475 L514 1475 L514 1328 L378 1328 L378 565 Q378 318 447 221 Q512 130 659 130 Q829 130 892 252 Q942 350 942 562 L942 1328 L806 1328 L806 1475 L1256 1475 L1256 1328 L1122 1328 L1122 620 Q1122 366 1083 245 Q1045 125 950 54 Q837 -30 655 -30 Z M357 1678 Q374 1885 546 1885 Q580 1885 605.5 1875.5 Q631 1866 697 1831 Q750 1801 783 1801 Q847 1801 853 1881 L974 1881 Q971 1770 910 1716 Q861 1672 781 1672 Q722 1672 628 1723 Q577 1750 547 1750 Q488 1750 481 1678 L357 1678 Z " />
<glyph glyph-name="utilde" unicode="&#x169;" horiz-adv-x="1056" d="M1013 143 L1013 0 L741 0 L739 160 Q619 -29 423 -29 Q165 -29 165 282 L165 825 L37 825 L37 968 L338 968 L338 323 Q338 211 368.5 166.5 Q399 122 475 122 Q613 122 711 281 L711 825 L583 825 L583 968 L885 968 L885 143 L1013 143 Z M199 1171 Q216 1378 388 1378 Q422 1378 447.5 1368.5 Q473 1359 539 1324 Q592 1294 625 1294 Q689 1294 695 1374 L816 1374 Q813 1264 752 1209 Q703 1165 623 1165 Q564 1165 470 1216 Q419 1243 389 1243 Q330 1243 323 1171 L199 1171 Z " />
<glyph glyph-name="Umacron" unicode="&#x16a;" horiz-adv-x="1320" d="M655 -30 Q379 -30 271 161 Q230 235 214 334.5 Q198 434 198 621 L198 1328 L63 1328 L63 1475 L514 1475 L514 1328 L378 1328 L378 565 Q378 318 447 221 Q512 130 659 130 Q829 130 892 252 Q942 350 942 562 L942 1328 L806 1328 L806 1475 L1256 1475 L1256 1328 L1122 1328 L1122 620 Q1122 366 1083 245 Q1045 125 950 54 Q837 -30 655 -30 Z M409 1704 L409 1850 L919 1850 L919 1704 L409 1704 Z " />
<glyph glyph-name="umacron" unicode="&#x16b;" horiz-adv-x="1056" d="M1013 143 L1013 0 L741 0 L739 160 Q619 -29 423 -29 Q165 -29 165 282 L165 825 L37 825 L37 968 L338 968 L338 323 Q338 211 368.5 166.5 Q399 122 475 122 Q613 122 711 281 L711 825 L583 825 L583 968 L885 968 L885 143 L1013 143 Z M251 1197 L251 1343 L761 1343 L761 1197 L251 1197 Z " />
<glyph glyph-name="Ubreve" unicode="&#x16c;" horiz-adv-x="1320" d="M655 -30 Q379 -30 271 161 Q230 235 214 334.5 Q198 434 198 621 L198 1328 L63 1328 L63 1475 L514 1475 L514 1328 L378 1328 L378 565 Q378 318 447 221 Q512 130 659 130 Q829 130 892 252 Q942 350 942 562 L942 1328 L806 1328 L806 1475 L1256 1475 L1256 1328 L1122 1328 L1122 620 Q1122 366 1083 245 Q1045 125 950 54 Q837 -30 655 -30 Z M472 1921 Q480 1838 524 1802 Q568 1766 662 1766 Q758 1766 802.5 1802 Q847 1838 854 1921 L979 1921 Q976 1629 663 1629 Q489 1629 413 1716 Q350 1786 346 1921 L472 1921 Z " />
<glyph glyph-name="ubreve" unicode="&#x16d;" horiz-adv-x="1056" d="M1013 143 L1013 0 L741 0 L739 160 Q619 -29 423 -29 Q165 -29 165 282 L165 825 L37 825 L37 968 L338 968 L338 323 Q338 211 368.5 166.5 Q399 122 475 122 Q613 122 711 281 L711 825 L583 825 L583 968 L885 968 L885 143 L1013 143 Z M314 1414 Q322 1331 366 1295 Q410 1259 504 1259 Q600 1259 644.5 1295 Q689 1331 696 1414 L821 1414 Q818 1122 505 1122 Q331 1122 255 1209 Q192 1279 188 1414 L314 1414 Z " />
<glyph glyph-name="Uring" unicode="&#x16e;" horiz-adv-x="1320" d="M655 -30 Q379 -30 271 161 Q230 235 214 334.5 Q198 434 198 621 L198 1328 L63 1328 L63 1475 L514 1475 L514 1328 L378 1328 L378 565 Q378 318 447 221 Q512 130 659 130 Q829 130 892 252 Q942 350 942 562 L942 1328 L806 1328 L806 1475 L1256 1475 L1256 1328 L1122 1328 L1122 620 Q1122 366 1083 245 Q1045 125 950 54 Q837 -30 655 -30 Z M663 2023 Q770 2023 827 1956 Q873 1901 873 1815 Q873 1716 813 1660 Q757 1608 664 1608 Q557 1608 500 1675 Q454 1731 454 1818 Q454 1914 516 1971 Q572 2023 663 2023 Z M663 1930 Q560 1930 560 1816 Q560 1701 663 1701 Q767 1701 767 1815 Q767 1930 663 1930 Z " />
<glyph glyph-name="uring" unicode="&#x16f;" horiz-adv-x="1056" d="M1013 143 L1013 0 L741 0 L739 160 Q619 -29 423 -29 Q165 -29 165 282 L165 825 L37 825 L37 968 L338 968 L338 323 Q338 211 368.5 166.5 Q399 122 475 122 Q613 122 711 281 L711 825 L583 825 L583 968 L885 968 L885 143 L1013 143 Z M505 1516 Q612 1516 669 1449 Q715 1394 715 1308 Q715 1210 655 1153 Q599 1101 506 1101 Q399 1101 342 1168 Q296 1224 296 1311 Q296 1407 358 1464 Q414 1516 505 1516 Z M505 1423 Q402 1423 402 1309 Q402 1194 505 1194 Q609 1194 609 1308 Q609 1423 505 1423 Z " />
<glyph glyph-name="Uhungarumlaut" unicode="&#x170;" horiz-adv-x="1320" d="M655 -30 Q379 -30 271 161 Q230 235 214 334.5 Q198 434 198 621 L198 1328 L63 1328 L63 1475 L514 1475 L514 1328 L378 1328 L378 565 Q378 318 447 221 Q512 130 659 130 Q829 130 892 252 Q942 350 942 562 L942 1328 L806 1328 L806 1475 L1256 1475 L1256 1328 L1122 1328 L1122 620 Q1122 366 1083 245 Q1045 125 950 54 Q837 -30 655 -30 Z M438 1629 L585 1978 L756 1978 L538 1629 L438 1629 Z M700 1629 L872 1978 L1047 1978 L803 1629 L700 1629 Z " />
<glyph glyph-name="uhungarumlaut" unicode="&#x171;" horiz-adv-x="1056" d="M1013 143 L1013 0 L741 0 L739 160 Q619 -29 423 -29 Q165 -29 165 282 L165 825 L37 825 L37 968 L338 968 L338 323 Q338 211 368.5 166.5 Q399 122 475 122 Q613 122 711 281 L711 825 L583 825 L583 968 L885 968 L885 143 L1013 143 Z M280 1122 L427 1471 L598 1471 L380 1122 L280 1122 Z M542 1122 L714 1471 L889 1471 L645 1122 L542 1122 Z " />
<glyph glyph-name="Uogonek" unicode="&#x172;" horiz-adv-x="1320" d="M695 -29 Q682 -30 655 -30 Q379 -30 271 161 Q230 235 214 334.5 Q198 434 198 621 L198 1328 L63 1328 L63 1475 L514 1475 L514 1328 L378 1328 L378 565 Q378 318 447 221 Q512 130 659 130 Q829 130 892 252 Q942 350 942 562 L942 1328 L806 1328 L806 1475 L1256 1475 L1256 1328 L1122 1328 L1122 620 Q1122 366 1083 245 Q1045 125 950 54 Q917 30 871 9 L872 9 Q778 -67 740.5 -119 Q703 -171 703 -226 Q703 -308 787 -308 L871 -308 L871 -430 L788 -430 Q557 -430 557 -257 Q559 -196 590 -144.5 Q621 -93 695 -29 Z " />
<glyph glyph-name="uogonek" unicode="&#x173;" horiz-adv-x="1056" d="M882 0 L741 0 L739 160 Q619 -29 423 -29 Q165 -29 165 282 L165 825 L37 825 L37 968 L338 968 L338 323 Q338 211 368.5 166.5 Q399 122 475 122 Q613 122 711 281 L711 825 L583 825 L583 968 L885 968 L885 143 L1013 143 L1013 0 Q919 -76 881.5 -128 Q844 -180 844 -235 Q844 -317 928 -317 L1012 -317 L1012 -439 L929 -439 Q698 -439 698 -266 Q698 -199 738.5 -140.5 Q779 -82 882 0 Z " />
<glyph glyph-name="Wcircumflex" unicode="&#x174;" horiz-adv-x="1652" d="M1637 1330 L1526 1330 L1266 -6 L1110 -6 L880 945 Q865 1007 834 1181 L830 1201 Q801 1032 779 946 L544 -6 L388 -6 L135 1330 L18 1330 L18 1475 L459 1475 L459 1330 L315 1330 L444 502 Q450 461 469 339 L475 298 Q490 366 503 429 Q511 469 519 502 L757 1486 L904 1486 L1135 502 Q1144 465 1155 414 Q1165 366 1180 302 Q1183 320 1193 377 Q1207 455 1214 502 L1346 1330 L1203 1330 L1203 1475 L1637 1475 L1637 1330 Z M834 1852 L663 1629 L532 1629 L742 1967 L923 1967 L1133 1629 L1003 1629 L834 1852 Z " />
<glyph glyph-name="wcircumflex" unicode="&#x175;" horiz-adv-x="1339" d="M483 0 L310 0 L102 825 L6 825 L6 968 L415 968 L415 825 L268 825 L348 450 Q354 421 369 351 Q389 254 400 197 L405 197 Q430 323 461 437 L601 968 L749 968 L880 462 L893 413 Q927 286 943 197 L948 197 Q973 337 1007 474 L1090 825 L956 825 L956 968 L1347 968 L1347 825 L1241 825 L1029 0 L860 0 L730 508 Q720 549 697 656 Q684 717 677 746 L672 746 Q661 701 630 573 L614 510 L483 0 Z M671 1345 L500 1122 L369 1122 L579 1460 L760 1460 L970 1122 L840 1122 L671 1345 Z " />
<glyph glyph-name="Ycircumflex" unicode="&#x176;" horiz-adv-x="1152" d="M665 633 L665 145 L832 145 L832 0 L320 0 L320 145 L487 145 L487 641 L120 1330 L-11 1330 L-11 1475 L475 1475 L475 1330 L315 1330 L583 786 L852 1330 L697 1330 L697 1475 L1164 1475 L1164 1330 L1035 1330 L665 633 Z M585 1852 L414 1629 L283 1629 L493 1967 L674 1967 L884 1629 L754 1629 L585 1852 Z " />
<glyph glyph-name="ycircumflex" unicode="&#x177;" horiz-adv-x="920" d="M929 825 L833 825 L493 -139 Q428 -322 349 -374 Q279 -421 122 -422 L122 -271 Q220 -268 260 -241 Q302 -213 329 -136 L378 5 L84 825 L-13 825 L-13 968 L401 968 L401 827 L259 827 L401 369 Q417 314 444 235 Q454 207 458 193 L464 193 Q470 214 487 267 Q506 324 518 363 L662 827 L517 827 L517 968 L929 968 L929 825 Z M457 1345 L286 1122 L155 1122 L365 1460 L546 1460 L756 1122 L626 1122 L457 1345 Z " />
<glyph glyph-name="Zacute" unicode="&#x179;" horiz-adv-x="1088" d="M988 406 L988 0 L92 0 L92 143 L781 1330 L279 1330 L279 1085 L124 1085 L124 1475 L988 1475 L988 1355 L291 145 L832 145 L832 406 L988 406 Z M452 1629 L627 1986 L828 1986 L584 1629 L452 1629 Z " />
<glyph glyph-name="zacute" unicode="&#x17a;" horiz-adv-x="880" d="M806 320 L806 0 L83 0 L83 133 L601 830 L257 830 L257 671 L111 671 L111 968 L795 968 L795 836 L280 140 L660 140 L660 320 L806 320 Z M351 1122 L526 1479 L727 1479 L483 1122 L351 1122 Z " />
<glyph glyph-name="Zdotaccent" unicode="&#x17b;" horiz-adv-x="1088" d="M988 406 L988 0 L92 0 L92 143 L781 1330 L279 1330 L279 1085 L124 1085 L124 1475 L988 1475 L988 1355 L291 145 L832 145 L832 406 L988 406 Z M456 1877 L656 1877 L656 1670 L456 1670 L456 1877 Z " />
<glyph glyph-name="zdotaccent" unicode="&#x17c;" horiz-adv-x="880" d="M806 320 L806 0 L83 0 L83 133 L601 830 L257 830 L257 671 L111 671 L111 968 L795 968 L795 836 L280 140 L660 140 L660 320 L806 320 Z M355 1370 L555 1370 L555 1163 L355 1163 L355 1370 Z " />
<glyph glyph-name="Zcaron" unicode="&#x17d;" horiz-adv-x="1088" d="M988 406 L988 0 L92 0 L92 143 L781 1330 L279 1330 L279 1085 L124 1085 L124 1475 L988 1475 L988 1355 L291 145 L832 145 L832 406 L988 406 Z M858 1954 L648 1616 L467 1616 L257 1954 L388 1954 L559 1731 L728 1954 L858 1954 Z " />
<glyph glyph-name="zcaron" unicode="&#x17e;" horiz-adv-x="880" d="M806 320 L806 0 L83 0 L83 133 L601 830 L257 830 L257 671 L111 671 L111 968 L795 968 L795 836 L280 140 L660 140 L660 320 L806 320 Z M757 1447 L547 1109 L366 1109 L156 1447 L287 1447 L458 1224 L627 1447 L757 1447 Z " />
<glyph glyph-name="uni018F" unicode="&#x18f;" horiz-adv-x="1257" d="M602 1498 Q894 1498 1035 1273 Q1158 1078 1158 723 Q1158 331 1000 136 Q861 -37 613 -37 Q104 -37 104 637 Q104 715 111 804 L973 804 Q966 1074 859 1209 Q764 1330 600 1330 Q406 1330 242 1193 L161 1335 Q355 1498 602 1498 Z M618 128 Q796 128 889 281 Q971 416 974 651 L290 651 Q289 621 289 592 Q289 354 385 234 Q470 128 618 128 Z " />
<glyph glyph-name="uni01CD" unicode="&#x1cd;" horiz-adv-x="1264" d="M1239 145 L1239 0 L805 0 L805 145 L952 145 L872 440 L385 440 L301 145 L457 145 L457 0 L26 0 L26 145 L122 145 L531 1475 L735 1475 L1136 145 L1239 145 Z M426 583 L832 583 L634 1286 L626 1286 L426 583 Z M930 1954 L720 1616 L539 1616 L329 1954 L460 1954 L631 1731 L800 1954 L930 1954 Z " />
<glyph glyph-name="uni01CE" unicode="&#x1ce;" horiz-adv-x="976" d="M938 143 L938 0 L685 0 L684 142 Q654 62 577 17 Q500 -28 395 -28 Q229 -28 148 62 Q77 140 77 279 Q77 574 430 574 L648 574 L648 662 Q648 768 609 811.5 Q570 855 475 855 Q390 855 354 821 Q318 787 314 704 L142 704 Q148 866 239 936 Q318 997 470 997 Q670 997 745 910 Q811 833 811 656 L811 143 L938 143 Z M622 206 Q648 249 648 339 L648 445 L451 445 Q349 445 302.5 406.5 Q256 368 256 284 Q256 114 428 114 Q566 114 622 206 Z M776 1447 L566 1109 L385 1109 L175 1447 L306 1447 L477 1224 L646 1447 L776 1447 Z " />
<glyph glyph-name="uni01D3" unicode="&#x1d3;" horiz-adv-x="1320" d="M655 -30 Q379 -30 271 161 Q230 235 214 334.5 Q198 434 198 621 L198 1328 L63 1328 L63 1475 L514 1475 L514 1328 L378 1328 L378 565 Q378 318 447 221 Q512 130 659 130 Q829 130 892 252 Q942 350 942 562 L942 1328 L806 1328 L806 1475 L1256 1475 L1256 1328 L1122 1328 L1122 620 Q1122 366 1083 245 Q1045 125 950 54 Q837 -30 655 -30 Z M964 1954 L754 1616 L573 1616 L363 1954 L494 1954 L665 1731 L834 1954 L964 1954 Z " />
<glyph glyph-name="uni01D4" unicode="&#x1d4;" horiz-adv-x="1056" d="M1013 143 L1013 0 L741 0 L739 160 Q619 -29 423 -29 Q165 -29 165 282 L165 825 L37 825 L37 968 L338 968 L338 323 Q338 211 368.5 166.5 Q399 122 475 122 Q613 122 711 281 L711 825 L583 825 L583 968 L885 968 L885 143 L1013 143 Z M806 1447 L596 1109 L415 1109 L205 1447 L336 1447 L507 1224 L676 1447 L806 1447 Z " />
<glyph glyph-name="uni01DD" unicode="&#x1dd;" horiz-adv-x="915" d="M421 997 Q641 997 749 850 Q842 721 842 492 Q842 -29 447 -29 Q74 -29 74 481 Q74 516 76 553 L669 553 Q660 706 586 781 Q522 848 412 848 Q286 848 181 768 L105 895 Q239 997 421 997 Z M447 113 Q561 113 619 206 Q670 286 670 424 L245 424 Q242 113 447 113 Z " />
<glyph glyph-name="Gcaron" unicode="&#x1e6;" horiz-adv-x="1265" d="M949 192 L949 577 L615 577 L615 722 L1115 722 L1115 89 Q997 24 896.5 -3.5 Q796 -31 680 -31 Q370 -31 228 174 Q101 358 101 712 Q101 1129 259 1330 Q396 1504 643 1504 Q844 1504 936 1381 L937 1475 L1079 1475 L1079 1057 L933 1057 Q933 1209 854 1282 Q786 1345 666 1345 Q286 1345 286 711 Q286 386 397 247 Q492 127 685 127 Q822 127 949 192 Z M946 1954 L736 1616 L555 1616 L345 1954 L476 1954 L647 1731 L816 1954 L946 1954 Z " />
<glyph glyph-name="gcaron" unicode="&#x1e7;" horiz-adv-x="1045" d="M1008 968 L1008 825 L881 825 L881 -10 Q881 -262 787 -361 Q700 -452 502 -452 Q303 -452 219 -366 Q145 -292 142 -140 L302 -140 Q306 -232 352 -270 Q398 -308 505 -308 Q631 -308 679 -235 Q722 -169 722 -19 L722 135 Q687 60 618.5 19 Q550 -22 461 -22 Q271 -22 172 132 Q87 264 87 486 Q87 743 199 879 Q297 997 458 997 Q659 997 744 809 L744 968 L1008 968 Z M493 126 Q715 126 715 487 Q715 674 650 766 Q593 847 490 847 Q376 847 318 743 Q268 651 268 488 Q268 301 334 208 Q392 126 493 126 Z M802 1447 L592 1109 L411 1109 L201 1447 L332 1447 L503 1224 L672 1447 L802 1447 Z " />
<glyph glyph-name="uni01F4" unicode="&#x1f4;" horiz-adv-x="1265" d="M949 192 L949 577 L615 577 L615 722 L1115 722 L1115 89 Q997 24 896.5 -3.5 Q796 -31 680 -31 Q370 -31 228 174 Q101 358 101 712 Q101 1129 259 1330 Q396 1504 643 1504 Q844 1504 936 1381 L937 1475 L1079 1475 L1079 1057 L933 1057 Q933 1209 854 1282 Q786 1345 666 1345 Q286 1345 286 711 Q286 386 397 247 Q492 127 685 127 Q822 127 949 192 Z M540 1629 L715 1986 L916 1986 L672 1629 L540 1629 Z " />
<glyph glyph-name="uni01F5" unicode="&#x1f5;" horiz-adv-x="1045" d="M1008 968 L1008 825 L881 825 L881 -10 Q881 -262 787 -361 Q700 -452 502 -452 Q303 -452 219 -366 Q145 -292 142 -140 L302 -140 Q306 -232 352 -270 Q398 -308 505 -308 Q631 -308 679 -235 Q722 -169 722 -19 L722 135 Q687 60 618.5 19 Q550 -22 461 -22 Q271 -22 172 132 Q87 264 87 486 Q87 743 199 879 Q297 997 458 997 Q659 997 744 809 L744 968 L1008 968 Z M493 126 Q715 126 715 487 Q715 674 650 766 Q593 847 490 847 Q376 847 318 743 Q268 651 268 488 Q268 301 334 208 Q392 126 493 126 Z M396 1122 L571 1479 L772 1479 L528 1122 L396 1122 Z " />
<glyph glyph-name="Scommaaccent" unicode="&#x218;" horiz-adv-x="1107" d="M645 832 Q852 785 936 674 Q1011 576 1011 403 Q1011 177 889 67 Q783 -29 592 -29 Q361 -29 270 115 L267 0 L127 0 L127 429 L286 429 Q288 273 370 197 Q441 130 568 130 Q703 130 770 206 Q828 271 828 389 Q828 510 766 577 Q711 637 603 662 L466 695 Q288 738 208 848 Q136 946 136 1106 Q136 1311 252 1414 Q352 1504 528 1504 Q702 1504 785 1379 L785 1475 L929 1475 L929 1103 L782 1103 Q782 1230 714 1292 Q654 1347 548 1347 Q428 1347 367 1279 Q314 1219 314 1114 Q314 905 527 859 L645 832 Z M508 -131 L704 -131 L467 -480 L344 -480 L508 -131 Z " />
<glyph glyph-name="scommaaccent" unicode="&#x219;" horiz-adv-x="873" d="M539 557 Q685 531 747 456 Q804 389 804 271 Q804 117 712 40 Q633 -27 495 -27 Q301 -27 237 106 L237 -2 L103 -2 L103 293 L254 293 Q264 201 314.5 158.5 Q365 116 464 116 Q634 116 634 259 Q634 328 598 362 Q562 396 472 412 L373 431 Q224 457 160 533 Q105 599 105 715 Q105 858 195 933 Q271 998 397 998 Q560 998 613 882 L613 970 L743 970 L743 698 L600 698 Q600 773 556.5 813.5 Q513 854 432 854 Q274 854 274 716 Q274 604 424 579 L539 557 Z M373 -131 L569 -131 L332 -480 L209 -480 L373 -131 Z " />
<glyph glyph-name="uni021A" unicode="&#x21a;" horiz-adv-x="1185" d="M1127 1475 L1127 1076 L971 1076 L971 1334 L682 1334 L682 145 L854 145 L854 0 L331 0 L331 145 L503 145 L503 1334 L214 1334 L214 1076 L58 1076 L58 1475 L1127 1475 Z M522 -131 L718 -131 L481 -480 L358 -480 L522 -131 Z " />
<glyph glyph-name="uni021B" unicode="&#x21b;" horiz-adv-x="632" d="M428 -12 Q280 -12 223 61 Q174 124 174 261 L174 825 L53 825 L53 968 L177 968 L177 1318 L340 1318 L340 968 L563 968 L563 825 L345 825 L345 274 Q345 196 373 166.5 Q401 137 475 137 Q519 137 577 140 L577 -3 Q510 -12 428 -12 Z M270 -131 L466 -131 L229 -480 L106 -480 L270 -131 Z " />
<glyph glyph-name="uni0226" unicode="&#x226;" horiz-adv-x="1264" d="M1239 145 L1239 0 L805 0 L805 145 L952 145 L872 440 L385 440 L301 145 L457 145 L457 0 L26 0 L26 145 L122 145 L531 1475 L735 1475 L1136 145 L1239 145 Z M426 583 L832 583 L634 1286 L626 1286 L426 583 Z M528 1877 L728 1877 L728 1670 L528 1670 L528 1877 Z " />
<glyph glyph-name="uni0227" unicode="&#x227;" horiz-adv-x="976" d="M938 143 L938 0 L685 0 L684 142 Q654 62 577 17 Q500 -28 395 -28 Q229 -28 148 62 Q77 140 77 279 Q77 574 430 574 L648 574 L648 662 Q648 768 609 811.5 Q570 855 475 855 Q390 855 354 821 Q318 787 314 704 L142 704 Q148 866 239 936 Q318 997 470 997 Q670 997 745 910 Q811 833 811 656 L811 143 L938 143 Z M622 206 Q648 249 648 339 L648 445 L451 445 Q349 445 302.5 406.5 Q256 368 256 284 Q256 114 428 114 Q566 114 622 206 Z M374 1370 L574 1370 L574 1163 L374 1163 L374 1370 Z " />
<glyph glyph-name="uni0237" unicode="&#x237;" horiz-adv-x="504" d="M55 -271 Q132 -268 162 -232 Q192 -196 192 -107 L192 825 L61 825 L61 968 L364 968 L364 -74 Q364 -272 294 -347 Q224 -422 55 -422 L55 -271 Z " />
<glyph glyph-name="uni0259" unicode="&#x259;" horiz-adv-x="915" d="M421 997 Q641 997 749 850 Q842 721 842 492 Q842 -29 447 -29 Q74 -29 74 481 Q74 516 76 553 L669 553 Q660 706 586 781 Q522 848 412 848 Q286 848 181 768 L105 895 Q239 997 421 997 Z M447 113 Q561 113 619 206 Q670 286 670 424 L245 424 Q242 113 447 113 Z " />
<glyph glyph-name="uni02C9" unicode="&#x2c9;" horiz-adv-x="800" d="M145 1197 L145 1343 L655 1343 L655 1197 L145 1197 Z " />
<glyph glyph-name="uni0312" unicode="&#x312;" horiz-adv-x="600" d="M462 1470 L297 1121 L101 1121 L339 1470 L462 1470 Z " />
<glyph glyph-name="uni0313" unicode="&#x313;" horiz-adv-x="600" d="M102 1119 L156 1517 L333 1517 L217 1119 L102 1119 Z " />
<glyph glyph-name="uni031B" unicode="&#x31b;" horiz-adv-x="600" d="M102 1119 L156 1517 L333 1517 L217 1119 L102 1119 Z " />
<glyph glyph-name="commaaccent" unicode="&#x326;" horiz-adv-x="800" d="M384 -131 L580 -131 L343 -480 L220 -480 L384 -131 Z " />
<glyph glyph-name="uni037E" unicode="&#x37e;" horiz-adv-x="613" d="M176 636 L176 861 L384 861 L384 636 L176 636 Z M78 -273 L192 221 L396 221 L245 -273 L78 -273 Z " />
<glyph glyph-name="uni0387" unicode="&#x387;" horiz-adv-x="574" d="M186 443 L186 664 L391 664 L391 443 L186 443 Z " />
<glyph glyph-name="uni0400" unicode="&#x400;" horiz-adv-x="1151" d="M1038 400 L1038 0 L101 0 L101 145 L236 145 L236 1330 L101 1330 L101 1475 L1011 1475 L1011 1116 L851 1116 L851 1330 L414 1330 L414 834 L827 834 L827 689 L414 689 L414 145 L880 145 L880 400 L1038 400 Z M326 1986 L525 1986 L701 1629 L569 1629 L326 1986 Z " />
<glyph glyph-name="afii10023" unicode="&#x401;" horiz-adv-x="1151" d="M1038 400 L1038 0 L101 0 L101 145 L236 145 L236 1330 L101 1330 L101 1475 L1011 1475 L1011 1116 L851 1116 L851 1330 L414 1330 L414 834 L827 834 L827 689 L414 689 L414 145 L880 145 L880 400 L1038 400 Z M338 1679 L338 1873 L515 1873 L515 1679 L338 1679 Z M686 1679 L686 1873 L863 1873 L863 1679 L686 1679 Z " />
<glyph glyph-name="afii10051" unicode="&#x402;" horiz-adv-x="1479" d="M997 905 Q1198 905 1274 787 Q1337 689 1337 479 L1337 -37 Q1337 -248 1263 -329 Q1189 -410 1012 -414 L1012 -259 Q1095 -255 1129 -210.5 Q1163 -166 1163 -61 L1163 482 Q1163 628 1122 683 Q1075 746 950 746 Q794 746 658 608 L658 145 L803 145 L803 0 L315 0 L315 145 L482 145 L482 1330 L217 1330 L217 1076 L61 1076 L61 1475 L1110 1475 L1110 1083 L955 1083 L955 1330 L658 1330 L658 780 Q748 849 823.5 877 Q899 905 997 905 Z " />
<glyph glyph-name="afii10052" unicode="&#x403;" horiz-adv-x="1076" d="M1017 1475 L1017 1084 L859 1084 L859 1330 L414 1330 L414 145 L615 145 L615 0 L101 0 L101 145 L236 145 L236 1330 L101 1330 L101 1475 L1017 1475 Z M483 1629 L658 1986 L859 1986 L615 1629 L483 1629 Z " />
<glyph glyph-name="afii10053" unicode="&#x404;" horiz-adv-x="1165" d="M1069 125 Q901 -31 650 -31 Q102 -31 102 713 Q102 1120 256 1325 Q390 1502 621 1502 Q807 1502 893 1376 L893 1475 L1035 1475 L1035 1040 L889 1040 Q889 1196 817 1276 Q755 1345 648 1345 Q479 1345 384 1190 Q301 1053 288 813 L877 813 L877 667 L287 667 Q305 133 666 133 Q841 133 973 255 L1069 125 Z " />
<glyph glyph-name="afii10054" unicode="&#x405;" horiz-adv-x="1107" d="M645 832 Q852 785 936 674 Q1011 576 1011 403 Q1011 177 889 67 Q783 -29 592 -29 Q361 -29 270 115 L267 0 L127 0 L127 429 L286 429 Q288 273 370 197 Q441 130 568 130 Q703 130 770 206 Q828 271 828 389 Q828 510 766 577 Q711 637 603 662 L466 695 Q288 738 208 848 Q136 946 136 1106 Q136 1311 252 1414 Q352 1504 528 1504 Q702 1504 785 1379 L785 1475 L929 1475 L929 1103 L782 1103 Q782 1230 714 1292 Q654 1347 548 1347 Q428 1347 367 1279 Q314 1219 314 1114 Q314 905 527 859 L645 832 Z " />
<glyph glyph-name="afii10055" unicode="&#x406;" horiz-adv-x="651" d="M551 145 L551 0 L101 0 L101 145 L236 145 L236 1330 L101 1330 L101 1475 L551 1475 L551 1330 L415 1330 L415 145 L551 145 Z " />
<glyph glyph-name="afii10056" unicode="&#x407;" horiz-adv-x="651" d="M551 145 L551 0 L101 0 L101 145 L236 145 L236 1330 L101 1330 L101 1475 L551 1475 L551 1330 L415 1330 L415 145 L551 145 Z M77 1679 L77 1873 L254 1873 L254 1679 L77 1679 Z M391 1679 L391 1873 L568 1873 L568 1679 L391 1679 Z " />
<glyph glyph-name="afii10057" unicode="&#x408;" horiz-adv-x="637" d="M554 1330 L420 1330 L420 81 Q420 -132 344 -215 Q270 -297 90 -301 L90 -142 Q173 -138 206.5 -93.5 Q240 -49 240 56 L240 1330 L100 1330 L100 1475 L554 1475 L554 1330 Z " />
<glyph glyph-name="afii10058" unicode="&#x409;" horiz-adv-x="1903" d="M926 1330 L521 1330 L521 1247 Q521 931 497.5 648.5 Q474 366 437 246 Q397 113 327 56.5 Q257 0 131 0 L53 0 L53 155 L99 155 Q148 155 176.5 169.5 Q205 184 229 221 Q286 311 314 579 Q344 876 344 1243 L344 1330 L185 1330 L185 1475 L1256 1475 L1256 1330 L1104 1330 L1104 876 L1309 876 Q1821 876 1821 436 Q1821 202 1668 92 Q1539 0 1309 0 L785 0 L785 145 L926 145 L926 1330 Z M1104 145 L1291 145 Q1482 145 1565 225 Q1638 295 1638 434 Q1638 732 1292 732 L1104 732 L1104 145 Z " />
<glyph glyph-name="afii10059" unicode="&#x40a;" horiz-adv-x="1934" d="M1350 847 Q1852 847 1852 421 Q1852 0 1350 0 L821 0 L821 145 L958 145 L958 700 L415 700 L415 145 L552 145 L552 0 L101 0 L101 145 L236 145 L236 1330 L101 1330 L101 1475 L552 1475 L552 1330 L415 1330 L415 846 L958 846 L958 1330 L821 1330 L821 1475 L1286 1475 L1286 1330 L1134 1330 L1134 847 L1350 847 Z M1332 145 Q1513 145 1594 219 Q1668 286 1668 422 Q1668 701 1333 701 L1134 701 L1134 145 L1332 145 Z " />
<glyph glyph-name="afii10060" unicode="&#x40b;" horiz-adv-x="1567" d="M1497 145 L1497 0 L1037 0 L1037 145 L1177 145 L1177 482 Q1177 630 1140 682 Q1095 745 972 745 Q801 745 658 607 L658 145 L803 145 L803 0 L315 0 L315 145 L482 145 L482 1330 L217 1330 L217 1076 L61 1076 L61 1475 L1110 1475 L1110 1083 L955 1083 L955 1330 L658 1330 L658 779 Q753 848 834.5 876.5 Q916 905 1019 905 Q1218 905 1292 786 Q1351 691 1351 485 L1351 145 L1497 145 Z " />
<glyph glyph-name="afii10061" unicode="&#x40c;" horiz-adv-x="1299" d="M1248 145 L1248 0 L969 0 L759 486 Q703 623 662 661 Q618 702 534 702 L413 702 L413 145 L558 145 L558 0 L101 0 L101 145 L238 145 L238 1330 L101 1330 L101 1475 L551 1475 L551 1330 L413 1330 L413 847 L594 847 L903 1330 L752 1330 L752 1475 L1203 1475 L1203 1330 L1084 1330 L748 804 Q800 776 838 720.5 Q876 665 928 544 L1103 145 L1248 145 Z M538 1629 L713 1986 L914 1986 L670 1629 L538 1629 Z " />
<glyph glyph-name="uni040D" unicode="&#x40d;" horiz-adv-x="1407" d="M236 145 L236 1330 L101 1330 L101 1475 L546 1475 L546 1330 L399 1330 L399 413 L392 164 Q439 305 484 413 L943 1475 L1307 1475 L1307 1330 L1172 1330 L1172 145 L1307 145 L1307 0 L848 0 L848 145 L1008 145 L1008 1081 L1014 1309 Q979 1201 927 1081 L460 0 L101 0 L101 145 L236 145 Z M439 1986 L638 1986 L814 1629 L682 1629 L439 1986 Z " />
<glyph glyph-name="afii10062" unicode="&#x40e;" horiz-adv-x="1186" d="M1191 1330 L1084 1330 L514 0 L239 0 L239 145 L395 145 L522 441 L139 1330 L23 1330 L23 1475 L476 1475 L476 1330 L330 1330 L610 624 L896 1330 L749 1330 L749 1475 L1191 1475 L1191 1330 Z M413 1941 Q421 1858 465 1822 Q509 1786 603 1786 Q699 1786 743.5 1822 Q788 1858 795 1941 L920 1941 Q917 1649 604 1649 Q430 1649 354 1736 Q291 1806 287 1941 L413 1941 Z " />
<glyph glyph-name="afii10145" unicode="&#x40f;" horiz-adv-x="1332" d="M1095 1331 L1095 144 L1231 144 L1231 0 L760 0 L732 -360 L599 -360 L572 0 L101 0 L101 144 L236 144 L236 1331 L101 1331 L101 1475 L550 1475 L550 1331 L415 1331 L415 144 L916 144 L916 1331 L782 1331 L782 1475 L1231 1475 L1231 1331 L1095 1331 Z " />
<glyph glyph-name="afii10017" unicode="&#x410;" horiz-adv-x="1264" d="M1239 145 L1239 0 L805 0 L805 145 L952 145 L872 440 L385 440 L301 145 L457 145 L457 0 L26 0 L26 145 L122 145 L531 1475 L735 1475 L1136 145 L1239 145 Z M426 583 L832 583 L634 1286 L626 1286 L426 583 Z " />
<glyph glyph-name="afii10018" unicode="&#x411;" horiz-adv-x="1217" d="M635 847 Q883 847 1007 720 Q1114 610 1114 417 Q1114 0 637 0 L101 0 L101 145 L236 145 L236 1330 L101 1330 L101 1475 L1014 1475 L1014 1084 L856 1084 L856 1330 L413 1330 L413 847 L635 847 Z M634 145 Q930 145 930 413 Q930 574 843 642 Q768 701 621 701 L413 701 L413 145 L634 145 Z " />
<glyph glyph-name="afii10019" unicode="&#x412;" horiz-adv-x="1196" d="M833 786 Q1095 710 1095 417 Q1095 207 958 98 Q835 0 615 0 L101 0 L101 145 L231 145 L231 1330 L101 1330 L101 1475 L554 1475 Q1022 1475 1022 1098 Q1022 863 833 786 Z M406 1330 L406 852 L589 852 Q841 852 841 1083 Q841 1330 565 1330 L406 1330 Z M596 145 Q768 145 844 224 Q908 291 908 421 Q908 708 598 708 L406 708 L406 145 L596 145 Z " />
<glyph glyph-name="afii10020" unicode="&#x413;" horiz-adv-x="1076" d="M1017 1475 L1017 1084 L859 1084 L859 1330 L414 1330 L414 145 L615 145 L615 0 L101 0 L101 145 L236 145 L236 1330 L101 1330 L101 1475 L1017 1475 Z " />
<glyph glyph-name="afii10021" unicode="&#x414;" horiz-adv-x="1361" d="M1102 0 L240 0 L215 -360 L66 -360 L66 145 L215 145 Q271 258 309 498 Q354 789 354 1242 L354 1334 L201 1334 L201 1479 L1253 1479 L1253 1334 L1108 1334 L1108 145 L1276 145 L1276 -360 L1127 -360 L1102 0 Z M930 145 L930 1338 L529 1338 L529 1207 Q529 774 482 471 Q452 284 404 145 L930 145 Z " />
<glyph glyph-name="afii10022" unicode="&#x415;" horiz-adv-x="1151" d="M1038 400 L1038 0 L101 0 L101 145 L236 145 L236 1330 L101 1330 L101 1475 L1011 1475 L1011 1116 L851 1116 L851 1330 L414 1330 L414 834 L827 834 L827 689 L414 689 L414 145 L880 145 L880 400 L1038 400 Z " />
<glyph glyph-name="afii10024" unicode="&#x416;" horiz-adv-x="1889" d="M1837 145 L1837 0 L1562 0 L1370 486 Q1319 617 1275 659.5 Q1231 702 1145 702 L1031 702 L1031 145 L1176 145 L1176 0 L713 0 L713 145 L857 145 L857 702 L744 702 Q650 702 602 647 Q565 605 519 486 L327 0 L52 0 L52 145 L191 145 L352 544 Q397 661 436.5 720 Q476 779 528 807 L205 1330 L86 1330 L86 1475 L535 1475 L535 1330 L385 1330 L685 847 L857 847 L857 1330 L713 1330 L713 1475 L1172 1475 L1172 1330 L1031 1330 L1031 847 L1204 847 L1504 1330 L1354 1330 L1354 1475 L1803 1475 L1803 1330 L1684 1330 L1361 807 Q1413 779 1452 721 Q1491 663 1537 544 L1698 145 L1837 145 Z " />
<glyph glyph-name="afii10025" unicode="&#x417;" horiz-adv-x="1109" d="M773 789 Q1009 697 1009 423 Q1009 196 853 76 Q717 -28 491 -28 Q229 -28 68 127 L162 255 Q295 135 494 135 Q656 135 745 219 Q825 295 825 421 Q825 700 490 700 L318 700 L318 846 L460 846 Q649 846 724 918 Q786 978 786 1104 Q786 1223 713 1287 Q647 1345 536 1345 Q293 1345 267 1070 L135 1070 L135 1475 L264 1475 L264 1364 Q354 1503 553 1503 Q755 1503 865 1389 Q961 1291 961 1132 Q961 880 773 789 Z " />
<glyph glyph-name="afii10026" unicode="&#x418;" horiz-adv-x="1407" d="M236 145 L236 1330 L101 1330 L101 1475 L546 1475 L546 1330 L399 1330 L399 413 L392 164 Q439 305 484 413 L943 1475 L1307 1475 L1307 1330 L1172 1330 L1172 145 L1307 145 L1307 0 L848 0 L848 145 L1008 145 L1008 1081 L1014 1309 Q979 1201 927 1081 L460 0 L101 0 L101 145 L236 145 Z " />
<glyph glyph-name="afii10027" unicode="&#x419;" horiz-adv-x="1407" d="M236 145 L236 1330 L101 1330 L101 1475 L546 1475 L546 1330 L399 1330 L399 413 L392 164 Q439 305 484 413 L943 1475 L1307 1475 L1307 1330 L1172 1330 L1172 145 L1307 145 L1307 0 L848 0 L848 145 L1008 145 L1008 1081 L1014 1309 Q979 1201 927 1081 L460 0 L101 0 L101 145 L236 145 Z M519 1941 Q527 1858 571 1822 Q615 1786 709 1786 Q805 1786 849.5 1822 Q894 1858 901 1941 L1026 1941 Q1023 1649 710 1649 Q536 1649 460 1736 Q397 1806 393 1941 L519 1941 Z " />
<glyph glyph-name="afii10028" unicode="&#x41a;" horiz-adv-x="1299" d="M1248 145 L1248 0 L969 0 L759 486 Q703 623 662 661 Q618 702 534 702 L413 702 L413 145 L558 145 L558 0 L101 0 L101 145 L238 145 L238 1330 L101 1330 L101 1475 L551 1475 L551 1330 L413 1330 L413 847 L594 847 L903 1330 L752 1330 L752 1475 L1203 1475 L1203 1330 L1084 1330 L748 804 Q800 776 838 720.5 Q876 665 928 544 L1103 145 L1248 145 Z " />
<glyph glyph-name="afii10029" unicode="&#x41b;" horiz-adv-x="1320" d="M185 1330 L185 1475 L1219 1475 L1219 1330 L1080 1330 L1080 145 L1219 145 L1219 0 L749 0 L749 145 L900 145 L900 1330 L521 1330 L521 1247 Q521 931 497.5 648.5 Q474 366 437 246 Q397 113 327 56.5 Q257 0 131 0 L53 0 L53 155 L99 155 Q148 155 176.5 169.5 Q205 184 229 221 Q286 311 314 579 Q344 876 344 1243 L344 1330 L185 1330 Z " />
<glyph glyph-name="afii10030" unicode="&#x41c;" horiz-adv-x="1691" d="M1608 147 L1608 0 L1187 0 L1187 147 L1312 147 L1277 1025 L1273 1294 L1203 1025 L906 0 L788 0 L482 1025 Q435 1191 412 1290 L408 1025 L380 147 L504 147 L504 0 L83 0 L83 147 L216 147 L265 1328 L131 1328 L131 1475 L516 1475 L798 500 Q824 405 846 300 Q869 420 890 500 L1167 1475 L1559 1475 L1559 1328 L1420 1328 L1476 147 L1608 147 Z " />
<glyph glyph-name="afii10031" unicode="&#x41d;" horiz-adv-x="1373" d="M1137 1330 L1137 145 L1272 145 L1272 0 L821 0 L821 145 L959 145 L959 700 L414 700 L414 145 L552 145 L552 0 L101 0 L101 145 L236 145 L236 1330 L101 1330 L101 1475 L552 1475 L552 1330 L414 1330 L414 846 L959 846 L959 1330 L821 1330 L821 1475 L1272 1475 L1272 1330 L1137 1330 Z " />
<glyph glyph-name="afii10032" unicode="&#x41e;" horiz-adv-x="1283" d="M641 -30 Q358 -30 221 192 Q101 386 101 737 Q101 1138 259 1335 Q396 1506 640 1506 Q923 1506 1061 1282 Q1182 1087 1182 737 Q1182 336 1025 141 Q888 -30 641 -30 Z M642 133 Q827 133 917 308 Q995 461 995 735 Q995 1050 892 1206 Q801 1343 642 1343 Q459 1343 368 1165 Q289 1010 289 736 Q289 423 392 268 Q482 133 642 133 Z " />
<glyph glyph-name="afii10033" unicode="&#x41f;" horiz-adv-x="1341" d="M1105 1330 L1105 145 L1241 145 L1241 0 L790 0 L790 145 L926 145 L926 1330 L415 1330 L415 145 L551 145 L551 0 L101 0 L101 145 L236 145 L236 1330 L101 1330 L101 1475 L1241 1475 L1241 1330 L1105 1330 Z " />
<glyph glyph-name="afii10034" unicode="&#x420;" horiz-adv-x="1151" d="M409 573 L409 145 L587 145 L587 0 L101 0 L101 145 L231 145 L231 1330 L101 1330 L101 1475 L549 1475 Q1069 1475 1069 1022 Q1069 786 924 673 Q796 573 564 573 L409 573 Z M409 1330 L409 716 L570 716 Q741 716 816 799 Q883 873 883 1017 Q883 1330 568 1330 L409 1330 Z " />
<glyph glyph-name="afii10035" unicode="&#x421;" horiz-adv-x="1161" d="M1066 125 Q900 -31 648 -31 Q102 -31 102 714 Q102 1121 257 1326 Q390 1502 619 1502 Q807 1502 891 1374 L892 1475 L1033 1475 L1033 1040 L887 1040 Q887 1195 817 1274 Q755 1345 646 1345 Q462 1345 369 1160 Q288 1000 288 724 Q288 133 667 133 Q837 133 971 255 L1066 125 Z " />
<glyph glyph-name="afii10036" unicode="&#x422;" horiz-adv-x="1185" d="M1127 1475 L1127 1076 L971 1076 L971 1334 L682 1334 L682 145 L854 145 L854 0 L331 0 L331 145 L503 145 L503 1334 L214 1334 L214 1076 L58 1076 L58 1475 L1127 1475 Z " />
<glyph glyph-name="afii10037" unicode="&#x423;" horiz-adv-x="1186" d="M1191 1330 L1084 1330 L514 0 L239 0 L239 145 L395 145 L522 441 L139 1330 L23 1330 L23 1475 L476 1475 L476 1330 L330 1330 L610 624 L896 1330 L749 1330 L749 1475 L1191 1475 L1191 1330 Z " />
<glyph glyph-name="afii10038" unicode="&#x424;" horiz-adv-x="1552" d="M1466 735 Q1466 192 857 154 L857 38 L1001 38 L1001 -96 L551 -96 L551 38 L695 38 L695 154 Q373 174 220 341 Q87 486 87 735 Q87 1024 265 1174 Q418 1303 695 1321 L695 1437 L551 1437 L551 1571 L1001 1571 L1001 1437 L857 1437 L857 1321 Q1179 1300 1333 1132 Q1466 986 1466 735 Z M270 737 Q270 337 695 312 L695 1165 Q473 1153 365 1031 Q270 924 270 737 Z M1283 736 Q1283 1142 857 1165 L857 310 Q1283 332 1283 736 Z " />
<glyph glyph-name="afii10039" unicode="&#x425;" horiz-adv-x="1214" d="M1185 145 L1185 0 L719 0 L719 145 L868 145 L610 623 L360 145 L509 145 L509 0 L34 0 L34 145 L174 145 L521 757 L200 1330 L75 1330 L75 1475 L530 1475 L530 1330 L389 1330 L622 890 L853 1330 L711 1330 L711 1475 L1143 1475 L1143 1330 L1028 1330 L711 761 L1056 145 L1185 145 Z " />
<glyph glyph-name="afii10040" unicode="&#x426;" horiz-adv-x="1336" d="M1084 0 L101 0 L101 145 L236 145 L236 1330 L101 1330 L101 1475 L550 1475 L550 1330 L415 1330 L415 145 L916 145 L916 1330 L782 1330 L782 1475 L1231 1475 L1231 1330 L1095 1330 L1095 145 L1257 145 L1257 -360 L1109 -360 L1084 0 Z " />
<glyph glyph-name="afii10041" unicode="&#x427;" horiz-adv-x="1276" d="M862 145 L862 635 Q771 580 694.5 557.5 Q618 535 520 535 Q323 535 246 651 Q178 753 178 979 L178 1330 L42 1330 L42 1475 L493 1475 L493 1330 L356 1330 L356 996 Q356 814 407 750 Q454 691 572 691 Q651 691 714.5 713.5 Q778 736 862 793 L862 1330 L725 1330 L725 1475 L1175 1475 L1175 1330 L1039 1330 L1039 145 L1175 145 L1175 0 L657 0 L657 145 L862 145 Z " />
<glyph glyph-name="afii10042" unicode="&#x428;" horiz-adv-x="1903" d="M1667 1330 L1667 145 L1803 145 L1803 0 L101 0 L101 145 L236 145 L236 1330 L101 1330 L101 1475 L550 1475 L550 1330 L415 1330 L415 145 L862 145 L862 1330 L727 1330 L727 1475 L1175 1475 L1175 1330 L1040 1330 L1040 145 L1488 145 L1488 1330 L1353 1330 L1353 1475 L1803 1475 L1803 1330 L1667 1330 Z " />
<glyph glyph-name="afii10043" unicode="&#x429;" horiz-adv-x="1913" d="M1684 0 L101 0 L101 145 L236 145 L236 1330 L101 1330 L101 1475 L550 1475 L550 1330 L415 1330 L415 145 L862 145 L862 1330 L727 1330 L727 1475 L1175 1475 L1175 1330 L1040 1330 L1040 145 L1488 145 L1488 1330 L1353 1330 L1353 1475 L1803 1475 L1803 1330 L1667 1330 L1667 145 L1857 145 L1857 -360 L1709 -360 L1684 0 Z " />
<glyph glyph-name="afii10044" unicode="&#x42a;" horiz-adv-x="1553" d="M519 1330 L519 1328 L203 1328 L203 1118 L46 1118 L46 1475 L905 1475 L905 1330 L753 1330 L753 876 L958 876 Q1470 876 1470 436 Q1470 202 1317 92 Q1188 0 958 0 L434 0 L434 145 L575 145 L575 1330 L519 1330 Z M753 145 L940 145 Q1131 145 1214 225 Q1287 295 1287 434 Q1287 732 941 732 L753 732 L753 145 Z " />
<glyph glyph-name="afii10045" unicode="&#x42b;" horiz-adv-x="1781" d="M242 145 L242 1330 L101 1330 L101 1475 L572 1475 L572 1330 L420 1330 L420 876 L625 876 Q1137 876 1137 436 Q1137 202 984 92 Q855 0 625 0 L101 0 L101 145 L242 145 Z M420 145 L607 145 Q798 145 881 225 Q954 295 954 434 Q954 732 608 732 L420 732 L420 145 Z M1681 145 L1681 0 L1231 0 L1231 145 L1366 145 L1366 1330 L1231 1330 L1231 1475 L1681 1475 L1681 1330 L1545 1330 L1545 145 L1681 145 Z " />
<glyph glyph-name="afii10046" unicode="&#x42c;" horiz-adv-x="1219" d="M242 145 L242 1330 L101 1330 L101 1475 L572 1475 L572 1330 L420 1330 L420 876 L625 876 Q1137 876 1137 436 Q1137 202 984 92 Q855 0 625 0 L101 0 L101 145 L242 145 Z M420 145 L607 145 Q798 145 881 225 Q954 295 954 434 Q954 732 608 732 L420 732 L420 145 Z " />
<glyph glyph-name="afii10047" unicode="&#x42d;" horiz-adv-x="1168" d="M551 1502 Q818 1502 944 1272 Q1051 1076 1051 724 Q1051 327 906 141 Q773 -31 513 -31 Q265 -31 99 114 L195 246 Q331 133 503 133 Q850 133 867 668 L276 668 L276 814 L866 814 Q840 1344 524 1344 Q394 1344 327 1254 Q269 1175 269 1040 L123 1040 L123 1475 L264 1475 L265 1365 Q349 1502 551 1502 Z " />
<glyph glyph-name="afii10048" unicode="&#x42e;" horiz-adv-x="1818" d="M1176 -30 Q895 -30 759 191 Q640 384 640 738 Q640 1140 796 1336 Q932 1506 1174 1506 Q1458 1506 1596 1282 Q1716 1087 1716 737 Q1716 336 1559 141 Q1422 -30 1176 -30 Z M1177 133 Q1363 133 1453 308 Q1531 461 1531 735 Q1531 1050 1428 1206 Q1337 1343 1177 1343 Q993 1343 901 1163 Q821 1007 821 736 Q821 425 925 269 Q1016 133 1177 133 Z M545 145 L545 0 L101 0 L101 145 L236 145 L236 1330 L101 1330 L101 1475 L545 1475 L545 1330 L410 1330 L410 145 L545 145 Z M562 746 L562 786 L572 786 L572 746 L562 746 Z " />
<glyph glyph-name="afii10049" unicode="&#x42f;" horiz-adv-x="1264" d="M1028 1330 L1028 145 L1164 145 L1164 0 L695 0 L695 145 L852 145 L852 634 L709 634 Q576 634 520 575 Q471 525 432 385 L320 0 L45 0 L45 145 L176 145 L271 469 Q320 641 418 693 Q183 776 183 1055 Q183 1288 327 1389 Q450 1475 690 1475 L1164 1475 L1164 1330 L1028 1330 Z M852 779 L852 1331 L685 1331 Q512 1331 436 1255 Q368 1186 368 1046 Q368 895 455 832 Q528 779 679 779 L852 779 Z " />
<glyph glyph-name="afii10065" unicode="&#x430;" horiz-adv-x="976" d="M938 143 L938 0 L685 0 L684 142 Q654 62 577 17 Q500 -28 395 -28 Q229 -28 148 62 Q77 140 77 279 Q77 574 430 574 L648 574 L648 662 Q648 768 609 811.5 Q570 855 475 855 Q390 855 354 821 Q318 787 314 704 L142 704 Q148 866 239 936 Q318 997 470 997 Q670 997 745 910 Q811 833 811 656 L811 143 L938 143 Z M622 206 Q648 249 648 339 L648 445 L451 445 Q349 445 302.5 406.5 Q256 368 256 284 Q256 114 428 114 Q566 114 622 206 Z " />
<glyph glyph-name="afii10066" unicode="&#x431;" horiz-adv-x="977" d="M528 976 Q714 976 811 830 Q896 701 896 479 Q896 227 781 93 Q677 -29 492 -29 Q256 -29 163 166 Q92 316 92 618 Q92 889 167 1076 Q229 1231 331 1297 Q413 1353 545 1381 Q613 1395 640.5 1419 Q668 1443 674 1493 L826 1493 Q824 1396 805 1353.5 Q786 1311 731 1282 Q681 1251 601 1235 Q514 1216 468 1194.5 Q422 1173 385 1134 Q336 1084 299.5 994.5 Q263 905 249 802 Q282 885 354.5 930.5 Q427 976 528 976 Z M492 123 Q606 123 667 233 Q718 326 718 474 Q718 655 654 747 Q597 827 498 827 Q384 827 325 726 Q273 636 273 482 Q273 123 492 123 Z " />
<glyph glyph-name="afii10067" unicode="&#x432;" horiz-adv-x="991" d="M736 517 Q827 494 869.5 436.5 Q912 379 912 278 Q912 119 812 55 Q726 0 545 0 L74 0 L74 143 L203 143 L203 825 L74 825 L74 968 L537 968 Q718 968 797 900 Q868 839 868 716 Q868 562 736 517 Z M364 558 L547 558 Q703 558 703 695 Q703 766 661.5 798.5 Q620 831 530 831 L364 831 L364 558 Z M553 138 Q652 138 694 171.5 Q736 205 736 284 Q736 363 692.5 398.5 Q649 434 553 434 L364 434 L364 138 L553 138 Z " />
<glyph glyph-name="afii10068" unicode="&#x433;" horiz-adv-x="854" d="M74 143 L203 143 L203 825 L74 825 L74 968 L819 968 L819 625 L658 625 L658 825 L376 825 L376 143 L561 143 L561 0 L74 0 L74 143 Z " />
<glyph glyph-name="afii10069" unicode="&#x434;" horiz-adv-x="1063" d="M844 0 L199 0 L169 -285 L36 -285 L36 143 L145 143 Q274 294 274 760 L274 825 L149 825 L149 968 L984 968 L984 825 L855 825 L855 143 L1008 143 L1008 -285 L874 -285 L844 0 Z M689 138 L689 834 L436 834 L436 776 Q436 328 329 138 L689 138 Z " />
<glyph glyph-name="afii10070" unicode="&#x435;" horiz-adv-x="929" d="M481 997 Q688 997 777 835 Q854 697 850 431 L254 431 Q259 271 333 191 Q398 121 509 121 Q632 121 744 195 L820 68 Q684 -29 504 -29 Q81 -29 81 481 Q81 747 199 881 Q302 997 481 997 Z M478 854 Q372 854 314 768 Q263 693 255 562 L682 562 Q674 854 478 854 Z " />
<glyph glyph-name="afii10072" unicode="&#x436;" horiz-adv-x="1485" d="M1460 143 L1460 0 L1216 0 L1035 344 Q1011 391 985.5 408.5 Q960 426 917 426 L820 426 L820 142 L949 142 L949 0 L537 0 L537 142 L665 142 L665 426 L569 426 Q526 426 500 408 Q474 390 451 344 L269 0 L25 0 L25 143 L150 143 L295 406 Q337 485 375 517 L155 825 L53 825 L53 968 L441 968 L441 830 L323 830 L522 552 L665 552 L665 830 L555 830 L555 968 L931 968 L931 830 L820 830 L820 552 L964 552 L1163 830 L1045 830 L1045 968 L1433 968 L1433 825 L1331 825 L1111 516 Q1149 483 1190 406 L1335 143 L1460 143 Z " />
<glyph glyph-name="afii10073" unicode="&#x437;" horiz-adv-x="862" d="M625 518 Q786 466 786 283 Q786 120 676 41 Q581 -27 408 -27 Q300 -27 220.5 -2 Q141 23 52 85 L126 213 Q255 122 400 122 Q609 122 609 291 Q609 369 558 401.5 Q507 434 383 434 L274 434 L274 564 L376 564 Q578 564 578 704 Q578 774 534 813 Q490 852 410 852 Q247 852 235 690 L99 690 L99 968 L229 968 L229 888 Q288 996 443 996 Q602 996 683 917 Q754 848 754 731 Q754 574 625 518 Z " />
<glyph glyph-name="afii10074" unicode="&#x438;" horiz-adv-x="1136" d="M933 825 L933 143 L1062 143 L1062 0 L655 0 L655 143 L775 143 L775 773 L411 0 L74 0 L74 143 L203 143 L203 825 L74 825 L74 968 L482 968 L482 825 L361 825 L361 159 L736 968 L1062 968 L1062 825 L933 825 Z " />
<glyph glyph-name="afii10075" unicode="&#x439;" horiz-adv-x="1136" d="M933 825 L933 143 L1062 143 L1062 0 L655 0 L655 143 L775 143 L775 773 L411 0 L74 0 L74 143 L203 143 L203 825 L74 825 L74 968 L482 968 L482 825 L361 825 L361 159 L736 968 L1062 968 L1062 825 L933 825 Z M381 1434 Q389 1351 433 1315 Q477 1279 571 1279 Q667 1279 711.5 1315 Q756 1351 763 1434 L888 1434 Q885 1142 572 1142 Q398 1142 322 1229 Q259 1299 255 1434 L381 1434 Z " />
<glyph glyph-name="afii10076" unicode="&#x43a;" horiz-adv-x="1042" d="M1016 143 L1016 0 L775 0 L599 348 Q576 394 551.5 412 Q527 430 489 430 L367 430 L367 143 L508 143 L508 0 L74 0 L74 143 L203 143 L203 825 L74 825 L74 968 L486 968 L486 831 L367 831 L367 556 L534 556 L726 833 L607 833 L607 968 L996 968 L996 825 L894 825 L674 515 Q709 485 749 410 L892 143 L1016 143 Z " />
<glyph glyph-name="afii10077" unicode="&#x43b;" horiz-adv-x="1044" d="M116 825 L116 968 L970 968 L970 825 L841 825 L841 143 L970 143 L970 0 L542 0 L542 143 L670 143 L670 825 L424 825 L424 736 Q424 354 355 178 Q311 69 225 28 Q155 -6 33 -5 L33 144 Q101 144 141.5 176.5 Q182 209 204 282 Q252 422 252 733 L252 825 L116 825 Z " />
<glyph glyph-name="afii10078" unicode="&#x43c;" horiz-adv-x="1324" d="M1261 143 L1261 0 L908 0 L908 143 L1007 143 L992 815 L718 0 L608 0 L332 812 L319 143 L415 143 L415 0 L66 0 L66 143 L176 143 L197 825 L94 825 L94 968 L430 968 L664 248 L898 967 L1233 967 L1233 825 L1130 825 L1151 143 L1261 143 Z " />
<glyph glyph-name="afii10079" unicode="&#x43d;" horiz-adv-x="1116" d="M914 825 L914 143 L1042 143 L1042 0 L634 0 L634 143 L750 143 L750 436 L366 436 L366 143 L482 143 L482 0 L74 0 L74 143 L202 143 L202 825 L74 825 L74 968 L482 968 L482 825 L366 825 L366 562 L750 562 L750 825 L634 825 L634 968 L1042 968 L1042 825 L914 825 Z " />
<glyph glyph-name="afii10080" unicode="&#x43e;" horiz-adv-x="979" d="M490 -29 Q279 -29 172 125 Q81 257 81 482 Q81 742 202 878 Q307 997 488 997 Q698 997 805 842 Q898 708 898 480 Q898 222 776 88 Q669 -29 490 -29 Z M489 121 Q607 121 666 227 Q717 320 717 484 Q717 671 650 765 Q591 848 488 848 Q371 848 313 740 Q262 647 262 483 Q262 295 328 202 Q386 121 489 121 Z " />
<glyph glyph-name="afii10081" unicode="&#x43f;" horiz-adv-x="1100" d="M897 825 L897 143 L1025 143 L1025 0 L616 0 L616 143 L724 143 L724 825 L376 825 L376 143 L483 143 L483 0 L74 0 L74 143 L203 143 L203 825 L74 825 L74 968 L1025 968 L1025 825 L897 825 Z " />
<glyph glyph-name="afii10082" unicode="&#x440;" horiz-adv-x="1061" d="M605 997 Q791 997 891 843 Q979 708 979 481 Q979 221 866 87 Q769 -29 608 -29 Q434 -29 350 104 L350 -281 L546 -281 L546 -422 L55 -422 L55 -281 L185 -281 L185 825 L55 825 L55 968 L320 968 L320 802 Q403 997 605 997 Z M577 123 Q692 123 748 228 Q798 320 798 483 Q798 671 732 765 Q675 846 575 846 Q353 846 350 486 Q353 123 577 123 Z " />
<glyph glyph-name="afii10083" unicode="&#x441;" horiz-adv-x="903" d="M819 78 Q704 -29 506 -29 Q282 -29 174 121 Q81 248 81 476 Q81 742 201 880 Q303 995 470 995 Q612 995 666 892 L666 968 L805 968 L805 633 L659 633 Q659 715 642 757 Q606 848 497 848 Q381 848 319 744 Q262 649 262 483 Q262 123 528 123 Q639 123 738 202 L819 78 Z " />
<glyph glyph-name="afii10084" unicode="&#x442;" horiz-adv-x="940" d="M219 143 L388 143 L388 833 L189 833 L189 641 L43 641 L43 968 L898 968 L898 641 L751 641 L751 833 L554 833 L554 143 L723 143 L723 0 L219 0 L219 143 Z " />
<glyph glyph-name="afii10085" unicode="&#x443;" horiz-adv-x="920" d="M929 825 L833 825 L493 -139 Q428 -322 349 -374 Q279 -421 122 -422 L122 -271 Q220 -268 260 -241 Q302 -213 329 -136 L378 5 L84 825 L-13 825 L-13 968 L401 968 L401 827 L259 827 L401 369 Q417 314 444 235 Q454 207 458 193 L464 193 Q470 214 487 267 Q506 324 518 363 L662 827 L517 827 L517 968 L929 968 L929 825 Z " />
<glyph glyph-name="afii10086" unicode="&#x444;" horiz-adv-x="1405" d="M998 997 Q1161 997 1248 845 Q1326 709 1326 476 Q1326 216 1231 85 Q1148 -29 1002 -29 Q840 -29 777 131 L777 -306 L951 -306 L951 -446 L453 -446 L453 -306 L627 -306 L627 132 Q562 -29 401 -29 Q239 -29 154 122 Q79 254 79 480 Q79 743 179 880 Q264 997 405 997 Q558 997 627 843 L627 1332 L493 1332 L493 1475 L776 1475 L776 839 Q845 997 998 997 Z M623 533 Q623 847 446 847 Q346 847 298 740 Q256 648 256 483 Q256 122 443 122 Q537 122 583 216 Q623 298 623 444 L623 533 Z M961 122 Q1149 122 1149 481 Q1149 670 1094 765 Q1046 847 960 847 Q868 847 822 754 Q782 673 782 533 L782 444 Q782 277 834 195 Q880 122 961 122 Z " />
<glyph glyph-name="afii10087" unicode="&#x445;" horiz-adv-x="999" d="M967 144 L967 0 L558 0 L558 133 L678 133 L500 403 L329 133 L452 133 L452 0 L41 0 L40 144 L157 144 L401 495 L171 825 L54 825 L54 968 L451 968 L451 840 L341 840 L506 592 L667 840 L559 840 L559 968 L954 968 L954 825 L826 825 L605 499 L850 144 L967 144 Z " />
<glyph glyph-name="afii10088" unicode="&#x446;" horiz-adv-x="1096" d="M203 143 L203 825 L74 825 L74 968 L482 968 L482 825 L376 825 L376 143 L718 143 L718 825 L612 825 L612 968 L1020 968 L1020 825 L892 825 L892 143 L1036 143 L1036 -285 L902 -285 L868 0 L74 0 L74 143 L203 143 Z " />
<glyph glyph-name="afii10089" unicode="&#x447;" horiz-adv-x="1032" d="M660 143 L660 407 Q559 324 406 324 Q218 324 161 447 Q125 525 125 715 L125 825 L1 825 L1 968 L411 968 L411 825 L294 825 L294 677 Q294 562 329.5 515 Q365 468 451 468 Q572 468 660 559 L660 825 L544 825 L544 968 L958 968 L958 825 L829 825 L829 143 L958 143 L958 0 L503 0 L503 143 L660 143 Z " />
<glyph glyph-name="afii10090" unicode="&#x448;" horiz-adv-x="1553" d="M1479 143 L1479 0 L74 0 L74 143 L203 143 L203 825 L74 825 L74 968 L481 968 L481 825 L375 825 L375 143 L690 143 L690 825 L585 825 L585 968 L968 968 L968 825 L863 825 L863 143 L1175 143 L1178 825 L1072 825 L1072 968 L1479 968 L1479 825 L1350 825 L1350 143 L1479 143 Z " />
<glyph glyph-name="afii10091" unicode="&#x449;" horiz-adv-x="1553" d="M1326 0 L74 0 L74 143 L203 143 L203 825 L74 825 L74 968 L481 968 L481 825 L375 825 L375 143 L690 143 L690 825 L585 825 L585 968 L968 968 L968 825 L863 825 L863 143 L1175 143 L1178 825 L1072 825 L1072 968 L1479 968 L1479 825 L1350 825 L1350 143 L1495 143 L1495 -285 L1360 -285 L1326 0 Z " />
<glyph glyph-name="afii10092" unicode="&#x44a;" horiz-adv-x="1181" d="M274 825 L167 825 L167 631 L8 631 L8 968 L720 968 L720 825 L571 825 L571 597 L798 597 Q975 597 1063 514 Q1142 439 1142 303 Q1142 144 1045 67 Q961 0 812 0 L274 0 L274 143 L403 143 L403 825 L274 825 Z M571 140 L785 140 Q966 140 966 303 Q966 459 785 459 L571 459 L571 140 Z " />
<glyph glyph-name="afii10093" unicode="&#x44b;" horiz-adv-x="1455" d="M74 143 L203 143 L203 825 L74 825 L74 968 L520 968 L520 825 L371 825 L371 597 L555 597 Q729 597 817 514 Q898 438 898 303 Q898 144 799 66 Q715 0 569 0 L74 0 L74 143 Z M534 140 Q722 140 722 303 Q722 459 534 459 L371 459 L371 140 L534 140 Z M953 143 L1079 143 L1079 825 L953 825 L953 968 L1381 968 L1381 825 L1252 825 L1252 143 L1381 143 L1381 0 L953 0 L953 143 Z " />
<glyph glyph-name="afii10094" unicode="&#x44c;" horiz-adv-x="981" d="M203 143 L203 825 L74 825 L74 968 L520 968 L520 825 L371 825 L371 597 L598 597 Q775 597 863 514 Q942 439 942 303 Q942 144 845 67 Q761 0 612 0 L74 0 L74 143 L203 143 Z M371 140 L585 140 Q766 140 766 303 Q766 459 585 459 L371 459 L371 140 Z " />
<glyph glyph-name="afii10095" unicode="&#x44d;" horiz-adv-x="889" d="M421 994 Q612 994 716 841 Q808 705 808 476 Q808 213 681 83 Q572 -29 383 -29 Q184 -29 63 90 L148 214 Q245 125 369 125 Q611 125 630 420 L185 420 L185 543 L629 543 Q616 703 547 781 Q488 848 395 848 Q332 848 296 827.5 Q260 807 239 758 Q221 719 221 657 L75 657 L75 968 L214 968 L214 894 Q269 994 421 994 Z " />
<glyph glyph-name="afii10096" unicode="&#x44e;" horiz-adv-x="1425" d="M935 997 Q1143 997 1251 844 Q1344 711 1344 482 Q1344 220 1223 87 Q1118 -29 935 -29 Q741 -29 636 108 Q546 228 536 436 L367 436 L367 143 L488 143 L488 0 L74 0 L74 144 L203 144 L203 825 L74 825 L74 968 L367 968 L367 562 L538 562 Q556 785 671 898 Q772 997 935 997 Z M935 124 Q1053 124 1112 229 Q1163 321 1163 484 Q1163 671 1096 764 Q1038 845 935 845 Q817 845 759 740 Q708 647 708 483 Q708 296 774 204 Q831 124 935 124 Z " />
<glyph glyph-name="afii10097" unicode="&#x44f;" horiz-adv-x="1035" d="M833 825 L833 143 L961 143 L961 0 L555 0 L555 143 L669 143 L669 398 L516 398 Q472 398 446.5 372.5 Q421 347 394 274 L294 0 L44 0 L44 143 L163 143 L233 324 Q267 411 318 444 Q222 462 171 529 Q123 592 123 686 Q123 844 216 911 Q295 968 454 968 L961 968 L961 825 L833 825 Z M669 831 L465 831 Q376 831 335.5 793.5 Q295 756 295 674 Q295 524 473 524 L669 524 L669 831 Z " />
<glyph glyph-name="uni0450" unicode="&#x450;" horiz-adv-x="929" d="M481 997 Q688 997 777 835 Q854 697 850 431 L254 431 Q259 271 333 191 Q398 121 509 121 Q632 121 744 195 L820 68 Q684 -29 504 -29 Q81 -29 81 481 Q81 747 199 881 Q302 997 481 997 Z M478 854 Q372 854 314 768 Q263 693 255 562 L682 562 Q674 854 478 854 Z M198 1479 L397 1479 L573 1122 L441 1122 L198 1479 Z " />
<glyph glyph-name="afii10071" unicode="&#x451;" horiz-adv-x="929" d="M481 997 Q688 997 777 835 Q854 697 850 431 L254 431 Q259 271 333 191 Q398 121 509 121 Q632 121 744 195 L820 68 Q684 -29 504 -29 Q81 -29 81 481 Q81 747 199 881 Q302 997 481 997 Z M478 854 Q372 854 314 768 Q263 693 255 562 L682 562 Q674 854 478 854 Z M210 1172 L210 1366 L387 1366 L387 1172 L210 1172 Z M558 1172 L558 1366 L735 1366 L735 1172 L558 1172 Z " />
<glyph glyph-name="afii10099" unicode="&#x452;" horiz-adv-x="1024" d="M645 997 Q905 997 905 681 L905 -74 Q905 -273 833 -347 Q761 -422 584 -422 L584 -270 Q670 -266 701 -226.5 Q732 -187 732 -81 L732 649 Q732 752 700 798 Q668 844 595 844 Q465 844 365 667 L365 143 L477 143 L477 0 L63 0 L63 143 L192 143 L192 1114 L58 1114 L58 1217 L192 1217 L192 1349 L58 1349 L58 1475 L365 1475 L365 1217 L666 1217 L666 1114 L365 1114 L365 834 Q483 997 645 997 Z " />
<glyph glyph-name="afii10100" unicode="&#x453;" horiz-adv-x="854" d="M74 143 L203 143 L203 825 L74 825 L74 968 L819 968 L819 625 L658 625 L658 825 L376 825 L376 143 L561 143 L561 0 L74 0 L74 143 Z M360 1122 L535 1479 L736 1479 L492 1122 L360 1122 Z " />
<glyph glyph-name="afii10101" unicode="&#x454;" horiz-adv-x="892" d="M827 78 Q710 -29 511 -29 Q290 -29 178 118 Q81 245 81 467 Q81 741 201 879 Q302 994 473 994 Q620 994 675 894 L675 968 L814 968 L814 656 L668 656 Q668 718 651 759 Q629 807 593.5 828 Q558 849 497 849 Q388 849 326 762 Q269 683 259 542 L705 542 L705 420 L259 420 Q281 123 526 123 Q639 123 745 201 L827 78 Z " />
<glyph glyph-name="afii10102" unicode="&#x455;" horiz-adv-x="873" d="M539 557 Q685 531 747 456 Q804 389 804 271 Q804 117 712 40 Q633 -27 495 -27 Q301 -27 237 106 L237 -2 L103 -2 L103 293 L254 293 Q264 201 314.5 158.5 Q365 116 464 116 Q634 116 634 259 Q634 328 598 362 Q562 396 472 412 L373 431 Q224 457 160 533 Q105 599 105 715 Q105 858 195 933 Q271 998 397 998 Q560 998 613 882 L613 970 L743 970 L743 698 L600 698 Q600 773 556.5 813.5 Q513 854 432 854 Q274 854 274 716 Q274 604 424 579 L539 557 Z " />
<glyph glyph-name="afii10103" unicode="&#x456;" horiz-adv-x="550" d="M179 1368 L375 1368 L375 1164 L179 1164 L179 1368 Z M76 143 L205 143 L205 825 L76 825 L76 968 L379 968 L379 143 L507 143 L507 0 L76 0 L76 143 Z " />
<glyph glyph-name="afii10104" unicode="&#x457;" horiz-adv-x="548" d="M76 143 L205 143 L205 825 L76 825 L76 968 L379 968 L379 143 L507 143 L507 0 L76 0 L76 143 Z M21 1173 L21 1367 L198 1367 L198 1173 L21 1173 Z M335 1173 L335 1367 L512 1367 L512 1173 L335 1173 Z " />
<glyph glyph-name="afii10105" unicode="&#x458;" horiz-adv-x="504" d="M165 1370 L366 1370 L366 1163 L165 1163 L165 1370 Z M55 -271 Q132 -268 162 -232 Q192 -196 192 -107 L192 825 L61 825 L61 968 L364 968 L364 -74 Q364 -272 294 -347 Q224 -422 55 -422 L55 -271 Z " />
<glyph glyph-name="afii10106" unicode="&#x459;" horiz-adv-x="1445" d="M667 825 L424 825 L424 736 Q424 349 355 178 Q311 69 225 28 Q155 -6 33 -5 L33 144 Q101 144 141.5 176.5 Q182 209 204 282 Q252 422 252 733 L252 825 L116 825 L116 968 L984 968 L984 825 L835 825 L835 597 L1062 597 Q1239 597 1327 514 Q1406 439 1406 303 Q1406 144 1309 67 Q1225 0 1076 0 L538 0 L538 143 L667 143 L667 825 Z M835 140 L1049 140 Q1230 140 1230 303 Q1230 459 1049 459 L835 459 L835 140 Z " />
<glyph glyph-name="afii10107" unicode="&#x45a;" horiz-adv-x="1510" d="M1124 574 Q1299 574 1389 496 Q1472 424 1472 295 Q1472 142 1373 65 Q1288 0 1142 0 L621 0 L621 143 L746 143 L746 444 L365 444 L365 143 L483 143 L483 0 L74 0 L74 143 L203 143 L203 825 L74 825 L74 968 L483 968 L483 825 L365 825 L365 570 L746 570 L746 825 L621 825 L621 968 L1058 968 L1058 825 L910 825 L910 574 L1124 574 Z M1108 138 Q1296 138 1296 294 Q1296 445 1108 445 L910 445 L910 138 L1108 138 Z " />
<glyph glyph-name="afii10108" unicode="&#x45b;" horiz-adv-x="1084" d="M1048 143 L1048 0 L633 0 L633 143 L746 143 L746 652 Q746 756 713.5 802 Q681 848 608 848 Q475 848 365 670 L365 143 L477 143 L477 0 L63 0 L63 143 L192 143 L192 1114 L58 1114 L58 1217 L192 1217 L192 1349 L58 1349 L58 1475 L362 1475 L362 1217 L666 1217 L666 1114 L362 1114 L362 827 Q485 997 658 997 Q920 997 920 681 L920 143 L1048 143 Z " />
<glyph glyph-name="afii10109" unicode="&#x45c;" horiz-adv-x="1042" d="M1016 143 L1016 0 L775 0 L599 348 Q576 394 551.5 412 Q527 430 489 430 L367 430 L367 143 L508 143 L508 0 L74 0 L74 143 L203 143 L203 825 L74 825 L74 968 L486 968 L486 831 L367 831 L367 556 L534 556 L726 833 L607 833 L607 968 L996 968 L996 825 L894 825 L674 515 Q709 485 749 410 L892 143 L1016 143 Z M452 1122 L627 1479 L828 1479 L584 1122 L452 1122 Z " />
<glyph glyph-name="uni045D" unicode="&#x45d;" horiz-adv-x="1136" d="M933 825 L933 143 L1062 143 L1062 0 L655 0 L655 143 L775 143 L775 773 L411 0 L74 0 L74 143 L203 143 L203 825 L74 825 L74 968 L482 968 L482 825 L361 825 L361 159 L736 968 L1062 968 L1062 825 L933 825 Z M301 1479 L500 1479 L676 1122 L544 1122 L301 1479 Z " />
<glyph glyph-name="afii10110" unicode="&#x45e;" horiz-adv-x="920" d="M929 825 L833 825 L493 -139 Q428 -322 349 -374 Q279 -421 122 -422 L122 -271 Q220 -268 260 -241 Q302 -213 329 -136 L378 5 L84 825 L-13 825 L-13 968 L401 968 L401 827 L259 827 L401 369 Q417 314 444 235 Q454 207 458 193 L464 193 Q470 214 487 267 Q506 324 518 363 L662 827 L517 827 L517 968 L929 968 L929 825 Z M263 1434 Q271 1351 315 1315 Q359 1279 453 1279 Q549 1279 593.5 1315 Q638 1351 645 1434 L770 1434 Q767 1142 454 1142 Q280 1142 204 1229 Q141 1299 137 1434 L263 1434 Z " />
<glyph glyph-name="afii10193" unicode="&#x45f;" horiz-adv-x="1094" d="M891 825 L891 143 L1019 143 L1019 0 L635 0 L609 -285 L485 -285 L459 0 L74 0 L74 143 L203 143 L203 825 L74 825 L74 968 L482 968 L482 825 L376 825 L376 141 L718 141 L718 825 L612 825 L612 968 L1019 968 L1019 825 L891 825 Z " />
<glyph glyph-name="uni0462" unicode="&#x462;" horiz-adv-x="1383" d="M260 145 L401 145 L401 1138 L214 1138 L214 951 L72 951 L72 1268 L401 1268 L401 1419 L259 1419 L259 1559 L729 1559 L729 1419 L576 1419 L576 1268 L983 1268 L983 963 L841 963 L841 1138 L576 1138 L576 801 L831 801 Q1059 801 1178 700 Q1299 599 1299 400 Q1299 175 1144 75 Q1028 0 833 0 L260 0 L260 145 Z M793 145 Q1115 145 1115 398 Q1115 656 793 656 L576 656 L576 145 L793 145 Z " />
<glyph glyph-name="uni0463" unicode="&#x463;" horiz-adv-x="1090" d="M709 592 Q883 592 972 509 Q1052 434 1052 298 Q1052 144 953 66 Q869 0 723 0 L182 0 L182 145 L311 145 L311 844 L150 844 L150 712 L17 712 L17 968 L311 968 L311 1332 L176 1332 L176 1475 L478 1475 L478 968 L847 968 L847 712 L714 712 L714 844 L478 844 L478 592 L709 592 Z M688 141 Q876 141 876 298 Q876 379 830.5 416.5 Q785 454 688 454 L479 454 L479 141 L688 141 Z " />
<glyph glyph-name="afii10050" unicode="&#x490;" horiz-adv-x="1053" d="M993 1834 L993 1328 L414 1328 L414 145 L615 145 L615 0 L101 0 L101 145 L236 145 L236 1328 L101 1328 L101 1475 L823 1475 L848 1834 L993 1834 Z " />
<glyph glyph-name="afii10098" unicode="&#x491;" horiz-adv-x="854" d="M651 968 L685 1254 L819 1254 L819 825 L819 625 L658 625 L658 825 L376 825 L376 143 L561 143 L561 0 L74 0 L74 143 L203 143 L203 825 L74 825 L74 968 L651 968 Z " />
<glyph glyph-name="uni0492" unicode="&#x492;" horiz-adv-x="1120" d="M280 699 L91 699 L91 845 L280 845 L280 1330 L145 1330 L145 1475 L1061 1475 L1061 1084 L903 1084 L903 1330 L458 1330 L458 845 L779 845 L779 699 L458 699 L458 145 L659 145 L659 0 L145 0 L145 145 L280 145 L280 699 Z " />
<glyph glyph-name="uni0493" unicode="&#x493;" horiz-adv-x="868" d="M217 431 L79 431 L79 538 L217 538 L217 825 L88 825 L88 968 L833 968 L833 625 L672 625 L672 825 L390 825 L390 538 L613 538 L613 431 L390 431 L390 143 L575 143 L575 0 L88 0 L88 143 L217 143 L217 431 Z " />
<glyph glyph-name="uni0496" unicode="&#x496;" horiz-adv-x="1929" d="M1698 145 L1873 145 L1873 -360 L1725 -360 L1700 0 L1562 0 L1370 486 Q1319 617 1275 659.5 Q1231 702 1145 702 L1031 702 L1031 145 L1176 145 L1176 0 L713 0 L713 145 L857 145 L857 702 L744 702 Q650 702 602 647 Q565 605 519 486 L327 0 L52 0 L52 145 L191 145 L352 544 Q397 661 436.5 720 Q476 779 528 807 L205 1330 L86 1330 L86 1475 L535 1475 L535 1330 L385 1330 L685 847 L857 847 L857 1330 L713 1330 L713 1475 L1172 1475 L1172 1330 L1031 1330 L1031 847 L1204 847 L1504 1330 L1354 1330 L1354 1475 L1803 1475 L1803 1330 L1684 1330 L1361 807 Q1413 779 1452 721 Q1491 663 1537 544 L1698 145 Z " />
<glyph glyph-name="uni0497" unicode="&#x497;" horiz-adv-x="1545" d="M1335 143 L1487 143 L1487 -285 L1352 -285 L1318 0 L1216 0 L1035 344 Q1011 391 985.5 408.5 Q960 426 917 426 L820 426 L820 142 L949 142 L949 0 L537 0 L537 142 L665 142 L665 426 L569 426 Q526 426 500 408 Q474 390 451 344 L269 0 L25 0 L25 143 L150 143 L295 406 Q337 485 375 517 L155 825 L53 825 L53 968 L441 968 L441 830 L323 830 L522 552 L665 552 L665 830 L555 830 L555 968 L931 968 L931 830 L820 830 L820 552 L964 552 L1163 830 L1045 830 L1045 968 L1433 968 L1433 825 L1331 825 L1111 516 Q1149 483 1190 406 L1335 143 Z " />
<glyph glyph-name="uni0498" unicode="&#x498;" horiz-adv-x="1109" d="M500 -28 L491 -28 Q229 -28 68 127 L162 255 Q295 135 494 135 Q656 135 745 219 Q825 295 825 421 Q825 700 490 700 L318 700 L318 846 L460 846 Q649 846 724 918 Q786 978 786 1104 Q786 1223 713 1287 Q647 1345 536 1345 Q293 1345 267 1070 L135 1070 L135 1475 L264 1475 L264 1364 Q354 1503 553 1503 Q755 1503 865 1389 Q961 1291 961 1132 Q961 880 773 789 Q1009 697 1009 423 Q1007 345 992 288 Q955 154 852 76 Q754 1 614 -19 L571 -122 Q587 -120 604 -120 Q681 -120 724 -162 Q767 -204 767 -280 Q767 -381 699 -433 Q640 -477 544 -477 Q437 -477 345 -431 L345 -313 Q452 -356 530 -356 Q630 -356 630 -274 Q630 -203 555 -203 Q521 -203 473 -217 L461 -121 L500 -28 Z " />
<glyph glyph-name="uni0499" unicode="&#x499;" horiz-adv-x="862" d="M378 -26 Q311 -25 250 -10 Q156 14 52 85 L126 213 Q255 122 400 122 Q609 122 609 291 Q609 369 558 401.5 Q507 434 383 434 L274 434 L274 564 L376 564 Q578 564 578 704 Q578 774 534 813 Q490 852 410 852 Q247 852 235 690 L99 690 L99 968 L229 968 L229 888 Q288 996 443 996 Q602 996 683 917 Q754 848 754 731 Q754 574 625 518 Q786 466 786 283 Q781 122 683 47 Q612 -9 490 -23 L448 -122 Q464 -120 481 -120 Q558 -120 601 -162 Q644 -204 644 -280 Q644 -381 576 -433 Q517 -477 421 -477 Q314 -477 222 -431 L222 -313 Q329 -356 407 -356 Q507 -356 507 -274 Q507 -203 432 -203 Q398 -203 350 -217 L338 -121 L378 -26 Z " />
<glyph glyph-name="uni049A" unicode="&#x49a;" horiz-adv-x="1329" d="M1103 145 L1273 145 L1273 -360 L1125 -360 L1100 0 L969 0 L759 486 Q703 623 662 661 Q618 702 534 702 L413 702 L413 145 L558 145 L558 0 L101 0 L101 145 L238 145 L238 1330 L101 1330 L101 1475 L551 1475 L551 1330 L413 1330 L413 847 L594 847 L903 1330 L752 1330 L752 1475 L1203 1475 L1203 1330 L1084 1330 L748 804 Q800 776 838 720.5 Q876 665 928 544 L1103 145 Z " />
<glyph glyph-name="uni049B" unicode="&#x49b;" horiz-adv-x="1111" d="M892 143 L1053 143 L1053 -285 L918 -285 L884 0 L775 0 L599 348 Q576 394 551.5 412 Q527 430 489 430 L367 430 L367 143 L508 143 L508 0 L74 0 L74 143 L203 143 L203 825 L74 825 L74 968 L486 968 L486 831 L367 831 L367 556 L534 556 L726 833 L607 833 L607 968 L996 968 L996 825 L894 825 L674 515 Q709 485 749 410 L892 143 Z " />
<glyph glyph-name="uni049C" unicode="&#x49c;" horiz-adv-x="1343" d="M1291 147 L1291 0 L1011 0 L779 549 Q744 633 712 664.5 Q680 696 625 701 L625 442 L524 442 L524 702 L413 702 L413 147 L558 147 L558 0 L101 0 L101 147 L238 147 L238 1328 L101 1328 L101 1475 L554 1475 L554 1328 L413 1328 L413 842 L524 842 L524 1102 L625 1102 L625 842 L645 842 L947 1328 L794 1328 L794 1475 L1246 1475 L1246 1328 L1127 1328 L797 811 Q845 782 882.5 725.5 Q920 669 973 544 L1146 147 L1291 147 Z " />
<glyph glyph-name="uni049D" unicode="&#x49d;" horiz-adv-x="1076" d="M1050 143 L1050 0 L806 0 L628 346 Q605 396 586 412.5 Q567 429 534 429 L533 429 L533 258 L453 258 L453 429 L363 429 L363 143 L512 143 L512 0 L74 0 L74 143 L203 143 L203 825 L74 825 L74 968 L490 968 L490 831 L363 831 L363 551 L453 551 L453 728 L533 728 L533 551 L564 551 L753 833 L631 833 L631 968 L1022 968 L1022 825 L920 825 L700 518 Q739 486 780 408 L926 143 L1050 143 Z " />
<glyph glyph-name="uni04A2" unicode="&#x4a2;" horiz-adv-x="1343" d="M1114 0 L821 0 L821 145 L959 145 L959 700 L414 700 L414 145 L552 145 L552 0 L101 0 L101 145 L236 145 L236 1330 L101 1330 L101 1475 L552 1475 L552 1330 L414 1330 L414 846 L959 846 L959 1330 L821 1330 L821 1475 L1272 1475 L1272 1330 L1137 1330 L1137 145 L1287 145 L1287 -360 L1139 -360 L1114 0 Z " />
<glyph glyph-name="uni04A3" unicode="&#x4a3;" horiz-adv-x="1137" d="M910 0 L634 0 L634 143 L750 143 L750 436 L366 436 L366 143 L482 143 L482 0 L74 0 L74 143 L202 143 L202 825 L74 825 L74 968 L482 968 L482 825 L366 825 L366 562 L750 562 L750 825 L634 825 L634 968 L1042 968 L1042 825 L914 825 L914 143 L1079 143 L1079 -285 L944 -285 L910 0 Z " />
<glyph glyph-name="uni04AA" unicode="&#x4aa;" horiz-adv-x="1161" d="M568 -27 Q359 -4 244 148 Q172 243 140 371 Q108 499 102 714 Q102 1121 257 1326 Q390 1502 619 1502 Q807 1502 891 1374 L892 1475 L1033 1475 L1033 1040 L887 1040 Q887 1195 817 1274 Q755 1345 646 1345 Q462 1345 369 1160 Q288 1000 288 724 Q288 133 667 133 Q837 133 971 255 L1066 125 Q908 -19 676 -31 L638 -122 Q654 -120 671 -120 Q748 -120 791 -162 Q834 -204 834 -280 Q834 -381 765 -433 Q707 -477 611 -477 Q504 -477 412 -431 L412 -313 Q519 -356 597 -356 Q697 -356 697 -274 Q697 -203 622 -203 Q588 -203 540 -217 L528 -121 L568 -27 Z " />
<glyph glyph-name="uni04AB" unicode="&#x4ab;" horiz-adv-x="903" d="M437 -25 Q296 -8 210 78 Q89 199 81 476 Q81 742 201 880 Q303 995 470 995 Q612 995 666 892 L666 968 L805 968 L805 633 L659 633 Q659 715 642 757 Q606 848 497 848 Q381 848 319 744 Q262 649 262 483 Q262 123 528 123 Q639 123 738 202 L819 78 Q713 -16 546 -28 L507 -122 Q523 -120 540 -120 Q617 -120 660 -162 Q703 -204 703 -280 Q703 -381 635 -433 Q576 -477 480 -477 Q373 -477 281 -431 L281 -313 Q388 -356 466 -356 Q566 -356 566 -274 Q566 -203 491 -203 Q457 -203 409 -217 L397 -121 L437 -25 Z " />
<glyph glyph-name="uni04AE" unicode="&#x4ae;" horiz-adv-x="1152" d="M665 633 L665 145 L832 145 L832 0 L320 0 L320 145 L487 145 L487 641 L120 1330 L-11 1330 L-11 1475 L475 1475 L475 1330 L315 1330 L583 786 L852 1330 L697 1330 L697 1475 L1164 1475 L1164 1330 L1035 1330 L665 633 Z " />
<glyph glyph-name="uni04AF" unicode="&#x4af;" horiz-adv-x="913" d="M537 -5 L537 -281 L689 -281 L689 -422 L222 -422 L222 -281 L373 -281 L373 -6 L79 825 L-18 825 L-18 968 L381 968 L381 827 L254 827 L377 431 Q383 410 401 353 Q437 231 452 168 L459 168 Q479 263 529 426 L657 827 L524 827 L524 968 L928 968 L928 825 L828 825 L537 -5 Z " />
<glyph glyph-name="uni04B0" unicode="&#x4b0;" horiz-adv-x="1153" d="M1035 1330 L680 661 L891 661 L891 532 L661 532 L661 145 L830 145 L830 0 L322 0 L322 145 L493 145 L493 532 L257 532 L257 661 L479 661 L120 1330 L-11 1330 L-11 1475 L475 1475 L475 1330 L315 1330 L583 786 L853 1330 L698 1330 L698 1475 L1165 1475 L1165 1330 L1035 1330 Z " />
<glyph glyph-name="uni04B1" unicode="&#x4b1;" horiz-adv-x="918" d="M371 0 L149 0 L149 113 L331 113 L79 825 L-18 825 L-18 968 L381 968 L381 827 L254 827 L377 431 Q383 410 401 353 Q437 231 452 168 L459 168 Q479 263 529 426 L657 827 L524 827 L524 968 L928 968 L928 825 L828 825 L578 113 L776 113 L776 0 L539 0 L537 -5 L537 -281 L689 -281 L689 -422 L222 -422 L222 -281 L373 -281 L373 -6 L371 0 Z " />
<glyph glyph-name="uni04B2" unicode="&#x4b2;" horiz-adv-x="1272" d="M1056 145 L1216 145 L1216 -360 L1068 -360 L1043 0 L719 0 L719 145 L868 145 L610 623 L360 145 L509 145 L509 0 L34 0 L34 145 L174 145 L521 757 L200 1330 L75 1330 L75 1475 L530 1475 L530 1330 L389 1330 L622 890 L853 1330 L711 1330 L711 1475 L1143 1475 L1143 1330 L1028 1330 L711 761 L1056 145 Z " />
<glyph glyph-name="uni04B3" unicode="&#x4b3;" horiz-adv-x="1042" d="M815 0 L558 0 L558 133 L678 133 L500 403 L329 133 L452 133 L452 0 L41 0 L40 144 L157 144 L401 495 L171 825 L54 825 L54 968 L451 968 L451 840 L341 840 L506 592 L667 840 L559 840 L559 968 L954 968 L954 825 L826 825 L605 499 L850 144 L967 144 L967 143 L984 143 L984 -285 L849 -285 L815 0 Z " />
<glyph glyph-name="uni04B6" unicode="&#x4b6;" horiz-adv-x="1270" d="M1041 0 L657 0 L657 145 L862 145 L862 635 Q771 580 694.5 557.5 Q618 535 520 535 Q323 535 246 651 Q178 753 178 979 L178 1330 L42 1330 L42 1475 L493 1475 L493 1330 L356 1330 L356 996 Q356 814 407 750 Q454 691 572 691 Q651 691 714.5 713.5 Q778 736 862 793 L862 1330 L725 1330 L725 1475 L1175 1475 L1175 1330 L1039 1330 L1039 145 L1214 145 L1214 -360 L1066 -360 L1041 0 Z " />
<glyph glyph-name="uni04B7" unicode="&#x4b7;" horiz-adv-x="1039" d="M812 0 L503 0 L503 143 L660 143 L660 407 Q559 324 406 324 Q218 324 161 447 Q125 525 125 715 L125 825 L1 825 L1 968 L411 968 L411 825 L294 825 L294 677 Q294 562 329.5 515 Q365 468 451 468 Q572 468 660 559 L660 825 L544 825 L544 968 L958 968 L958 825 L829 825 L829 143 L981 143 L981 -285 L846 -285 L812 0 Z " />
<glyph glyph-name="uni04B8" unicode="&#x4b8;" horiz-adv-x="1276" d="M556 692 L556 999 L660 999 L660 699 Q750 718 862 793 L862 1330 L725 1330 L725 1475 L1175 1475 L1175 1330 L1039 1330 L1039 145 L1175 145 L1175 0 L657 0 L657 145 L862 145 L862 635 Q750 568 660 548 L660 338 L556 338 L556 536 Q544 535 520 535 Q323 535 246 651 Q178 753 178 979 L178 1330 L42 1330 L42 1475 L493 1475 L493 1330 L356 1330 L356 996 Q358 835 390 776 Q434 696 556 692 Z " />
<glyph glyph-name="uni04B9" unicode="&#x4b9;" horiz-adv-x="1046" d="M844 824 L844 145 L972 145 L972 0 L537 0 L537 132 L675 132 L675 408 Q612 360 529 342 L529 218 L437 217 L437 331 L421 331 Q224 331 163 451 Q125 528 125 715 L125 824 L1 824 L1 968 L411 968 L411 824 L294 824 L294 677 Q294 567 326.5 518.5 Q359 470 437 464 L437 692 L529 693 L529 470 Q613 490 675 559 L675 824 L558 824 L558 968 L972 968 L972 824 L844 824 Z " />
<glyph glyph-name="uni04BA" unicode="&#x4ba;" horiz-adv-x="1281" d="M101 145 L236 145 L236 1330 L101 1330 L101 1475 L551 1475 L551 1330 L414 1330 L414 880 Q504 943 579 969 Q654 995 744 995 Q948 995 1028 883 Q1099 784 1099 567 L1099 145 L1235 145 L1235 0 L780 0 L780 145 L922 145 L922 540 Q922 713 869 777 Q820 836 702 836 Q619 836 556.5 810 Q494 784 414 716 L414 145 L566 145 L566 0 L101 0 L101 145 Z " />
<glyph glyph-name="uni04BB" unicode="&#x4bb;" horiz-adv-x="1076" d="M1040 143 L1040 0 L625 0 L625 143 L738 143 L738 652 Q738 756 705.5 802 Q673 848 600 848 Q466 848 358 671 L358 143 L471 143 L471 0 L56 0 L56 143 L184 143 L184 1332 L50 1332 L50 1475 L352 1475 L352 824 Q477 997 650 997 Q911 997 911 681 L911 143 L1040 143 Z " />
<glyph glyph-name="uni04C0" unicode="&#x4c0;" horiz-adv-x="651" d="M551 145 L551 0 L101 0 L101 145 L236 145 L236 1330 L101 1330 L101 1475 L551 1475 L551 1330 L415 1330 L415 145 L551 145 Z " />
<glyph glyph-name="uni04C1" unicode="&#x4c1;" horiz-adv-x="1889" d="M1837 145 L1837 0 L1562 0 L1370 486 Q1319 617 1275 659.5 Q1231 702 1145 702 L1031 702 L1031 145 L1176 145 L1176 0 L713 0 L713 145 L857 145 L857 702 L744 702 Q650 702 602 647 Q565 605 519 486 L327 0 L52 0 L52 145 L191 145 L352 544 Q397 661 436.5 720 Q476 779 528 807 L205 1330 L86 1330 L86 1475 L535 1475 L535 1330 L385 1330 L685 847 L857 847 L857 1330 L713 1330 L713 1475 L1172 1475 L1172 1330 L1031 1330 L1031 847 L1204 847 L1504 1330 L1354 1330 L1354 1475 L1803 1475 L1803 1330 L1684 1330 L1361 807 Q1413 779 1452 721 Q1491 663 1537 544 L1698 145 L1837 145 Z M747 1941 Q755 1858 799 1822 Q843 1786 937 1786 Q1033 1786 1077.5 1822 Q1122 1858 1129 1941 L1254 1941 Q1251 1649 938 1649 Q764 1649 688 1736 Q625 1806 621 1941 L747 1941 Z " />
<glyph glyph-name="uni04C2" unicode="&#x4c2;" horiz-adv-x="1485" d="M1460 143 L1460 0 L1216 0 L1035 344 Q1011 391 985.5 408.5 Q960 426 917 426 L820 426 L820 142 L949 142 L949 0 L537 0 L537 142 L665 142 L665 426 L569 426 Q526 426 500 408 Q474 390 451 344 L269 0 L25 0 L25 143 L150 143 L295 406 Q337 485 375 517 L155 825 L53 825 L53 968 L441 968 L441 830 L323 830 L522 552 L665 552 L665 830 L555 830 L555 968 L931 968 L931 830 L820 830 L820 552 L964 552 L1163 830 L1045 830 L1045 968 L1433 968 L1433 825 L1331 825 L1111 516 Q1149 483 1190 406 L1335 143 L1460 143 Z M551 1434 Q559 1351 603 1315 Q647 1279 741 1279 Q837 1279 881.5 1315 Q926 1351 933 1434 L1058 1434 Q1055 1142 742 1142 Q568 1142 492 1229 Q429 1299 425 1434 L551 1434 Z " />
<glyph glyph-name="uni04CF" unicode="&#x4cf;" horiz-adv-x="651" d="M551 145 L551 0 L101 0 L101 145 L236 145 L236 1330 L101 1330 L101 1475 L551 1475 L551 1330 L415 1330 L415 145 L551 145 Z " />
<glyph glyph-name="uni04D4" unicode="&#x4d4;" horiz-adv-x="1800" d="M1687 400 L1687 0 L762 0 L762 145 L918 145 L918 482 L467 482 L310 143 L489 143 L489 0 L14 0 L14 145 L124 145 L686 1330 L483 1330 L483 1475 L1673 1475 L1673 1118 L1513 1118 L1513 1330 L1090 1330 L1090 834 L1484 834 L1484 689 L1090 689 L1090 145 L1528 145 L1528 400 L1687 400 Z M918 623 L918 1330 L860 1330 L533 623 L918 623 Z " />
<glyph glyph-name="uni04D5" unicode="&#x4d5;" horiz-adv-x="1469" d="M384 -29 Q222 -29 141 62 Q70 140 70 279 Q70 570 408 570 L643 570 L643 639 Q643 765 604.5 810 Q566 855 458 855 Q378 855 341.5 819.5 Q305 784 301 702 L130 702 Q133 997 465 997 Q579 996 644 961.5 Q709 927 745 848 Q827 997 1028 997 Q1235 997 1325 838 Q1404 700 1400 435 L807 435 Q810 123 1068 123 Q1190 123 1296 197 L1372 69 Q1239 -29 1062 -29 Q930 -29 841 24 Q762 71 727 152 Q660 -29 384 -29 Z M1230 563 Q1225 849 1026 849 Q918 849 860 762 Q809 687 807 563 L1230 563 Z M412 113 Q558 113 615 202 Q643 246 643 338 L643 447 L442 447 Q341 447 295 408 Q249 369 249 284 Q249 113 412 113 Z " />
<glyph glyph-name="uni04D8" unicode="&#x4d8;" horiz-adv-x="1257" d="M602 1498 Q894 1498 1035 1273 Q1158 1078 1158 723 Q1158 331 1000 136 Q861 -37 613 -37 Q104 -37 104 637 Q104 715 111 804 L973 804 Q966 1074 859 1209 Q764 1330 600 1330 Q406 1330 242 1193 L161 1335 Q355 1498 602 1498 Z M618 128 Q796 128 889 281 Q971 416 974 651 L290 651 Q289 621 289 592 Q289 354 385 234 Q470 128 618 128 Z " />
<glyph glyph-name="afii10846" unicode="&#x4d9;" horiz-adv-x="915" d="M421 997 Q641 997 749 850 Q842 721 842 492 Q842 -29 447 -29 Q74 -29 74 481 Q74 516 76 553 L669 553 Q660 706 586 781 Q522 848 412 848 Q286 848 181 768 L105 895 Q239 997 421 997 Z M447 113 Q561 113 619 206 Q670 286 670 424 L245 424 Q242 113 447 113 Z " />
<glyph glyph-name="uni04E2" unicode="&#x4e2;" horiz-adv-x="1407" d="M236 145 L236 1330 L101 1330 L101 1475 L546 1475 L546 1330 L399 1330 L399 413 L392 164 Q439 305 484 413 L943 1475 L1307 1475 L1307 1330 L1172 1330 L1172 145 L1307 145 L1307 0 L848 0 L848 145 L1008 145 L1008 1081 L1014 1309 Q979 1201 927 1081 L460 0 L101 0 L101 145 L236 145 Z M459 1704 L459 1850 L969 1850 L969 1704 L459 1704 Z " />
<glyph glyph-name="uni04E3" unicode="&#x4e3;" horiz-adv-x="1136" d="M933 825 L933 143 L1062 143 L1062 0 L655 0 L655 143 L775 143 L775 773 L411 0 L74 0 L74 143 L203 143 L203 825 L74 825 L74 968 L482 968 L482 825 L361 825 L361 159 L736 968 L1062 968 L1062 825 L933 825 Z M321 1197 L321 1343 L831 1343 L831 1197 L321 1197 Z " />
<glyph glyph-name="uni04E8" unicode="&#x4e8;" horiz-adv-x="1283" d="M641 -30 Q358 -30 221 192 Q101 386 101 737 Q101 1138 259 1335 Q396 1506 640 1506 Q923 1506 1061 1282 Q1182 1087 1182 737 Q1182 336 1025 141 Q888 -30 641 -30 Z M291 818 L993 818 Q984 1027 918 1160 Q829 1337 642 1343 Q454 1337 366 1160 Q300 1027 291 818 Z M993 671 L291 671 Q300 446 364 317 Q452 139 642 133 Q832 139 919 313 Q989 453 993 671 Z " />
<glyph glyph-name="uni04E9" unicode="&#x4e9;" horiz-adv-x="975" d="M487 997 Q697 997 804 842 Q896 708 896 480 Q896 222 774 88 Q668 -29 488 -29 Q277 -29 170 125 Q79 257 79 482 Q79 742 200 878 Q306 997 487 997 Z M487 851 Q377 851 317 759 Q265 679 257 538 L718 538 Q708 700 642 780 Q583 851 487 851 Z M487 118 Q699 118 718 429 L257 429 Q266 267 332 188 Q390 118 487 118 Z " />
<glyph glyph-name="uni04EE" unicode="&#x4ee;" horiz-adv-x="1186" d="M1191 1330 L1084 1330 L514 0 L239 0 L239 145 L395 145 L522 441 L139 1330 L23 1330 L23 1475 L476 1475 L476 1330 L330 1330 L610 624 L896 1330 L749 1330 L749 1475 L1191 1475 L1191 1330 Z M353 1704 L353 1850 L863 1850 L863 1704 L353 1704 Z " />
<glyph glyph-name="uni04EF" unicode="&#x4ef;" horiz-adv-x="920" d="M929 825 L833 825 L493 -139 Q428 -322 349 -374 Q279 -421 122 -422 L122 -271 Q220 -268 260 -241 Q302 -213 329 -136 L378 5 L84 825 L-13 825 L-13 968 L401 968 L401 827 L259 827 L401 369 Q417 314 444 235 Q454 207 458 193 L464 193 Q470 214 487 267 Q506 324 518 363 L662 827 L517 827 L517 968 L929 968 L929 825 Z M203 1197 L203 1343 L713 1343 L713 1197 L203 1197 Z " />
<glyph glyph-name="uni1E1E" unicode="&#x1e1e;" horiz-adv-x="1085" d="M1019 1475 L1019 1116 L859 1116 L859 1330 L415 1330 L415 824 L816 824 L816 679 L415 679 L415 145 L626 145 L626 0 L101 0 L101 145 L236 145 L236 1330 L101 1330 L101 1475 L1019 1475 Z M488 1877 L688 1877 L688 1670 L488 1670 L488 1877 Z " />
<glyph glyph-name="Wdieresis" unicode="&#x1e84;" horiz-adv-x="1652" d="M1637 1330 L1526 1330 L1266 -6 L1110 -6 L880 945 Q865 1007 834 1181 L830 1201 Q801 1032 779 946 L544 -6 L388 -6 L135 1330 L18 1330 L18 1475 L459 1475 L459 1330 L315 1330 L444 502 Q450 461 469 339 L475 298 Q490 366 503 429 Q511 469 519 502 L757 1486 L904 1486 L1135 502 Q1144 465 1155 414 Q1165 366 1180 302 Q1183 320 1193 377 Q1207 455 1214 502 L1346 1330 L1203 1330 L1203 1475 L1637 1475 L1637 1330 Z M572 1679 L572 1873 L749 1873 L749 1679 L572 1679 Z M920 1679 L920 1873 L1097 1873 L1097 1679 L920 1679 Z " />
<glyph glyph-name="wdieresis" unicode="&#x1e85;" horiz-adv-x="1339" d="M483 0 L310 0 L102 825 L6 825 L6 968 L415 968 L415 825 L268 825 L348 450 Q354 421 369 351 Q389 254 400 197 L405 197 Q430 323 461 437 L601 968 L749 968 L880 462 L893 413 Q927 286 943 197 L948 197 Q973 337 1007 474 L1090 825 L956 825 L956 968 L1347 968 L1347 825 L1241 825 L1029 0 L860 0 L730 508 Q720 549 697 656 Q684 717 677 746 L672 746 Q661 701 630 573 L614 510 L483 0 Z M409 1172 L409 1366 L586 1366 L586 1172 L409 1172 Z M757 1172 L757 1366 L934 1366 L934 1172 L757 1172 Z " />
<glyph glyph-name="uni2007" unicode="&#x2007;" horiz-adv-x="1078" d="" />
<glyph glyph-name="uni2011" unicode="&#x2011;" horiz-adv-x="717" d="M94 472 L94 629 L622 629 L622 472 L94 472 Z " />
<glyph glyph-name="figuredash" unicode="&#x2012;" horiz-adv-x="1024" d="M82 479 L82 629 L942 629 L942 479 L82 479 Z " />
<glyph glyph-name="afii00208" unicode="&#x2015;" horiz-adv-x="1458" d="M94 479 L94 629 L1364 629 L1364 479 L94 479 Z " />
<glyph glyph-name="zerosuperior" unicode="&#x2070;" horiz-adv-x="728" d="M365 1699 Q677 1699 677 1251 Q677 803 364 803 Q51 803 51 1254 Q51 1699 365 1699 Z M365 1569 Q198 1569 198 1253 Q198 1074 245 998 Q285 933 365 933 Q451 933 490.5 1009.5 Q530 1086 530 1251 Q530 1569 365 1569 Z " />
<glyph glyph-name="foursuperior" unicode="&#x2074;" horiz-adv-x="738" d="M690 1030 L560 1030 L560 829 L429 829 L429 1030 L66 1030 L66 1155 L327 1682 L475 1682 L215 1142 L429 1142 L429 1376 L560 1376 L560 1142 L690 1142 L690 1030 Z " />
<glyph glyph-name="fivesuperior" unicode="&#x2075;" horiz-adv-x="750" d="M369 803 Q88 803 79 1058 L219 1058 Q230 926 368 926 Q517 926 517 1078 Q517 1154 477.5 1195.5 Q438 1237 366 1237 Q284 1237 221 1183 L114 1244 L138 1682 L608 1682 L608 1465 L489 1465 L489 1565 L266 1565 L250 1317 Q303 1360 392 1360 Q527 1360 601 1276 Q665 1202 665 1080 Q665 937 579 866 Q504 803 369 803 Z " />
</font>
</svg>
